osu file format v14

[General]
AudioFilename: [AMV]ONEWAYS - The Boy Who Murdered Love.mp3
AudioLeadIn: 0
PreviewTime: 47935
Countdown: 0
SampleSet: Soft
StackLeniency: 0.6
Mode: 0
LetterboxInBreaks: 0
WidescreenStoryboard: 0

[Editor]
Bookmarks: 104495
DistanceSpacing: 1
BeatDivisor: 4
GridSize: 4
TimelineZoom: 1

[Metadata]
Title:The Boy Who Murdered Love
TitleUnicode:The Boy Who Murdered Love
Artist:Diana Vickers
ArtistUnicode:Diana Vickers
Creator:ShadowSoul
Version:SS
Source:
Tags:Songs from the Tainted Cherry Tree Indie pop rock synthpop
BeatmapID:381480
BeatmapSetID:155570

[Difficulty]
HPDrainRate:8
CircleSize:4
OverallDifficulty:8
ApproachRate:8
SliderMultiplier:1.8
SliderTickRate:2

[Events]
//Background and Video events
0,0,"BG.jpg",0,0
Video,0,"[AMV]ONEWAYS - The Boy Who Murdered Love.avi"
//Break Periods
2,70915,76579
//Storyboard Layer 0 (Background)
//Storyboard Layer 1 (Fail)
//Storyboard Layer 2 (Pass)
//Storyboard Layer 3 (Foreground)
//Storyboard Sound Samples

[TimingPoints]
2684,472.44094488189,4,2,3,30,1,0
10243,-100,4,2,3,40,0,0
18274,-100,4,2,3,50,0,0
27487,-100,4,2,3,50,0,0
48038,-80,4,1,3,60,0,1
70715,-100,4,2,3,50,0,0
77329,-100,4,2,3,30,0,0
77565,-100,4,2,3,50,0,0
78746,-100,4,2,3,50,0,0
87959,-100,4,2,3,40,0,0
88432,-100,4,2,3,40,0,0
93628,-100,4,2,3,20,0,0
93865,-100,4,2,3,50,0,0
108038,-200,4,2,3,50,0,0
108510,-80,4,1,3,60,0,1
138746,-100,4,2,3,50,0,0
139455,-100,4,2,3,5,0,0

[Colours]
Combo1 : 245,237,198
Combo2 : 190,103,220
Combo3 : 195,140,99
Combo4 : 208,60,76

[HitObjects]
328,52,2683,6,0,L|384:128,1,90,0|0,0:0|0:0,0:0:0:0:
412,284,3156,1,8,0:0:0:0:
436,196,3392,1,0,0:0:0:0:
348,220,3628,6,0,L|264:256,1,90,0|0,0:0|0:0,0:0:0:0:
112,276,4101,1,8,0:0:0:0:
184,220,4337,1,0,0:0:0:0:
100,188,4573,6,0,P|116:148|112:96,1,90
260,108,5046,1,8,0:0:0:0:
192,48,5282,1,0,0:0:0:0:
336,60,5518,6,0,L|396:132,1,90,0|0,0:0|0:0,0:0:0:0:
288,276,5991,1,8,0:0:0:0:
344,204,6227,1,0,0:0:0:0:
256,196,6463,6,0,L|176:244,1,90,0|0,0:0|0:0,0:0:0:0:
164,152,6935,2,0,L|72:136,1,90,8|0,0:0|0:0,0:0:0:0:
236,104,7408,2,0,L|152:32,1,90,0|0,0:0|0:0,0:0:0:0:
320,128,7880,2,0,L|308:32,1,90,8|0,0:0|0:0,0:0:0:0:
400,40,8353,5,0,0:0:0:0:
464,104,8589,1,0,0:0:0:0:
476,192,8825,1,8,0:0:0:0:
392,164,9061,1,0,0:0:0:0:
408,252,9298,2,0,L|368:340,1,90,0|0,0:0|0:0,0:0:0:0:
232,352,9770,2,0,L|304:288,1,90,8|0,0:0|0:0,0:0:0:0:
288,204,10243,5,2,0:0:0:0:
204,168,10479,1,0,0:0:0:0:
204,168,10597,1,0,0:0:0:0:
204,168,10715,2,0,P|152:200|116:204,1,90,8|0,0:0|0:0,0:0:0:0:
60,140,11187,1,2,0:0:0:0:
60,140,11306,2,0,P|88:96|88:52,1,90,0|0,0:0|0:0,0:0:0:0:
89,59,11660,2,0,L|180:44,1,90,8|0,0:0|0:0,0:0:0:0:
256,88,12132,5,2,0:0:0:0:
340,56,12369,1,0,0:0:0:0:
380,76,12487,1,0,0:0:0:0:
416,100,12605,2,0,P|420:156|440:192,1,90,8|0,0:0|0:0,0:0:0:0:
448,276,13077,5,2,0:0:0:0:
416,308,13195,1,0,0:0:0:0:
376,332,13313,1,0,0:0:0:0:
332,340,13432,1,0,0:0:0:0:
288,332,13550,2,0,L|260:244,1,90,8|0,0:0|0:0,0:0:0:0:
204,176,14022,6,0,L|172:220,1,45,2|0,0:0|0:0,0:0:0:0:
100,164,14376,2,0,L|64:124,1,45,0|8,0:0|0:0,0:0:0:0:
48,44,14731,1,0,0:0:0:0:
136,44,14966,1,2,0:0:0:0:
136,44,15084,2,0,P|180:76|220:80,1,90,0|0,0:0|0:0,0:0:0:0:
214,80,15439,2,0,L|308:44,1,90,8|0,0:0|0:0,0:0:0:0:
344,48,15794,1,0,0:0:0:0:
344,48,15912,5,2,0:0:0:0:
464,156,16148,1,0,0:0:0:0:
316,200,16384,1,8,0:0:0:0:
344,48,16621,1,0,0:0:0:0:
464,156,16857,1,2,0:0:0:0:
316,200,17093,2,0,L|264:276,2,90,2|8|2,0:0|0:0|0:0,0:0:0:0:
316,200,17802,1,4,0:0:0:0:
196,64,18274,6,0,L|136:132,1,90,8|0,0:0|0:0,0:0:0:0:
68,72,18746,2,0,P|48:168|116:220,1,180,2|8,0:0|0:0,0:0:0:0:
156,292,19455,1,0,0:0:0:0:
244,296,19691,2,0,P|268:252|268:208,2,90,2|0|8,0:0|0:0|0:0,0:0:0:0:
320,344,20400,2,0,P|408:296|440:220,1,180,0|8,0:0|0:0,0:0:0:0:
384,156,21109,1,0,0:0:0:0:
428,80,21345,1,8,0:0:0:0:
384,72,21463,1,2,0:0:0:0:
340,84,21581,6,0,L|264:132,1,90,0|0,0:0|0:0,0:0:0:0:
216,36,21935,1,0,0:0:0:0:
232,48,22054,2,0,L|140:72,1,90,8|0,0:0|0:0,0:0:0:0:
68,116,22526,1,2,0:0:0:0:
112,196,22762,1,0,0:0:0:0:
148,280,22998,2,0,L|72:356,1,90,8|0,0:0|0:0,0:0:0:0:
188,212,23353,1,0,0:0:0:0:
204,208,23471,2,0,L|256:128,1,90,2|0,0:0|0:0,0:0:0:0:
248,288,23943,1,8,0:0:0:0:
324,336,24180,1,0,0:0:0:0:
412,328,24416,2,0,P|436:288|444:240,1,90,0|8,0:0|0:0,0:0:0:0:
348,240,24770,1,0,0:0:0:0:
356,252,24888,2,0,L|356:160,1,90,0|8,0:0|0:0,0:0:0:0:
356,162,25243,1,0,0:0:0:0:
356,162,25361,1,0,0:0:0:0:
312,84,25597,1,0,0:0:0:0:
228,68,25833,6,0,L|156:128,1,90,8|0,0:0|0:0,0:0:0:0:
240,184,26187,1,0,0:0:0:0:
232,176,26306,2,0,P|216:268|168:340,1,180,2|8,0:0|0:0,0:0:0:0:
120,264,27014,2,0,P|228:268|300:296,1,180,2|0,0:0|0:0,0:0:0:0:
384,304,27723,1,8,0:0:0:0:
444,236,27959,1,0,0:0:0:0:
360,208,28195,1,2,0:0:0:0:
428,148,28432,2,0,L|360:88,1,90,8|0,0:0|0:0,0:0:0:0:
272,112,28904,1,8,0:0:0:0:
240,144,29022,1,2,2:0:0:0:
232,188,29140,1,0,0:0:0:0:
256,280,29376,6,0,P|268:328|292:364,2,90,0|8|0,0:0|0:0|0:0,0:0:0:0:
164,240,29967,1,0,0:0:0:0:
172,248,30085,2,0,L|88:292,1,90,2|0,0:0|0:0,0:0:0:0:
128,164,30558,2,0,L|32:176,1,90,8|0,0:0|0:0,0:0:0:0:
200,112,31030,2,0,L|144:40,1,90,2|0,0:0|0:0,0:0:0:0:
289,114,31502,2,0,L|244:192,1,90,8|0,0:0|0:0,0:0:0:0:
320,240,31975,1,2,0:0:0:0:
404,208,32211,5,0,0:0:0:0:
388,296,32447,1,8,0:0:0:0:
304,328,32684,1,0,0:0:0:0:
268,296,32802,1,0,0:0:0:0:
232,276,32920,2,0,P|224:184|176:112,2,180,2|8|2,0:0|0:0|0:0,0:0:0:0:
140,280,34101,1,0,0:0:0:0:
92,204,34337,1,8,0:0:0:0:
84,116,34573,1,0,0:0:0:0:
128,40,34809,2,0,L|216:64,1,90,2|0,0:0|0:0,0:0:0:0:
288,184,35282,2,0,L|280:276,1,90,8|0,0:0|0:0,0:0:0:0:
128,248,35754,2,0,L|72:172,1,90,2|0,0:0|0:0,0:0:0:0:
252,156,36227,5,8,0:0:0:0:
292,236,36463,1,2,0:0:0:0:
300,280,36581,1,0,0:0:0:0:
284,324,36699,2,0,L|192:352,1,90,2|0,0:0|0:0,0:0:0:0:
168,264,37172,2,0,P|140:228|100:208,1,90,8|0,0:0|0:0,0:0:0:0:
52,132,37644,1,2,0:0:0:0:
120,76,37880,1,0,0:0:0:0:
212,76,38117,1,8,0:0:0:0:
292,116,38353,6,0,L|380:92,1,90,0|2,1:0|0:0,0:0:0:0:
456,192,38825,2,0,L|360:192,1,90,0|2,1:0|0:0,0:0:0:0:
272,276,39180,1,0,0:0:0:0:
292,268,39298,2,0,L|378:291,1,90,0|2,1:0|0:0,0:0:0:0:
220,352,39770,5,0,0:0:0:0:
164,280,40006,1,8,0:0:0:0:
168,188,40243,1,0,0:0:0:0:
236,128,40479,2,0,P|328:104|404:48,2,180,2|8|2,0:0|0:0|0:0,0:0:0:0:
152,96,41660,1,0,0:0:0:0:
68,68,41896,2,0,P|52:120|52:160,1,90,8|0,0:0|0:0,0:0:0:0:
64,200,42250,1,0,0:0:0:0:
80,240,42369,2,0,P|160:292|200:376,1,180,2|8,0:0|0:0,0:0:0:0:
108,364,43077,2,0,P|156:284|240:240,1,180,2|8,0:0|0:0,0:0:0:0:
320,260,43786,1,8,0:0:0:0:
388,320,44022,1,0,0:0:0:0:
408,232,44258,6,0,L|460:156,1,90,0|2,1:0|0:0,0:0:0:0:
312,24,44731,2,0,L|360:104,1,90,8|2,1:0|0:0,0:0:0:0:
153,101,45203,2,0,L|200:24,1,90,0|2,1:0|0:0,0:0:0:0:
53,157,45675,2,0,L|104:232,1,90,8|2,1:0|0:0,0:0:0:0:
256,328,46148,5,0,1:0:0:0:
412,120,46384,1,2,0:0:0:0:
424,328,46621,5,0,0:0:0:0:
180,112,46857,1,0,0:0:0:0:
336,204,47093,5,0,1:0:0:0:
96,308,47329,1,2,0:0:0:0:
116,120,47565,1,8,1:0:0:0:
116,120,47684,1,0,0:0:0:0:
116,120,47802,1,2,0:0:0:0:
256,152,48038,5,4,0:0:0:0:
356,104,48274,1,0,0:0:0:0:
356,216,48510,1,8,0:0:0:0:
256,264,48746,1,0,0:0:0:0:
152,216,48983,2,0,P|96:184|40:176,1,112.5,2|0,0:0|0:0,0:0:0:0:
68,288,49455,1,8,0:0:0:0:
172,332,49691,1,0,0:0:0:0:
256,264,49928,1,2,0:0:0:0:
272,140,50164,5,0,0:0:0:0:
408,40,50400,2,0,L|464:140,1,112.5,8|0,0:0|0:0,0:0:0:0:
432,244,50754,1,0,0:0:0:0:
432,244,50872,1,2,0:0:0:0:
272,344,51109,1,2,0:0:0:0:
272,140,51345,1,8,0:0:0:0:
312,240,51581,1,2,0:0:0:0:
312,240,51699,1,0,0:0:0:0:
312,240,51817,6,0,L|196:260,1,112.5,4|0,0:0|0:0,0:0:0:0:
28,200,52290,2,0,L|136:152,1,112.5,8|0,0:0|0:0,0:0:0:0:
352,80,52644,1,0,0:0:0:0:
356,96,52762,2,0,L|252:48,1,112.5,8|0,0:0|0:0,0:0:0:0:
224,184,53235,2,0,L|152:276,1,112.5,8|0,0:0|0:0,0:0:0:0:
448,324,53589,1,0,0:0:0:0:
456,336,53707,2,0,L|344:320,1,112.5,8|0,0:0|0:0,0:0:0:0:
224,184,54180,1,2,0:0:0:0:
480,124,54416,1,2,0:0:0:0:
320,24,54652,1,8,0:0:0:0:
360,128,54889,1,2,0:0:0:0:
360,128,55124,2,0,L|252:100,1,112.5,2|0,0:0|0:0,0:0:0:0:
208,76,55479,1,0,0:0:0:0:
172,32,55597,1,4,0:0:0:0:
76,320,56069,6,0,P|92:264|92:208,1,112.5,8|0,0:0|0:0,0:0:0:0:
164,112,56424,1,0,0:0:0:0:
180,120,56542,2,0,L|208:232,1,112.5,2|0,0:0|0:0,0:0:0:0:
356,68,56896,1,0,0:0:0:0:
372,68,57014,2,0,L|288:148,1,112.5,8|0,0:0|0:0,0:0:0:0:
476,248,57369,1,0,0:0:0:0:
480,264,57487,2,0,L|368:244,1,112.5,2|0,0:0|0:0,0:0:0:0:
232,292,57959,1,8,0:0:0:0:
78,250,58195,1,0,0:0:0:0:
71,93,58432,1,2,0:0:0:0:
218,37,58668,1,0,0:0:0:0:
218,37,58786,1,0,0:0:0:0:
218,37,58904,1,8,0:0:0:0:
316,159,59140,1,0,0:0:0:0:
256,192,59258,12,4,60321,0:0:0:0:
76,64,60558,6,0,L|176:116,1,112.5,0|8,0:0|0:0,0:0:0:0:
436,320,61030,2,0,L|336:268,1,112.5,0|8,0:0|0:0,0:0:0:0:
175,115,61502,5,2,0:0:0:0:
336,268,61739,1,4,0:0:0:0:
100,228,61974,1,0,0:0:0:0:
352,108,62210,1,4,0:0:0:0:
88,72,62447,1,0,0:0:0:0:
420,288,62684,1,8,0:0:0:0:
204,32,62920,5,0,0:0:0:0:
256,52,63038,1,0,0:0:0:0:
296,88,63156,2,0,P|408:140|508:136,1,225,4|8,0:0|0:0,0:0:0:0:
448,44,63865,2,0,P|384:140|372:252,1,225,4|0,0:0|0:0,0:0:0:0:
304,336,64573,1,8,0:0:0:0:
192,332,64809,5,0,0:0:0:0:
192,332,64928,1,0,0:0:0:0:
192,332,65046,2,0,L|124:240,1,112.5,4|0,0:0|0:0,0:0:0:0:
32,180,65518,2,0,L|128:120,1,112.5,8|0,0:0|0:0,0:0:0:0:
152,12,65991,2,0,L|244:88,1,112.5,0|0,0:0|0:0,0:0:0:0:
348,60,66463,5,8,0:0:0:0:
348,60,66581,1,0,0:0:0:0:
348,60,66699,2,0,P|372:176|436:260,1,225,4|0,0:0|0:0,0:0:0:0:
356,340,67408,1,8,0:0:0:0:
244,344,67644,2,0,L|68:200,1,225,0|0,0:0|0:0,0:0:0:0:
256,192,68353,12,4,70715,0:0:0:0:
160,124,77329,6,0,P|104:96|80:64,2,90,2|2|2,0:0|0:0|0:0,0:0:0:0:
224,48,78038,2,0,P|264:124|232:208,1,180,2|0,0:0|0:0,0:0:0:0:
144,224,78746,5,8,0:0:0:0:
180,308,78983,1,0,0:0:0:0:
268,304,79219,2,0,P|348:256|432:248,1,180,2|8,0:0|0:0,0:0:0:0:
412,160,79928,1,0,0:0:0:0:
360,88,80164,2,0,P|400:64|432:32,1,90,2|0,0:0|0:0,0:0:0:0:
256,88,80518,1,0,0:0:0:0:
272,96,80636,2,0,L|188:132,2,90,8|2|0,0:0|0:0|0:0,0:0:0:0:
128,64,81345,1,8,0:0:0:0:
64,128,81581,1,0,0:0:0:0:
76,216,81817,1,8,0:0:0:0:
108,248,81935,1,2,0:0:0:0:
124,292,82054,6,0,L|208:332,1,90,0|0,0:0|0:0,0:0:0:0:
256,252,82526,1,8,0:0:0:0:
304,328,82762,1,0,0:0:0:0:
429,210,82998,2,0,L|348:248,1,90,2|0,0:0|0:0,0:0:0:0:
436,120,83471,1,8,0:0:0:0:
313,60,83707,2,0,L|348:144,1,90,0|0,0:0|0:0,0:0:0:0:
180,156,84061,1,0,0:0:0:0:
164,144,84180,2,0,L|198:60,1,90,0|8,0:0|0:0,0:0:0:0:
108,52,84652,1,0,0:0:0:0:
52,124,84888,5,2,0:0:0:0:
68,212,85124,2,0,P|80:256|76:316,2,90,8|0|8,0:0|0:0|0:0,0:0:0:0:
68,212,85715,1,2,0:0:0:0:
68,212,85833,1,0,0:0:0:0:
52,124,86069,1,0,0:0:0:0:
108,52,86306,5,8,0:0:0:0:
148,252,86542,1,0,0:0:0:0:
156,148,86778,2,0,L|244:168,1,90,2|0,0:0|0:0,0:0:0:0:
264,128,87132,1,0,0:0:0:0:
320,120,87250,1,8,0:0:0:0:
400,164,87487,1,0,0:0:0:0:
324,220,87723,2,0,L|369:297,1,90,2|0,0:0|0:0,0:0:0:0:
208,236,88195,1,8,0:0:0:0:
184,344,88432,2,0,L|272:304,1,90,0|2,0:0|0:0,0:0:0:0:
148,172,88904,1,0,0:0:0:0:
56,228,89140,1,8,0:0:0:0:
92,256,89258,1,0,0:0:0:0:
132,280,89376,1,0,0:0:0:0:
156,312,89495,1,0,0:0:0:0:
184,344,89613,1,2,0:0:0:0:
428,92,90085,6,0,L|392:176,1,90,8|0,0:0|0:0,0:0:0:0:
300,120,90439,1,0,0:0:0:0:
312,136,90558,2,0,P|218:126|152:50,1,180,2|8,0:0|0:0,0:0:0:0:
248,48,91266,2,0,P|252:144|200:216,1,180,0|0,0:0|0:0,0:0:0:0:
116,224,91975,1,8,0:0:0:0:
44,168,92211,1,0,0:0:0:0:
272,336,92684,6,0,L|184:292,2,90,0|8|0,0:0|0:0|0:0,0:0:0:0:
308,312,93274,1,0,0:0:0:0:
356,308,93392,2,0,P|400:224|388:132,1,180,2|8,0:0|0:0,0:0:0:0:
324,84,94101,1,0,0:0:0:0:
256,24,94337,2,0,P|224:56|160:76,1,90,2|0,0:0|0:0,0:0:0:0:
92,64,94809,1,8,0:0:0:0:
36,132,95046,2,0,P|76:216|68:308,1,180,0|0,0:0|0:0,0:0:0:0:
152,340,95754,1,8,0:0:0:0:
228,288,95991,2,0,L|404:232,1,180,0|0,0:0|0:0,0:0:0:0:
420,192,96581,1,0,0:0:0:0:
420,148,96699,5,8,0:0:0:0:
352,92,96935,1,0,0:0:0:0:
304,16,97172,2,0,P|232:68|136:80,1,180,2|8,0:0|0:0,0:0:0:0:
60,112,97880,1,0,0:0:0:0:
116,184,98117,2,0,P|104:236|72:272,2,90,2|0|8,0:0|0:0|0:0,0:0:0:0:
192,136,98825,6,0,L|268:88,1,90,0|2,1:0|0:0,0:0:0:0:
380,176,99180,1,0,0:0:0:0:
392,192,99298,2,0,L|300:192,1,90,0|2,1:0|0:0,0:0:0:0:
180,268,99652,1,0,0:0:0:0:
192,248,99770,2,0,L|268:296,1,90,0|2,1:0|0:0,0:0:0:0:
360,288,100243,5,0,0:0:0:0:
440,248,100479,1,8,0:0:0:0:
468,164,100715,1,0,0:0:0:0:
448,120,100833,1,0,0:0:0:0:
452,76,100951,2,0,L|272:40,1,180,2|8,0:0|0:0,0:0:0:0:
188,68,101660,1,0,0:0:0:0:
108,112,101896,2,0,P|116:152|112:200,1,90,2|0,0:0|0:0,0:0:0:0:
64,276,102369,1,8,0:0:0:0:
152,276,102605,2,0,L|336:292,1,180,0|0,0:0|0:0,0:0:0:0:
408,248,103313,1,8,0:0:0:0:
444,164,103550,1,0,0:0:0:0:
208,60,104022,6,0,P|256:68|304:56,2,90,0|8|0,0:0|0:0|0:0,0:0:0:0:
104,164,104731,2,0,L|52:240,1,90,0|2,1:0|0:0,0:0:0:0:
200,372,105204,2,0,L|152:292,1,90,8|2,1:0|0:0,0:0:0:0:
359,295,105676,2,0,L|312:372,1,90,0|2,1:0|0:0,0:0:0:0:
459,239,106148,2,0,L|408:164,1,90,8|2,1:0|0:0,0:0:0:0:
256,68,106621,5,0,1:0:0:0:
100,276,106857,1,2,0:0:0:0:
88,68,107094,5,0,0:0:0:0:
332,284,107330,1,0,0:0:0:0:
176,192,107566,5,0,1:0:0:0:
416,88,107802,1,2,0:0:0:0:
396,276,108038,1,8,1:0:0:0:
396,276,108157,1,0,0:0:0:0:
396,276,108275,1,2,0:0:0:0:
256,244,108511,5,4,0:0:0:0:
156,292,108747,1,0,0:0:0:0:
156,180,108983,1,8,0:0:0:0:
256,132,109219,1,0,0:0:0:0:
360,180,109456,2,0,P|416:212|472:220,1,112.5,2|0,0:0|0:0,0:0:0:0:
444,108,109928,1,8,0:0:0:0:
340,64,110164,1,0,0:0:0:0:
256,132,110401,1,2,0:0:0:0:
240,256,110637,5,0,0:0:0:0:
104,356,110873,2,0,L|48:256,1,112.5,8|0,0:0|0:0,0:0:0:0:
80,152,111227,1,0,0:0:0:0:
80,152,111345,1,2,0:0:0:0:
240,52,111582,1,2,0:0:0:0:
240,256,111818,1,8,0:0:0:0:
200,156,112054,1,2,0:0:0:0:
200,156,112172,1,0,0:0:0:0:
200,156,112290,6,0,L|316:136,1,112.5,4|0,0:0|0:0,0:0:0:0:
484,196,112763,2,0,L|376:244,1,112.5,8|0,0:0|0:0,0:0:0:0:
160,316,113117,1,0,0:0:0:0:
156,300,113235,2,0,L|260:348,1,112.5,8|0,0:0|0:0,0:0:0:0:
288,212,113708,2,0,L|360:120,1,112.5,8|0,0:0|0:0,0:0:0:0:
64,72,114062,1,0,0:0:0:0:
56,60,114180,2,0,L|168:76,1,112.5,8|0,0:0|0:0,0:0:0:0:
288,212,114653,1,2,0:0:0:0:
32,272,114889,1,2,0:0:0:0:
192,372,115125,1,8,0:0:0:0:
152,268,115362,1,2,0:0:0:0:
152,268,115597,2,0,L|260:296,1,112.5,2|0,0:0|0:0,0:0:0:0:
304,320,115952,1,0,0:0:0:0:
340,364,116070,1,4,0:0:0:0:
436,76,116542,6,0,P|420:132|420:188,1,112.5,8|0,0:0|0:0,0:0:0:0:
348,284,116897,1,0,0:0:0:0:
332,276,117015,2,0,L|304:164,1,112.5,2|0,0:0|0:0,0:0:0:0:
156,328,117369,1,0,0:0:0:0:
140,328,117487,2,0,L|224:248,1,112.5,8|0,0:0|0:0,0:0:0:0:
36,148,117842,1,0,0:0:0:0:
32,132,117960,2,0,L|144:152,1,112.5,2|0,0:0|0:0,0:0:0:0:
280,104,118432,1,8,0:0:0:0:
434,146,118668,1,0,0:0:0:0:
441,303,118905,1,2,0:0:0:0:
294,359,119141,1,0,0:0:0:0:
294,359,119259,1,0,0:0:0:0:
294,359,119377,1,8,0:0:0:0:
196,237,119613,1,0,0:0:0:0:
256,192,119731,12,4,120794,0:0:0:0:
436,332,121031,6,0,L|336:280,1,112.5,0|8,0:0|0:0,0:0:0:0:
76,76,121503,2,0,L|176:128,1,112.5,0|8,0:0|0:0,0:0:0:0:
337,281,121975,5,2,0:0:0:0:
176,128,122212,1,4,0:0:0:0:
412,168,122447,1,0,0:0:0:0:
160,288,122683,1,4,0:0:0:0:
424,324,122920,1,0,0:0:0:0:
92,108,123157,1,8,0:0:0:0:
308,364,123393,5,0,0:0:0:0:
256,344,123511,1,0,0:0:0:0:
216,308,123629,2,0,P|104:256|4:260,1,225,4|8,0:0|0:0,0:0:0:0:
64,352,124338,2,0,P|128:256|140:144,1,225,4|0,0:0|0:0,0:0:0:0:
208,60,125046,1,8,0:0:0:0:
320,64,125282,5,0,0:0:0:0:
320,64,125401,1,0,0:0:0:0:
320,64,125519,2,0,L|388:156,1,112.5,4|0,0:0|0:0,0:0:0:0:
480,216,125991,2,0,L|384:276,1,112.5,8|0,0:0|0:0,0:0:0:0:
360,384,126464,2,0,L|268:308,1,112.5,0|0,0:0|0:0,0:0:0:0:
164,336,126936,5,8,0:0:0:0:
164,336,127054,1,0,0:0:0:0:
164,336,127172,2,0,P|140:220|76:136,1,225,4|0,0:0|0:0,0:0:0:0:
156,56,127881,1,8,0:0:0:0:
268,52,128117,6,0,L|444:196,1,225,0|0,0:0|0:0,0:0:0:0:
456,300,128825,6,0,L|352:256,1,112.5,8|0,0:0|0:0,0:0:0:0:
288,332,129298,2,0,P|256:288|248:232,1,112.5,2|0,0:0|0:0,0:0:0:0:
168,124,129770,2,0,L|152:236,1,112.5,8|0,0:0|0:0,0:0:0:0:
68,340,130243,6,0,P|60:236|8:128,2,225,2|0|4,0:0|0:0|0:0,0:0:0:0:
312,200,131424,1,8,0:0:0:0:
216,348,131660,5,4,0:0:0:0:
168,124,131896,1,8,0:0:0:0:
368,312,132132,5,4,0:0:0:0:
168,240,132369,1,8,0:0:0:0:
288,96,132605,5,4,0:0:0:0:
68,340,132841,1,8,0:0:0:0:
68,152,133077,6,0,L|48:40,1,112.5,4|8,0:0|0:0,0:0:0:0:
216,140,133550,2,0,L|328:120,1,112.5,4|8,0:0|0:0,0:0:0:0:
216,272,134022,2,0,L|236:384,1,112.5,4|8,0:0|0:0,0:0:0:0:
408,328,134495,1,4,0:0:0:0:
424,188,134731,5,8,0:0:0:0:
424,188,134849,1,0,0:0:0:0:
424,188,134967,2,0,P|336:116|312:12,1,225,4|8,0:0|0:0,0:0:0:0:
432,64,135676,2,0,L|232:168,1,225,0|0,0:0|0:0,0:0:0:0:
60,144,136384,5,8,0:0:0:0:
264,256,136621,1,0,0:0:0:0:
76,288,136857,5,8,0:0:0:0:
340,184,137093,1,0,0:0:0:0:
12,228,137329,5,8,0:0:0:0:
348,276,137565,1,0,0:0:0:0:
188,156,137802,2,0,P|300:116|372:32,1,225,8|2,0:0|0:0,0:0:0:0:
460,188,138746,1,4,0:0:0:0:
