osu file format v14

[General]
AudioFilename: audio.mp3
AudioLeadIn: 0
PreviewTime: 172703
Countdown: 0
SampleSet: Normal
StackLeniency: 0.2
Mode: 1
LetterboxInBreaks: 0
WidescreenStoryboard: 0

[Editor]
Bookmarks: 85446,146246,205954,238832,292178,319127,365280,400758
DistanceSpacing: 1.4
BeatDivisor: 4
GridSize: 32
TimelineZoom: 2.1

[Metadata]
Title:Nightmare Odyssey / Invasion of Amorphous Trepidation
TitleUnicode:Nightmare Odyssey / Invasion of Amorphous Trepidation
Artist:Diabolic Phantasma
ArtistUnicode:Diabolic Phantasma
Creator:Vulkin
Version:Asymmetry of Identification
Source:東方星蓮船 ~ Undefined Fantastic Object.
Tags:DBPS-004 YAMATO-THE-200 EUGEN・SCARLET 淳哉 of Death Beth Reitaisai 14 博麗神社例大祭 東方Project Touhou Star Lotus Ship Seirensen Hakurei Jinja Reitaisai Annual Shrine Grand Festival Symphonic Death Metal 夜空のユーフォーロマンス Yozora no UFO Romance In the Night Sky Extra Stage Boss 平安のエイリアン Heian no Alien 封獣 ぬえ Houjuu Nue (Introduction) Mayuzumi Sayaka
BeatmapID:1815460
BeatmapSetID:868582

[Difficulty]
HPDrainRate:4
CircleSize:5
OverallDifficulty:9
ApproachRate:10
SliderMultiplier:1.4
SliderTickRate:1

[Events]
//Background and Video events
0,0,"nue_houjuu_by_justrukia-dacn3qh(edit).jpg",0,0
//Break Periods
//Storyboard Layer 0 (Background)
//Storyboard Layer 1 (Fail)
//Storyboard Layer 2 (Pass)
//Storyboard Layer 3 (Foreground)
//Storyboard Sound Samples

[TimingPoints]
21485,500,4,1,0,20,1,0
33485,487.80487804878,4,1,0,20,1,0
37468,487.80487804878,4,1,0,20,1,0
37955,500,4,1,0,20,1,0
38788,487.80487804878,4,1,0,20,1,0
39438,483.870967741935,4,1,0,20,1,0
40083,476.190476190476,4,1,0,20,1,0
40400,447.761194029851,4,1,0,20,1,0
40511,428.571428571429,4,1,0,20,1,0
42225,422.535211267606,4,1,0,20,1,0
43070,425.230333097094,4,1,0,20,1,0
43920,360.36036036036,4,1,0,20,1,0
44640,357.142857142857,4,1,0,20,1,0
45354,289.855072463768,4,1,0,20,1,0
45933,333.333333333333,4,1,0,20,1,0
46599,326.086956521739,4,1,0,20,1,0
47251,340.909090909091,4,1,0,20,1,0
48311,288.288288288288,4,1,0,20,1,0
48599,324.324324324324,4,1,0,20,1,0
48639,324.324324324324,4,1,0,20,1,0
53924,324.324324324324,4,1,0,20,1,0
55329,324.324324324324,4,1,0,20,1,0
59869,324.324324324324,4,1,0,20,1,0
59896,377.358490566038,4,1,0,20,1,0
62536,333.333333333333,4,1,0,20,1,0
65202,344.036697247706,4,1,0,20,1,0
69650,558.139534883721,4,1,0,70,1,0
71324,547.945205479452,4,1,0,70,1,8
71871,539.568345323741,4,1,0,70,1,0
74029,550.45871559633,4,1,0,70,1,0
75680,555.555555555556,4,1,0,70,1,8
76235,535.714285714286,4,1,0,70,1,0
78377,512.820512820513,4,1,0,70,1,0
78889,504.201680672269,4,1,0,70,1,8
79393,509.337860780985,4,1,0,70,1,8
79902,508.474576271186,4,1,0,70,1,8
80410,431.654676258993,4,1,0,70,1,0
80625,454.545454545455,4,1,0,70,1,8
80852,480,4,1,0,70,1,8
81332,452.830188679245,4,1,0,70,1,8
81784,461.538461538462,4,1,0,70,1,8
82245,447.761194029851,4,1,0,70,1,0
82692,421.052631578947,4,1,0,70,1,8
83113,425.531914893617,4,1,0,70,1,8
83538,405.405405405405,4,1,0,70,1,8
83943,397.350993377483,4,1,0,70,1,0
84340,392.156862745098,4,1,0,70,1,8
84732,387.096774193548,4,1,0,70,1,8
85446,200,4,1,0,70,1,0
91846,-100,4,1,0,70,0,1
104646,-100,4,1,0,20,0,0
106246,-100,4,1,0,60,0,0
171646,-103.092783505155,4,1,0,70,0,0
171696,-104.166666666667,4,1,0,70,0,0
171746,-105.263157894737,4,1,0,70,0,0
171792,-106.382978723404,4,1,0,70,0,0
171846,214.285714285714,4,1,0,70,1,0
172381,-101.010101010101,4,1,0,70,0,0
172435,-102.040816326531,4,1,0,70,0,0
172488,-103.092783505155,4,1,0,70,0,0
172542,-104.166666666667,4,1,0,70,0,0
172596,-105.263157894737,4,1,0,70,0,0
172645,-106.382978723404,4,1,0,70,0,0
172703,231.21387283237,3,1,0,70,1,1
183107,-100,3,1,0,70,0,0
183801,230.769230769231,3,1,0,70,1,1
205954,352.941176470588,4,1,0,70,1,0
205954,-65.359477124183,4,1,0,70,0,0
206130,-100,4,1,0,70,0,0
207365,350.877192982456,4,1,0,70,1,0
208768,333.333333333333,4,1,0,70,1,0
211434,315.789473684211,4,1,0,70,1,0
213644,303.030303030303,4,1,0,70,1,0
215765,287.081339712919,4,1,0,70,1,0
218061,256.410256410256,4,1,0,70,1,0
219086,244.897959183673,4,1,0,70,1,0
220065,222.222222222222,4,1,0,70,1,0
220953,214.285714285714,4,1,0,70,1,0
221596,215.827338129496,4,1,0,70,1,0
222459,222.222222222222,4,1,0,70,1,0
223347,218.978102189781,4,1,0,70,1,0
224222,202.702702702703,4,1,0,70,1,0
225032,200,4,1,0,70,1,0
228032,200,4,1,0,70,1,0
229632,-100,4,1,0,70,0,1
239232,-100,4,1,0,70,0,0
288232,217.391304347826,4,1,0,70,1,8
288232,-91.743119266055,4,1,0,70,0,8
288449,-100,4,1,0,70,0,8
288884,230.769230769231,4,1,0,70,1,0
289807,252.100840336134,4,1,0,70,1,0
289807,-90.9090909090909,4,1,0,70,0,0
289933,-100,4,1,0,70,0,0
290815,340.909090909091,4,1,0,70,1,0
290815,-74.0740740740741,4,1,0,70,0,0
290985,-81.3008130081301,4,1,0,70,0,0
291326,-89.2857142857143,4,1,0,70,0,0
291667,-100,4,1,0,70,0,0
292178,300,4,1,0,70,1,0
310178,272.727272727273,4,1,0,70,1,0
311268,250,4,1,0,70,1,0
315268,244.897959183673,4,1,0,70,1,0
317227,237.623762376238,4,1,0,70,1,0
318177,-97.0873786407767,4,1,0,70,0,0
319127,230.769230769231,4,1,0,70,1,0
319127,-100,4,1,0,80,0,1
326511,-100,4,1,0,80,0,0
328357,-100,4,1,0,80,0,1
365280,260.869565217391,4,1,0,70,1,0
365280,-88.4955752212389,4,1,0,70,0,0
365801,-100,4,1,0,70,0,0

[HitObjects]
256,192,69650,5,8,0:0:0:0:
256,192,69929,1,8,0:0:0:0:
256,192,70208,1,8,0:0:0:0:
256,192,70766,1,8,0:0:0:0:
256,192,71597,1,0,0:0:0:0:
256,192,71871,1,8,0:0:0:0:
256,192,74029,1,8,0:0:0:0:
256,192,74304,1,8,0:0:0:0:
256,192,74579,1,8,0:0:0:0:
256,192,75129,1,8,0:0:0:0:
256,192,75957,1,0,0:0:0:0:
256,192,76235,1,8,0:0:0:0:
256,192,78377,1,8,0:0:0:0:
256,192,78633,1,8,0:0:0:0:
256,192,78889,1,8,0:0:0:0:
256,192,79393,1,8,0:0:0:0:
256,192,79902,1,0,0:0:0:0:
256,192,80410,1,8,0:0:0:0:
256,192,80625,1,8,0:0:0:0:
256,192,80852,1,8,0:0:0:0:
256,192,81332,1,8,0:0:0:0:
256,192,81784,1,0,0:0:0:0:
256,192,82245,1,8,0:0:0:0:
256,192,82468,1,8,0:0:0:0:
256,192,82692,1,0,0:0:0:0:
256,192,83113,1,8,0:0:0:0:
256,192,83325,1,8,0:0:0:0:
256,192,83538,1,8,0:0:0:0:
256,192,83740,1,0,0:0:0:0:
256,192,83943,1,8,0:0:0:0:
256,192,84141,1,8,0:0:0:0:
256,192,84341,1,0,0:0:0:0:
256,192,84732,1,8,0:0:0:0:
256,192,84925,1,0,0:0:0:0:
256,192,85119,1,8,0:0:0:0:
256,192,85446,5,12,0:0:0:0:
256,192,85546,1,4,0:0:0:0:
256,192,85646,1,4,0:0:0:0:
256,192,85846,1,12,0:0:0:0:
256,192,86046,1,12,0:0:0:0:
256,192,86246,1,12,0:0:0:0:
256,192,86646,1,8,0:0:0:0:
256,192,86696,1,8,0:0:0:0:
256,192,86746,1,0,0:0:0:0:
256,192,86796,1,0,0:0:0:0:
256,192,86846,1,8,0:0:0:0:
256,192,86896,1,8,0:0:0:0:
256,192,86946,1,8,0:0:0:0:
256,192,86996,1,0,0:0:0:0:
256,192,87046,1,8,0:0:0:0:
256,192,87246,1,8,0:0:0:0:
256,192,87296,1,0,0:0:0:0:
256,192,87446,1,0,0:0:0:0:
256,192,87546,1,0,0:0:0:0:
256,192,87646,1,0,0:0:0:0:
256,192,87746,1,0,0:0:0:0:
256,192,87846,1,8,0:0:0:0:
256,192,87946,1,8,0:0:0:0:
256,192,88046,1,8,0:0:0:0:
256,192,88146,1,8,0:0:0:0:
256,192,88246,1,0,0:0:0:0:
256,192,88296,1,0,0:0:0:0:
256,192,88346,1,0,0:0:0:0:
256,192,88396,1,0,0:0:0:0:
256,192,88446,1,0,0:0:0:0:
256,192,88496,1,0,0:0:0:0:
256,192,88546,1,0,0:0:0:0:
256,192,88596,1,0,0:0:0:0:
256,192,88646,1,8,0:0:0:0:
256,192,89046,1,8,0:0:0:0:
256,192,89146,1,8,0:0:0:0:
256,192,89246,1,8,0:0:0:0:
256,192,89446,1,8,0:0:0:0:
256,192,89646,1,8,0:0:0:0:
256,192,89846,1,0,0:0:0:0:
256,192,90046,1,0,0:0:0:0:
256,192,90096,1,0,0:0:0:0:
256,192,90146,1,0,0:0:0:0:
256,192,90196,1,0,0:0:0:0:
256,192,90246,1,8,0:0:0:0:
256,192,90296,1,8,0:0:0:0:
256,192,90346,1,8,0:0:0:0:
256,192,90396,1,0,0:0:0:0:
256,192,90446,1,8,0:0:0:0:
256,192,90496,1,8,0:0:0:0:
256,192,90546,1,8,0:0:0:0:
256,192,90596,1,0,0:0:0:0:
256,192,90646,1,8,0:0:0:0:
256,192,90696,1,8,0:0:0:0:
256,192,90746,1,8,0:0:0:0:
256,192,90796,1,8,0:0:0:0:
256,192,90846,1,8,0:0:0:0:
256,192,90896,1,0,0:0:0:0:
256,192,90946,1,0,0:0:0:0:
256,192,90996,1,0,0:0:0:0:
256,192,91046,1,8,0:0:0:0:
256,192,91246,1,8,0:0:0:0:
256,192,91446,1,0,0:0:0:0:
256,192,91496,1,0,0:0:0:0:
256,192,91546,1,0,0:0:0:0:
256,192,91646,1,0,0:0:0:0:
256,192,91746,1,0,0:0:0:0:
256,192,91846,1,8,0:0:0:0:
256,192,91896,1,0,0:0:0:0:
256,192,91946,1,8,0:0:0:0:
256,192,92046,1,0,0:0:0:0:
256,192,92146,1,8,0:0:0:0:
256,192,92246,1,8,0:0:0:0:
256,192,92346,1,8,0:0:0:0:
256,192,92396,1,8,0:0:0:0:
256,192,92446,1,0,0:0:0:0:
256,192,92546,1,8,0:0:0:0:
256,192,92596,1,0,0:0:0:0:
256,192,92646,1,8,0:0:0:0:
256,192,92746,1,0,0:0:0:0:
256,192,92846,1,0,0:0:0:0:
256,192,92946,1,0,0:0:0:0:
256,192,93046,1,8,0:0:0:0:
256,192,93146,1,0,0:0:0:0:
256,192,93246,1,8,0:0:0:0:
256,192,93296,1,8,0:0:0:0:
256,192,93346,1,0,0:0:0:0:
256,192,93446,1,8,0:0:0:0:
256,192,93496,1,8,0:0:0:0:
256,192,93546,1,0,0:0:0:0:
256,192,93646,1,8,0:0:0:0:
256,192,93746,1,8,0:0:0:0:
256,192,93846,1,8,0:0:0:0:
256,192,93946,1,0,0:0:0:0:
256,192,94046,1,8,0:0:0:0:
256,192,94096,1,8,0:0:0:0:
256,192,94146,1,0,0:0:0:0:
256,192,94246,1,8,0:0:0:0:
256,192,94296,1,8,0:0:0:0:
256,192,94346,1,0,0:0:0:0:
256,192,94396,1,0,0:0:0:0:
256,192,94446,1,8,0:0:0:0:
256,192,94546,1,0,0:0:0:0:
256,192,94646,1,8,0:0:0:0:
256,192,94746,1,8,0:0:0:0:
256,192,94846,1,0,0:0:0:0:
256,192,94946,1,8,0:0:0:0:
256,192,94996,1,0,0:0:0:0:
256,192,95046,1,8,0:0:0:0:
256,192,95096,1,0,0:0:0:0:
256,192,95146,1,0,0:0:0:0:
256,192,95246,1,0,0:0:0:0:
256,192,95296,1,0,0:0:0:0:
256,192,95346,1,0,0:0:0:0:
256,192,95446,1,8,0:0:0:0:
256,192,95496,1,0,0:0:0:0:
256,192,95546,1,0,0:0:0:0:
256,192,95646,1,8,0:0:0:0:
256,192,95696,1,0,0:0:0:0:
256,192,95746,1,8,0:0:0:0:
256,192,95796,1,0,0:0:0:0:
256,192,95846,1,8,0:0:0:0:
256,192,95896,1,8,0:0:0:0:
256,192,95946,1,0,0:0:0:0:
256,192,96046,1,8,0:0:0:0:
256,192,96096,1,0,0:0:0:0:
256,192,96146,1,0,0:0:0:0:
256,192,96246,1,8,0:0:0:0:
256,192,96296,1,0,0:0:0:0:
256,192,96346,1,0,0:0:0:0:
256,192,96446,1,8,0:0:0:0:
256,192,96496,1,0,0:0:0:0:
256,192,96546,1,8,0:0:0:0:
256,192,96596,1,8,0:0:0:0:
256,192,96646,1,8,0:0:0:0:
256,192,96696,1,0,0:0:0:0:
256,192,96746,1,0,0:0:0:0:
256,192,96846,1,8,0:0:0:0:
256,192,96896,1,0,0:0:0:0:
256,192,96946,1,0,0:0:0:0:
256,192,97046,1,8,0:0:0:0:
256,192,97096,1,0,0:0:0:0:
256,192,97146,1,0,0:0:0:0:
256,192,97246,1,0,0:0:0:0:
256,192,97296,1,0,0:0:0:0:
256,192,97346,1,8,0:0:0:0:
256,192,97396,1,0,0:0:0:0:
256,192,97446,1,8,0:0:0:0:
256,192,97496,1,0,0:0:0:0:
256,192,97546,1,0,0:0:0:0:
256,192,97646,1,0,0:0:0:0:
256,192,97696,1,0,0:0:0:0:
256,192,97746,1,0,0:0:0:0:
256,192,97846,1,0,0:0:0:0:
256,192,97896,1,0,0:0:0:0:
256,192,97946,1,0,0:0:0:0:
256,192,98046,1,0,0:0:0:0:
256,192,98096,1,0,0:0:0:0:
256,192,98146,1,8,0:0:0:0:
256,192,98196,1,0,0:0:0:0:
256,192,98246,1,8,0:0:0:0:
256,192,98296,1,0,0:0:0:0:
256,192,98346,1,0,0:0:0:0:
256,192,98446,1,8,0:0:0:0:
256,192,98546,1,8,0:0:0:0:
256,192,98646,1,8,0:0:0:0:
256,192,98696,1,8,0:0:0:0:
256,192,98746,1,8,0:0:0:0:
256,192,98796,1,0,0:0:0:0:
256,192,98846,1,0,0:0:0:0:
256,192,98946,1,0,0:0:0:0:
256,192,99046,1,8,0:0:0:0:
256,192,99096,1,0,0:0:0:0:
256,192,99146,1,0,0:0:0:0:
256,192,99246,1,0,0:0:0:0:
256,192,99346,1,8,0:0:0:0:
256,192,99446,1,8,0:0:0:0:
256,192,99496,1,0,0:0:0:0:
256,192,99546,1,8,0:0:0:0:
256,192,99596,1,8,0:0:0:0:
256,192,99646,1,8,0:0:0:0:
256,192,99696,1,0,0:0:0:0:
256,192,99746,1,0,0:0:0:0:
256,192,99846,1,8,0:0:0:0:
256,192,99896,1,0,0:0:0:0:
256,192,99946,1,0,0:0:0:0:
256,192,100046,1,0,0:0:0:0:
256,192,100146,1,8,0:0:0:0:
256,192,100246,1,8,0:0:0:0:
256,192,100346,1,8,0:0:0:0:
256,192,100446,1,8,0:0:0:0:
256,192,100546,1,8,0:0:0:0:
256,192,100646,1,8,0:0:0:0:
256,192,100696,1,0,0:0:0:0:
256,192,100746,1,0,0:0:0:0:
256,192,100846,1,8,0:0:0:0:
256,192,100946,1,8,0:0:0:0:
256,192,101046,1,8,0:0:0:0:
256,192,101146,1,0,0:0:0:0:
256,192,101246,1,8,0:0:0:0:
256,192,101346,1,0,0:0:0:0:
256,192,101446,1,8,0:0:0:0:
256,192,101496,1,0,0:0:0:0:
256,192,101546,1,8,0:0:0:0:
256,192,101646,1,0,0:0:0:0:
256,192,101696,1,0,0:0:0:0:
256,192,101746,1,0,0:0:0:0:
256,192,101846,1,8,0:0:0:0:
256,192,101896,1,0,0:0:0:0:
256,192,101946,1,0,0:0:0:0:
256,192,102046,1,8,0:0:0:0:
256,192,102096,1,8,0:0:0:0:
256,192,102146,1,0,0:0:0:0:
256,192,102246,1,8,0:0:0:0:
256,192,102296,1,8,0:0:0:0:
256,192,102346,1,8,0:0:0:0:
256,192,102446,1,0,0:0:0:0:
256,192,102496,1,0,0:0:0:0:
256,192,102546,1,0,0:0:0:0:
256,192,102646,1,8,0:0:0:0:
256,192,102696,1,0,0:0:0:0:
256,192,102746,1,8,0:0:0:0:
256,192,102846,1,8,0:0:0:0:
256,192,102896,1,8,0:0:0:0:
256,192,102946,1,0,0:0:0:0:
256,192,103046,1,8,0:0:0:0:
256,192,103096,1,8,0:0:0:0:
256,192,103146,1,8,0:0:0:0:
256,192,103246,1,0,0:0:0:0:
256,192,103296,1,0,0:0:0:0:
256,192,103346,1,0,0:0:0:0:
256,192,103446,1,8,0:0:0:0:
256,192,103496,1,0,0:0:0:0:
256,192,103546,1,0,0:0:0:0:
256,192,103646,1,8,0:0:0:0:
256,192,103696,1,8,0:0:0:0:
256,192,103746,1,0,0:0:0:0:
256,192,103846,1,0,0:0:0:0:
256,192,103896,1,0,0:0:0:0:
256,192,103946,1,0,0:0:0:0:
256,192,104046,1,0,0:0:0:0:
256,192,104096,1,0,0:0:0:0:
256,192,104146,1,8,0:0:0:0:
256,192,104246,1,8,0:0:0:0:
256,192,104296,1,8,0:0:0:0:
256,192,104346,1,8,0:0:0:0:
256,192,104446,1,0,0:0:0:0:
256,192,104496,1,0,0:0:0:0:
256,192,104546,1,0,0:0:0:0:
256,192,104596,1,0,0:0:0:0:
256,192,104646,1,8,0:0:0:0:
256,192,104696,8,0,104946,0:0:0:0:
256,192,105046,8,0,105346,0:0:0:0:
256,192,105446,8,0,105746,0:0:0:0:
256,192,105846,8,0,106146,0:0:0:0:
256,192,106246,5,8,0:0:0:0:
256,192,106312,1,0,0:0:0:0:
256,192,106379,1,0,0:0:0:0:
256,192,106446,1,8,0:0:0:0:
256,192,106512,1,8,0:0:0:0:
256,192,106579,1,0,0:0:0:0:
256,192,106646,1,8,0:0:0:0:
256,192,106712,1,0,0:0:0:0:
256,192,106779,1,8,0:0:0:0:
256,192,106846,1,8,0:0:0:0:
256,192,106912,1,8,0:0:0:0:
256,192,106979,1,0,0:0:0:0:
256,192,107046,1,8,0:0:0:0:
256,192,107112,1,0,0:0:0:0:
256,192,107179,1,0,0:0:0:0:
256,192,107246,1,8,0:0:0:0:
256,192,107312,1,0,0:0:0:0:
256,192,107379,1,0,0:0:0:0:
256,192,107446,12,8,107746,0:0:0:0:
256,192,107846,5,8,0:0:0:0:
256,192,108046,1,8,0:0:0:0:
256,192,108146,1,0,0:0:0:0:
256,192,108246,1,8,0:0:0:0:
256,192,108346,1,0,0:0:0:0:
256,192,108446,1,8,0:0:0:0:
256,192,108546,1,0,0:0:0:0:
256,192,108646,1,8,0:0:0:0:
256,192,108746,1,8,0:0:0:0:
256,192,108846,1,8,0:0:0:0:
256,192,108946,1,0,0:0:0:0:
256,192,109046,1,8,0:0:0:0:
256,192,109146,1,0,0:0:0:0:
256,192,109246,1,8,0:0:0:0:
256,192,109296,1,8,0:0:0:0:
256,192,109346,1,0,0:0:0:0:
256,192,109396,1,0,0:0:0:0:
256,192,109446,1,8,0:0:0:0:
256,192,109546,1,0,0:0:0:0:
256,192,109646,1,8,0:0:0:0:
256,192,109746,1,8,0:0:0:0:
256,192,109846,1,0,0:0:0:0:
256,192,109946,1,8,0:0:0:0:
256,192,110046,1,8,0:0:0:0:
256,192,110146,1,0,0:0:0:0:
256,192,110246,1,8,0:0:0:0:
256,192,110312,1,8,0:0:0:0:
256,192,110379,1,0,0:0:0:0:
256,192,110446,1,0,0:0:0:0:
256,192,110512,1,0,0:0:0:0:
256,192,110579,1,8,0:0:0:0:
256,192,110646,1,8,0:0:0:0:
256,192,110712,1,8,0:0:0:0:
256,192,110779,1,0,0:0:0:0:
256,192,110846,1,8,0:0:0:0:
256,192,110912,1,0,0:0:0:0:
256,192,110979,1,0,0:0:0:0:
256,192,111046,1,8,0:0:0:0:
256,192,111246,1,8,0:0:0:0:
256,192,111346,1,0,0:0:0:0:
256,192,111446,1,8,0:0:0:0:
256,192,111546,1,8,0:0:0:0:
256,192,111646,1,8,0:0:0:0:
256,192,111746,1,0,0:0:0:0:
256,192,111846,1,8,0:0:0:0:
256,192,111946,1,8,0:0:0:0:
256,192,112046,1,0,0:0:0:0:
256,192,112146,1,8,0:0:0:0:
256,192,112246,1,8,0:0:0:0:
256,192,112346,1,0,0:0:0:0:
256,192,112446,1,8,0:0:0:0:
256,192,112496,1,0,0:0:0:0:
256,192,112546,1,0,0:0:0:0:
256,192,112596,1,0,0:0:0:0:
256,192,112646,1,8,0:0:0:0:
256,192,112746,1,0,0:0:0:0:
256,192,112846,1,8,0:0:0:0:
256,192,112946,1,0,0:0:0:0:
256,192,113046,1,8,0:0:0:0:
256,192,113146,1,0,0:0:0:0:
256,192,113246,1,8,0:0:0:0:
256,192,113346,1,8,0:0:0:0:
256,192,113446,1,8,0:0:0:0:
256,192,113496,1,8,0:0:0:0:
256,192,113546,1,8,0:0:0:0:
256,192,113596,1,8,0:0:0:0:
256,192,113646,1,0,0:0:0:0:
256,192,113696,1,0,0:0:0:0:
256,192,113746,1,0,0:0:0:0:
256,192,113796,1,0,0:0:0:0:
256,192,113846,1,8,0:0:0:0:
256,192,113896,1,8,0:0:0:0:
256,192,113946,1,8,0:0:0:0:
256,192,113996,1,8,0:0:0:0:
256,192,114046,1,0,0:0:0:0:
256,192,114096,1,0,0:0:0:0:
256,192,114146,1,0,0:0:0:0:
256,192,114196,1,0,0:0:0:0:
256,192,114246,1,8,0:0:0:0:
256,192,114346,1,0,0:0:0:0:
256,192,114396,1,0,0:0:0:0:
256,192,114446,1,8,0:0:0:0:
256,192,114496,1,8,0:0:0:0:
256,192,114546,1,0,0:0:0:0:
256,192,114596,1,0,0:0:0:0:
256,192,114646,1,8,0:0:0:0:
256,192,114696,1,8,0:0:0:0:
256,192,114746,1,0,0:0:0:0:
256,192,114796,1,0,0:0:0:0:
256,192,114846,1,8,0:0:0:0:
256,192,114896,1,8,0:0:0:0:
256,192,114946,1,0,0:0:0:0:
256,192,114996,1,0,0:0:0:0:
256,192,115046,1,8,0:0:0:0:
256,192,115096,1,8,0:0:0:0:
256,192,115146,1,8,0:0:0:0:
256,192,115196,1,0,0:0:0:0:
256,192,115246,1,8,0:0:0:0:
256,192,115296,1,0,0:0:0:0:
256,192,115346,1,0,0:0:0:0:
256,192,115396,1,0,0:0:0:0:
256,192,115446,1,8,0:0:0:0:
256,192,115646,1,8,0:0:0:0:
256,192,115746,1,8,0:0:0:0:
256,192,115846,1,8,0:0:0:0:
256,192,115896,1,8,0:0:0:0:
256,192,115946,1,0,0:0:0:0:
256,192,115996,1,0,0:0:0:0:
256,192,116046,1,8,0:0:0:0:
256,192,116096,1,8,0:0:0:0:
256,192,116146,1,0,0:0:0:0:
256,192,116196,1,8,0:0:0:0:
256,192,116246,1,8,0:0:0:0:
256,192,116296,1,0,0:0:0:0:
256,192,116346,1,0,0:0:0:0:
256,192,116396,1,8,0:0:0:0:
256,192,116446,1,8,0:0:0:0:
256,192,116496,1,8,0:0:0:0:
256,192,116546,1,0,0:0:0:0:
256,192,116596,1,0,0:0:0:0:
256,192,116646,1,12,0:0:0:0:
256,192,116846,1,12,0:0:0:0:
256,192,117046,1,12,0:0:0:0:
256,192,117446,1,0,0:0:0:0:
256,192,117646,1,0,0:0:0:0:
256,192,117746,1,0,0:0:0:0:
256,192,117846,1,8,0:0:0:0:
256,192,117896,1,0,0:0:0:0:
256,192,117946,1,0,0:0:0:0:
256,192,117996,1,0,0:0:0:0:
256,192,118046,1,0,0:0:0:0:
256,192,118246,1,8,0:0:0:0:
256,192,118296,1,8,0:0:0:0:
256,192,118346,1,0,0:0:0:0:
256,192,118396,1,0,0:0:0:0:
256,192,118446,1,8,0:0:0:0:
256,192,118546,1,8,0:0:0:0:
256,192,118646,1,8,0:0:0:0:
256,192,118696,1,8,0:0:0:0:
256,192,118746,1,0,0:0:0:0:
256,192,118796,1,0,0:0:0:0:
256,192,118846,1,8,0:0:0:0:
256,192,119046,1,0,0:0:0:0:
256,192,119096,1,0,0:0:0:0:
256,192,119146,1,0,0:0:0:0:
256,192,119196,1,0,0:0:0:0:
256,192,119246,1,8,0:0:0:0:
256,192,119296,1,8,0:0:0:0:
256,192,119346,1,8,0:0:0:0:
256,192,119396,1,8,0:0:0:0:
256,192,119446,1,8,0:0:0:0:
256,192,119496,1,0,0:0:0:0:
256,192,119546,1,8,0:0:0:0:
256,192,119596,1,0,0:0:0:0:
256,192,119646,1,8,0:0:0:0:
256,192,119696,1,0,0:0:0:0:
256,192,119746,1,8,0:0:0:0:
256,192,119796,1,0,0:0:0:0:
256,192,119846,1,8,0:0:0:0:
256,192,120046,1,8,0:0:0:0:
256,192,120096,1,0,0:0:0:0:
256,192,120146,1,0,0:0:0:0:
256,192,120196,1,0,0:0:0:0:
256,192,120246,1,8,0:0:0:0:
256,192,120446,1,8,0:0:0:0:
256,192,120646,1,8,0:0:0:0:
256,192,120696,1,8,0:0:0:0:
256,192,120746,1,8,0:0:0:0:
256,192,120846,1,0,0:0:0:0:
256,192,120946,1,0,0:0:0:0:
256,192,121046,1,0,0:0:0:0:
256,192,121146,1,8,0:0:0:0:
256,192,121246,1,8,0:0:0:0:
256,192,121346,1,8,0:0:0:0:
256,192,121446,1,8,0:0:0:0:
256,192,121496,1,8,0:0:0:0:
256,192,121546,1,8,0:0:0:0:
256,192,121646,1,8,0:0:0:0:
256,192,121746,1,0,0:0:0:0:
256,192,121846,1,8,0:0:0:0:
256,192,121896,1,8,0:0:0:0:
256,192,121946,1,8,0:0:0:0:
256,192,122046,1,0,0:0:0:0:
256,192,122146,1,0,0:0:0:0:
256,192,122246,1,8,0:0:0:0:
256,192,122296,1,8,0:0:0:0:
256,192,122346,1,8,0:0:0:0:
256,192,122446,1,0,0:0:0:0:
256,192,122546,1,0,0:0:0:0:
256,192,122646,1,0,0:0:0:0:
256,192,122746,1,0,0:0:0:0:
256,192,122846,1,8,0:0:0:0:
256,192,122946,1,8,0:0:0:0:
256,192,123046,1,8,0:0:0:0:
256,192,123096,1,8,0:0:0:0:
256,192,123146,1,8,0:0:0:0:
256,192,123246,1,0,0:0:0:0:
256,192,123346,1,0,0:0:0:0:
256,192,123446,1,8,0:0:0:0:
256,192,123496,1,8,0:0:0:0:
256,192,123546,1,8,0:0:0:0:
256,192,123646,1,0,0:0:0:0:
256,192,123746,1,0,0:0:0:0:
256,192,123846,1,8,0:0:0:0:
256,192,123896,1,8,0:0:0:0:
256,192,123946,1,8,0:0:0:0:
256,192,124046,1,8,0:0:0:0:
256,192,124146,1,8,0:0:0:0:
256,192,124246,1,0,0:0:0:0:
256,192,124346,1,0,0:0:0:0:
256,192,124446,1,0,0:0:0:0:
256,192,124546,1,0,0:0:0:0:
256,192,124646,1,8,0:0:0:0:
256,192,124696,1,8,0:0:0:0:
256,192,124746,1,8,0:0:0:0:
256,192,124846,1,0,0:0:0:0:
256,192,124946,1,8,0:0:0:0:
256,192,125046,1,8,0:0:0:0:
256,192,125096,1,8,0:0:0:0:
256,192,125146,1,8,0:0:0:0:
256,192,125246,1,0,0:0:0:0:
256,192,125346,1,0,0:0:0:0:
256,192,125446,1,8,0:0:0:0:
256,192,125496,1,8,0:0:0:0:
256,192,125546,1,8,0:0:0:0:
256,192,125596,1,0,0:0:0:0:
256,192,125646,1,8,0:0:0:0:
256,192,125696,1,8,0:0:0:0:
256,192,125746,1,0,0:0:0:0:
256,192,125796,1,0,0:0:0:0:
256,192,125846,1,8,0:0:0:0:
256,192,125896,1,8,0:0:0:0:
256,192,125946,1,8,0:0:0:0:
256,192,125996,1,0,0:0:0:0:
256,192,126046,1,0,0:0:0:0:
256,192,126096,1,0,0:0:0:0:
256,192,126146,1,0,0:0:0:0:
256,192,126196,1,0,0:0:0:0:
256,192,126246,1,8,0:0:0:0:
256,192,126296,1,8,0:0:0:0:
256,192,126346,1,8,0:0:0:0:
256,192,126396,1,0,0:0:0:0:
256,192,126446,1,0,0:0:0:0:
256,192,126496,1,0,0:0:0:0:
256,192,126546,1,8,0:0:0:0:
256,192,126596,1,8,0:0:0:0:
256,192,126646,1,8,0:0:0:0:
256,192,126846,1,8,0:0:0:0:
256,192,127046,1,8,0:0:0:0:
256,192,127096,1,8,0:0:0:0:
256,192,127146,1,0,0:0:0:0:
256,192,127246,1,0,0:0:0:0:
256,192,127346,1,0,0:0:0:0:
256,192,127446,1,8,0:0:0:0:
256,192,127546,1,8,0:0:0:0:
256,192,127646,1,8,0:0:0:0:
256,192,127746,1,0,0:0:0:0:
256,192,127846,1,8,0:0:0:0:
256,192,127896,1,8,0:0:0:0:
256,192,127946,1,8,0:0:0:0:
256,192,128046,1,0,0:0:0:0:
256,192,128146,1,8,0:0:0:0:
256,192,128246,1,8,0:0:0:0:
256,192,128296,1,8,0:0:0:0:
256,192,128346,1,8,0:0:0:0:
256,192,128446,1,0,0:0:0:0:
256,192,128546,1,0,0:0:0:0:
256,192,128646,1,8,0:0:0:0:
256,192,128696,1,8,0:0:0:0:
256,192,128746,1,8,0:0:0:0:
256,192,128846,1,0,0:0:0:0:
256,192,128946,1,0,0:0:0:0:
256,192,129046,1,0,0:0:0:0:
256,192,129146,1,8,0:0:0:0:
256,192,129246,1,8,0:0:0:0:
256,192,129346,1,8,0:0:0:0:
256,192,129446,1,8,0:0:0:0:
256,192,129496,1,8,0:0:0:0:
256,192,129546,1,8,0:0:0:0:
256,192,129646,1,0,0:0:0:0:
256,192,129746,1,0,0:0:0:0:
256,192,129846,1,8,0:0:0:0:
256,192,129896,1,8,0:0:0:0:
256,192,129946,1,8,0:0:0:0:
256,192,130046,1,8,0:0:0:0:
256,192,130146,1,0,0:0:0:0:
256,192,130246,1,8,0:0:0:0:
256,192,130296,1,8,0:0:0:0:
256,192,130346,1,8,0:0:0:0:
256,192,130446,1,0,0:0:0:0:
256,192,130546,1,0,0:0:0:0:
256,192,130646,1,0,0:0:0:0:
256,192,130746,1,8,0:0:0:0:
256,192,130846,1,8,0:0:0:0:
256,192,130946,1,0,0:0:0:0:
256,192,131046,1,8,0:0:0:0:
256,192,131096,1,8,0:0:0:0:
256,192,131146,1,8,0:0:0:0:
256,192,131246,1,8,0:0:0:0:
256,192,131346,1,8,0:0:0:0:
256,192,131446,1,8,0:0:0:0:
256,192,131496,1,8,0:0:0:0:
256,192,131546,1,8,0:0:0:0:
256,192,131646,1,0,0:0:0:0:
256,192,131746,1,0,0:0:0:0:
256,192,131846,1,8,0:0:0:0:
256,192,131896,1,8,0:0:0:0:
256,192,131946,1,8,0:0:0:0:
256,192,131996,1,0,0:0:0:0:
256,192,132046,1,0,0:0:0:0:
256,192,132096,1,0,0:0:0:0:
256,192,132146,1,0,0:0:0:0:
256,192,132196,1,0,0:0:0:0:
256,192,132246,1,8,0:0:0:0:
256,192,132296,1,8,0:0:0:0:
256,192,132346,1,0,0:0:0:0:
256,192,132396,1,0,0:0:0:0:
256,192,132446,1,8,0:0:0:0:
256,192,132496,1,8,0:0:0:0:
256,192,132546,1,8,0:0:0:0:
256,192,132596,1,0,0:0:0:0:
256,192,132646,1,8,0:0:0:0:
256,192,132696,1,0,0:0:0:0:
256,192,132746,1,0,0:0:0:0:
256,192,132796,1,0,0:0:0:0:
256,192,132846,1,8,0:0:0:0:
256,192,132896,1,8,0:0:0:0:
256,192,132946,1,8,0:0:0:0:
256,192,132996,1,0,0:0:0:0:
256,192,133046,1,8,0:0:0:0:
256,192,133112,1,8,0:0:0:0:
256,192,133179,1,8,0:0:0:0:
256,192,133246,1,0,0:0:0:0:
256,192,133312,1,0,0:0:0:0:
256,192,133379,1,0,0:0:0:0:
256,192,133446,1,12,0:0:0:0:
256,192,133546,1,0,0:0:0:0:
256,192,133646,1,12,0:0:0:0:
256,192,133746,1,0,0:0:0:0:
256,192,133846,1,12,0:0:0:0:
256,192,133946,1,0,0:0:0:0:
256,192,134046,1,12,0:0:0:0:
256,192,134146,1,0,0:0:0:0:
256,192,134246,1,12,0:0:0:0:
256,192,134346,1,8,0:0:0:0:
256,192,134446,1,12,0:0:0:0:
256,192,134546,1,0,0:0:0:0:
256,192,134646,1,12,0:0:0:0:
256,192,134746,1,0,0:0:0:0:
256,192,134846,1,8,0:0:0:0:
256,192,134896,1,0,0:0:0:0:
256,192,134946,1,8,0:0:0:0:
256,192,134996,1,0,0:0:0:0:
256,192,135046,1,12,0:0:0:0:
256,192,135146,1,0,0:0:0:0:
256,192,135246,1,12,0:0:0:0:
256,192,135346,1,0,0:0:0:0:
256,192,135446,1,4,0:0:0:0:
256,192,135546,1,0,0:0:0:0:
256,192,135646,1,4,0:0:0:0:
256,192,135746,1,0,0:0:0:0:
256,192,135846,1,12,0:0:0:0:
256,192,135946,1,8,0:0:0:0:
256,192,136046,1,4,0:0:0:0:
256,192,136146,1,0,0:0:0:0:
256,192,136246,1,8,0:0:0:0:
256,192,136296,1,8,0:0:0:0:
256,192,136346,1,0,0:0:0:0:
256,192,136396,1,0,0:0:0:0:
256,192,136446,1,12,0:0:0:0:
256,192,136546,1,0,0:0:0:0:
256,192,136646,1,12,0:0:0:0:
256,192,136746,1,0,0:0:0:0:
256,192,136846,1,8,0:0:0:0:
256,192,136896,1,8,0:0:0:0:
256,192,136946,1,0,0:0:0:0:
256,192,136996,1,0,0:0:0:0:
256,192,137046,1,4,0:0:0:0:
256,192,137146,1,0,0:0:0:0:
256,192,137246,1,12,0:0:0:0:
256,192,137346,1,0,0:0:0:0:
256,192,137446,1,8,0:0:0:0:
256,192,137496,1,8,0:0:0:0:
256,192,137546,1,0,0:0:0:0:
256,192,137596,1,0,0:0:0:0:
256,192,137646,1,4,0:0:0:0:
256,192,137746,1,0,0:0:0:0:
256,192,137846,1,8,0:0:0:0:
256,192,137896,1,8,0:0:0:0:
256,192,137946,1,0,0:0:0:0:
256,192,137996,1,0,0:0:0:0:
256,192,138046,1,12,0:0:0:0:
256,192,138146,1,0,0:0:0:0:
256,192,138246,1,12,0:0:0:0:
256,192,138346,1,12,0:0:0:0:
256,192,138446,1,12,0:0:0:0:
256,192,138546,1,4,0:0:0:0:
256,192,138646,1,4,0:0:0:0:
256,192,138746,1,12,0:0:0:0:
256,192,138846,1,8,0:0:0:0:
256,192,138946,1,0,0:0:0:0:
256,192,139046,1,0,0:0:0:0:
256,192,139096,1,0,0:0:0:0:
256,192,139146,1,8,0:0:0:0:
256,192,139196,1,8,0:0:0:0:
256,192,139246,1,8,0:0:0:0:
256,192,139296,1,0,0:0:0:0:
256,192,139346,1,0,0:0:0:0:
256,192,139396,1,8,0:0:0:0:
256,192,139446,1,8,0:0:0:0:
256,192,139646,1,0,0:0:0:0:
256,192,139846,1,12,0:0:0:0:
256,192,139946,1,0,0:0:0:0:
256,192,140046,1,12,0:0:0:0:
256,192,140146,1,0,0:0:0:0:
256,192,140246,1,4,0:0:0:0:
256,192,140346,1,0,0:0:0:0:
256,192,140446,1,4,0:0:0:0:
256,192,140546,1,0,0:0:0:0:
256,192,140646,1,12,0:0:0:0:
256,192,140746,1,0,0:0:0:0:
256,192,140846,1,12,0:0:0:0:
256,192,140946,1,0,0:0:0:0:
256,192,141046,1,4,0:0:0:0:
256,192,141146,1,0,0:0:0:0:
256,192,141246,1,0,0:0:0:0:
256,192,141296,1,0,0:0:0:0:
256,192,141346,1,0,0:0:0:0:
256,192,141396,1,0,0:0:0:0:
256,192,141446,1,12,0:0:0:0:
256,192,141546,1,0,0:0:0:0:
256,192,141646,1,4,0:0:0:0:
256,192,141746,1,0,0:0:0:0:
256,192,141846,1,4,0:0:0:0:
256,192,141946,1,0,0:0:0:0:
256,192,142046,1,4,0:0:0:0:
256,192,142146,1,0,0:0:0:0:
256,192,142246,1,4,0:0:0:0:
256,192,142346,1,0,0:0:0:0:
256,192,142446,1,12,0:0:0:0:
256,192,142546,1,0,0:0:0:0:
256,192,142646,1,12,0:0:0:0:
256,192,142746,1,0,0:0:0:0:
256,192,142846,1,8,0:0:0:0:
256,192,142896,1,8,0:0:0:0:
256,192,142946,1,0,0:0:0:0:
256,192,142996,1,0,0:0:0:0:
256,192,143046,1,12,0:0:0:0:
256,192,143146,1,0,0:0:0:0:
256,192,143246,1,12,0:0:0:0:
256,192,143346,1,0,0:0:0:0:
256,192,143446,1,12,0:0:0:0:
256,192,143546,1,0,0:0:0:0:
256,192,143646,1,12,0:0:0:0:
256,192,143746,1,0,0:0:0:0:
256,192,143846,1,12,0:0:0:0:
256,192,143946,1,0,0:0:0:0:
256,192,144046,1,12,0:0:0:0:
256,192,144146,1,0,0:0:0:0:
256,192,144246,1,12,0:0:0:0:
256,192,144346,1,0,0:0:0:0:
256,192,144446,1,12,0:0:0:0:
256,192,144546,1,0,0:0:0:0:
256,192,144646,1,8,0:0:0:0:
256,192,144746,1,8,0:0:0:0:
256,192,144846,1,8,0:0:0:0:
256,192,144946,1,0,0:0:0:0:
256,192,145046,1,8,0:0:0:0:
256,192,145146,1,0,0:0:0:0:
256,192,145246,1,0,0:0:0:0:
256,192,145346,1,0,0:0:0:0:
256,192,145446,1,8,0:0:0:0:
256,192,145496,1,8,0:0:0:0:
256,192,145546,1,8,0:0:0:0:
256,192,145596,1,8,0:0:0:0:
256,192,145646,1,0,0:0:0:0:
256,192,145696,1,0,0:0:0:0:
256,192,145746,1,0,0:0:0:0:
256,192,145796,1,0,0:0:0:0:
256,192,145846,5,8,0:0:0:0:
256,192,145896,1,8,0:0:0:0:
256,192,145946,1,8,0:0:0:0:
256,192,145996,1,8,0:0:0:0:
256,192,146046,1,0,0:0:0:0:
256,192,146096,1,0,0:0:0:0:
256,192,146146,1,0,0:0:0:0:
256,192,146196,1,0,0:0:0:0:
256,192,146246,5,12,0:0:0:0:
256,192,146446,1,0,0:0:0:0:
256,192,146546,1,0,0:0:0:0:
256,192,146646,1,8,0:0:0:0:
256,192,146846,1,0,0:0:0:0:
256,192,147046,1,8,0:0:0:0:
256,192,147246,1,0,0:0:0:0:
256,192,147296,1,0,0:0:0:0:
256,192,147346,1,0,0:0:0:0:
256,192,147396,1,0,0:0:0:0:
256,192,147446,1,8,0:0:0:0:
256,192,147496,1,8,0:0:0:0:
256,192,147546,1,8,0:0:0:0:
256,192,147596,1,8,0:0:0:0:
256,192,147646,1,0,0:0:0:0:
256,192,147746,1,0,0:0:0:0:
256,192,147846,1,8,0:0:0:0:
256,192,148046,1,8,0:0:0:0:
256,192,148146,1,0,0:0:0:0:
256,192,148246,1,8,0:0:0:0:
256,192,148346,1,8,0:0:0:0:
256,192,148446,1,0,0:0:0:0:
256,192,148546,1,0,0:0:0:0:
256,192,148646,1,8,0:0:0:0:
256,192,148846,1,8,0:0:0:0:
256,192,148896,1,8,0:0:0:0:
256,192,148946,1,0,0:0:0:0:
256,192,148996,1,0,0:0:0:0:
256,192,149046,1,8,0:0:0:0:
256,192,149096,1,8,0:0:0:0:
256,192,149146,1,8,0:0:0:0:
256,192,149196,1,8,0:0:0:0:
256,192,149246,1,0,0:0:0:0:
256,192,149296,1,0,0:0:0:0:
256,192,149346,1,0,0:0:0:0:
256,192,149396,1,0,0:0:0:0:
256,192,149446,1,8,0:0:0:0:
256,192,149496,1,0,0:0:0:0:
256,192,149546,1,0,0:0:0:0:
256,192,149596,1,0,0:0:0:0:
256,192,149646,1,0,0:0:0:0:
256,192,149846,1,8,0:0:0:0:
256,192,149946,1,0,0:0:0:0:
256,192,150046,1,8,0:0:0:0:
256,192,150146,1,8,0:0:0:0:
256,192,150246,1,0,0:0:0:0:
256,192,150346,1,8,0:0:0:0:
256,192,150446,1,0,0:0:0:0:
256,192,150496,1,0,0:0:0:0:
256,192,150546,1,0,0:0:0:0:
256,192,150596,1,0,0:0:0:0:
256,192,150646,1,8,0:0:0:0:
256,192,150696,1,8,0:0:0:0:
256,192,150746,1,8,0:0:0:0:
256,192,150796,1,8,0:0:0:0:
256,192,150846,1,0,0:0:0:0:
256,192,151046,1,8,0:0:0:0:
256,192,151246,1,0,0:0:0:0:
256,192,151346,1,0,0:0:0:0:
256,192,151446,1,0,0:0:0:0:
256,192,151646,1,8,0:0:0:0:
256,192,151846,1,0,0:0:0:0:
256,192,152046,1,8,0:0:0:0:
256,192,152146,1,0,0:0:0:0:
256,192,152246,1,8,0:0:0:0:
256,192,152296,1,8,0:0:0:0:
256,192,152346,1,8,0:0:0:0:
256,192,152396,1,8,0:0:0:0:
256,192,152446,1,0,0:0:0:0:
256,192,152496,1,0,0:0:0:0:
256,192,152546,1,0,0:0:0:0:
256,192,152596,1,0,0:0:0:0:
256,192,152646,1,8,0:0:0:0:
256,192,153446,1,4,0:0:0:0:
256,192,153646,1,0,0:0:0:0:
256,192,153746,1,0,0:0:0:0:
256,192,153846,1,8,0:0:0:0:
256,192,154046,1,0,0:0:0:0:
256,192,154246,1,8,0:0:0:0:
256,192,154446,1,0,0:0:0:0:
256,192,154496,1,0,0:0:0:0:
256,192,154546,1,0,0:0:0:0:
256,192,154596,1,0,0:0:0:0:
256,192,154646,1,8,0:0:0:0:
256,192,154696,1,8,0:0:0:0:
256,192,154746,1,8,0:0:0:0:
256,192,154796,1,8,0:0:0:0:
256,192,154846,1,0,0:0:0:0:
256,192,154946,1,0,0:0:0:0:
256,192,155046,1,8,0:0:0:0:
256,192,155246,1,8,0:0:0:0:
256,192,155346,1,0,0:0:0:0:
256,192,155446,1,8,0:0:0:0:
256,192,155546,1,8,0:0:0:0:
256,192,155646,1,0,0:0:0:0:
256,192,155746,1,0,0:0:0:0:
256,192,155846,1,8,0:0:0:0:
256,192,156046,1,8,0:0:0:0:
256,192,156096,1,0,0:0:0:0:
256,192,156146,1,0,0:0:0:0:
256,192,156196,1,0,0:0:0:0:
256,192,156246,1,8,0:0:0:0:
256,192,156296,1,8,0:0:0:0:
256,192,156346,1,8,0:0:0:0:
256,192,156396,1,8,0:0:0:0:
256,192,156446,1,0,0:0:0:0:
256,192,156496,1,0,0:0:0:0:
256,192,156546,1,8,0:0:0:0:
256,192,156596,1,8,0:0:0:0:
256,192,156646,1,0,0:0:0:0:
256,192,156696,1,0,0:0:0:0:
256,192,156746,1,8,0:0:0:0:
256,192,156796,1,8,0:0:0:0:
256,192,156846,1,0,0:0:0:0:
256,192,157046,1,8,0:0:0:0:
256,192,157146,1,0,0:0:0:0:
256,192,157246,1,8,0:0:0:0:
256,192,157446,1,8,0:0:0:0:
256,192,157646,1,0,0:0:0:0:
256,192,157696,1,0,0:0:0:0:
256,192,157746,1,0,0:0:0:0:
256,192,157796,1,0,0:0:0:0:
256,192,157846,1,8,0:0:0:0:
256,192,157896,1,8,0:0:0:0:
256,192,157946,1,8,0:0:0:0:
256,192,157996,1,8,0:0:0:0:
256,192,158046,1,0,0:0:0:0:
256,192,158146,1,0,0:0:0:0:
256,192,158246,1,8,0:0:0:0:
256,192,158446,1,8,0:0:0:0:
256,192,158546,1,8,0:0:0:0:
256,192,158646,1,8,0:0:0:0:
256,192,158746,1,0,0:0:0:0:
256,192,158846,1,8,0:0:0:0:
256,192,158946,1,0,0:0:0:0:
256,192,159046,1,8,0:0:0:0:
256,192,159246,1,0,0:0:0:0:
256,192,159446,1,8,0:0:0:0:
256,192,159846,1,0,0:0:0:0:
256,192,159946,1,0,0:0:0:0:
256,192,159996,1,0,0:0:0:0:
256,192,160046,1,8,0:0:0:0:
256,192,160146,1,0,0:0:0:0:
256,192,160246,1,8,0:0:0:0:
256,192,160296,1,8,0:0:0:0:
256,192,160346,1,0,0:0:0:0:
256,192,160396,1,0,0:0:0:0:
256,192,160446,1,8,0:0:0:0:
256,192,160546,1,0,0:0:0:0:
256,192,160646,1,8,0:0:0:0:
256,192,160696,1,0,0:0:0:0:
256,192,160746,1,8,0:0:0:0:
256,192,160796,1,8,0:0:0:0:
256,192,160846,1,0,0:0:0:0:
256,192,160896,1,0,0:0:0:0:
256,192,160946,1,8,0:0:0:0:
256,192,160996,1,8,0:0:0:0:
256,192,161046,1,0,0:0:0:0:
256,192,161146,1,0,0:0:0:0:
256,192,161196,1,0,0:0:0:0:
256,192,161246,1,8,0:0:0:0:
256,192,161296,1,0,0:0:0:0:
256,192,161346,1,0,0:0:0:0:
256,192,161396,1,0,0:0:0:0:
256,192,161446,1,8,0:0:0:0:
256,192,161546,1,0,0:0:0:0:
256,192,161596,1,0,0:0:0:0:
256,192,161646,1,8,0:0:0:0:
256,192,161746,1,0,0:0:0:0:
256,192,161846,1,8,0:0:0:0:
256,192,161896,1,0,0:0:0:0:
256,192,161946,1,8,0:0:0:0:
256,192,161996,1,8,0:0:0:0:
256,192,162046,1,0,0:0:0:0:
256,192,162146,1,8,0:0:0:0:
256,192,162246,1,4,0:0:0:0:
256,192,162346,1,8,0:0:0:0:
256,192,162446,1,4,0:0:0:0:
256,192,162546,1,0,0:0:0:0:
256,192,162646,1,12,0:0:0:0:
256,192,162746,1,8,0:0:0:0:
256,192,162796,1,0,0:0:0:0:
256,192,162846,1,8,0:0:0:0:
256,192,162896,1,8,0:0:0:0:
256,192,162946,1,0,0:0:0:0:
256,192,162996,1,0,0:0:0:0:
256,192,163046,1,8,0:0:0:0:
256,192,163146,1,0,0:0:0:0:
256,192,163196,1,0,0:0:0:0:
256,192,163246,1,8,0:0:0:0:
256,192,163346,1,0,0:0:0:0:
256,192,163446,1,8,0:0:0:0:
256,192,163496,1,8,0:0:0:0:
256,192,163546,1,0,0:0:0:0:
256,192,163596,1,0,0:0:0:0:
256,192,163646,1,8,0:0:0:0:
256,192,163746,1,0,0:0:0:0:
256,192,163846,1,8,0:0:0:0:
256,192,163946,1,8,0:0:0:0:
256,192,163996,1,8,0:0:0:0:
256,192,164046,1,0,0:0:0:0:
256,192,164146,1,8,0:0:0:0:
256,192,164246,1,0,0:0:0:0:
256,192,164296,1,0,0:0:0:0:
256,192,164346,1,8,0:0:0:0:
256,192,164396,1,0,0:0:0:0:
256,192,164446,1,8,0:0:0:0:
256,192,164496,1,8,0:0:0:0:
256,192,164546,1,0,0:0:0:0:
256,192,164646,1,0,0:0:0:0:
256,192,164746,1,0,0:0:0:0:
256,192,164796,1,0,0:0:0:0:
256,192,164846,1,8,0:0:0:0:
256,192,164946,1,0,0:0:0:0:
256,192,165046,1,8,0:0:0:0:
256,192,165096,1,8,0:0:0:0:
256,192,165146,1,0,0:0:0:0:
256,192,165196,1,0,0:0:0:0:
256,192,165246,1,8,0:0:0:0:
256,192,165346,1,0,0:0:0:0:
256,192,165446,1,8,0:0:0:0:
256,192,165496,1,0,0:0:0:0:
256,192,165546,1,8,0:0:0:0:
256,192,165596,1,0,0:0:0:0:
256,192,165646,1,8,0:0:0:0:
256,192,165696,1,8,0:0:0:0:
256,192,165746,1,0,0:0:0:0:
256,192,165796,1,0,0:0:0:0:
256,192,165846,1,8,0:0:0:0:
256,192,165896,1,0,0:0:0:0:
256,192,165946,1,8,0:0:0:0:
256,192,165996,1,0,0:0:0:0:
256,192,166046,1,8,0:0:0:0:
256,192,166096,1,8,0:0:0:0:
256,192,166146,1,0,0:0:0:0:
256,192,166246,1,8,0:0:0:0:
256,192,166296,1,8,0:0:0:0:
256,192,166346,1,0,0:0:0:0:
256,192,166396,1,0,0:0:0:0:
256,192,166446,1,0,0:0:0:0:
256,192,166496,1,0,0:0:0:0:
256,192,166546,1,0,0:0:0:0:
256,192,166646,1,8,0:0:0:0:
256,192,166746,1,0,0:0:0:0:
256,192,166846,1,0,0:0:0:0:
256,192,166946,1,0,0:0:0:0:
256,192,167046,1,8,0:0:0:0:
256,192,167146,1,0,0:0:0:0:
256,192,167246,1,0,0:0:0:0:
256,192,167296,1,0,0:0:0:0:
256,192,167346,1,0,0:0:0:0:
256,192,167396,1,0,0:0:0:0:
256,192,167446,1,8,0:0:0:0:
256,192,167646,1,0,0:0:0:0:
256,192,167846,1,0,0:0:0:0:
256,192,167896,1,0,0:0:0:0:
256,192,167946,1,8,0:0:0:0:
256,192,167996,1,0,0:0:0:0:
256,192,168046,1,8,0:0:0:0:
256,192,168096,1,8,0:0:0:0:
256,192,168146,1,0,0:0:0:0:
256,192,168196,1,0,0:0:0:0:
256,192,168246,1,8,0:0:0:0:
256,192,168296,1,8,0:0:0:0:
256,192,168346,1,0,0:0:0:0:
256,192,168396,1,0,0:0:0:0:
256,192,168446,1,8,0:0:0:0:
256,192,168496,1,8,0:0:0:0:
256,192,168546,1,0,0:0:0:0:
256,192,168596,1,0,0:0:0:0:
256,192,168646,1,8,0:0:0:0:
256,192,168696,1,8,0:0:0:0:
256,192,168746,1,8,0:0:0:0:
256,192,168796,1,0,0:0:0:0:
256,192,168846,1,8,0:0:0:0:
256,192,168896,1,8,0:0:0:0:
256,192,168946,1,0,0:0:0:0:
256,192,168996,1,0,0:0:0:0:
256,192,169046,1,8,0:0:0:0:
256,192,169096,1,8,0:0:0:0:
256,192,169146,1,0,0:0:0:0:
256,192,169196,1,0,0:0:0:0:
256,192,169246,1,8,0:0:0:0:
256,192,169296,1,8,0:0:0:0:
256,192,169346,1,8,0:0:0:0:
256,192,169396,1,8,0:0:0:0:
256,192,169446,1,0,0:0:0:0:
256,192,169646,1,0,0:0:0:0:
256,192,169746,1,0,0:0:0:0:
256,192,169846,1,8,0:0:0:0:
256,192,169896,1,8,0:0:0:0:
256,192,169946,1,0,0:0:0:0:
256,192,169996,1,8,0:0:0:0:
256,192,170046,1,0,0:0:0:0:
256,192,170146,1,8,0:0:0:0:
256,192,170246,1,0,0:0:0:0:
256,192,170296,1,0,0:0:0:0:
256,192,170346,1,0,0:0:0:0:
256,192,170396,1,0,0:0:0:0:
256,192,170446,1,8,0:0:0:0:
256,192,170546,1,0,0:0:0:0:
256,192,170646,1,8,0:0:0:0:
256,192,170696,1,0,0:0:0:0:
256,192,170746,1,8,0:0:0:0:
256,192,170796,1,8,0:0:0:0:
256,192,170846,1,0,0:0:0:0:
256,192,170946,1,0,0:0:0:0:
256,192,171046,1,8,0:0:0:0:
256,192,171096,1,8,0:0:0:0:
256,192,171146,1,0,0:0:0:0:
256,192,171196,1,0,0:0:0:0:
256,192,171246,1,8,0:0:0:0:
256,192,171296,1,8,0:0:0:0:
256,192,171346,1,8,0:0:0:0:
256,192,171396,1,8,0:0:0:0:
256,192,171446,1,0,0:0:0:0:
256,192,171496,1,0,0:0:0:0:
256,192,171546,1,0,0:0:0:0:
256,192,171646,1,8,0:0:0:0:
256,192,171696,1,0,0:0:0:0:
256,192,171746,1,8,0:0:0:0:
256,192,171796,1,8,0:0:0:0:
256,192,171846,1,0,0:0:0:0:
256,192,171953,1,0,0:0:0:0:
256,192,172006,1,0,0:0:0:0:
256,192,172060,1,8,0:0:0:0:
256,192,172167,1,0,0:0:0:0:
256,192,172274,1,8,0:0:0:0:
256,192,172328,1,8,0:0:0:0:
256,192,172381,1,0,0:0:0:0:
256,192,172435,1,0,0:0:0:0:
256,192,172488,1,8,0:0:0:0:
256,192,172542,1,8,0:0:0:0:
256,192,172596,1,8,0:0:0:0:
256,192,172649,1,8,0:0:0:0:
256,192,172703,1,0,0:0:0:0:
256,192,172760,1,0,0:0:0:0:
256,192,172818,1,0,0:0:0:0:
256,192,172876,1,0,0:0:0:0:
256,192,172934,1,0,0:0:0:0:
256,192,172992,1,0,0:0:0:0:
256,192,173049,1,0,0:0:0:0:
256,192,173107,1,0,0:0:0:0:
256,192,173165,1,0,0:0:0:0:
256,192,173223,1,0,0:0:0:0:
256,192,173281,1,0,0:0:0:0:
256,192,173338,1,0,0:0:0:0:
256,192,173396,1,8,0:0:0:0:
256,192,173454,1,0,0:0:0:0:
256,192,173512,1,0,0:0:0:0:
256,192,173570,1,0,0:0:0:0:
256,192,173627,1,8,0:0:0:0:
256,192,173685,1,0,0:0:0:0:
256,192,173743,1,8,0:0:0:0:
256,192,173801,1,8,0:0:0:0:
256,192,173859,1,8,0:0:0:0:
256,192,173916,1,0,0:0:0:0:
256,192,173974,1,8,0:0:0:0:
256,192,174032,1,0,0:0:0:0:
256,192,174090,1,8,0:0:0:0:
256,192,174148,1,0,0:0:0:0:
256,192,174205,1,8,0:0:0:0:
256,192,174263,1,8,0:0:0:0:
256,192,174321,1,0,0:0:0:0:
256,192,174379,1,0,0:0:0:0:
256,192,174437,1,8,0:0:0:0:
256,192,174494,1,8,0:0:0:0:
256,192,174552,1,0,0:0:0:0:
256,192,174610,1,0,0:0:0:0:
256,192,174668,1,8,0:0:0:0:
256,192,174726,1,0,0:0:0:0:
256,192,174783,1,8,0:0:0:0:
256,192,175015,1,0,0:0:0:0:
256,192,175072,1,0,0:0:0:0:
256,192,175130,1,0,0:0:0:0:
256,192,175188,1,0,0:0:0:0:
256,192,175246,1,8,0:0:0:0:
256,192,175361,1,0,0:0:0:0:
256,192,175477,1,8,0:0:0:0:
256,192,175535,1,8,0:0:0:0:
256,192,175593,1,8,0:0:0:0:
256,192,175650,1,8,0:0:0:0:
256,192,175708,1,0,0:0:0:0:
256,192,175824,1,0,0:0:0:0:
256,192,175882,1,0,0:0:0:0:
256,192,175939,1,8,0:0:0:0:
256,192,176055,1,0,0:0:0:0:
256,192,176171,1,8,0:0:0:0:
256,192,176229,1,0,0:0:0:0:
256,192,176286,1,8,0:0:0:0:
256,192,176344,1,8,0:0:0:0:
256,192,176402,1,0,0:0:0:0:
256,192,176460,1,0,0:0:0:0:
256,192,176518,1,8,0:0:0:0:
256,192,176575,1,0,0:0:0:0:
256,192,176633,1,8,0:0:0:0:
256,192,176691,1,8,0:0:0:0:
256,192,176749,1,0,0:0:0:0:
256,192,176807,1,0,0:0:0:0:
256,192,176864,1,8,0:0:0:0:
256,192,176922,1,0,0:0:0:0:
256,192,176980,1,8,0:0:0:0:
256,192,177038,1,0,0:0:0:0:
256,192,177096,1,8,0:0:0:0:
256,192,177153,1,8,0:0:0:0:
256,192,177211,1,0,0:0:0:0:
256,192,177269,1,0,0:0:0:0:
256,192,177327,1,8,0:0:0:0:
256,192,177385,1,8,0:0:0:0:
256,192,177442,1,0,0:0:0:0:
256,192,177500,1,0,0:0:0:0:
256,192,177558,1,8,0:0:0:0:
256,192,177616,1,8,0:0:0:0:
256,192,177674,1,8,0:0:0:0:
256,192,177731,1,8,0:0:0:0:
256,192,177789,1,0,0:0:0:0:
256,192,177847,1,0,0:0:0:0:
256,192,177905,1,8,0:0:0:0:
256,192,177963,1,0,0:0:0:0:
256,192,178020,1,8,0:0:0:0:
256,192,178078,1,8,0:0:0:0:
256,192,178136,1,0,0:0:0:0:
256,192,178194,1,0,0:0:0:0:
256,192,178252,1,8,0:0:0:0:
256,192,178309,1,8,0:0:0:0:
256,192,178367,1,8,0:0:0:0:
256,192,178425,1,8,0:0:0:0:
256,192,178483,1,0,0:0:0:0:
256,192,178541,1,0,0:0:0:0:
256,192,178598,1,0,0:0:0:0:
256,192,178656,1,0,0:0:0:0:
256,192,178714,1,8,0:0:0:0:
256,192,178772,1,0,0:0:0:0:
256,192,178830,1,0,0:0:0:0:
256,192,178887,1,0,0:0:0:0:
256,192,178945,1,8,0:0:0:0:
256,192,179003,1,8,0:0:0:0:
256,192,179061,1,0,0:0:0:0:
256,192,179119,1,0,0:0:0:0:
256,192,179176,1,8,0:0:0:0:
256,192,179234,1,0,0:0:0:0:
256,192,179292,1,8,0:0:0:0:
256,192,179350,1,8,0:0:0:0:
256,192,179408,1,0,0:0:0:0:
256,192,179466,1,0,0:0:0:0:
256,192,179523,1,8,0:0:0:0:
256,192,179581,1,0,0:0:0:0:
256,192,179639,1,8,0:0:0:0:
256,192,179697,1,8,0:0:0:0:
256,192,179755,1,8,0:0:0:0:
256,192,179812,1,8,0:0:0:0:
256,192,179870,1,0,0:0:0:0:
256,192,179928,1,0,0:0:0:0:
256,192,179986,1,8,0:0:0:0:
256,192,180044,1,8,0:0:0:0:
256,192,180101,1,0,0:0:0:0:
256,192,180159,1,0,0:0:0:0:
256,192,180217,1,8,0:0:0:0:
256,192,180275,1,0,0:0:0:0:
256,192,180333,1,8,0:0:0:0:
256,192,180390,1,8,0:0:0:0:
256,192,180448,1,0,0:0:0:0:
256,192,180506,1,0,0:0:0:0:
256,192,180564,1,8,0:0:0:0:
256,192,180622,1,8,0:0:0:0:
256,192,180679,1,0,0:0:0:0:
256,192,180737,1,0,0:0:0:0:
256,192,180795,1,8,0:0:0:0:
256,192,180853,1,0,0:0:0:0:
256,192,180911,1,0,0:0:0:0:
256,192,180968,1,0,0:0:0:0:
256,192,181026,1,8,0:0:0:0:
256,192,181084,1,0,0:0:0:0:
256,192,181142,1,8,0:0:0:0:
256,192,181200,1,8,0:0:0:0:
256,192,181257,1,0,0:0:0:0:
256,192,181489,1,8,0:0:0:0:
256,192,181604,1,0,0:0:0:0:
256,192,181720,1,8,0:0:0:0:
256,192,181778,1,0,0:0:0:0:
256,192,181835,1,8,0:0:0:0:
256,192,181893,1,8,0:0:0:0:
256,192,181951,1,0,0:0:0:0:
256,192,182009,1,0,0:0:0:0:
256,192,182067,1,0,0:0:0:0:
256,192,182124,1,0,0:0:0:0:
256,192,182182,1,8,0:0:0:0:
256,192,182240,1,8,0:0:0:0:
256,192,182298,1,8,0:0:0:0:
256,192,182356,1,0,0:0:0:0:
256,192,182413,1,8,0:0:0:0:
256,192,182471,1,0,0:0:0:0:
256,192,182529,1,8,0:0:0:0:
256,192,182587,1,0,0:0:0:0:
256,192,182645,1,8,0:0:0:0:
256,192,182703,1,8,0:0:0:0:
256,192,182760,1,0,0:0:0:0:
256,192,182818,1,0,0:0:0:0:
256,192,182876,1,8,0:0:0:0:
256,192,182934,1,8,0:0:0:0:
256,192,182992,1,0,0:0:0:0:
256,192,183049,1,0,0:0:0:0:
256,192,183107,1,8,0:0:0:0:
256,192,183165,1,8,0:0:0:0:
256,192,183223,1,8,0:0:0:0:
256,192,183281,1,8,0:0:0:0:
256,192,183338,1,0,0:0:0:0:
256,192,183396,1,0,0:0:0:0:
256,192,183454,1,0,0:0:0:0:
256,192,183512,1,0,0:0:0:0:
256,192,183570,1,8,0:0:0:0:
256,192,183685,1,0,0:0:0:0:
256,192,183801,1,8,0:0:0:0:
256,192,183858,1,8,0:0:0:0:
256,192,183916,1,0,0:0:0:0:
256,192,183974,1,0,0:0:0:0:
256,192,184031,1,8,0:0:0:0:
256,192,184089,1,0,0:0:0:0:
256,192,184147,1,8,0:0:0:0:
256,192,184204,1,0,0:0:0:0:
256,192,184262,1,8,0:0:0:0:
256,192,184320,1,8,0:0:0:0:
256,192,184377,1,0,0:0:0:0:
256,192,184435,1,0,0:0:0:0:
256,192,184493,1,8,0:0:0:0:
256,192,184551,1,8,0:0:0:0:
256,192,184608,1,8,0:0:0:0:
256,192,184666,1,0,0:0:0:0:
256,192,184724,1,8,0:0:0:0:
256,192,184781,1,8,0:0:0:0:
256,192,184839,1,0,0:0:0:0:
256,192,184897,1,0,0:0:0:0:
256,192,184954,1,8,0:0:0:0:
256,192,185012,1,0,0:0:0:0:
256,192,185070,1,8,0:0:0:0:
256,192,185127,1,8,0:0:0:0:
256,192,185185,1,8,0:0:0:0:
256,192,185243,1,0,0:0:0:0:
256,192,185301,1,8,0:0:0:0:
256,192,185358,1,0,0:0:0:0:
256,192,185416,1,0,0:0:0:0:
256,192,185474,1,0,0:0:0:0:
256,192,185531,1,8,0:0:0:0:
256,192,185589,1,0,0:0:0:0:
256,192,185647,1,8,0:0:0:0:
256,192,185704,1,8,0:0:0:0:
256,192,185762,1,0,0:0:0:0:
256,192,185820,1,0,0:0:0:0:
256,192,185877,1,8,0:0:0:0:
256,192,185935,1,8,0:0:0:0:
256,192,185993,1,8,0:0:0:0:
256,192,186051,1,0,0:0:0:0:
256,192,186108,1,8,0:0:0:0:
256,192,186166,1,8,0:0:0:0:
256,192,186224,1,0,0:0:0:0:
256,192,186281,1,0,0:0:0:0:
256,192,186339,1,0,0:0:0:0:
256,192,186397,1,0,0:0:0:0:
256,192,186454,1,8,0:0:0:0:
256,192,186512,1,0,0:0:0:0:
256,192,186570,1,8,0:0:0:0:
256,192,186627,1,8,0:0:0:0:
256,192,186685,1,0,0:0:0:0:
256,192,186743,1,0,0:0:0:0:
256,192,186801,1,0,0:0:0:0:
256,192,186858,1,0,0:0:0:0:
256,192,186916,1,8,0:0:0:0:
256,192,186974,1,0,0:0:0:0:
256,192,187031,1,8,0:0:0:0:
256,192,187089,1,0,0:0:0:0:
256,192,187147,1,8,0:0:0:0:
256,192,187204,1,0,0:0:0:0:
256,192,187262,1,8,0:0:0:0:
256,192,187320,1,8,0:0:0:0:
256,192,187377,1,0,0:0:0:0:
256,192,187435,1,0,0:0:0:0:
256,192,187493,1,8,0:0:0:0:
256,192,187551,1,8,0:0:0:0:
256,192,187608,1,8,0:0:0:0:
256,192,187666,1,0,0:0:0:0:
256,192,187724,1,8,0:0:0:0:
256,192,187781,1,0,0:0:0:0:
256,192,187839,1,0,0:0:0:0:
256,192,187897,1,0,0:0:0:0:
256,192,187954,1,8,0:0:0:0:
256,192,188012,1,0,0:0:0:0:
256,192,188070,1,0,0:0:0:0:
256,192,188127,1,0,0:0:0:0:
256,192,188185,1,8,0:0:0:0:
256,192,188243,1,0,0:0:0:0:
256,192,188301,1,8,0:0:0:0:
256,192,188358,1,0,0:0:0:0:
256,192,188416,1,8,0:0:0:0:
256,192,188474,1,8,0:0:0:0:
256,192,188531,1,0,0:0:0:0:
256,192,188589,1,0,0:0:0:0:
256,192,188647,1,8,0:0:0:0:
256,192,188704,1,0,0:0:0:0:
256,192,188762,1,0,0:0:0:0:
256,192,188820,1,0,0:0:0:0:
256,192,188877,1,8,0:0:0:0:
256,192,188935,1,8,0:0:0:0:
256,192,188993,1,0,0:0:0:0:
256,192,189051,1,0,0:0:0:0:
256,192,189108,1,8,0:0:0:0:
256,192,189166,1,8,0:0:0:0:
256,192,189224,1,8,0:0:0:0:
256,192,189281,1,0,0:0:0:0:
256,192,189339,1,8,0:0:0:0:
256,192,189397,1,8,0:0:0:0:
256,192,189454,1,0,0:0:0:0:
256,192,189512,1,0,0:0:0:0:
256,192,189570,1,8,0:0:0:0:
256,192,189627,1,0,0:0:0:0:
256,192,189685,1,8,0:0:0:0:
256,192,189743,1,0,0:0:0:0:
256,192,189801,1,8,0:0:0:0:
256,192,189858,1,8,0:0:0:0:
256,192,189916,1,0,0:0:0:0:
256,192,189974,1,0,0:0:0:0:
256,192,190031,1,8,0:0:0:0:
256,192,190089,1,8,0:0:0:0:
256,192,190147,1,8,0:0:0:0:
256,192,190204,1,0,0:0:0:0:
256,192,190262,1,8,0:0:0:0:
256,192,190320,1,8,0:0:0:0:
256,192,190377,1,0,0:0:0:0:
256,192,190435,1,8,0:0:0:0:
256,192,190493,1,0,0:0:0:0:
256,192,190551,1,0,0:0:0:0:
256,192,190608,1,8,0:0:0:0:
256,192,190666,1,0,0:0:0:0:
256,192,190724,1,8,0:0:0:0:
256,192,190781,1,8,0:0:0:0:
256,192,190839,1,0,0:0:0:0:
256,192,190897,1,0,0:0:0:0:
256,192,190954,1,8,0:0:0:0:
256,192,191012,1,0,0:0:0:0:
256,192,191070,1,8,0:0:0:0:
256,192,191127,1,0,0:0:0:0:
256,192,191185,1,8,0:0:0:0:
256,192,191243,1,8,0:0:0:0:
256,192,191301,1,0,0:0:0:0:
256,192,191358,1,0,0:0:0:0:
256,192,191416,1,8,0:0:0:0:
256,192,191474,1,8,0:0:0:0:
256,192,191531,1,0,0:0:0:0:
256,192,191589,1,8,0:0:0:0:
256,192,191647,1,0,0:0:0:0:
256,192,191704,1,0,0:0:0:0:
256,192,191762,1,8,0:0:0:0:
256,192,191820,1,0,0:0:0:0:
256,192,191877,1,8,0:0:0:0:
256,192,191935,1,8,0:0:0:0:
256,192,191993,1,0,0:0:0:0:
256,192,192051,1,0,0:0:0:0:
256,192,192108,1,8,0:0:0:0:
256,192,192166,1,8,0:0:0:0:
256,192,192224,1,0,0:0:0:0:
256,192,192281,1,0,0:0:0:0:
256,192,192339,1,8,0:0:0:0:
256,192,192397,1,0,0:0:0:0:
256,192,192454,1,8,0:0:0:0:
256,192,192512,1,0,0:0:0:0:
256,192,192570,1,8,0:0:0:0:
256,192,192627,1,8,0:0:0:0:
256,192,192685,1,0,0:0:0:0:
256,192,192743,1,8,0:0:0:0:
256,192,192801,1,0,0:0:0:0:
256,192,192858,1,0,0:0:0:0:
256,192,192916,1,8,0:0:0:0:
256,192,192974,1,0,0:0:0:0:
256,192,193031,1,8,0:0:0:0:
256,192,193089,1,0,0:0:0:0:
256,192,193147,1,0,0:0:0:0:
256,192,193204,1,0,0:0:0:0:
256,192,193262,1,8,0:0:0:0:
256,192,193320,1,8,0:0:0:0:
256,192,193377,1,0,0:0:0:0:
256,192,193435,1,0,0:0:0:0:
256,192,193493,1,8,0:0:0:0:
256,192,193551,1,8,0:0:0:0:
256,192,193608,1,0,0:0:0:0:
256,192,193666,1,0,0:0:0:0:
256,192,193724,1,8,0:0:0:0:
256,192,193781,1,0,0:0:0:0:
256,192,193839,1,8,0:0:0:0:
256,192,193897,1,0,0:0:0:0:
256,192,193954,1,8,0:0:0:0:
256,192,194012,1,8,0:0:0:0:
256,192,194070,1,0,0:0:0:0:
256,192,194127,1,0,0:0:0:0:
256,192,194185,1,8,0:0:0:0:
256,192,194243,1,8,0:0:0:0:
256,192,194301,1,8,0:0:0:0:
256,192,194358,1,8,0:0:0:0:
256,192,194416,1,0,0:0:0:0:
256,192,194474,1,0,0:0:0:0:
256,192,194531,1,8,0:0:0:0:
256,192,194589,1,8,0:0:0:0:
256,192,194647,1,0,0:0:0:0:
256,192,194704,1,0,0:0:0:0:
256,192,194762,1,0,0:0:0:0:
256,192,194820,1,0,0:0:0:0:
256,192,194877,1,8,0:0:0:0:
256,192,194935,1,8,0:0:0:0:
256,192,194993,1,0,0:0:0:0:
256,192,195051,1,0,0:0:0:0:
256,192,195108,1,8,0:0:0:0:
256,192,195166,1,0,0:0:0:0:
256,192,195224,1,0,0:0:0:0:
256,192,195281,1,0,0:0:0:0:
256,192,195339,1,8,0:0:0:0:
256,192,195397,1,0,0:0:0:0:
256,192,195454,1,8,0:0:0:0:
256,192,195512,1,0,0:0:0:0:
256,192,195570,1,8,0:0:0:0:
256,192,195627,1,8,0:0:0:0:
256,192,195685,1,0,0:0:0:0:
256,192,195743,1,0,0:0:0:0:
256,192,195801,1,8,0:0:0:0:
256,192,195858,1,0,0:0:0:0:
256,192,195916,1,0,0:0:0:0:
256,192,195974,1,0,0:0:0:0:
256,192,196031,1,8,0:0:0:0:
256,192,196089,1,0,0:0:0:0:
256,192,196147,1,8,0:0:0:0:
256,192,196204,1,0,0:0:0:0:
256,192,196262,1,8,0:0:0:0:
256,192,196320,1,8,0:0:0:0:
256,192,196377,1,0,0:0:0:0:
256,192,196435,1,0,0:0:0:0:
256,192,196493,1,8,0:0:0:0:
256,192,196551,1,0,0:0:0:0:
256,192,196608,1,0,0:0:0:0:
256,192,196666,1,0,0:0:0:0:
256,192,196724,1,8,0:0:0:0:
256,192,196781,1,0,0:0:0:0:
256,192,196839,1,8,0:0:0:0:
256,192,196897,1,0,0:0:0:0:
256,192,196954,1,8,0:0:0:0:
256,192,197012,1,8,0:0:0:0:
256,192,197070,1,0,0:0:0:0:
256,192,197127,1,0,0:0:0:0:
256,192,197185,1,8,0:0:0:0:
256,192,197243,1,8,0:0:0:0:
256,192,197301,1,8,0:0:0:0:
256,192,197358,1,8,0:0:0:0:
256,192,197416,1,0,0:0:0:0:
256,192,197474,1,0,0:0:0:0:
256,192,197531,1,8,0:0:0:0:
256,192,197589,1,0,0:0:0:0:
256,192,197647,1,8,0:0:0:0:
256,192,197704,1,8,0:0:0:0:
256,192,197762,1,0,0:0:0:0:
256,192,197820,1,0,0:0:0:0:
256,192,197877,1,8,0:0:0:0:
256,192,197935,1,0,0:0:0:0:
256,192,197993,1,0,0:0:0:0:
256,192,198051,1,0,0:0:0:0:
256,192,198108,1,8,0:0:0:0:
256,192,198166,1,0,0:0:0:0:
256,192,198224,1,8,0:0:0:0:
256,192,198281,1,0,0:0:0:0:
256,192,198339,1,8,0:0:0:0:
256,192,198397,1,8,0:0:0:0:
256,192,198454,1,0,0:0:0:0:
256,192,198512,1,0,0:0:0:0:
256,192,198570,1,8,0:0:0:0:
256,192,198627,1,8,0:0:0:0:
256,192,198685,1,8,0:0:0:0:
256,192,198743,1,8,0:0:0:0:
256,192,198801,1,0,0:0:0:0:
256,192,198858,1,8,0:0:0:0:
256,192,198916,1,0,0:0:0:0:
256,192,198974,1,0,0:0:0:0:
256,192,199031,1,8,0:0:0:0:
256,192,199147,1,0,0:0:0:0:
256,192,199204,1,0,0:0:0:0:
256,192,199262,1,0,0:0:0:0:
256,192,199377,1,8,0:0:0:0:
256,192,199493,1,0,0:0:0:0:
256,192,199608,1,0,0:0:0:0:
256,192,199724,1,8,0:0:0:0:
256,192,199839,1,8,0:0:0:0:
256,192,199897,1,8,0:0:0:0:
256,192,199954,1,0,0:0:0:0:
256,192,200012,1,8,0:0:0:0:
256,192,200070,1,0,0:0:0:0:
256,192,200127,1,0,0:0:0:0:
256,192,200185,1,8,0:0:0:0:
256,192,200243,1,8,0:0:0:0:
256,192,200301,1,0,0:0:0:0:
256,192,200358,1,0,0:0:0:0:
256,192,200416,1,8,0:0:0:0:
256,192,200647,1,0,0:0:0:0:
256,192,200762,1,0,0:0:0:0:
256,192,200877,1,8,0:0:0:0:
256,192,200935,1,8,0:0:0:0:
256,192,200993,1,8,0:0:0:0:
256,192,201051,1,0,0:0:0:0:
256,192,201108,1,8,0:0:0:0:
256,192,201339,1,8,0:0:0:0:
256,192,201397,1,0,0:0:0:0:
256,192,201454,1,0,0:0:0:0:
256,192,201512,1,0,0:0:0:0:
256,192,201570,1,8,0:0:0:0:
256,192,201685,1,8,0:0:0:0:
256,192,201801,1,0,0:0:0:0:
256,192,201858,1,0,0:0:0:0:
256,192,201916,1,8,0:0:0:0:
256,192,201974,1,8,0:0:0:0:
256,192,202031,1,0,0:0:0:0:
256,192,202089,1,8,0:0:0:0:
256,192,202147,1,0,0:0:0:0:
256,192,202204,1,0,0:0:0:0:
256,192,202262,1,8,0:0:0:0:
256,192,202320,1,8,0:0:0:0:
256,192,202377,1,0,0:0:0:0:
256,192,202435,1,0,0:0:0:0:
256,192,202493,1,8,0:0:0:0:
256,192,202551,1,8,0:0:0:0:
256,192,202608,1,8,0:0:0:0:
256,192,202666,1,8,0:0:0:0:
256,192,202724,1,0,0:0:0:0:
256,192,202781,1,0,0:0:0:0:
256,192,202839,1,0,0:0:0:0:
256,192,202897,1,0,0:0:0:0:
256,192,202954,1,8,0:0:0:0:
256,192,203012,1,0,0:0:0:0:
256,192,203070,1,0,0:0:0:0:
256,192,203127,1,0,0:0:0:0:
256,192,203185,1,8,0:0:0:0:
256,192,203243,1,8,0:0:0:0:
256,192,203301,1,0,0:0:0:0:
256,192,203358,1,0,0:0:0:0:
256,192,203416,1,8,0:0:0:0:
256,192,203474,1,0,0:0:0:0:
256,192,203531,1,8,0:0:0:0:
256,192,203589,1,0,0:0:0:0:
256,192,203647,1,8,0:0:0:0:
256,192,203704,1,8,0:0:0:0:
256,192,203762,1,0,0:0:0:0:
256,192,203820,1,0,0:0:0:0:
256,192,203877,1,8,0:0:0:0:
256,192,204108,1,0,0:0:0:0:
256,192,204166,1,0,0:0:0:0:
256,192,204224,1,0,0:0:0:0:
256,192,204281,1,0,0:0:0:0:
256,192,204339,1,0,0:0:0:0:
256,192,204397,1,0,0:0:0:0:
256,192,204454,1,8,0:0:0:0:
256,192,204512,1,0,0:0:0:0:
256,192,204570,1,8,0:0:0:0:
256,192,204627,1,8,0:0:0:0:
256,192,204685,1,0,0:0:0:0:
256,192,204743,1,0,0:0:0:0:
256,192,204801,1,8,0:0:0:0:
256,192,204858,1,0,0:0:0:0:
256,192,204916,1,0,0:0:0:0:
256,192,204974,1,0,0:0:0:0:
256,192,205031,1,8,0:0:0:0:
256,192,205089,1,0,0:0:0:0:
256,192,205147,1,0,0:0:0:0:
256,192,205204,1,0,0:0:0:0:
256,192,205262,1,8,0:0:0:0:
256,192,205320,1,8,0:0:0:0:
256,192,205377,1,0,0:0:0:0:
256,192,205435,1,0,0:0:0:0:
256,192,205493,1,8,0:0:0:0:
256,192,205608,1,0,0:0:0:0:
256,192,205839,1,0,0:0:0:0:
256,192,205954,5,12,0:0:0:0:
256,192,206306,1,0,0:0:0:0:
256,192,206659,1,0,0:0:0:0:
256,192,207012,1,0,0:0:0:0:
256,192,207365,1,8,0:0:0:0:
256,192,207715,1,0,0:0:0:0:
256,192,208066,1,0,0:0:0:0:
256,192,208417,1,0,0:0:0:0:
256,192,208768,1,8,0:0:0:0:
256,192,209101,1,0,0:0:0:0:
256,192,209434,1,0,0:0:0:0:
256,192,209768,1,0,0:0:0:0:
256,192,210101,1,8,0:0:0:0:
256,192,210434,1,0,0:0:0:0:
256,192,210768,1,0,0:0:0:0:
256,192,211101,1,0,0:0:0:0:
256,192,211434,1,8,0:0:0:0:
256,192,211749,1,0,0:0:0:0:
256,192,212065,1,0,0:0:0:0:
256,192,212381,1,0,0:0:0:0:
256,192,212697,1,8,0:0:0:0:
256,192,213012,1,0,0:0:0:0:
256,192,213328,1,0,0:0:0:0:
256,192,213644,1,8,0:0:0:0:
256,192,213947,1,0,0:0:0:0:
256,192,214250,1,0,0:0:0:0:
256,192,214553,1,0,0:0:0:0:
256,192,214856,1,8,0:0:0:0:
256,192,215159,1,0,0:0:0:0:
256,192,215462,1,0,0:0:0:0:
256,192,215765,1,8,0:0:0:0:
256,192,216052,1,0,0:0:0:0:
256,192,216339,1,0,0:0:0:0:
256,192,216626,1,0,0:0:0:0:
256,192,216913,1,8,0:0:0:0:
256,192,217200,1,0,0:0:0:0:
256,192,217487,1,0,0:0:0:0:
256,192,217774,1,0,0:0:0:0:
256,192,218061,1,8,0:0:0:0:
256,192,218317,1,0,0:0:0:0:
256,192,218573,1,0,0:0:0:0:
256,192,218830,1,0,0:0:0:0:
256,192,219086,1,8,0:0:0:0:
256,192,219330,1,0,0:0:0:0:
256,192,219575,1,0,0:0:0:0:
256,192,219820,1,0,0:0:0:0:
256,192,220065,1,8,0:0:0:0:
256,192,220287,1,0,0:0:0:0:
256,192,220509,1,0,0:0:0:0:
256,192,220731,1,0,0:0:0:0:
256,192,220953,1,8,0:0:0:0:
256,192,221167,1,0,0:0:0:0:
256,192,221381,1,0,0:0:0:0:
256,192,221595,1,8,0:0:0:0:
256,192,221811,1,0,0:0:0:0:
256,192,222027,1,0,0:0:0:0:
256,192,222243,1,0,0:0:0:0:
256,192,222459,1,8,0:0:0:0:
256,192,222681,1,0,0:0:0:0:
256,192,222903,1,0,0:0:0:0:
256,192,223125,1,0,0:0:0:0:
256,192,223347,1,8,0:0:0:0:
256,192,223565,1,0,0:0:0:0:
256,192,223784,1,0,0:0:0:0:
256,192,224003,1,0,0:0:0:0:
256,192,224222,1,8,0:0:0:0:
256,192,224424,1,0,0:0:0:0:
256,192,224627,1,0,0:0:0:0:
256,192,224830,1,0,0:0:0:0:
256,192,225032,1,8,0:0:0:0:
256,192,225232,1,0,0:0:0:0:
256,192,225432,1,0,0:0:0:0:
256,192,225632,1,0,0:0:0:0:
256,192,225832,1,8,0:0:0:0:
256,192,226032,1,0,0:0:0:0:
256,192,226232,1,0,0:0:0:0:
256,192,226432,1,0,0:0:0:0:
256,192,226632,1,8,0:0:0:0:
256,192,226832,1,0,0:0:0:0:
256,192,227032,1,0,0:0:0:0:
256,192,227232,1,0,0:0:0:0:
256,192,227432,1,8,0:0:0:0:
256,192,227632,1,0,0:0:0:0:
256,192,227832,1,0,0:0:0:0:
256,192,228032,1,8,0:0:0:0:
256,192,228232,1,0,0:0:0:0:
256,192,228432,1,0,0:0:0:0:
256,192,228632,1,0,0:0:0:0:
256,192,228832,1,8,0:0:0:0:
256,192,229032,1,0,0:0:0:0:
256,192,229232,1,0,0:0:0:0:
256,192,229432,1,0,0:0:0:0:
256,192,229632,1,12,0:0:0:0:
256,192,229732,1,8,0:0:0:0:
256,192,229782,1,0,0:0:0:0:
256,192,229832,1,0,0:0:0:0:
256,192,229882,1,0,0:0:0:0:
256,192,229932,1,0,0:0:0:0:
256,192,229982,1,0,0:0:0:0:
256,192,230032,1,8,0:0:0:0:
256,192,230082,1,0,0:0:0:0:
256,192,230132,1,8,0:0:0:0:
256,192,230182,1,0,0:0:0:0:
256,192,230232,1,8,0:0:0:0:
256,192,230282,1,8,0:0:0:0:
256,192,230332,1,8,0:0:0:0:
256,192,230382,1,0,0:0:0:0:
256,192,230432,1,8,0:0:0:0:
256,192,230482,1,8,0:0:0:0:
256,192,230532,1,8,0:0:0:0:
256,192,230582,1,0,0:0:0:0:
256,192,230632,1,0,0:0:0:0:
256,192,230682,1,0,0:0:0:0:
256,192,230732,1,0,0:0:0:0:
256,192,230782,1,0,0:0:0:0:
256,192,230832,1,8,0:0:0:0:
256,192,230882,1,0,0:0:0:0:
256,192,230932,1,0,0:0:0:0:
256,192,230982,1,0,0:0:0:0:
256,192,231032,1,8,0:0:0:0:
256,192,231082,1,8,0:0:0:0:
256,192,231132,1,8,0:0:0:0:
256,192,231182,1,0,0:0:0:0:
256,192,231232,1,8,0:0:0:0:
256,192,231282,1,0,0:0:0:0:
256,192,231332,1,8,0:0:0:0:
256,192,231382,1,0,0:0:0:0:
256,192,231432,1,8,0:0:0:0:
256,192,231482,1,0,0:0:0:0:
256,192,231532,1,8,0:0:0:0:
256,192,231582,1,0,0:0:0:0:
256,192,231632,1,8,0:0:0:0:
256,192,231682,1,0,0:0:0:0:
256,192,231732,1,0,0:0:0:0:
256,192,231782,1,0,0:0:0:0:
256,192,231832,1,0,0:0:0:0:
256,192,231882,1,0,0:0:0:0:
256,192,231932,1,0,0:0:0:0:
256,192,231982,1,0,0:0:0:0:
256,192,232032,1,8,0:0:0:0:
256,192,232082,1,8,0:0:0:0:
256,192,232132,1,8,0:0:0:0:
256,192,232182,1,0,0:0:0:0:
256,192,232232,1,0,0:0:0:0:
256,192,232282,1,0,0:0:0:0:
256,192,232332,1,0,0:0:0:0:
256,192,232432,1,8,0:0:0:0:
256,192,232482,1,8,0:0:0:0:
256,192,232532,1,8,0:0:0:0:
256,192,232582,1,0,0:0:0:0:
256,192,232632,1,0,0:0:0:0:
256,192,232682,1,0,0:0:0:0:
256,192,232732,1,0,0:0:0:0:
256,192,232832,1,8,0:0:0:0:
256,192,232882,1,8,0:0:0:0:
256,192,232932,1,8,0:0:0:0:
256,192,232982,1,8,0:0:0:0:
256,192,233032,1,8,0:0:0:0:
256,192,233082,1,0,0:0:0:0:
256,192,233132,1,8,0:0:0:0:
256,192,233182,1,0,0:0:0:0:
256,192,233232,1,8,0:0:0:0:
256,192,233282,1,8,0:0:0:0:
256,192,233332,1,8,0:0:0:0:
256,192,233382,1,0,0:0:0:0:
256,192,233432,1,0,0:0:0:0:
256,192,233482,1,0,0:0:0:0:
256,192,233532,1,0,0:0:0:0:
256,192,233582,1,0,0:0:0:0:
256,192,233632,1,0,0:0:0:0:
256,192,233682,1,0,0:0:0:0:
256,192,233732,1,0,0:0:0:0:
256,192,233782,1,0,0:0:0:0:
256,192,233832,1,8,0:0:0:0:
256,192,233882,1,8,0:0:0:0:
256,192,233932,1,8,0:0:0:0:
256,192,234032,1,8,0:0:0:0:
256,192,234082,1,0,0:0:0:0:
256,192,234132,1,8,0:0:0:0:
256,192,234182,1,8,0:0:0:0:
256,192,234232,1,8,0:0:0:0:
256,192,234282,1,8,0:0:0:0:
256,192,234332,1,0,0:0:0:0:
256,192,234432,1,8,0:0:0:0:
256,192,234482,1,8,0:0:0:0:
256,192,234532,1,8,0:0:0:0:
256,192,234582,1,8,0:0:0:0:
256,192,234632,1,8,0:0:0:0:
256,192,234682,1,0,0:0:0:0:
256,192,234732,1,0,0:0:0:0:
256,192,234782,1,0,0:0:0:0:
256,192,234832,1,8,0:0:0:0:
256,192,234882,1,0,0:0:0:0:
256,192,234932,1,0,0:0:0:0:
256,192,234982,1,0,0:0:0:0:
256,192,235032,1,8,0:0:0:0:
256,192,235082,1,0,0:0:0:0:
256,192,235132,1,0,0:0:0:0:
256,192,235182,1,0,0:0:0:0:
256,192,235232,1,8,0:0:0:0:
256,192,235282,1,0,0:0:0:0:
256,192,235332,1,0,0:0:0:0:
256,192,235382,1,0,0:0:0:0:
256,192,235432,1,8,0:0:0:0:
256,192,235482,1,8,0:0:0:0:
256,192,235532,1,0,0:0:0:0:
256,192,235632,1,0,0:0:0:0:
256,192,235682,1,0,0:0:0:0:
256,192,235732,1,0,0:0:0:0:
256,192,235782,1,0,0:0:0:0:
256,192,235832,1,8,0:0:0:0:
256,192,235882,1,8,0:0:0:0:
256,192,235932,1,8,0:0:0:0:
256,192,236032,1,8,0:0:0:0:
256,192,236082,1,8,0:0:0:0:
256,192,236132,1,8,0:0:0:0:
256,192,236182,1,8,0:0:0:0:
256,192,236232,1,8,0:0:0:0:
256,192,236282,1,0,0:0:0:0:
256,192,236332,1,8,0:0:0:0:
256,192,236382,1,0,0:0:0:0:
256,192,236432,1,12,0:0:0:0:
256,192,236832,1,8,0:0:0:0:
256,192,236882,1,8,0:0:0:0:
256,192,236932,1,8,0:0:0:0:
256,192,236982,1,8,0:0:0:0:
256,192,237032,1,8,0:0:0:0:
256,192,237082,1,0,0:0:0:0:
256,192,237132,1,0,0:0:0:0:
256,192,237232,1,0,0:0:0:0:
256,192,237332,1,0,0:0:0:0:
256,192,237432,1,8,0:0:0:0:
256,192,237532,1,8,0:0:0:0:
256,192,237632,1,8,0:0:0:0:
256,192,237682,1,8,0:0:0:0:
256,192,237732,1,8,0:0:0:0:
256,192,237782,1,8,0:0:0:0:
256,192,237832,1,8,0:0:0:0:
256,192,237882,1,0,0:0:0:0:
256,192,237932,1,8,0:0:0:0:
256,192,238032,1,8,0:0:0:0:
256,192,238132,1,0,0:0:0:0:
256,192,238232,1,0,0:0:0:0:
256,192,238432,5,8,0:0:0:0:
256,192,238482,1,8,0:0:0:0:
256,192,238532,1,8,0:0:0:0:
256,192,238582,1,0,0:0:0:0:
256,192,238632,1,8,0:0:0:0:
256,192,238682,1,8,0:0:0:0:
256,192,238732,1,0,0:0:0:0:
256,192,238832,5,8,0:0:0:0:
256,192,238882,1,8,0:0:0:0:
256,192,238932,1,0,0:0:0:0:
256,192,238982,1,0,0:0:0:0:
256,192,239032,1,8,0:0:0:0:
256,192,239082,1,0,0:0:0:0:
256,192,239132,1,8,0:0:0:0:
256,192,239182,1,8,0:0:0:0:
256,192,239232,1,0,0:0:0:0:
256,192,239282,1,0,0:0:0:0:
256,192,239332,1,8,0:0:0:0:
256,192,239382,1,8,0:0:0:0:
256,192,239432,1,0,0:0:0:0:
256,192,239532,1,8,0:0:0:0:
256,192,239582,1,8,0:0:0:0:
256,192,239632,1,0,0:0:0:0:
256,192,239732,1,0,0:0:0:0:
256,192,239832,1,8,0:0:0:0:
256,192,239932,1,0,0:0:0:0:
256,192,240032,1,8,0:0:0:0:
256,192,240082,1,0,0:0:0:0:
256,192,240132,1,8,0:0:0:0:
256,192,240182,1,8,0:0:0:0:
256,192,240232,1,0,0:0:0:0:
256,192,240332,1,8,0:0:0:0:
256,192,240432,1,0,0:0:0:0:
256,192,240532,1,0,0:0:0:0:
256,192,240582,1,0,0:0:0:0:
256,192,240632,1,8,0:0:0:0:
256,192,240732,1,0,0:0:0:0:
256,192,240832,1,0,0:0:0:0:
256,192,240882,1,0,0:0:0:0:
256,192,240932,1,8,0:0:0:0:
256,192,240982,1,8,0:0:0:0:
256,192,241032,1,0,0:0:0:0:
256,192,241132,1,8,0:0:0:0:
256,192,241182,1,8,0:0:0:0:
256,192,241232,1,0,0:0:0:0:
256,192,241332,1,0,0:0:0:0:
256,192,241432,1,8,0:0:0:0:
256,192,241532,1,0,0:0:0:0:
256,192,241632,1,8,0:0:0:0:
256,192,241682,1,8,0:0:0:0:
256,192,241732,1,0,0:0:0:0:
256,192,241782,1,8,0:0:0:0:
256,192,241832,1,0,0:0:0:0:
256,192,241932,1,8,0:0:0:0:
256,192,241982,1,8,0:0:0:0:
256,192,242032,1,0,0:0:0:0:
256,192,242132,1,0,0:0:0:0:
256,192,242232,1,8,0:0:0:0:
256,192,242282,1,8,0:0:0:0:
256,192,242332,1,0,0:0:0:0:
256,192,242382,1,0,0:0:0:0:
256,192,242432,1,8,0:0:0:0:
256,192,242482,1,8,0:0:0:0:
256,192,242532,1,0,0:0:0:0:
256,192,242582,1,8,0:0:0:0:
256,192,242632,1,0,0:0:0:0:
256,192,242682,1,0,0:0:0:0:
256,192,242732,1,8,0:0:0:0:
256,192,242782,1,8,0:0:0:0:
256,192,242832,1,0,0:0:0:0:
256,192,242882,1,0,0:0:0:0:
256,192,242932,1,0,0:0:0:0:
256,192,242982,1,0,0:0:0:0:
256,192,243032,1,8,0:0:0:0:
256,192,243082,1,8,0:0:0:0:
256,192,243132,1,0,0:0:0:0:
256,192,243182,1,0,0:0:0:0:
256,192,243232,1,8,0:0:0:0:
256,192,243282,1,0,0:0:0:0:
256,192,243332,1,8,0:0:0:0:
256,192,243382,1,8,0:0:0:0:
256,192,243432,1,0,0:0:0:0:
256,192,243532,1,0,0:0:0:0:
256,192,243582,1,0,0:0:0:0:
256,192,243632,1,8,0:0:0:0:
256,192,243732,1,0,0:0:0:0:
256,192,243832,1,12,0:0:0:0:
256,192,244032,1,0,0:0:0:0:
256,192,244082,1,0,0:0:0:0:
256,192,244132,1,8,0:0:0:0:
256,192,244182,1,8,0:0:0:0:
256,192,244232,1,0,0:0:0:0:
256,192,244282,1,0,0:0:0:0:
256,192,244332,1,8,0:0:0:0:
256,192,244382,1,0,0:0:0:0:
256,192,244432,1,8,0:0:0:0:
256,192,244482,1,8,0:0:0:0:
256,192,244532,1,0,0:0:0:0:
256,192,244582,1,0,0:0:0:0:
256,192,244632,1,8,0:0:0:0:
256,192,244682,1,8,0:0:0:0:
256,192,244732,1,0,0:0:0:0:
256,192,244832,1,8,0:0:0:0:
256,192,244882,1,0,0:0:0:0:
256,192,244932,1,8,0:0:0:0:
256,192,244982,1,8,0:0:0:0:
256,192,245032,1,0,0:0:0:0:
256,192,245082,1,8,0:0:0:0:
256,192,245132,1,0,0:0:0:0:
256,192,245182,1,0,0:0:0:0:
256,192,245232,1,8,0:0:0:0:
256,192,245282,1,8,0:0:0:0:
256,192,245332,1,0,0:0:0:0:
256,192,245382,1,0,0:0:0:0:
256,192,245432,1,8,0:0:0:0:
256,192,245482,1,8,0:0:0:0:
256,192,245532,1,8,0:0:0:0:
256,192,245582,1,8,0:0:0:0:
256,192,245632,1,0,0:0:0:0:
256,192,245732,1,8,0:0:0:0:
256,192,245782,1,8,0:0:0:0:
256,192,245832,1,0,0:0:0:0:
256,192,245932,1,8,0:0:0:0:
256,192,246032,1,0,0:0:0:0:
256,192,246132,1,8,0:0:0:0:
256,192,246182,1,0,0:0:0:0:
256,192,246232,1,0,0:0:0:0:
256,192,246332,1,8,0:0:0:0:
256,192,246432,1,0,0:0:0:0:
256,192,246532,1,8,0:0:0:0:
256,192,246582,1,8,0:0:0:0:
256,192,246632,1,0,0:0:0:0:
256,192,246732,1,8,0:0:0:0:
256,192,246832,1,0,0:0:0:0:
256,192,246932,1,8,0:0:0:0:
256,192,246982,1,0,0:0:0:0:
256,192,247032,1,0,0:0:0:0:
256,192,247132,1,8,0:0:0:0:
256,192,247182,1,0,0:0:0:0:
256,192,247232,1,8,0:0:0:0:
256,192,247282,1,8,0:0:0:0:
256,192,247332,1,0,0:0:0:0:
256,192,247432,1,0,0:0:0:0:
256,192,247532,1,8,0:0:0:0:
256,192,247632,1,0,0:0:0:0:
256,192,247682,1,0,0:0:0:0:
256,192,247732,1,8,0:0:0:0:
256,192,247782,1,0,0:0:0:0:
256,192,247832,1,8,0:0:0:0:
256,192,247882,1,8,0:0:0:0:
256,192,247932,1,0,0:0:0:0:
256,192,247982,1,0,0:0:0:0:
256,192,248032,1,8,0:0:0:0:
256,192,248082,1,0,0:0:0:0:
256,192,248132,1,8,0:0:0:0:
256,192,248182,1,8,0:0:0:0:
256,192,248232,1,0,0:0:0:0:
256,192,248332,1,8,0:0:0:0:
256,192,248432,1,0,0:0:0:0:
256,192,248482,1,0,0:0:0:0:
256,192,248532,1,8,0:0:0:0:
256,192,248582,1,0,0:0:0:0:
256,192,248632,1,8,0:0:0:0:
256,192,248682,1,8,0:0:0:0:
256,192,248732,1,0,0:0:0:0:
256,192,248832,1,8,0:0:0:0:
256,192,248932,1,0,0:0:0:0:
256,192,248982,1,8,0:0:0:0:
256,192,249032,1,8,0:0:0:0:
256,192,249132,1,0,0:0:0:0:
256,192,249232,1,8,0:0:0:0:
256,192,249332,1,0,0:0:0:0:
256,192,249382,1,0,0:0:0:0:
256,192,249432,1,8,0:0:0:0:
256,192,249532,1,0,0:0:0:0:
256,192,249632,1,8,0:0:0:0:
256,192,249732,1,0,0:0:0:0:
256,192,249782,1,8,0:0:0:0:
256,192,249832,1,8,0:0:0:0:
256,192,249932,1,0,0:0:0:0:
256,192,250032,1,8,0:0:0:0:
256,192,250132,1,0,0:0:0:0:
256,192,250182,1,0,0:0:0:0:
256,192,250232,1,8,0:0:0:0:
256,192,250282,1,0,0:0:0:0:
256,192,250332,1,8,0:0:0:0:
256,192,250382,1,8,0:0:0:0:
256,192,250432,1,0,0:0:0:0:
256,192,250532,1,8,0:0:0:0:
256,192,250582,1,0,0:0:0:0:
256,192,250632,1,8,0:0:0:0:
256,192,250682,1,0,0:0:0:0:
256,192,250732,1,8,0:0:0:0:
256,192,250782,1,8,0:0:0:0:
256,192,250832,1,0,0:0:0:0:
256,192,250932,1,0,0:0:0:0:
256,192,250982,1,0,0:0:0:0:
256,192,251032,1,8,0:0:0:0:
256,192,251132,1,0,0:0:0:0:
256,192,251232,1,0,0:0:0:0:
256,192,251332,1,8,0:0:0:0:
256,192,251382,1,0,0:0:0:0:
256,192,251432,1,8,0:0:0:0:
256,192,251482,1,0,0:0:0:0:
256,192,251532,1,8,0:0:0:0:
256,192,251582,1,8,0:0:0:0:
256,192,251632,1,0,0:0:0:0:
256,192,251682,1,0,0:0:0:0:
256,192,251732,1,8,0:0:0:0:
256,192,251782,1,8,0:0:0:0:
256,192,251832,1,0,0:0:0:0:
256,192,251882,1,0,0:0:0:0:
256,192,251932,1,8,0:0:0:0:
256,192,251982,1,0,0:0:0:0:
256,192,252032,1,8,0:0:0:0:
256,192,252082,1,8,0:0:0:0:
256,192,252132,1,0,0:0:0:0:
256,192,252232,1,8,0:0:0:0:
256,192,252282,1,0,0:0:0:0:
256,192,252332,1,0,0:0:0:0:
256,192,252432,1,8,0:0:0:0:
256,192,252482,1,8,0:0:0:0:
256,192,252532,1,0,0:0:0:0:
256,192,252632,1,8,0:0:0:0:
256,192,252682,1,0,0:0:0:0:
256,192,252732,1,0,0:0:0:0:
256,192,252832,1,8,0:0:0:0:
256,192,252882,1,0,0:0:0:0:
256,192,252932,1,8,0:0:0:0:
256,192,253032,1,0,0:0:0:0:
256,192,253132,1,8,0:0:0:0:
256,192,253232,1,0,0:0:0:0:
256,192,253282,1,0,0:0:0:0:
256,192,253332,1,8,0:0:0:0:
256,192,253382,1,8,0:0:0:0:
256,192,253432,1,0,0:0:0:0:
256,192,253532,1,8,0:0:0:0:
256,192,253632,1,0,0:0:0:0:
256,192,253682,1,0,0:0:0:0:
256,192,253732,1,0,0:0:0:0:
256,192,253782,1,0,0:0:0:0:
256,192,253832,1,8,0:0:0:0:
256,192,253882,1,8,0:0:0:0:
256,192,253932,1,8,0:0:0:0:
256,192,253982,1,8,0:0:0:0:
256,192,254032,1,0,0:0:0:0:
256,192,254082,1,0,0:0:0:0:
256,192,254132,1,0,0:0:0:0:
256,192,254182,1,0,0:0:0:0:
256,192,254232,1,8,0:0:0:0:
256,192,254282,1,0,0:0:0:0:
256,192,254332,1,8,0:0:0:0:
256,192,254382,1,8,0:0:0:0:
256,192,254432,1,0,0:0:0:0:
256,192,254532,1,8,0:0:0:0:
256,192,254582,1,8,0:0:0:0:
256,192,254632,1,0,0:0:0:0:
256,192,254732,1,8,0:0:0:0:
256,192,254832,1,0,0:0:0:0:
256,192,254882,1,0,0:0:0:0:
256,192,254932,1,8,0:0:0:0:
256,192,254982,1,0,0:0:0:0:
256,192,255032,1,8,0:0:0:0:
256,192,255082,1,8,0:0:0:0:
256,192,255132,1,8,0:0:0:0:
256,192,255182,1,8,0:0:0:0:
256,192,255232,1,0,0:0:0:0:
256,192,255332,1,8,0:0:0:0:
256,192,255382,1,8,0:0:0:0:
256,192,255432,1,0,0:0:0:0:
256,192,255482,1,0,0:0:0:0:
256,192,255532,1,8,0:0:0:0:
256,192,255582,1,8,0:0:0:0:
256,192,255632,1,0,0:0:0:0:
256,192,255682,1,0,0:0:0:0:
256,192,255732,1,0,0:0:0:0:
256,192,255782,1,0,0:0:0:0:
256,192,255832,1,8,0:0:0:0:
256,192,255882,1,8,0:0:0:0:
256,192,255932,1,0,0:0:0:0:
256,192,256032,1,0,0:0:0:0:
256,192,256082,1,0,0:0:0:0:
256,192,256132,1,8,0:0:0:0:
256,192,256182,1,0,0:0:0:0:
256,192,256232,1,8,0:0:0:0:
256,192,256282,1,8,0:0:0:0:
256,192,256332,1,8,0:0:0:0:
256,192,256382,1,8,0:0:0:0:
256,192,256432,1,0,0:0:0:0:
256,192,256482,1,0,0:0:0:0:
256,192,256532,1,0,0:0:0:0:
256,192,256632,1,12,0:0:0:0:
256,192,256832,1,4,0:0:0:0:
256,192,256932,1,8,0:0:0:0:
256,192,256982,1,0,0:0:0:0:
256,192,257032,1,0,0:0:0:0:
256,192,257082,1,0,0:0:0:0:
256,192,257132,1,8,0:0:0:0:
256,192,257232,1,0,0:0:0:0:
256,192,257332,1,8,0:0:0:0:
256,192,257382,1,8,0:0:0:0:
256,192,257432,1,0,0:0:0:0:
256,192,257482,1,0,0:0:0:0:
256,192,257532,1,8,0:0:0:0:
256,192,257632,1,0,0:0:0:0:
256,192,257732,1,8,0:0:0:0:
256,192,257782,1,8,0:0:0:0:
256,192,257832,1,0,0:0:0:0:
256,192,257932,1,0,0:0:0:0:
256,192,257982,1,0,0:0:0:0:
256,192,258032,1,8,0:0:0:0:
256,192,258082,1,0,0:0:0:0:
256,192,258132,1,8,0:0:0:0:
256,192,258182,1,8,0:0:0:0:
256,192,258232,1,0,0:0:0:0:
256,192,258332,1,8,0:0:0:0:
256,192,258432,1,4,0:0:0:0:
256,192,258532,1,0,0:0:0:0:
256,192,258582,1,0,0:0:0:0:
256,192,258632,1,8,0:0:0:0:
256,192,258682,1,0,0:0:0:0:
256,192,258732,1,8,0:0:0:0:
256,192,258782,1,8,0:0:0:0:
256,192,258832,1,0,0:0:0:0:
256,192,258932,1,8,0:0:0:0:
256,192,258982,1,8,0:0:0:0:
256,192,259032,1,0,0:0:0:0:
256,192,259132,1,8,0:0:0:0:
256,192,259232,1,0,0:0:0:0:
256,192,259332,1,8,0:0:0:0:
256,192,259382,1,0,0:0:0:0:
256,192,259432,1,8,0:0:0:0:
256,192,259482,1,8,0:0:0:0:
256,192,259532,1,0,0:0:0:0:
256,192,259582,1,8,0:0:0:0:
256,192,259632,1,0,0:0:0:0:
256,192,259732,1,8,0:0:0:0:
256,192,259782,1,8,0:0:0:0:
256,192,259832,1,8,0:0:0:0:
256,192,259932,1,8,0:0:0:0:
256,192,260032,1,0,0:0:0:0:
256,192,260132,1,0,0:0:0:0:
256,192,260182,1,0,0:0:0:0:
256,192,260232,1,8,0:0:0:0:
256,192,260282,1,8,0:0:0:0:
256,192,260332,1,0,0:0:0:0:
256,192,260382,1,0,0:0:0:0:
256,192,260432,1,8,0:0:0:0:
256,192,260532,1,8,0:0:0:0:
256,192,260582,1,8,0:0:0:0:
256,192,260632,1,0,0:0:0:0:
256,192,260732,1,8,0:0:0:0:
256,192,260832,1,0,0:0:0:0:
256,192,260932,1,8,0:0:0:0:
256,192,260982,1,0,0:0:0:0:
256,192,261032,1,8,0:0:0:0:
256,192,261082,1,8,0:0:0:0:
256,192,261132,1,0,0:0:0:0:
256,192,261182,1,0,0:0:0:0:
256,192,261232,1,8,0:0:0:0:
256,192,261332,1,8,0:0:0:0:
256,192,261382,1,8,0:0:0:0:
256,192,261432,1,0,0:0:0:0:
256,192,261532,1,8,0:0:0:0:
256,192,261632,1,0,0:0:0:0:
256,192,261732,1,0,0:0:0:0:
256,192,261782,1,0,0:0:0:0:
256,192,261832,1,8,0:0:0:0:
256,192,261882,1,0,0:0:0:0:
256,192,261932,1,8,0:0:0:0:
256,192,261982,1,8,0:0:0:0:
256,192,262032,1,0,0:0:0:0:
256,192,262082,1,0,0:0:0:0:
256,192,262132,1,0,0:0:0:0:
256,192,262182,1,0,0:0:0:0:
256,192,262232,1,8,0:0:0:0:
256,192,262332,1,8,0:0:0:0:
256,192,262432,1,0,0:0:0:0:
256,192,262532,1,8,0:0:0:0:
256,192,262582,1,8,0:0:0:0:
256,192,262632,1,0,0:0:0:0:
256,192,262682,1,8,0:0:0:0:
256,192,262732,1,0,0:0:0:0:
256,192,262782,1,0,0:0:0:0:
256,192,262832,1,8,0:0:0:0:
256,192,262882,1,8,0:0:0:0:
256,192,262932,1,0,0:0:0:0:
256,192,262982,1,0,0:0:0:0:
256,192,263032,1,8,0:0:0:0:
256,192,263132,1,0,0:0:0:0:
256,192,263232,1,8,0:0:0:0:
256,192,263332,1,0,0:0:0:0:
256,192,263382,1,0,0:0:0:0:
256,192,263432,1,8,0:0:0:0:
256,192,263532,1,0,0:0:0:0:
256,192,263632,1,8,0:0:0:0:
256,192,263732,1,0,0:0:0:0:
256,192,263782,1,0,0:0:0:0:
256,192,263832,1,8,0:0:0:0:
256,192,263882,1,8,0:0:0:0:
256,192,263932,1,0,0:0:0:0:
256,192,263982,1,0,0:0:0:0:
256,192,264032,1,8,0:0:0:0:
256,192,264082,1,0,0:0:0:0:
256,192,264132,1,8,0:0:0:0:
256,192,264182,1,8,0:0:0:0:
256,192,264232,1,0,0:0:0:0:
256,192,264282,1,0,0:0:0:0:
256,192,264332,1,0,0:0:0:0:
256,192,264382,1,0,0:0:0:0:
256,192,264432,1,12,0:0:0:0:
256,192,264832,1,4,0:0:0:0:
256,192,264932,1,0,0:0:0:0:
256,192,264982,1,0,0:0:0:0:
256,192,265032,1,8,0:0:0:0:
256,192,265132,1,0,0:0:0:0:
256,192,265232,1,8,0:0:0:0:
256,192,265282,1,8,0:0:0:0:
256,192,265332,1,0,0:0:0:0:
256,192,265382,1,0,0:0:0:0:
256,192,265432,1,8,0:0:0:0:
256,192,265532,1,0,0:0:0:0:
256,192,265632,1,8,0:0:0:0:
256,192,265732,1,0,0:0:0:0:
256,192,265782,1,0,0:0:0:0:
256,192,265832,1,8,0:0:0:0:
256,192,265932,1,8,0:0:0:0:
256,192,266032,1,0,0:0:0:0:
256,192,266132,1,8,0:0:0:0:
256,192,266182,1,8,0:0:0:0:
256,192,266232,1,0,0:0:0:0:
256,192,266332,1,8,0:0:0:0:
256,192,266432,1,0,0:0:0:0:
256,192,266532,1,0,0:0:0:0:
256,192,266582,1,0,0:0:0:0:
256,192,266632,1,8,0:0:0:0:
256,192,266732,1,0,0:0:0:0:
256,192,266832,1,8,0:0:0:0:
256,192,266882,1,8,0:0:0:0:
256,192,266932,1,0,0:0:0:0:
256,192,266982,1,0,0:0:0:0:
256,192,267032,1,8,0:0:0:0:
256,192,267132,1,0,0:0:0:0:
256,192,267232,1,12,0:0:0:0:
256,192,267332,1,0,0:0:0:0:
256,192,267432,1,12,0:0:0:0:
256,192,267532,1,8,0:0:0:0:
256,192,267632,1,4,0:0:0:0:
256,192,267732,1,0,0:0:0:0:
256,192,267832,1,12,0:0:0:0:
256,192,268032,1,4,0:0:0:0:
256,192,268132,1,0,0:0:0:0:
256,192,268182,1,0,0:0:0:0:
256,192,268232,1,8,0:0:0:0:
256,192,268282,1,8,0:0:0:0:
256,192,268332,1,0,0:0:0:0:
256,192,268432,1,8,0:0:0:0:
256,192,268482,1,8,0:0:0:0:
256,192,268532,1,0,0:0:0:0:
256,192,268582,1,0,0:0:0:0:
256,192,268632,1,8,0:0:0:0:
256,192,268732,1,8,0:0:0:0:
256,192,268832,1,0,0:0:0:0:
256,192,268932,1,0,0:0:0:0:
256,192,268982,1,0,0:0:0:0:
256,192,269032,1,8,0:0:0:0:
256,192,269082,1,0,0:0:0:0:
256,192,269132,1,8,0:0:0:0:
256,192,269182,1,8,0:0:0:0:
256,192,269232,1,0,0:0:0:0:
256,192,269332,1,8,0:0:0:0:
256,192,269382,1,8,0:0:0:0:
256,192,269432,1,0,0:0:0:0:
256,192,269532,1,8,0:0:0:0:
256,192,269632,1,0,0:0:0:0:
256,192,269682,1,0,0:0:0:0:
256,192,269732,1,8,0:0:0:0:
256,192,269782,1,0,0:0:0:0:
256,192,269832,1,8,0:0:0:0:
256,192,269882,1,8,0:0:0:0:
256,192,269932,1,0,0:0:0:0:
256,192,269982,1,0,0:0:0:0:
256,192,270032,1,8,0:0:0:0:
256,192,270082,1,8,0:0:0:0:
256,192,270132,1,0,0:0:0:0:
256,192,270182,1,8,0:0:0:0:
256,192,270232,1,0,0:0:0:0:
256,192,270282,1,0,0:0:0:0:
256,192,270332,1,8,0:0:0:0:
256,192,270382,1,8,0:0:0:0:
256,192,270432,1,0,0:0:0:0:
256,192,270482,1,0,0:0:0:0:
256,192,270532,1,0,0:0:0:0:
256,192,270582,1,0,0:0:0:0:
256,192,270632,1,8,0:0:0:0:
256,192,270682,1,0,0:0:0:0:
256,192,270732,1,0,0:0:0:0:
256,192,270782,1,0,0:0:0:0:
256,192,270832,1,8,0:0:0:0:
256,192,270882,1,8,0:0:0:0:
256,192,270932,1,0,0:0:0:0:
256,192,270982,1,0,0:0:0:0:
256,192,271032,1,8,0:0:0:0:
256,192,271082,1,8,0:0:0:0:
256,192,271132,1,8,0:0:0:0:
256,192,271182,1,8,0:0:0:0:
256,192,271232,1,4,0:0:0:0:
256,192,271332,1,0,0:0:0:0:
256,192,271382,1,0,0:0:0:0:
256,192,271432,1,8,0:0:0:0:
256,192,271482,1,8,0:0:0:0:
256,192,271532,1,0,0:0:0:0:
256,192,271632,1,8,0:0:0:0:
256,192,271682,1,0,0:0:0:0:
256,192,271732,1,8,0:0:0:0:
256,192,271782,1,8,0:0:0:0:
256,192,271832,1,0,0:0:0:0:
256,192,271882,1,0,0:0:0:0:
256,192,271932,1,8,0:0:0:0:
256,192,271982,1,0,0:0:0:0:
256,192,272032,1,8,0:0:0:0:
256,192,272082,1,8,0:0:0:0:
256,192,272132,1,0,0:0:0:0:
256,192,272182,1,0,0:0:0:0:
256,192,272232,1,8,0:0:0:0:
256,192,272332,1,0,0:0:0:0:
256,192,272432,1,8,0:0:0:0:
256,192,272532,1,8,0:0:0:0:
256,192,272582,1,8,0:0:0:0:
256,192,272632,1,0,0:0:0:0:
256,192,272732,1,8,0:0:0:0:
256,192,272832,1,0,0:0:0:0:
256,192,272932,1,0,0:0:0:0:
256,192,272982,1,0,0:0:0:0:
256,192,273032,1,8,0:0:0:0:
256,192,273132,1,0,0:0:0:0:
256,192,273232,1,8,0:0:0:0:
256,192,273282,1,0,0:0:0:0:
256,192,273332,1,8,0:0:0:0:
256,192,273382,1,8,0:0:0:0:
256,192,273432,1,0,0:0:0:0:
256,192,273482,1,0,0:0:0:0:
256,192,273532,1,8,0:0:0:0:
256,192,273582,1,0,0:0:0:0:
256,192,273632,1,12,0:0:0:0:
256,192,273732,1,0,0:0:0:0:
256,192,273832,1,12,0:0:0:0:
256,192,273932,1,8,0:0:0:0:
256,192,274032,1,4,0:0:0:0:
256,192,274132,1,0,0:0:0:0:
256,192,274232,1,12,0:0:0:0:
256,192,274432,1,4,0:0:0:0:
256,192,274532,1,0,0:0:0:0:
256,192,274582,1,0,0:0:0:0:
256,192,274632,1,8,0:0:0:0:
256,192,274682,1,8,0:0:0:0:
256,192,274732,1,0,0:0:0:0:
256,192,274832,1,8,0:0:0:0:
256,192,274882,1,0,0:0:0:0:
256,192,274932,1,8,0:0:0:0:
256,192,274982,1,8,0:0:0:0:
256,192,275032,1,0,0:0:0:0:
256,192,275132,1,8,0:0:0:0:
256,192,275232,1,0,0:0:0:0:
256,192,275282,1,0,0:0:0:0:
256,192,275332,1,0,0:0:0:0:
256,192,275382,1,0,0:0:0:0:
256,192,275432,1,8,0:0:0:0:
256,192,275532,1,0,0:0:0:0:
256,192,275632,1,8,0:0:0:0:
256,192,275732,1,8,0:0:0:0:
256,192,275782,1,8,0:0:0:0:
256,192,275832,1,0,0:0:0:0:
256,192,275932,1,8,0:0:0:0:
256,192,276032,1,0,0:0:0:0:
256,192,276082,1,0,0:0:0:0:
256,192,276132,1,8,0:0:0:0:
256,192,276182,1,0,0:0:0:0:
256,192,276232,1,8,0:0:0:0:
256,192,276282,1,8,0:0:0:0:
256,192,276332,1,0,0:0:0:0:
256,192,276382,1,0,0:0:0:0:
256,192,276432,1,8,0:0:0:0:
256,192,276482,1,8,0:0:0:0:
256,192,276532,1,0,0:0:0:0:
256,192,276582,1,8,0:0:0:0:
256,192,276632,1,0,0:0:0:0:
256,192,276682,1,0,0:0:0:0:
256,192,276732,1,8,0:0:0:0:
256,192,276782,1,8,0:0:0:0:
256,192,276832,1,0,0:0:0:0:
256,192,276882,1,0,0:0:0:0:
256,192,276932,1,0,0:0:0:0:
256,192,276982,1,0,0:0:0:0:
256,192,277032,1,8,0:0:0:0:
256,192,277082,1,8,0:0:0:0:
256,192,277132,1,0,0:0:0:0:
256,192,277182,1,0,0:0:0:0:
256,192,277232,1,8,0:0:0:0:
256,192,277282,1,0,0:0:0:0:
256,192,277332,1,0,0:0:0:0:
256,192,277382,1,0,0:0:0:0:
256,192,277432,1,8,0:0:0:0:
256,192,277482,1,8,0:0:0:0:
256,192,277532,1,8,0:0:0:0:
256,192,277582,1,8,0:0:0:0:
256,192,277632,1,4,0:0:0:0:
256,192,277832,1,0,0:0:0:0:
256,192,277932,1,0,0:0:0:0:
256,192,278032,1,8,0:0:0:0:
256,192,278232,1,0,0:0:0:0:
256,192,278432,1,8,0:0:0:0:
256,192,278632,1,0,0:0:0:0:
256,192,278682,1,0,0:0:0:0:
256,192,278732,1,0,0:0:0:0:
256,192,278782,1,0,0:0:0:0:
256,192,278832,1,8,0:0:0:0:
256,192,278882,1,8,0:0:0:0:
256,192,278932,1,8,0:0:0:0:
256,192,278982,1,8,0:0:0:0:
256,192,279032,1,0,0:0:0:0:
256,192,279132,1,0,0:0:0:0:
256,192,279232,1,8,0:0:0:0:
256,192,279432,1,8,0:0:0:0:
256,192,279532,1,0,0:0:0:0:
256,192,279632,1,8,0:0:0:0:
256,192,279732,1,8,0:0:0:0:
256,192,279832,1,0,0:0:0:0:
256,192,279932,1,0,0:0:0:0:
256,192,280032,1,8,0:0:0:0:
256,192,280232,1,8,0:0:0:0:
256,192,280282,1,8,0:0:0:0:
256,192,280332,1,0,0:0:0:0:
256,192,280382,1,0,0:0:0:0:
256,192,280432,1,8,0:0:0:0:
256,192,280482,1,8,0:0:0:0:
256,192,280532,1,8,0:0:0:0:
256,192,280582,1,8,0:0:0:0:
256,192,280632,1,0,0:0:0:0:
256,192,280682,1,0,0:0:0:0:
256,192,280732,1,0,0:0:0:0:
256,192,280782,1,0,0:0:0:0:
256,192,280832,1,8,0:0:0:0:
256,192,280882,1,0,0:0:0:0:
256,192,280932,1,0,0:0:0:0:
256,192,280982,1,0,0:0:0:0:
256,192,281032,1,0,0:0:0:0:
256,192,281232,1,8,0:0:0:0:
256,192,281332,1,0,0:0:0:0:
256,192,281432,1,8,0:0:0:0:
256,192,281532,1,8,0:0:0:0:
256,192,281632,1,0,0:0:0:0:
256,192,281732,1,8,0:0:0:0:
256,192,281832,1,0,0:0:0:0:
256,192,281882,1,0,0:0:0:0:
256,192,281932,1,0,0:0:0:0:
256,192,281982,1,0,0:0:0:0:
256,192,282032,1,8,0:0:0:0:
256,192,282082,1,8,0:0:0:0:
256,192,282132,1,8,0:0:0:0:
256,192,282182,1,8,0:0:0:0:
256,192,282232,1,0,0:0:0:0:
256,192,282432,1,8,0:0:0:0:
256,192,282632,1,0,0:0:0:0:
256,192,282732,1,0,0:0:0:0:
256,192,282832,1,0,0:0:0:0:
256,192,283032,1,8,0:0:0:0:
256,192,283232,1,0,0:0:0:0:
256,192,283432,1,8,0:0:0:0:
256,192,283532,1,0,0:0:0:0:
256,192,283632,1,8,0:0:0:0:
256,192,283682,1,8,0:0:0:0:
256,192,283732,1,8,0:0:0:0:
256,192,283782,1,8,0:0:0:0:
256,192,283832,1,0,0:0:0:0:
256,192,283882,1,0,0:0:0:0:
256,192,283932,1,0,0:0:0:0:
256,192,283982,1,0,0:0:0:0:
256,192,284032,1,8,0:0:0:0:
256,192,284832,1,4,0:0:0:0:
256,192,285032,1,0,0:0:0:0:
256,192,285132,1,0,0:0:0:0:
256,192,285232,1,8,0:0:0:0:
256,192,285432,1,0,0:0:0:0:
256,192,285632,1,8,0:0:0:0:
256,192,285832,1,0,0:0:0:0:
256,192,285882,1,0,0:0:0:0:
256,192,285932,1,0,0:0:0:0:
256,192,285982,1,0,0:0:0:0:
256,192,286032,1,8,0:0:0:0:
256,192,286082,1,8,0:0:0:0:
256,192,286132,1,8,0:0:0:0:
256,192,286182,1,8,0:0:0:0:
256,192,286232,1,0,0:0:0:0:
256,192,286332,1,0,0:0:0:0:
256,192,286432,1,8,0:0:0:0:
256,192,286632,1,8,0:0:0:0:
256,192,286732,1,0,0:0:0:0:
256,192,286832,1,8,0:0:0:0:
256,192,286932,1,8,0:0:0:0:
256,192,287032,1,0,0:0:0:0:
256,192,287132,1,0,0:0:0:0:
256,192,287232,1,8,0:0:0:0:
256,192,287432,1,8,0:0:0:0:
256,192,287482,1,0,0:0:0:0:
256,192,287532,1,0,0:0:0:0:
256,192,287582,1,0,0:0:0:0:
256,192,287632,1,8,0:0:0:0:
256,192,287682,1,8,0:0:0:0:
256,192,287732,1,8,0:0:0:0:
256,192,287782,1,8,0:0:0:0:
256,192,287832,1,0,0:0:0:0:
256,192,287882,1,0,0:0:0:0:
256,192,287932,1,8,0:0:0:0:
256,192,287982,1,8,0:0:0:0:
256,192,288032,1,0,0:0:0:0:
256,192,288082,1,0,0:0:0:0:
256,192,288132,1,8,0:0:0:0:
256,192,288182,1,8,0:0:0:0:
256,192,288232,1,0,0:0:0:0:
256,192,288449,1,8,0:0:0:0:
256,192,288558,1,0,0:0:0:0:
256,192,288666,1,8,0:0:0:0:
256,192,288884,1,8,0:0:0:0:
256,192,289114,1,0,0:0:0:0:
256,192,289172,1,0,0:0:0:0:
256,192,289230,1,0,0:0:0:0:
256,192,289287,1,0,0:0:0:0:
256,192,289345,1,8,0:0:0:0:
256,192,289403,1,8,0:0:0:0:
256,192,289460,1,8,0:0:0:0:
256,192,289518,1,8,0:0:0:0:
256,192,289576,1,0,0:0:0:0:
256,192,289691,1,0,0:0:0:0:
256,192,289807,1,8,0:0:0:0:
256,192,290059,1,8,0:0:0:0:
256,192,290185,1,8,0:0:0:0:
256,192,290311,1,8,0:0:0:0:
256,192,290437,1,0,0:0:0:0:
256,192,290563,1,8,0:0:0:0:
256,192,290689,1,0,0:0:0:0:
256,192,290815,1,8,0:0:0:0:
256,192,291155,1,0,0:0:0:0:
256,192,291496,1,0,0:0:0:0:
256,192,291837,1,8,0:0:0:0:
256,192,292178,5,0,0:0:0:0:
256,192,292253,1,0,0:0:0:0:
256,192,292328,1,0,0:0:0:0:
256,192,292403,1,0,0:0:0:0:
256,192,292478,1,0,0:0:0:0:
256,192,292553,1,0,0:0:0:0:
256,192,292628,1,0,0:0:0:0:
256,192,292703,1,0,0:0:0:0:
256,192,292778,1,8,0:0:0:0:
256,192,292853,1,8,0:0:0:0:
256,192,292928,1,0,0:0:0:0:
256,192,293003,1,0,0:0:0:0:
256,192,293078,1,8,0:0:0:0:
256,192,293153,1,8,0:0:0:0:
256,192,293228,1,0,0:0:0:0:
256,192,293303,1,0,0:0:0:0:
256,192,293378,1,12,0:0:0:0:
256,192,293678,1,12,0:0:0:0:
256,192,293978,1,4,0:0:0:0:
256,192,294278,1,4,0:0:0:0:
256,192,294578,1,0,0:0:0:0:
256,192,294653,1,0,0:0:0:0:
256,192,294728,1,0,0:0:0:0:
256,192,294803,1,0,0:0:0:0:
256,192,294878,1,8,0:0:0:0:
256,192,294953,1,8,0:0:0:0:
256,192,295028,1,0,0:0:0:0:
256,192,295103,1,0,0:0:0:0:
256,192,295178,1,8,0:0:0:0:
256,192,295253,1,8,0:0:0:0:
256,192,295328,1,8,0:0:0:0:
256,192,295403,1,0,0:0:0:0:
256,192,295478,1,8,0:0:0:0:
256,192,295553,1,0,0:0:0:0:
256,192,295628,1,0,0:0:0:0:
256,192,295703,1,0,0:0:0:0:
256,192,295778,1,12,0:0:0:0:
256,192,296078,1,12,0:0:0:0:
256,192,296378,1,12,0:0:0:0:
256,192,296678,1,4,0:0:0:0:
256,192,296978,1,8,0:0:0:0:
256,192,297053,1,0,0:0:0:0:
256,192,297128,1,0,0:0:0:0:
256,192,297203,1,0,0:0:0:0:
256,192,297278,1,8,0:0:0:0:
256,192,297353,1,8,0:0:0:0:
256,192,297428,1,0,0:0:0:0:
256,192,297503,1,0,0:0:0:0:
256,192,297578,1,8,0:0:0:0:
256,192,297653,1,0,0:0:0:0:
256,192,297728,1,0,0:0:0:0:
256,192,297803,1,0,0:0:0:0:
256,192,297878,1,8,0:0:0:0:
256,192,297953,1,8,0:0:0:0:
256,192,298028,1,0,0:0:0:0:
256,192,298103,1,0,0:0:0:0:
256,192,298178,1,12,0:0:0:0:
256,192,298478,1,12,0:0:0:0:
256,192,298778,1,12,0:0:0:0:
256,192,299078,1,4,0:0:0:0:
256,192,299378,1,0,0:0:0:0:
256,192,299453,1,0,0:0:0:0:
256,192,299528,1,0,0:0:0:0:
256,192,299603,1,0,0:0:0:0:
256,192,299678,1,8,0:0:0:0:
256,192,299753,1,8,0:0:0:0:
256,192,299828,1,8,0:0:0:0:
256,192,299978,1,8,0:0:0:0:
256,192,300053,1,8,0:0:0:0:
256,192,300128,1,8,0:0:0:0:
256,192,300203,1,0,0:0:0:0:
256,192,300278,1,8,0:0:0:0:
256,192,300353,1,8,0:0:0:0:
256,192,300428,1,8,0:0:0:0:
256,192,300578,1,8,0:0:0:0:
256,192,300653,1,0,0:0:0:0:
256,192,300728,1,8,0:0:0:0:
256,192,300803,1,0,0:0:0:0:
256,192,300878,1,8,0:0:0:0:
256,192,300953,1,8,0:0:0:0:
256,192,301028,1,8,0:0:0:0:
256,192,301103,1,0,0:0:0:0:
256,192,301178,1,8,0:0:0:0:
256,192,301253,1,8,0:0:0:0:
256,192,301328,1,0,0:0:0:0:
256,192,301403,1,0,0:0:0:0:
256,192,301478,1,8,0:0:0:0:
256,192,301553,1,8,0:0:0:0:
256,192,301628,1,8,0:0:0:0:
256,192,301703,1,0,0:0:0:0:
256,192,301778,1,12,0:0:0:0:
256,192,302078,1,8,0:0:0:0:
256,192,302153,1,0,0:0:0:0:
256,192,302228,1,0,0:0:0:0:
256,192,302303,1,0,0:0:0:0:
256,192,302378,1,8,0:0:0:0:
256,192,302453,1,0,0:0:0:0:
256,192,302528,1,8,0:0:0:0:
256,192,302603,1,0,0:0:0:0:
256,192,302678,1,8,0:0:0:0:
256,192,302753,1,0,0:0:0:0:
256,192,302828,1,0,0:0:0:0:
256,192,302903,1,0,0:0:0:0:
256,192,302978,1,12,0:0:0:0:
256,192,303278,1,12,0:0:0:0:
256,192,303578,1,8,0:0:0:0:
256,192,303653,1,8,0:0:0:0:
256,192,303728,1,0,0:0:0:0:
256,192,303803,1,0,0:0:0:0:
256,192,303878,1,0,0:0:0:0:
256,192,304178,1,12,0:0:0:0:
256,192,304478,1,8,0:0:0:0:
256,192,304553,1,8,0:0:0:0:
256,192,304628,1,0,0:0:0:0:
256,192,304703,1,0,0:0:0:0:
256,192,304778,1,8,0:0:0:0:
256,192,304853,1,8,0:0:0:0:
256,192,304928,1,8,0:0:0:0:
256,192,305003,1,0,0:0:0:0:
256,192,305078,1,8,0:0:0:0:
256,192,305153,1,0,0:0:0:0:
256,192,305228,1,0,0:0:0:0:
256,192,305303,1,0,0:0:0:0:
256,192,305378,1,8,0:0:0:0:
256,192,305528,1,8,0:0:0:0:
256,192,305678,1,8,0:0:0:0:
256,192,305828,1,0,0:0:0:0:
256,192,305978,1,8,0:0:0:0:
256,192,306128,1,8,0:0:0:0:
256,192,306278,1,8,0:0:0:0:
256,192,306578,1,12,0:0:0:0:
256,192,306878,1,8,0:0:0:0:
256,192,306953,1,8,0:0:0:0:
256,192,307028,1,0,0:0:0:0:
256,192,307103,1,0,0:0:0:0:
256,192,307178,1,8,0:0:0:0:
256,192,307253,1,8,0:0:0:0:
256,192,307328,1,0,0:0:0:0:
256,192,307403,1,0,0:0:0:0:
256,192,307478,1,8,0:0:0:0:
256,192,307553,1,8,0:0:0:0:
256,192,307628,1,0,0:0:0:0:
256,192,307703,1,0,0:0:0:0:
256,192,307778,1,12,0:0:0:0:
256,192,308078,1,12,0:0:0:0:
256,192,308378,1,4,0:0:0:0:
256,192,308678,1,4,0:0:0:0:
256,192,308978,1,0,0:0:0:0:
256,192,309278,1,8,0:0:0:0:
256,192,309353,1,8,0:0:0:0:
256,192,309428,1,0,0:0:0:0:
256,192,309503,1,0,0:0:0:0:
256,192,309578,1,0,0:0:0:0:
256,192,309653,1,0,0:0:0:0:
256,192,309728,1,8,0:0:0:0:
256,192,309803,1,8,0:0:0:0:
256,192,309878,1,8,0:0:0:0:
256,192,309953,1,0,0:0:0:0:
256,192,310028,1,0,0:0:0:0:
256,192,310178,1,8,0:0:0:0:
256,192,310246,1,8,0:0:0:0:
256,192,310314,1,8,0:0:0:0:
256,192,310382,1,0,0:0:0:0:
256,192,310450,1,0,0:0:0:0:
256,192,310518,1,0,0:0:0:0:
256,192,310587,1,8,0:0:0:0:
256,192,310655,1,0,0:0:0:0:
256,192,310723,1,8,0:0:0:0:
256,192,310791,1,0,0:0:0:0:
256,192,310859,1,8,0:0:0:0:
256,192,310928,1,0,0:0:0:0:
256,192,310996,1,8,0:0:0:0:
256,192,311064,1,0,0:0:0:0:
256,192,311132,1,8,0:0:0:0:
256,192,311200,1,0,0:0:0:0:
256,192,311268,1,12,0:0:0:0:
256,192,311518,1,8,0:0:0:0:
256,192,311768,1,8,0:0:0:0:
256,192,312018,1,0,0:0:0:0:
256,192,312268,1,8,0:0:0:0:
256,192,312518,1,8,0:0:0:0:
256,192,312768,1,8,0:0:0:0:
256,192,313018,1,0,0:0:0:0:
256,192,313268,1,8,0:0:0:0:
256,192,313518,1,0,0:0:0:0:
256,192,313643,1,8,0:0:0:0:
256,192,313768,1,0,0:0:0:0:
256,192,313893,1,8,0:0:0:0:
256,192,314018,1,0,0:0:0:0:
256,192,314143,1,8,0:0:0:0:
256,192,314268,1,8,0:0:0:0:
256,192,314518,1,8,0:0:0:0:
256,192,314643,1,0,0:0:0:0:
256,192,314768,1,8,0:0:0:0:
256,192,315018,1,0,0:0:0:0:
256,192,315268,1,12,0:0:0:0:
256,192,316247,1,4,0:0:0:0:
256,192,316614,1,4,0:0:0:0:
256,192,316859,1,0,0:0:0:0:
256,192,316921,1,0,0:0:0:0:
256,192,316982,1,8,0:0:0:0:
256,192,317043,1,8,0:0:0:0:
256,192,317104,1,8,0:0:0:0:
256,192,317227,1,4,0:0:0:0:
256,192,318177,1,8,0:0:0:0:
256,192,318236,1,0,0:0:0:0:
256,192,318296,1,8,0:0:0:0:
256,192,318355,1,8,0:0:0:0:
256,192,318415,1,0,0:0:0:0:
256,192,318474,1,0,0:0:0:0:
256,192,318533,1,8,0:0:0:0:
256,192,318593,1,0,0:0:0:0:
256,192,318652,1,0,0:0:0:0:
256,192,318712,1,0,0:0:0:0:
256,192,318771,1,8,0:0:0:0:
256,192,318830,1,0,0:0:0:0:
256,192,318890,1,8,0:0:0:0:
256,192,318949,1,8,0:0:0:0:
256,192,319009,1,0,0:0:0:0:
256,192,319068,1,0,0:0:0:0:
256,192,319127,1,8,0:0:0:0:
256,192,319184,1,8,0:0:0:0:
256,192,319242,1,0,0:0:0:0:
256,192,319300,1,0,0:0:0:0:
256,192,319357,1,8,0:0:0:0:
256,192,319415,1,0,0:0:0:0:
256,192,319473,1,8,0:0:0:0:
256,192,319530,1,0,0:0:0:0:
256,192,319588,1,8,0:0:0:0:
256,192,319646,1,8,0:0:0:0:
256,192,319703,1,8,0:0:0:0:
256,192,319761,1,0,0:0:0:0:
256,192,319819,1,8,0:0:0:0:
256,192,319877,1,8,0:0:0:0:
256,192,319934,1,0,0:0:0:0:
256,192,319992,1,0,0:0:0:0:
256,192,320050,1,8,0:0:0:0:
256,192,320107,1,0,0:0:0:0:
256,192,320165,1,0,0:0:0:0:
256,192,320223,1,0,0:0:0:0:
256,192,320280,1,8,0:0:0:0:
256,192,320338,1,0,0:0:0:0:
256,192,320396,1,8,0:0:0:0:
256,192,320453,1,0,0:0:0:0:
256,192,320511,1,8,0:0:0:0:
256,192,320569,1,8,0:0:0:0:
256,192,320627,1,0,0:0:0:0:
256,192,320684,1,8,0:0:0:0:
256,192,320742,1,0,0:0:0:0:
256,192,320800,1,0,0:0:0:0:
256,192,320857,1,8,0:0:0:0:
256,192,320915,1,0,0:0:0:0:
256,192,320973,1,8,0:0:0:0:
256,192,321030,1,8,0:0:0:0:
256,192,321088,1,0,0:0:0:0:
256,192,321146,1,0,0:0:0:0:
256,192,321203,1,8,0:0:0:0:
256,192,321261,1,0,0:0:0:0:
256,192,321319,1,8,0:0:0:0:
256,192,321377,1,0,0:0:0:0:
256,192,321434,1,8,0:0:0:0:
256,192,321492,1,8,0:0:0:0:
256,192,321550,1,8,0:0:0:0:
256,192,321607,1,0,0:0:0:0:
256,192,321665,1,8,0:0:0:0:
256,192,321723,1,8,0:0:0:0:
256,192,321780,1,0,0:0:0:0:
256,192,321838,1,0,0:0:0:0:
256,192,321896,1,8,0:0:0:0:
256,192,321953,1,0,0:0:0:0:
256,192,322011,1,0,0:0:0:0:
256,192,322069,1,0,0:0:0:0:
256,192,322127,1,8,0:0:0:0:
256,192,322184,1,0,0:0:0:0:
256,192,322242,1,8,0:0:0:0:
256,192,322300,1,0,0:0:0:0:
256,192,322357,1,8,0:0:0:0:
256,192,322415,1,8,0:0:0:0:
256,192,322473,1,0,0:0:0:0:
256,192,322530,1,0,0:0:0:0:
256,192,322588,1,8,0:0:0:0:
256,192,322646,1,8,0:0:0:0:
256,192,322703,1,8,0:0:0:0:
256,192,322761,1,0,0:0:0:0:
256,192,322819,1,8,0:0:0:0:
256,192,322877,1,8,0:0:0:0:
256,192,322934,1,0,0:0:0:0:
256,192,322992,1,0,0:0:0:0:
256,192,323050,1,8,0:0:0:0:
256,192,323107,1,0,0:0:0:0:
256,192,323165,1,8,0:0:0:0:
256,192,323223,1,0,0:0:0:0:
256,192,323280,1,8,0:0:0:0:
256,192,323338,1,8,0:0:0:0:
256,192,323396,1,0,0:0:0:0:
256,192,323453,1,0,0:0:0:0:
256,192,323511,1,8,0:0:0:0:
256,192,323569,1,0,0:0:0:0:
256,192,323627,1,0,0:0:0:0:
256,192,323684,1,0,0:0:0:0:
256,192,323742,1,8,0:0:0:0:
256,192,323800,1,8,0:0:0:0:
256,192,323857,1,0,0:0:0:0:
256,192,323915,1,0,0:0:0:0:
256,192,323973,1,8,0:0:0:0:
256,192,324030,1,0,0:0:0:0:
256,192,324088,1,8,0:0:0:0:
256,192,324146,1,0,0:0:0:0:
256,192,324203,1,8,0:0:0:0:
256,192,324261,1,8,0:0:0:0:
256,192,324319,1,8,0:0:0:0:
256,192,324377,1,0,0:0:0:0:
256,192,324434,1,8,0:0:0:0:
256,192,324492,1,8,0:0:0:0:
256,192,324550,1,0,0:0:0:0:
256,192,324607,1,0,0:0:0:0:
256,192,324665,1,8,0:0:0:0:
256,192,324723,1,8,0:0:0:0:
256,192,324780,1,8,0:0:0:0:
256,192,324838,1,8,0:0:0:0:
256,192,324896,1,0,0:0:0:0:
256,192,324953,1,0,0:0:0:0:
256,192,325011,1,0,0:0:0:0:
256,192,325069,1,0,0:0:0:0:
256,192,325127,1,8,0:0:0:0:
256,192,325184,1,8,0:0:0:0:
256,192,325242,1,8,0:0:0:0:
256,192,325300,1,8,0:0:0:0:
256,192,325357,1,0,0:0:0:0:
256,192,325415,1,0,0:0:0:0:
256,192,325473,1,0,0:0:0:0:
256,192,325530,1,0,0:0:0:0:
256,192,325588,1,8,0:0:0:0:
256,192,325646,1,0,0:0:0:0:
256,192,325703,1,0,0:0:0:0:
256,192,325819,1,0,0:0:0:0:
256,192,325877,1,0,0:0:0:0:
256,192,325934,1,0,0:0:0:0:
256,192,326050,1,8,0:0:0:0:
256,192,326107,1,8,0:0:0:0:
256,192,326165,1,0,0:0:0:0:
256,192,326223,1,8,0:0:0:0:
256,192,326280,1,0,0:0:0:0:
256,192,326338,1,0,0:0:0:0:
256,192,326396,1,8,0:0:0:0:
256,192,326453,1,8,0:0:0:0:
256,192,326511,1,0,0:0:0:0:
256,192,326857,1,0,0:0:0:0:
256,192,327088,1,0,0:0:0:0:
256,192,327319,1,0,0:0:0:0:
256,192,327377,1,0,0:0:0:0:
256,192,327434,1,8,0:0:0:0:
256,192,327492,1,8,0:0:0:0:
256,192,327550,1,0,0:0:0:0:
256,192,327607,1,8,0:0:0:0:
256,192,327665,1,0,0:0:0:0:
256,192,327723,1,0,0:0:0:0:
256,192,327780,1,8,0:0:0:0:
256,192,327838,1,0,0:0:0:0:
256,192,327896,1,8,0:0:0:0:
256,192,327953,1,8,0:0:0:0:
256,192,328011,1,0,0:0:0:0:
256,192,328069,1,0,0:0:0:0:
256,192,328127,1,8,0:0:0:0:
256,192,328184,1,8,0:0:0:0:
256,192,328242,1,8,0:0:0:0:
256,192,328300,1,8,0:0:0:0:
256,192,328357,1,4,0:0:0:0:
256,192,328473,1,8,0:0:0:0:
256,192,328530,1,8,0:0:0:0:
256,192,328588,1,0,0:0:0:0:
256,192,328703,1,8,0:0:0:0:
256,192,328819,1,0,0:0:0:0:
256,192,328877,1,0,0:0:0:0:
256,192,328934,1,8,0:0:0:0:
256,192,328992,1,8,0:0:0:0:
256,192,329050,1,0,0:0:0:0:
256,192,329165,1,8,0:0:0:0:
256,192,329280,1,0,0:0:0:0:
256,192,329396,1,0,0:0:0:0:
256,192,329453,1,0,0:0:0:0:
256,192,329511,1,8,0:0:0:0:
256,192,329627,1,8,0:0:0:0:
256,192,329742,1,0,0:0:0:0:
256,192,329800,1,0,0:0:0:0:
256,192,329857,1,8,0:0:0:0:
256,192,329915,1,8,0:0:0:0:
256,192,329973,1,8,0:0:0:0:
256,192,330088,1,8,0:0:0:0:
256,192,330203,1,0,0:0:0:0:
256,192,330319,1,8,0:0:0:0:
256,192,330377,1,8,0:0:0:0:
256,192,330434,1,0,0:0:0:0:
256,192,330550,1,8,0:0:0:0:
256,192,330665,1,0,0:0:0:0:
256,192,330723,1,0,0:0:0:0:
256,192,330780,1,8,0:0:0:0:
256,192,330838,1,8,0:0:0:0:
256,192,330896,1,0,0:0:0:0:
256,192,331011,1,8,0:0:0:0:
256,192,331127,1,0,0:0:0:0:
256,192,331184,1,0,0:0:0:0:
256,192,331242,1,8,0:0:0:0:
256,192,331300,1,0,0:0:0:0:
256,192,331357,1,8,0:0:0:0:
256,192,331473,1,0,0:0:0:0:
256,192,331588,1,8,0:0:0:0:
256,192,331646,1,8,0:0:0:0:
256,192,331703,1,0,0:0:0:0:
256,192,331761,1,8,0:0:0:0:
256,192,331819,1,0,0:0:0:0:
256,192,331934,1,8,0:0:0:0:
256,192,332050,1,0,0:0:0:0:
256,192,332165,1,8,0:0:0:0:
256,192,332223,1,8,0:0:0:0:
256,192,332280,1,0,0:0:0:0:
256,192,332396,1,8,0:0:0:0:
256,192,332511,1,0,0:0:0:0:
256,192,332569,1,0,0:0:0:0:
256,192,332627,1,8,0:0:0:0:
256,192,332684,1,8,0:0:0:0:
256,192,332742,1,0,0:0:0:0:
256,192,332857,1,8,0:0:0:0:
256,192,332973,1,0,0:0:0:0:
256,192,333030,1,0,0:0:0:0:
256,192,333088,1,8,0:0:0:0:
256,192,333146,1,0,0:0:0:0:
256,192,333203,1,8,0:0:0:0:
256,192,333319,1,0,0:0:0:0:
256,192,333434,1,8,0:0:0:0:
256,192,333492,1,0,0:0:0:0:
256,192,333550,1,8,0:0:0:0:
256,192,333607,1,8,0:0:0:0:
256,192,333665,1,0,0:0:0:0:
256,192,333723,1,0,0:0:0:0:
256,192,333780,1,8,0:0:0:0:
256,192,333838,1,8,0:0:0:0:
256,192,333896,1,0,0:0:0:0:
256,192,333953,1,0,0:0:0:0:
256,192,334011,1,8,0:0:0:0:
256,192,334127,1,0,0:0:0:0:
256,192,334242,1,8,0:0:0:0:
256,192,334300,1,8,0:0:0:0:
256,192,334357,1,0,0:0:0:0:
256,192,334415,1,0,0:0:0:0:
256,192,334473,1,8,0:0:0:0:
256,192,334588,1,0,0:0:0:0:
256,192,334703,1,8,0:0:0:0:
256,192,334761,1,0,0:0:0:0:
256,192,334819,1,8,0:0:0:0:
256,192,334877,1,8,0:0:0:0:
256,192,334934,1,0,0:0:0:0:
256,192,334992,1,0,0:0:0:0:
256,192,335050,1,8,0:0:0:0:
256,192,335107,1,0,0:0:0:0:
256,192,335165,1,0,0:0:0:0:
256,192,335223,1,0,0:0:0:0:
256,192,335280,1,8,0:0:0:0:
256,192,335338,1,8,0:0:0:0:
256,192,335396,1,0,0:0:0:0:
256,192,335453,1,0,0:0:0:0:
256,192,335511,1,8,0:0:0:0:
256,192,335569,1,8,0:0:0:0:
256,192,335627,1,8,0:0:0:0:
256,192,335684,1,8,0:0:0:0:
256,192,335742,1,4,0:0:0:0:
256,192,335973,1,8,0:0:0:0:
256,192,336030,1,8,0:0:0:0:
256,192,336088,1,0,0:0:0:0:
256,192,336146,1,0,0:0:0:0:
256,192,336203,1,8,0:0:0:0:
256,192,336261,1,0,0:0:0:0:
256,192,336319,1,0,0:0:0:0:
256,192,336377,1,0,0:0:0:0:
256,192,336434,1,8,0:0:0:0:
256,192,336492,1,8,0:0:0:0:
256,192,336550,1,0,0:0:0:0:
256,192,336607,1,8,0:0:0:0:
256,192,336665,1,4,0:0:0:0:
256,192,336896,1,0,0:0:0:0:
256,192,336953,1,0,0:0:0:0:
256,192,337011,1,8,0:0:0:0:
256,192,337069,1,0,0:0:0:0:
256,192,337127,1,8,0:0:0:0:
256,192,337184,1,8,0:0:0:0:
256,192,337242,1,8,0:0:0:0:
256,192,337300,1,8,0:0:0:0:
256,192,337357,1,0,0:0:0:0:
256,192,337415,1,0,0:0:0:0:
256,192,337473,1,8,0:0:0:0:
256,192,337530,1,8,0:0:0:0:
256,192,337588,1,4,0:0:0:0:
256,192,337819,1,8,0:0:0:0:
256,192,337877,1,8,0:0:0:0:
256,192,337934,1,8,0:0:0:0:
256,192,337992,1,0,0:0:0:0:
256,192,338050,1,8,0:0:0:0:
256,192,338107,1,8,0:0:0:0:
256,192,338165,1,0,0:0:0:0:
256,192,338223,1,8,0:0:0:0:
256,192,338280,1,0,0:0:0:0:
256,192,338338,1,0,0:0:0:0:
256,192,338396,1,8,0:0:0:0:
256,192,338453,1,8,0:0:0:0:
256,192,338511,1,0,0:0:0:0:
256,192,338569,1,0,0:0:0:0:
256,192,338627,1,8,0:0:0:0:
256,192,338684,1,0,0:0:0:0:
256,192,338742,1,8,0:0:0:0:
256,192,338800,1,8,0:0:0:0:
256,192,338857,1,0,0:0:0:0:
256,192,338915,1,8,0:0:0:0:
256,192,338973,1,0,0:0:0:0:
256,192,339030,1,0,0:0:0:0:
256,192,339088,1,0,0:0:0:0:
256,192,339146,1,0,0:0:0:0:
256,192,339203,1,8,0:0:0:0:
256,192,339261,1,8,0:0:0:0:
256,192,339319,1,8,0:0:0:0:
256,192,339377,1,8,0:0:0:0:
256,192,339434,1,4,0:0:0:0:
256,192,339665,1,8,0:0:0:0:
256,192,339723,1,8,0:0:0:0:
256,192,339780,1,0,0:0:0:0:
256,192,339838,1,0,0:0:0:0:
256,192,339896,1,8,0:0:0:0:
256,192,339953,1,0,0:0:0:0:
256,192,340011,1,0,0:0:0:0:
256,192,340069,1,0,0:0:0:0:
256,192,340127,1,8,0:0:0:0:
256,192,340184,1,0,0:0:0:0:
256,192,340242,1,8,0:0:0:0:
256,192,340300,1,8,0:0:0:0:
256,192,340357,1,4,0:0:0:0:
256,192,340588,1,0,0:0:0:0:
256,192,340646,1,0,0:0:0:0:
256,192,340703,1,8,0:0:0:0:
256,192,340761,1,8,0:0:0:0:
256,192,340819,1,0,0:0:0:0:
256,192,340877,1,0,0:0:0:0:
256,192,340934,1,8,0:0:0:0:
256,192,340992,1,0,0:0:0:0:
256,192,341050,1,8,0:0:0:0:
256,192,341107,1,8,0:0:0:0:
256,192,341165,1,0,0:0:0:0:
256,192,341223,1,8,0:0:0:0:
256,192,341280,1,4,0:0:0:0:
256,192,341511,1,8,0:0:0:0:
256,192,341569,1,8,0:0:0:0:
256,192,341627,1,0,0:0:0:0:
256,192,341684,1,0,0:0:0:0:
256,192,341742,1,8,0:0:0:0:
256,192,341800,1,0,0:0:0:0:
256,192,341857,1,0,0:0:0:0:
256,192,341915,1,0,0:0:0:0:
256,192,341973,1,8,0:0:0:0:
256,192,342030,1,0,0:0:0:0:
256,192,342088,1,8,0:0:0:0:
256,192,342146,1,8,0:0:0:0:
256,192,342203,1,0,0:0:0:0:
256,192,342261,1,8,0:0:0:0:
256,192,342319,1,0,0:0:0:0:
256,192,342377,1,0,0:0:0:0:
256,192,342434,1,8,0:0:0:0:
256,192,342492,1,8,0:0:0:0:
256,192,342550,1,0,0:0:0:0:
256,192,342607,1,0,0:0:0:0:
256,192,342665,1,8,0:0:0:0:
256,192,342723,1,0,0:0:0:0:
256,192,342780,1,0,0:0:0:0:
256,192,342838,1,0,0:0:0:0:
256,192,342896,1,12,0:0:0:0:
256,192,343011,1,0,0:0:0:0:
256,192,343127,1,8,0:0:0:0:
256,192,343184,1,8,0:0:0:0:
256,192,343242,1,0,0:0:0:0:
256,192,343300,1,0,0:0:0:0:
256,192,343357,1,8,0:0:0:0:
256,192,343415,1,0,0:0:0:0:
256,192,343473,1,8,0:0:0:0:
256,192,343530,1,0,0:0:0:0:
256,192,343588,1,8,0:0:0:0:
256,192,343646,1,8,0:0:0:0:
256,192,343703,1,0,0:0:0:0:
256,192,343761,1,0,0:0:0:0:
256,192,343819,1,8,0:0:0:0:
256,192,343877,1,0,0:0:0:0:
256,192,343934,1,0,0:0:0:0:
256,192,343992,1,0,0:0:0:0:
256,192,344050,1,8,0:0:0:0:
256,192,344107,1,8,0:0:0:0:
256,192,344165,1,0,0:0:0:0:
256,192,344223,1,0,0:0:0:0:
256,192,344280,1,8,0:0:0:0:
256,192,344338,1,0,0:0:0:0:
256,192,344396,1,8,0:0:0:0:
256,192,344453,1,0,0:0:0:0:
256,192,344511,1,8,0:0:0:0:
256,192,344569,1,8,0:0:0:0:
256,192,344627,1,0,0:0:0:0:
256,192,344684,1,8,0:0:0:0:
256,192,344742,1,0,0:0:0:0:
256,192,344800,1,0,0:0:0:0:
256,192,344857,1,8,0:0:0:0:
256,192,344915,1,0,0:0:0:0:
256,192,344973,1,8,0:0:0:0:
256,192,345030,1,8,0:0:0:0:
256,192,345088,1,0,0:0:0:0:
256,192,345146,1,0,0:0:0:0:
256,192,345203,1,8,0:0:0:0:
256,192,345261,1,0,0:0:0:0:
256,192,345319,1,8,0:0:0:0:
256,192,345377,1,0,0:0:0:0:
256,192,345434,1,8,0:0:0:0:
256,192,345492,1,8,0:0:0:0:
256,192,345550,1,0,0:0:0:0:
256,192,345607,1,0,0:0:0:0:
256,192,345665,1,8,0:0:0:0:
256,192,345723,1,0,0:0:0:0:
256,192,345780,1,0,0:0:0:0:
256,192,345838,1,0,0:0:0:0:
256,192,345896,1,8,0:0:0:0:
256,192,345953,1,8,0:0:0:0:
256,192,346011,1,0,0:0:0:0:
256,192,346069,1,8,0:0:0:0:
256,192,346127,1,0,0:0:0:0:
256,192,346184,1,0,0:0:0:0:
256,192,346242,1,8,0:0:0:0:
256,192,346300,1,0,0:0:0:0:
256,192,346357,1,8,0:0:0:0:
256,192,346415,1,8,0:0:0:0:
256,192,346473,1,0,0:0:0:0:
256,192,346530,1,0,0:0:0:0:
256,192,346588,1,8,0:0:0:0:
256,192,346646,1,0,0:0:0:0:
256,192,346703,1,0,0:0:0:0:
256,192,346761,1,0,0:0:0:0:
256,192,346819,1,8,0:0:0:0:
256,192,346877,1,8,0:0:0:0:
256,192,346934,1,8,0:0:0:0:
256,192,346992,1,0,0:0:0:0:
256,192,347050,1,8,0:0:0:0:
256,192,347107,1,8,0:0:0:0:
256,192,347165,1,0,0:0:0:0:
256,192,347223,1,0,0:0:0:0:
256,192,347280,1,8,0:0:0:0:
256,192,347338,1,8,0:0:0:0:
256,192,347396,1,8,0:0:0:0:
256,192,347453,1,0,0:0:0:0:
256,192,347511,1,8,0:0:0:0:
256,192,347569,1,8,0:0:0:0:
256,192,347627,1,0,0:0:0:0:
256,192,347684,1,0,0:0:0:0:
256,192,347742,1,8,0:0:0:0:
256,192,347800,1,8,0:0:0:0:
256,192,347857,1,0,0:0:0:0:
256,192,347915,1,0,0:0:0:0:
256,192,347973,1,8,0:0:0:0:
256,192,348030,1,0,0:0:0:0:
256,192,348088,1,0,0:0:0:0:
256,192,348146,1,0,0:0:0:0:
256,192,348203,1,8,0:0:0:0:
256,192,348261,1,8,0:0:0:0:
256,192,348319,1,0,0:0:0:0:
256,192,348377,1,0,0:0:0:0:
256,192,348434,1,8,0:0:0:0:
256,192,348492,1,0,0:0:0:0:
256,192,348550,1,0,0:0:0:0:
256,192,348607,1,0,0:0:0:0:
256,192,348665,1,8,0:0:0:0:
256,192,348723,1,8,0:0:0:0:
256,192,348780,1,0,0:0:0:0:
256,192,348838,1,0,0:0:0:0:
256,192,348896,1,8,0:0:0:0:
256,192,348953,1,0,0:0:0:0:
256,192,349011,1,8,0:0:0:0:
256,192,349069,1,0,0:0:0:0:
256,192,349127,1,8,0:0:0:0:
256,192,349184,1,8,0:0:0:0:
256,192,349242,1,0,0:0:0:0:
256,192,349300,1,0,0:0:0:0:
256,192,349357,1,8,0:0:0:0:
256,192,349415,1,0,0:0:0:0:
256,192,349473,1,0,0:0:0:0:
256,192,349530,1,0,0:0:0:0:
256,192,349588,1,8,0:0:0:0:
256,192,349646,1,8,0:0:0:0:
256,192,349703,1,0,0:0:0:0:
256,192,349761,1,0,0:0:0:0:
256,192,349819,1,8,0:0:0:0:
256,192,349934,1,0,0:0:0:0:
256,192,350050,1,0,0:0:0:0:
256,192,350107,1,0,0:0:0:0:
256,192,350165,1,8,0:0:0:0:
256,192,350223,1,0,0:0:0:0:
256,192,350280,1,8,0:0:0:0:
256,192,350338,1,8,0:0:0:0:
256,192,350396,1,8,0:0:0:0:
256,192,350453,1,8,0:0:0:0:
256,192,350511,1,4,0:0:0:0:
256,192,350627,1,8,0:0:0:0:
256,192,350742,1,0,0:0:0:0:
256,192,350800,1,0,0:0:0:0:
256,192,350857,1,8,0:0:0:0:
256,192,350973,1,0,0:0:0:0:
256,192,351088,1,8,0:0:0:0:
256,192,351146,1,8,0:0:0:0:
256,192,351203,1,0,0:0:0:0:
256,192,351319,1,8,0:0:0:0:
256,192,351434,1,0,0:0:0:0:
256,192,351550,1,8,0:0:0:0:
256,192,351665,1,0,0:0:0:0:
256,192,351723,1,0,0:0:0:0:
256,192,351780,1,8,0:0:0:0:
256,192,351896,1,0,0:0:0:0:
256,192,352011,1,8,0:0:0:0:
256,192,352069,1,8,0:0:0:0:
256,192,352127,1,0,0:0:0:0:
256,192,352184,1,0,0:0:0:0:
256,192,352242,1,8,0:0:0:0:
256,192,352300,1,0,0:0:0:0:
256,192,352357,1,8,0:0:0:0:
256,192,352415,1,8,0:0:0:0:
256,192,352473,1,0,0:0:0:0:
256,192,352530,1,8,0:0:0:0:
256,192,352588,1,0,0:0:0:0:
256,192,352646,1,0,0:0:0:0:
256,192,352703,1,8,0:0:0:0:
256,192,352761,1,0,0:0:0:0:
256,192,352819,1,8,0:0:0:0:
256,192,352877,1,8,0:0:0:0:
256,192,352934,1,0,0:0:0:0:
256,192,352992,1,8,0:0:0:0:
256,192,353050,1,0,0:0:0:0:
256,192,353107,1,0,0:0:0:0:
256,192,353165,1,8,0:0:0:0:
256,192,353223,1,0,0:0:0:0:
256,192,353280,1,8,0:0:0:0:
256,192,353338,1,8,0:0:0:0:
256,192,353396,1,8,0:0:0:0:
256,192,353453,1,0,0:0:0:0:
256,192,353511,1,8,0:0:0:0:
256,192,353569,1,8,0:0:0:0:
256,192,353627,1,0,0:0:0:0:
256,192,353684,1,0,0:0:0:0:
256,192,353742,1,8,0:0:0:0:
256,192,353800,1,0,0:0:0:0:
256,192,353857,1,0,0:0:0:0:
256,192,353915,1,0,0:0:0:0:
256,192,353973,1,8,0:0:0:0:
256,192,354030,1,0,0:0:0:0:
256,192,354088,1,8,0:0:0:0:
256,192,354146,1,8,0:0:0:0:
256,192,354203,1,0,0:0:0:0:
256,192,354261,1,8,0:0:0:0:
256,192,354319,1,0,0:0:0:0:
256,192,354434,1,8,0:0:0:0:
256,192,354550,1,0,0:0:0:0:
256,192,354607,1,0,0:0:0:0:
256,192,354665,1,8,0:0:0:0:
256,192,354723,1,0,0:0:0:0:
256,192,354780,1,8,0:0:0:0:
256,192,354838,1,8,0:0:0:0:
256,192,354896,1,0,0:0:0:0:
256,192,354953,1,8,0:0:0:0:
256,192,355011,1,8,0:0:0:0:
256,192,355069,1,0,0:0:0:0:
256,192,355127,1,8,0:0:0:0:
256,192,355184,1,8,0:0:0:0:
256,192,355242,1,8,0:0:0:0:
256,192,355300,1,8,0:0:0:0:
256,192,355357,1,0,0:0:0:0:
256,192,355415,1,0,0:0:0:0:
256,192,355473,1,8,0:0:0:0:
256,192,355530,1,0,0:0:0:0:
256,192,355588,1,8,0:0:0:0:
256,192,355646,1,8,0:0:0:0:
256,192,355703,1,0,0:0:0:0:
256,192,355761,1,8,0:0:0:0:
256,192,355819,1,0,0:0:0:0:
256,192,355877,1,0,0:0:0:0:
256,192,355934,1,8,0:0:0:0:
256,192,355992,1,0,0:0:0:0:
256,192,356050,1,8,0:0:0:0:
256,192,356107,1,8,0:0:0:0:
256,192,356165,1,0,0:0:0:0:
256,192,356223,1,0,0:0:0:0:
256,192,356280,1,8,0:0:0:0:
256,192,356338,1,0,0:0:0:0:
256,192,356396,1,0,0:0:0:0:
256,192,356453,1,0,0:0:0:0:
256,192,356511,1,8,0:0:0:0:
256,192,356569,1,8,0:0:0:0:
256,192,356627,1,0,0:0:0:0:
256,192,356684,1,0,0:0:0:0:
256,192,356742,1,8,0:0:0:0:
256,192,356800,1,8,0:0:0:0:
256,192,356857,1,0,0:0:0:0:
256,192,356915,1,8,0:0:0:0:
256,192,356973,1,0,0:0:0:0:
256,192,357030,1,0,0:0:0:0:
256,192,357088,1,0,0:0:0:0:
256,192,357146,1,0,0:0:0:0:
256,192,357203,1,8,0:0:0:0:
256,192,357261,1,0,0:0:0:0:
256,192,357319,1,8,0:0:0:0:
256,192,357377,1,0,0:0:0:0:
256,192,357434,1,8,0:0:0:0:
256,192,357492,1,8,0:0:0:0:
256,192,357550,1,0,0:0:0:0:
256,192,357607,1,0,0:0:0:0:
256,192,357665,1,8,0:0:0:0:
256,192,357723,1,0,0:0:0:0:
256,192,357780,1,0,0:0:0:0:
256,192,357838,1,0,0:0:0:0:
256,192,357896,1,12,0:0:0:0:
256,192,358011,1,0,0:0:0:0:
256,192,358069,1,0,0:0:0:0:
256,192,358127,1,8,0:0:0:0:
256,192,358184,1,0,0:0:0:0:
256,192,358242,1,8,0:0:0:0:
256,192,358300,1,0,0:0:0:0:
256,192,358357,1,8,0:0:0:0:
256,192,358415,1,8,0:0:0:0:
256,192,358473,1,0,0:0:0:0:
256,192,358530,1,8,0:0:0:0:
256,192,358588,1,0,0:0:0:0:
256,192,358646,1,0,0:0:0:0:
256,192,358703,1,8,0:0:0:0:
256,192,358761,1,0,0:0:0:0:
256,192,358819,1,8,0:0:0:0:
256,192,358877,1,0,0:0:0:0:
256,192,358934,1,0,0:0:0:0:
256,192,358992,1,0,0:0:0:0:
256,192,359050,1,8,0:0:0:0:
256,192,359107,1,0,0:0:0:0:
256,192,359165,1,8,0:0:0:0:
256,192,359223,1,0,0:0:0:0:
256,192,359280,1,8,0:0:0:0:
256,192,359338,1,8,0:0:0:0:
256,192,359396,1,0,0:0:0:0:
256,192,359453,1,0,0:0:0:0:
256,192,359511,1,8,0:0:0:0:
256,192,359569,1,8,0:0:0:0:
256,192,359627,1,8,0:0:0:0:
256,192,359684,1,0,0:0:0:0:
256,192,359742,1,8,0:0:0:0:
256,192,359800,1,0,0:0:0:0:
256,192,359857,1,0,0:0:0:0:
256,192,359915,1,0,0:0:0:0:
256,192,359973,1,8,0:0:0:0:
256,192,360030,1,0,0:0:0:0:
256,192,360088,1,8,0:0:0:0:
256,192,360146,1,0,0:0:0:0:
256,192,360203,1,8,0:0:0:0:
256,192,360261,1,8,0:0:0:0:
256,192,360319,1,0,0:0:0:0:
256,192,360377,1,8,0:0:0:0:
256,192,360434,1,0,0:0:0:0:
256,192,360492,1,0,0:0:0:0:
256,192,360550,1,8,0:0:0:0:
256,192,360607,1,0,0:0:0:0:
256,192,360665,1,8,0:0:0:0:
256,192,360723,1,8,0:0:0:0:
256,192,360780,1,8,0:0:0:0:
256,192,360838,1,8,0:0:0:0:
256,192,360896,1,0,0:0:0:0:
256,192,360953,1,0,0:0:0:0:
256,192,361011,1,8,0:0:0:0:
256,192,361069,1,0,0:0:0:0:
256,192,361127,1,8,0:0:0:0:
256,192,361184,1,8,0:0:0:0:
256,192,361242,1,0,0:0:0:0:
256,192,361300,1,8,0:0:0:0:
256,192,361357,1,0,0:0:0:0:
256,192,361415,1,0,0:0:0:0:
256,192,361473,1,8,0:0:0:0:
256,192,361530,1,8,0:0:0:0:
256,192,361588,1,4,0:0:0:0:
256,192,361819,1,8,0:0:0:0:
256,192,361934,1,0,0:0:0:0:
256,192,362050,1,8,0:0:0:0:
256,192,362107,1,8,0:0:0:0:
256,192,362165,1,0,0:0:0:0:
256,192,362223,1,8,0:0:0:0:
256,192,362280,1,0,0:0:0:0:
256,192,362338,1,0,0:0:0:0:
256,192,362396,1,8,0:0:0:0:
256,192,362511,1,0,0:0:0:0:
256,192,362569,1,0,0:0:0:0:
256,192,362627,1,0,0:0:0:0:
256,192,362684,1,0,0:0:0:0:
256,192,362742,1,12,0:0:0:0:
256,192,362857,1,0,0:0:0:0:
256,192,362973,1,0,0:0:0:0:
256,192,363030,1,8,0:0:0:0:
256,192,363088,1,0,0:0:0:0:
256,192,363146,1,0,0:0:0:0:
256,192,363203,1,12,0:0:0:0:
256,192,363319,1,8,0:0:0:0:
256,192,363434,1,0,0:0:0:0:
256,192,363492,1,0,0:0:0:0:
256,192,363550,1,8,0:0:0:0:
256,192,363607,1,0,0:0:0:0:
256,192,363665,1,8,0:0:0:0:
256,192,363723,1,8,0:0:0:0:
256,192,363780,1,0,0:0:0:0:
256,192,363838,1,8,0:0:0:0:
256,192,363896,1,0,0:0:0:0:
256,192,363953,1,0,0:0:0:0:
256,192,364011,1,8,0:0:0:0:
256,192,364069,1,0,0:0:0:0:
256,192,364127,1,8,0:0:0:0:
256,192,364184,1,8,0:0:0:0:
256,192,364242,1,0,0:0:0:0:
256,192,364300,1,0,0:0:0:0:
256,192,364357,1,8,0:0:0:0:
256,192,364415,1,8,0:0:0:0:
256,192,364473,1,0,0:0:0:0:
256,192,364530,1,8,0:0:0:0:
256,192,364588,1,0,0:0:0:0:
256,192,364646,1,0,0:0:0:0:
256,192,364703,1,8,0:0:0:0:
256,192,364761,1,0,0:0:0:0:
256,192,364819,1,8,0:0:0:0:
256,192,364934,1,0,0:0:0:0:
256,192,365050,1,8,0:0:0:0:
256,192,365107,1,8,0:0:0:0:
256,192,365165,1,0,0:0:0:0:
256,192,365223,1,0,0:0:0:0:
256,192,365280,5,12,0:0:0:0:
256,192,366323,1,8,0:0:0:0:
256,192,366845,1,8,0:0:0:0:
256,192,367106,1,8,0:0:0:0:
256,192,367236,1,0,0:0:0:0:
256,192,367366,1,12,0:0:0:0:
256,192,367888,1,0,0:0:0:0:
256,192,368410,1,8,0:0:0:0:
256,192,368671,1,4,0:0:0:0:
256,192,368932,1,0,0:0:0:0:
256,192,368997,1,0,0:0:0:0:
256,192,369062,1,0,0:0:0:0:
256,192,369127,1,0,0:0:0:0:
256,192,369193,1,0,0:0:0:0:
256,192,369453,1,8,0:0:0:0:
256,192,369519,1,0,0:0:0:0:
256,192,369584,1,0,0:0:0:0:
256,192,369649,1,0,0:0:0:0:
256,192,369714,1,0,0:0:0:0:
256,192,369975,1,0,0:0:0:0:
256,192,370236,1,4,0:0:0:0:
256,192,370497,1,8,0:0:0:0:
256,192,370758,1,4,0:0:0:0:
256,192,371019,1,8,0:0:0:0:
256,192,371084,1,8,0:0:0:0:
256,192,371149,1,0,0:0:0:0:
256,192,371214,1,0,0:0:0:0:
256,192,371280,1,0,0:0:0:0:
256,192,371540,1,8,0:0:0:0:
256,192,371606,1,0,0:0:0:0:
256,192,371671,1,0,0:0:0:0:
256,192,371736,1,0,0:0:0:0:
256,192,371801,1,0,0:0:0:0:
256,192,371866,1,0,0:0:0:0:
256,192,371932,1,0,0:0:0:0:
256,192,372062,1,8,0:0:0:0:
256,192,372323,1,4,0:0:0:0:
256,192,372584,1,8,0:0:0:0:
256,192,372845,1,0,0:0:0:0:
256,192,372910,1,0,0:0:0:0:
256,192,372975,1,0,0:0:0:0:
256,192,373040,1,0,0:0:0:0:
256,192,373106,1,8,0:0:0:0:
256,192,373366,1,0,0:0:0:0:
256,192,373432,1,0,0:0:0:0:
256,192,373497,1,0,0:0:0:0:
256,192,373562,1,0,0:0:0:0:
256,192,373627,1,8,0:0:0:0:
256,192,373888,1,4,0:0:0:0:
256,192,374410,1,4,0:0:0:0:
256,192,374671,1,8,0:0:0:0:
256,192,374932,1,0,0:0:0:0:
256,192,374997,1,0,0:0:0:0:
256,192,375062,1,0,0:0:0:0:
256,192,375127,1,0,0:0:0:0:
256,192,375193,1,8,0:0:0:0:
256,192,375453,1,0,0:0:0:0:
256,192,375714,1,4,0:0:0:0:
256,192,376236,1,0,0:0:0:0:
256,192,376758,1,8,0:0:0:0:
256,192,377019,1,0,0:0:0:0:
256,192,377280,1,0,0:0:0:0:
256,192,377345,1,0,0:0:0:0:
256,192,377410,1,0,0:0:0:0:
256,192,377475,1,0,0:0:0:0:
256,192,377540,1,8,0:0:0:0:
256,192,377801,1,8,0:0:0:0:
256,192,377866,1,0,0:0:0:0:
256,192,377932,1,0,0:0:0:0:
256,192,377997,1,0,0:0:0:0:
256,192,378062,1,0,0:0:0:0:
256,192,378323,1,0,0:0:0:0:
256,192,378584,1,4,0:0:0:0:
256,192,378845,1,8,0:0:0:0:
256,192,379106,1,4,0:0:0:0:
256,192,379366,1,8,0:0:0:0:
256,192,379432,1,0,0:0:0:0:
256,192,379497,1,0,0:0:0:0:
256,192,379562,1,0,0:0:0:0:
256,192,379627,1,0,0:0:0:0:
256,192,379888,1,8,0:0:0:0:
256,192,379953,1,0,0:0:0:0:
256,192,380019,1,0,0:0:0:0:
256,192,380084,1,0,0:0:0:0:
256,192,380149,1,0,0:0:0:0:
256,192,380214,1,0,0:0:0:0:
256,192,380280,1,0,0:0:0:0:
256,192,380410,1,0,0:0:0:0:
256,192,380671,1,4,0:0:0:0:
256,192,380932,1,8,0:0:0:0:
256,192,381193,1,0,0:0:0:0:
256,192,381258,1,0,0:0:0:0:
256,192,381323,1,0,0:0:0:0:
256,192,381388,1,0,0:0:0:0:
256,192,381453,1,8,0:0:0:0:
256,192,381714,1,8,0:0:0:0:
256,192,381780,1,0,0:0:0:0:
256,192,381845,1,0,0:0:0:0:
256,192,381910,1,0,0:0:0:0:
256,192,381975,1,8,0:0:0:0:
256,192,382236,1,4,0:0:0:0:
256,192,382758,1,4,0:0:0:0:
256,192,383019,1,8,0:0:0:0:
256,192,383280,1,0,0:0:0:0:
256,192,383345,1,0,0:0:0:0:
256,192,383410,1,0,0:0:0:0:
256,192,383475,1,0,0:0:0:0:
256,192,383540,1,8,0:0:0:0:
256,192,383801,1,4,0:0:0:0:
256,192,384062,1,12,0:0:0:0:
256,192,384584,1,0,0:0:0:0:
256,192,385106,1,8,0:0:0:0:
256,192,385366,1,4,0:0:0:0:
256,192,385627,1,0,0:0:0:0:
256,192,385693,1,0,0:0:0:0:
256,192,385758,1,0,0:0:0:0:
256,192,385823,1,0,0:0:0:0:
256,192,385888,1,0,0:0:0:0:
256,192,386149,1,8,0:0:0:0:
256,192,386214,1,0,0:0:0:0:
256,192,386280,1,0,0:0:0:0:
256,192,386345,1,0,0:0:0:0:
256,192,386410,1,0,0:0:0:0:
256,192,386671,1,0,0:0:0:0:
256,192,386932,1,4,0:0:0:0:
256,192,387193,1,8,0:0:0:0:
256,192,387453,1,4,0:0:0:0:
256,192,387714,1,0,0:0:0:0:
256,192,387780,1,0,0:0:0:0:
256,192,387845,1,0,0:0:0:0:
256,192,387910,1,0,0:0:0:0:
256,192,387975,1,8,0:0:0:0:
256,192,388236,1,8,0:0:0:0:
256,192,388301,1,0,0:0:0:0:
256,192,388366,1,0,0:0:0:0:
256,192,388432,1,0,0:0:0:0:
256,192,388497,1,0,0:0:0:0:
256,192,388562,1,0,0:0:0:0:
256,192,388627,1,0,0:0:0:0:
256,192,388758,1,0,0:0:0:0:
256,192,389019,1,4,0:0:0:0:
256,192,389280,1,8,0:0:0:0:
256,192,389540,1,0,0:0:0:0:
256,192,389606,1,0,0:0:0:0:
256,192,389671,1,0,0:0:0:0:
256,192,389736,1,0,0:0:0:0:
256,192,389801,1,0,0:0:0:0:
256,192,390062,1,0,0:0:0:0:
256,192,390127,1,0,0:0:0:0:
256,192,390193,1,0,0:0:0:0:
256,192,390258,1,0,0:0:0:0:
256,192,390323,1,8,0:0:0:0:
256,192,390584,1,4,0:0:0:0:
256,192,391106,1,4,0:0:0:0:
256,192,391366,1,8,0:0:0:0:
256,192,391627,1,0,0:0:0:0:
256,192,391693,1,0,0:0:0:0:
256,192,391758,1,0,0:0:0:0:
256,192,391823,1,0,0:0:0:0:
256,192,391888,1,8,0:0:0:0:
256,192,392149,1,4,0:0:0:0:
256,192,392410,1,12,0:0:0:0:
256,192,392932,1,0,0:0:0:0:
256,192,393453,1,8,0:0:0:0:
256,192,393714,1,4,0:0:0:0:
256,192,393975,1,0,0:0:0:0:
256,192,394040,1,0,0:0:0:0:
256,192,394106,1,0,0:0:0:0:
256,192,394171,1,0,0:0:0:0:
256,192,394236,1,8,0:0:0:0:
256,192,394497,1,8,0:0:0:0:
256,192,394562,1,0,0:0:0:0:
256,192,394627,1,0,0:0:0:0:
256,192,394693,1,0,0:0:0:0:
256,192,394758,1,0,0:0:0:0:
256,192,395019,1,0,0:0:0:0:
256,192,395279,1,4,0:0:0:0:
256,192,395540,1,8,0:0:0:0:
256,192,395801,1,4,0:0:0:0:
256,192,396062,1,8,0:0:0:0:
256,192,396127,1,0,0:0:0:0:
256,192,396193,1,0,0:0:0:0:
256,192,396258,1,0,0:0:0:0:
256,192,396323,1,8,0:0:0:0:
256,192,396584,1,8,0:0:0:0:
256,192,396649,1,0,0:0:0:0:
256,192,396714,1,0,0:0:0:0:
256,192,396779,1,0,0:0:0:0:
256,192,396845,1,0,0:0:0:0:
256,192,396910,1,0,0:0:0:0:
256,192,396975,1,0,0:0:0:0:
256,192,397106,1,0,0:0:0:0:
256,192,397366,1,4,0:0:0:0:
256,192,397627,1,8,0:0:0:0:
256,192,397888,1,0,0:0:0:0:
256,192,397953,1,0,0:0:0:0:
256,192,398019,1,0,0:0:0:0:
256,192,398084,1,0,0:0:0:0:
256,192,398149,1,8,0:0:0:0:
256,192,398410,1,0,0:0:0:0:
256,192,398475,1,0,0:0:0:0:
256,192,398540,1,0,0:0:0:0:
256,192,398606,1,0,0:0:0:0:
256,192,398671,1,8,0:0:0:0:
256,192,398932,1,4,0:0:0:0:
256,192,399453,1,4,0:0:0:0:
256,192,399714,1,8,0:0:0:0:
256,192,399779,1,8,0:0:0:0:
256,192,399845,1,8,0:0:0:0:
256,192,399910,1,8,0:0:0:0:
256,192,399975,1,0,0:0:0:0:
256,192,400040,1,0,0:0:0:0:
256,192,400106,1,0,0:0:0:0:
256,192,400171,1,0,0:0:0:0:
256,192,400236,1,8,0:0:0:0:
256,192,400301,1,8,0:0:0:0:
256,192,400366,5,8,0:0:0:0:
256,192,400432,1,8,0:0:0:0:
256,192,400497,1,0,0:0:0:0:
256,192,400562,1,0,0:0:0:0:
256,192,400627,1,0,0:0:0:0:
256,192,400693,1,0,0:0:0:0:
256,192,400758,8,0,401801,0:0:0:0:
