osu file format v14

[General]
AudioFilename: audio.mp3
AudioLeadIn: 0
PreviewTime: 45317
Countdown: 0
SampleSet: Soft
StackLeniency: 0.7
Mode: 0
LetterboxInBreaks: 0
EpilepsyWarning: 1
WidescreenStoryboard: 1

[Editor]
Bookmarks: 16220,30430,45317
DistanceSpacing: 1.6
BeatDivisor: 4
GridSize: 16
TimelineZoom: 2.260001

[Metadata]
Title:Land of Snow
TitleUnicode:Land of Snow
Artist:DiGiTAL WiNG
ArtistUnicode:DiGiTAL WiNG
Creator:SUPERGLB05
Version:Easy
Source:
Tags:touhou cirno 9 frozen traveler track no. 01 DiGiTAL WiNG comitek 83 part i -doge- chronosrark1st
BeatmapID:2089291
BeatmapSetID:998963

[Difficulty]
HPDrainRate:1
CircleSize:2
OverallDifficulty:2
ApproachRate:3
SliderMultiplier:0.499999999999999
SliderTickRate:2

[Events]
//Background and Video events
0,0,"811130.png",0,0
//Break Periods
//Storyboard Layer 0 (Background)
//Storyboard Layer 1 (Fail)
//Storyboard Layer 2 (Pass)
//Storyboard Layer 3 (Foreground)
//Storyboard Layer 4 (Overlay)
//Storyboard Sound Samples

[TimingPoints]
205,451.127819548872,4,2,1,5,1,0
656,-100,4,2,1,10,0,0
1107,-100,4,2,1,15,0,0
1558,-100,4,2,1,20,0,0
2009,-100,4,2,1,25,0,0
2235,-100,4,2,2,25,0,0
2460,-100,4,2,1,25,0,0
2686,-100,4,2,2,25,0,0
2911,-100,4,2,1,25,0,0
3137,-100,4,2,2,25,0,0
3362,-100,4,2,3,25,0,0
3588,-100,4,2,2,25,0,0
3814,-100,4,2,3,25,0,0
4039,-100,4,2,2,25,0,0
4265,-100,4,2,1,25,0,0
4490,-100,4,2,4,25,0,0
4716,-100,4,2,5,25,0,0
4941,-100,4,2,1,25,0,0
5167,-100,4,2,6,25,0,0
5392,-100,4,2,7,25,0,0
5505,-100,4,2,1,25,0,0
5618,-100,4,2,3,25,0,0
5844,-100,4,2,2,25,0,0
6069,-100,4,2,1,25,0,0
6295,-100,4,2,4,25,0,0
6520,-100,4,2,8,25,0,0
6746,-100,4,2,5,25,0,0
6971,-100,4,2,1,25,0,0
7197,-100,4,2,4,25,0,0
7310,-100,4,2,2,25,0,0
7423,-100,4,2,5,25,0,0
7648,-100,4,2,1,25,0,0
7874,-100,4,2,6,25,0,0
8099,-100,4,2,7,25,0,0
8325,-100,4,2,9,25,0,0
8550,-100,4,2,3,25,0,0
8776,-100,4,2,2,25,0,0
9001,-100,4,2,6,25,0,0
9114,-100,4,2,7,25,0,0
9227,-100,4,2,10,25,0,0
9453,-100,4,2,2,25,0,0
9678,-100,4,2,1,25,0,0
9904,-100,4,2,2,25,0,0
10129,-100,4,2,1,25,0,0
10355,-100,4,2,2,25,0,0
10580,-100,4,2,3,25,0,0
10806,-100,4,2,2,25,0,0
11032,-100,4,2,3,25,0,0
11257,-100,4,2,2,25,0,0
11483,-100,4,2,1,25,0,0
11708,-100,4,2,4,25,0,0
11934,-100,4,2,5,25,0,0
12159,-100,4,2,1,25,0,0
12385,-100,4,2,6,25,0,0
12611,-100,4,2,7,25,0,0
12836,-100,4,2,3,25,0,0
13062,-100,4,2,2,25,0,0
13287,-100,4,2,1,25,0,0
13513,-100,4,2,4,25,0,0
13738,-100,4,2,8,25,0,0
13964,-100,4,2,5,25,0,0
14189,-100,4,2,1,25,0,0
14415,-100,4,2,4,25,0,0
14641,-100,4,2,5,25,0,0
14866,-100,4,2,1,25,0,0
15092,-100,4,2,6,25,0,0
15317,-100,4,2,7,25,0,0
15543,-100,4,2,2,25,0,0
15768,-100,4,2,3,25,0,0
15994,-100,4,2,2,25,0,0
16220,-100,4,2,6,25,0,0
16332,-100,4,2,2,25,0,0
16445,-100,4,2,11,40,0,0
16671,-100,4,2,2,40,0,0
16896,-100,4,2,1,40,0,0
17122,-100,4,2,2,40,0,0
17347,-100,4,2,1,40,0,0
17573,-100,4,2,2,40,0,0
17798,-100,4,2,3,40,0,0
18024,-100,4,2,2,40,0,0
18250,-100,4,2,3,40,0,0
18475,-100,4,2,2,40,0,0
18701,-100,4,2,1,40,0,0
18926,-100,4,2,4,40,0,0
19152,-100,4,2,12,40,0,0
19377,-100,4,2,1,40,0,0
19603,-100,4,2,6,40,0,0
19829,-100,4,2,7,40,0,0
20054,-100,4,2,13,50,0,0
20280,-100,4,2,2,50,0,0
20505,-100,4,2,1,50,0,0
20731,-100,4,2,4,50,0,0
20956,-100,4,2,8,50,0,0
21182,-100,4,2,5,50,0,0
21408,-100,4,2,1,50,0,0
21633,-100,4,2,14,50,0,0
21746,-100,4,2,15,50,0,0
21859,-100,4,2,16,50,0,0
22084,-100,4,2,1,50,0,0
22310,-100,4,2,6,50,0,0
22535,-100,4,2,7,50,0,0
22761,-100,4,2,17,50,0,0
23212,-100,4,2,18,50,0,0
23663,-100,4,2,19,55,0,0
23776,-100,4,2,15,55,0,0
23889,-100,4,2,20,55,0,0
24114,-100,4,2,1,55,0,0
24340,-100,4,2,2,55,0,0
24565,-100,4,2,1,55,0,0
24791,-100,4,2,2,55,0,0
25017,-100,4,2,3,55,0,0
25242,-100,4,2,2,55,0,0
25468,-100,4,2,3,55,0,0
25693,-100,4,2,2,55,0,0
25919,-100,4,2,1,55,0,0
26144,-100,4,2,4,55,0,0
26370,-100,4,2,5,55,0,0
26595,-100,4,2,1,55,0,0
26821,-100,4,2,6,55,0,0
27047,-100,4,2,7,55,0,0
27272,-100,4,2,3,60,0,0
27498,-100,4,2,2,60,0,0
27723,-100,4,2,1,60,0,0
27949,-100,4,2,4,60,0,0
28174,-100,4,2,8,60,0,0
28400,-100,4,2,5,60,0,0
28626,-100,4,2,1,60,0,0
28851,-100,4,2,4,60,0,0
29077,-100,4,2,5,60,0,0
29302,-100,4,2,1,60,0,0
29528,-100,4,2,6,60,0,0
29753,-100,4,2,7,60,0,0
29979,-100,4,2,2,60,0,0
30204,-100,4,2,3,60,0,0
30430,-100,4,1,1,75,0,0
30543,-100,4,1,2,75,0,0
30656,-100,4,1,3,75,0,0
30768,-100,4,1,4,75,0,0
30881,-80,4,1,5,75,0,1
31107,-80,4,1,0,75,0,1
31332,-80,4,1,1,75,0,1
31783,-80,4,1,10,75,0,1
32235,-80,4,1,1,75,0,1
32686,-80,4,1,10,75,0,1
33137,-80,4,1,1,75,0,1
33250,-80,4,2,0,75,0,1
33362,-80,4,1,1,75,0,1
33475,-80,4,2,0,75,0,1
33588,-80,4,1,6,75,0,1
34039,-80,4,1,1,75,0,1
34490,-80,4,1,6,75,0,1
34941,-80,4,1,1,75,0,1
35054,-80,4,2,0,75,0,1
35392,-80,4,1,10,75,0,1
35844,-80,4,1,7,75,0,1
36295,-80,4,1,8,75,0,1
36746,-80,4,1,10,75,0,1
36859,-80,4,2,0,75,0,1
36971,-80,4,1,10,75,0,1
37084,-80,4,2,0,75,0,1
37197,-80,4,1,2,75,0,1
37648,-80,4,1,3,75,0,1
38099,-80,4,1,6,75,0,1
38550,-80,4,1,1,75,0,1
38663,-80,4,2,0,75,0,1
39001,-80,4,1,10,75,0,1
39453,-80,4,1,7,75,0,1
39904,-80,4,1,9,75,0,1
40017,-80,4,2,0,75,0,1
40129,-80,4,1,9,75,0,1
40242,-80,4,2,0,75,0,1
40355,-80,4,1,8,75,0,1
40468,-80,4,2,0,75,0,1
40580,-80,4,1,8,75,0,1
40693,-80,4,2,0,75,0,1
40806,-80,4,1,10,75,0,1
41257,-80,4,1,7,75,0,1
41708,-80,4,1,8,75,0,1
42159,-80,4,1,10,75,0,1
42272,-80,4,2,0,75,0,1
42611,-80,4,1,2,75,0,1
43062,-80,4,1,3,75,0,1
43513,-80,4,1,1,75,0,1
43626,-80,4,2,0,75,0,1
43738,-80,4,1,1,75,0,1
43851,-80,4,2,0,75,0,1
43964,-80,4,1,6,75,0,1
44077,-80,4,2,0,75,0,1
44189,-80,4,1,6,75,0,1
44302,-80,4,2,0,75,0,1
44415,-80,4,1,1,75,0,1
44528,-80,4,2,0,75,0,1
44866,-80,4,1,1,75,0,1
44979,-80,4,1,2,75,0,1
45092,-80,4,1,3,75,0,1
45204,-80,4,1,4,75,0,1
45317,-66.6666666666667,4,1,5,75,0,1
45543,-66.6666666666667,4,1,0,75,0,1
45768,-66.6666666666667,4,1,1,75,0,1
46219,-66.6666666666667,4,1,10,75,0,1
46671,-66.6666666666667,4,1,1,75,0,1
47122,-66.6666666666667,4,1,10,75,0,1
47235,-66.6666666666667,4,2,0,75,0,1
47347,-66.6666666666667,4,1,10,75,0,1
47573,-66.6666666666667,4,1,1,75,0,1
47686,-66.6666666666667,4,2,0,75,0,1
47798,-66.6666666666667,4,1,1,75,0,1
47911,-66.6666666666667,4,2,0,75,0,1
48024,-66.6666666666667,4,1,6,75,0,1
48137,-66.6666666666667,4,2,0,75,0,1
48250,-66.6666666666667,4,1,6,75,0,1
48475,-66.6666666666667,4,1,1,75,0,1
48926,-66.6666666666667,4,1,6,75,0,1
49377,-66.6666666666667,4,1,1,75,0,1
49490,-66.6666666666667,4,2,0,75,0,1
49828,-66.6666666666667,4,1,10,75,0,1
50280,-66.6666666666667,4,1,7,75,0,1
50731,-66.6666666666667,4,1,8,75,0,1
50844,-66.6666666666667,4,2,0,75,0,1
50956,-66.6666666666667,4,1,8,75,0,1
51182,-66.6666666666667,4,1,10,75,0,1
51295,-66.6666666666667,4,2,0,75,0,1
51407,-66.6666666666667,4,1,10,75,0,1
51520,-66.6666666666667,4,2,0,75,0,1
51633,-66.6666666666667,4,1,2,75,0,1
52084,-66.6666666666667,4,1,3,75,0,1
52535,-66.6666666666667,4,1,6,75,0,1
52986,-66.6666666666667,4,1,1,75,0,1
53099,-66.6666666666667,4,2,0,75,0,1
53437,-66.6666666666667,4,1,10,75,0,1
53889,-66.6666666666667,4,1,7,75,0,1
54340,-66.6666666666667,4,1,9,75,0,1
54453,-66.6666666666667,4,2,0,75,0,1
54565,-66.6666666666667,4,1,9,75,0,1
54678,-66.6666666666667,4,2,0,75,0,1
54791,-66.6666666666667,4,1,8,75,0,1
54904,-66.6666666666667,4,2,0,75,0,1
55016,-66.6666666666667,4,1,8,75,0,1
55129,-66.6666666666667,4,2,0,75,0,1
55242,-66.6666666666667,4,1,10,75,0,1
55693,-66.6666666666667,4,1,7,75,0,1
56144,-66.6666666666667,4,1,8,75,0,1
56595,-66.6666666666667,4,1,10,75,0,1
56708,-66.6666666666667,4,2,0,75,0,1
57047,-66.6666666666667,4,1,2,75,0,1
57498,-66.6666666666667,4,1,3,75,0,1
57949,-66.6666666666667,4,1,1,75,0,1
58062,-66.6666666666667,4,2,0,75,0,1
58174,-66.6666666666667,4,1,1,75,0,1
58400,-66.6666666666667,4,1,6,75,0,1
58625,-66.6666666666667,4,1,6,75,0,1
58851,-66.6666666666667,4,1,1,75,0,1
58964,-66.6666666666667,4,2,0,75,0,1
59077,-66.6666666666667,4,1,1,75,0,1
59302,-66.6666666666667,4,1,2,75,0,1
59415,-66.6666666666667,4,1,5,75,0,1
59753,-100,4,2,99,75,0,0
59979,-100,4,2,0,70,0,0
60204,-100,4,2,0,65,0,0
60430,-100,4,2,0,60,0,0
60656,-100,4,2,0,55,0,0
60881,-100,4,2,0,50,0,0
61107,-100,4,2,0,45,0,0
61332,-100,4,2,0,40,0,0
61558,-100,4,2,0,35,0,0
61783,-100,4,2,0,30,0,0
62009,-100,4,2,0,25,0,0
62235,-100,4,2,0,20,0,0
62460,-100,4,2,0,15,0,0
62686,-100,4,2,0,10,0,0
62911,-100,4,2,0,5,0,0

[Colours]
Combo1 : 255,128,255
Combo2 : 53,0,102
Combo3 : 166,188,247
Combo4 : 0,255,255
Combo5 : 6,128,249
Combo6 : 251,183,132
Combo7 : 250,146,185
Combo8 : 255,175,0

[HitObjects]
221,335,2009,5,6,0:0:0:0:
221,335,2911,2,0,P|244:323|273:317,1,49.9999999999999,2|2,0:0|0:0,0:0:0:0:
357,312,3814,2,0,P|345:260|315:218,2,99.9999999999999,2|2|14,0:0|0:0|0:0,0:0:0:0:
423,327,6069,5,2,0:0:0:0:
386,292,6520,2,0,P|361:268|320:261,1,74.9999999999999,2|10,0:0|0:0,0:0:0:0:
241,265,7423,6,0,P|232:197|249:161,2,99.9999999999999,14|14|14,0:0|0:0|0:0,0:0:0:0:
145,292,10129,2,0,P|101:281|74:253,1,74.9999999999999,2|2,0:0|0:0,0:0:0:0:
48,182,11032,6,0,P|103:141|212:133,1,175,2|2,0:0|0:0,0:0:0:0:
310,185,12836,70,0,P|255:226|146:234,2,175,2|2|2,0:0|0:0|0:0,0:0:0:0:
345,116,16220,1,10,0:0:0:0:
411,121,16445,6,0,P|456:152|459:201,1,99.9999999999998,14|2,0:0|0:0,0:0:0:0:
364,240,17798,6,0,P|335:252|321:268,2,49.9999999999999,6|2|2,0:0|0:0|0:0,0:0:0:0:
428,151,19152,2,0,P|411:130|384:120,1,49.9999999999999,14|6,0:0|0:0,0:0:0:0:
291,124,20054,6,0,P|261:140|248:159,1,49.9999999999999,14|2,0:0|0:0,0:0:0:0:
296,215,20956,2,0,P|279:233|256:243,1,49.9999999999999,2|6,0:0|0:0,0:0:0:0:
163,231,21859,70,0,L|155:198,2,25,10|6|2,0:0|0:0|0:0,0:0:0:0:
188,297,22761,2,0,P|230:308|240:306,2,49.9999999999999,6|6|14,0:0|0:0|0:0,0:0:0:0:
117,273,23889,2,0,L|113:302,1,25,10|2,0:0|0:0,0:0:0:0:
47,305,24565,6,0,P|37:281|42:256,1,49.9999999999999,2|6,0:0|0:0,0:0:0:0:
114,207,25468,2,0,P|138:210|157:225,1,49.9999999999999,2|2,0:0|0:0,0:0:0:0:
165,314,26370,2,0,P|150:333|126:342,1,49.9999999999999,6|6,0:0|0:0,0:0:0:0:
256,192,27272,12,2,29979,0:0:0:0:
173,213,30430,69,6,0:0:0:0:
358,163,30881,5,14,0:0:0:0:
151,49,31783,70,0,P|128:44|91:60,1,62.4999999999999,10|6,0:0|0:0,0:0:0:0:
76,144,32686,2,0,L|72:189,2,31.2499999999999,10|12|10,0:0|0:0|0:0,0:0:0:0:
173,101,33588,2,0,P|211:105|246:120,1,62.4999999999999,14|14,0:0|0:0,0:0:0:0:
391,184,34490,6,0,P|365:238|300:258,1,125,14|10,0:0|0:0,0:0:0:0:
226,216,35844,1,14,0:0:0:0:
140,257,36295,102,0,L|140:297,2,31.2499999999999,10|12|10,0:0|0:0|0:0,0:0:0:0:
44,206,37197,2,0,P|26:156|32:139,2,62.4999999999999,14|14|14,0:0|0:0|0:0,0:0:0:0:
168,173,38550,6,0,P|237:177|295:152,1,125,10|14,0:0|0:0,0:0:0:0:
427,126,39904,102,0,P|446:153|447:191,1,62.4999999999999,10|10,0:0|0:0,0:0:0:0:
373,199,40806,2,0,P|376:229|394:254,2,62.4999999999999,14|6|14,0:0|0:0|0:0,0:0:0:0:
286,234,42159,6,0,P|282:264|264:289,2,62.4999999999999,10|10|14,0:0|0:0|0:0,0:0:0:0:
222,164,43513,2,0,L|212:124,2,31.2499999999999,10|12|10,0:0|0:0|0:0,0:0:0:0:
288,98,44415,1,10,0:0:0:0:
358,163,44866,5,6,0:0:0:0:
173,213,45317,5,14,0:0:0:0:
294,276,46220,70,0,P|285:315|254:336,1,75.0000028610229,10|10,0:0|0:0,0:0:0:0:
151,307,47122,2,0,L|150:359,2,37.5000014305115,10|12|10,0:0|0:0|0:0,0:0:0:0:
54,251,48024,2,0,P|36:207|45:169,1,75.0000028610229,14|14,0:0|0:0,0:0:0:0:
57,69,48926,6,0,L|138:73,1,75.0000028610229,6|10,0:0|0:0,0:0:0:0:
185,145,49829,2,0,L|266:149,1,75.0000028610229,10|14,0:0|0:0,0:0:0:0:
366,151,50731,102,0,P|422:109|477:154,1,150.000005722046,10|14,0:0|0:0,0:0:0:0:
471,252,52084,2,0,L|391:248,1,75.0000028610229,6|6,0:0|0:0,0:0:0:0:
307,270,52986,6,0,P|266:279|221:274,1,75.0000028610229,10|10,0:0|0:0,0:0:0:0:
155,247,53889,1,14,0:0:0:0:
81,284,54340,2,0,B|77:364,2,75.0000028610229,10|10|14,0:0|0:0|0:0,0:0:0:0:
9,253,55693,102,0,B|13:167,1,75.0000028610229,14|14,0:0|0:0,0:0:0:0:
88,123,56595,2,0,P|158:132|198:195,1,150.000005722046,10|14,0:0|0:0,0:0:0:0:
173,294,57949,6,0,L|218:303,1,37.5000014305115,10|12,0:0|0:0,0:0:0:0:
295,315,58400,1,2,0:0:0:0:
256,192,58851,1,14,0:0:0:0:
256,192,59302,5,6,0:0:0:0:
256,0,59753,5,14,0:0:0:0:
256,192,60204,12,0,62911,0:0:0:0:
