osu file format v14

[General]
AudioFilename: audio.mp3
AudioLeadIn: 0
PreviewTime: 33068
Countdown: 0
SampleSet: Drum
StackLeniency: 0.7
Mode: 0
LetterboxInBreaks: 0
WidescreenStoryboard: 0

[Editor]
Bookmarks: 113716
DistanceSpacing: 0.9
BeatDivisor: 4
GridSize: 16
TimelineZoom: 1.6

[Metadata]
Title:Scorpio
TitleUnicode:Scorpio
Artist:Devin Wild
ArtistUnicode:Devin Wild
Creator:ExCell3nT
Version:Scratch that! Definitely a scorpio!
Source:
Tags:
BeatmapID:3896979
BeatmapSetID:1891388

[Difficulty]
HPDrainRate:4.5
CircleSize:4.5
OverallDifficulty:9
ApproachRate:9.7
SliderMultiplier:1.4
SliderTickRate:1

[Events]
//Background and Video events
0,0,"Unbenannt.png",0,0
//Break Periods
//Storyboard Layer 0 (Background)
//Storyboard Layer 1 (Fail)
//Storyboard Layer 2 (Pass)
//Storyboard Layer 3 (Foreground)
//Storyboard Layer 4 (Overlay)
//Storyboard Sound Samples

[TimingPoints]
31124,370.37037037037,4,3,1,100,1,0
32235,-200,4,3,1,100,0,0
33068,-50,4,3,1,100,0,0
33716,-250,4,3,1,100,0,0
35753,-100,4,3,1,100,0,1
45846,-100,4,3,1,100,0,0
47420,-50,4,3,1,100,0,1
50012,-22.2222222222222,4,3,1,100,0,1
50383,-50,4,3,1,100,0,1
57698,-50,4,3,1,100,0,0
59272,-25,4,3,1,100,0,1
61679,-22.2222222222222,4,3,1,100,0,1
61864,-20,4,3,1,100,0,1
62049,-16.6666666666667,4,3,1,100,0,1
62235,-25,4,3,1,100,0,1
64364,-25,4,3,1,100,0,0
65198,-25,4,3,1,60,0,1
71123,-100,4,3,1,20,0,0
87605,-80,4,3,1,20,0,0
87790,-66.6666666666667,4,3,1,20,0,0
87975,-57.1428571428571,4,3,1,20,0,0
88161,-50,4,3,1,20,0,0
88346,-52.6315789473684,4,3,1,20,0,0
88531,-55.5555555555556,4,3,1,20,0,0
88716,-58.8235294117647,4,3,1,20,0,0
88901,-100,4,3,1,20,0,0
94827,-200,4,3,1,100,0,0
96309,-142.857142857143,4,3,1,100,0,0
97790,-111.111111111111,4,3,1,100,0,0
99272,-90.9090909090909,4,3,1,100,0,0
106679,-100,4,3,1,30,0,0
118531,-90.9090909090909,4,3,1,100,0,0
125938,-20,4,3,1,100,0,1
128531,-200,4,3,1,100,0,1
128901,-20,4,3,1,100,0,1
130753,-28.5714285714286,4,3,1,100,0,1
133346,-66.6666666666667,4,3,1,100,0,1
135568,-25,4,3,1,100,0,1
136309,-50,4,3,1,100,0,1
138531,-28.5714285714286,4,3,1,100,0,1
138716,-25,4,3,1,100,0,1
138901,-22.2222222222222,4,3,1,100,0,1
139086,-20,4,3,1,100,0,1
139272,-50,4,3,1,100,0,1
144457,-28.5714285714286,4,3,1,100,0,1
144642,-25,4,3,1,100,0,1
145198,-22.2222222222222,4,3,1,100,0,0
148161,-40,4,3,1,100,0,1
152883,-66.6666666666667,4,3,1,100,0,1
154086,-33.3333333333333,4,3,1,100,0,1
156494,-25,4,3,1,100,0,1
159827,-50,4,3,1,100,0,1
160012,-200,4,3,1,15,0,0

[Colours]
Combo1 : 246,245,247
Combo2 : 33,107,20
Combo3 : 57,120,134
Combo4 : 205,100,69

[HitObjects]
170,57,31124,5,0,2:2:0:0:
162,108,31216,1,0,2:2:0:0:
154,160,31309,1,0,2:2:0:0:
144,211,31401,1,0,2:2:0:0:
221,187,31494,5,0,2:2:0:0:
221,228,31586,1,0,2:2:0:0:
221,270,31679,1,0,2:2:0:0:
222,312,31772,1,0,2:2:0:0:
301,281,31864,5,0,2:2:0:0:
308,311,31957,1,0,2:2:0:0:
316,341,32049,1,0,2:2:0:0:
324,371,32142,1,0,2:2:0:0:
396,328,32235,6,0,L|408:352,3,17.5,0|0|0|0,2:2|2:2|2:2|2:2,2:2:0:0:
483,308,32605,1,2,3:2:0:0:
476,301,32698,1,2,3:2:0:0:
468,295,32790,1,2,3:2:0:0:
266,226,33068,2,0,P|300:234|346:231,2,70,0|0|0,2:2|2:2|2:2,2:2:0:0:
209,162,33346,2,0,P|277:147|357:176,1,140,0|0,2:2|2:2,2:2:0:0:
409,202,33716,2,0,L|419:164,1,28,0|0,2:2|2:2,2:2:0:0:
437,95,34086,5,8,3:3:0:0:
378,334,34272,1,8,3:3:0:0:
154,71,34457,5,0,0:0:0:0:
156,77,34503,1,0,0:0:0:0:
158,84,34549,1,0,0:0:0:0:
160,90,34595,1,0,0:0:0:0:
163,97,34642,1,0,0:0:0:0:
165,104,34688,1,0,0:0:0:0:
167,110,34734,1,0,0:0:0:0:
169,117,34781,1,0,0:0:0:0:
171,124,34827,5,0,0:0:0:0:
149,125,34920,1,0,0:0:0:0:
131,136,35012,1,0,0:0:0:0:
120,154,35105,1,0,0:0:0:0:
114,174,35198,1,0,0:0:0:0:
160,319,35383,6,0,L|166:308,1,7
208,196,35475,2,0,L|214:185,1,7
253,68,35568,1,0,3:3:0:0:
253,68,35661,1,8,3:3:0:0:
253,68,35753,2,0,L|301:66,1,35,0|0,3:3|3:3,3:3:0:0:
433,54,35938,5,8,0:0:0:0:
433,54,36031,1,0,0:0:0:0:
433,54,36124,2,0,L|424:102,1,35
385,329,36309,5,8,0:0:0:0:
385,329,36401,1,0,0:0:0:0:
385,329,36494,2,0,L|354:301,1,35
137,83,36679,5,8,0:0:0:0:
137,83,36772,1,0,0:0:0:0:
137,83,36864,2,0,L|119:142,1,35
59,318,37049,5,8,0:0:0:0:
59,318,37142,1,0,0:0:0:0:
59,318,37235,2,0,L|100:291,1,35
377,101,37420,5,8,0:0:0:0:
377,101,37513,1,0,0:0:0:0:
377,101,37606,2,0,L|318:94,1,35
222,87,37790,5,8,0:0:0:0:
236,137,37883,1,0,0:0:0:0:
253,87,37975,1,0,0:0:0:0:
265,35,38068,1,0,0:0:0:0:
193,245,38161,5,8,0:0:0:0:
179,295,38254,1,0,0:0:0:0:
162,245,38346,1,0,0:0:0:0:
150,193,38439,1,0,0:0:0:0:
123,62,38531,5,8,0:0:0:0:
105,57,38624,1,0,0:0:0:0:
87,55,38716,2,0,P|67:65|53:82,1,35
30,302,38901,5,8,0:0:0:0:
48,307,38994,1,0,0:0:0:0:
66,309,39086,2,0,P|86:299|100:282,1,35
195,160,39272,6,0,P|211:152|232:148,3,35,8|0|0|0,0:0|0:0|0:0|0:0,0:0:0:0:
413,184,39642,6,0,P|397:192|376:196,3,35,8|0|0|0,0:0|0:0|0:0|0:0,0:0:0:0:
195,160,40012,5,8,0:0:0:0:
195,160,40105,1,0,0:0:0:0:
195,160,40198,2,0,L|183:117,1,35
380,195,40383,5,8,0:0:0:0:
380,195,40476,1,0,0:0:0:0:
380,195,40569,2,0,L|392:238,1,35
436,363,40753,2,8,L|422:324,2,35
353,113,41124,1,4,3:3:0:0:
353,113,41170,1,4,3:3:0:0:
353,113,41216,1,4,3:3:0:0:
353,113,41262,1,4,3:3:0:0:
353,113,41309,2,4,L|307:113,1,35,4|4,3:3|3:3,3:3:0:0:
90,109,41494,5,8,0:0:0:0:
124,102,41586,1,0,0:0:0:0:
158,95,41679,2,0,L|148:149,1,35
105,310,41864,5,8,0:0:0:0:
139,317,41956,1,0,0:0:0:0:
173,324,42049,2,0,L|160:268,1,35
114,13,42235,6,0,L|123:55,3,35,8|0|0|0,0:0|0:0|0:0|0:0,0:0:0:0:
124,207,42605,6,0,L|115:249,3,35,8|0|0|0,0:0|0:0|0:0|0:0,0:0:0:0:
258,18,42975,5,8,0:0:0:0:
268,17,43068,1,0,0:0:0:0:
278,16,43161,2,0,P|296:17|315:26,1,35
466,137,43346,5,8,0:0:0:0:
456,138,43439,1,0,0:0:0:0:
446,139,43532,2,0,P|428:138|409:129,1,35
477,230,43716,5,8,0:0:0:0:
491,261,43808,1,0,0:0:0:0:
491,296,43901,1,0,0:0:0:0:
476,327,43993,1,0,0:0:0:0:
346,175,44086,5,8,0:0:0:0:
332,144,44178,1,0,0:0:0:0:
332,109,44271,1,0,0:0:0:0:
347,78,44363,1,0,0:0:0:0:
220,219,44457,5,8,0:0:0:0:
220,219,44549,1,0,0:0:0:0:
220,219,44642,2,0,L|198:180,1,35
97,48,44827,5,8,0:0:0:0:
97,48,44919,1,0,0:0:0:0:
97,48,45012,2,0,L|85:92,1,35
52,250,45198,5,8,0:0:0:0:
52,250,45290,1,0,0:0:0:0:
52,250,45383,2,0,L|91:227,1,35
301,136,45568,5,8,0:0:0:0:
301,136,45661,1,0,0:0:0:0:
301,136,45753,2,0,L|317:171,1,35
362,242,45938,5,8,0:0:0:0:
257,48,46124,1,8,0:0:0:0:
272,346,46309,2,4,L|275:326,7,17.5,4|4|4|4|4|4|4|4,3:3|3:3|3:3|3:3|3:3|3:3|3:3|3:3,3:3:0:0:
277,311,46679,1,4,3:3:0:0:
283,276,46772,1,0,0:0:0:0:
288,241,46864,1,0,0:0:0:0:
293,206,46957,1,0,0:0:0:0:
318,51,47049,5,0,0:0:0:0:
318,51,47096,1,0,0:0:0:0:
318,51,47142,1,0,0:0:0:0:
318,51,47188,1,0,0:0:0:0:
318,51,47235,2,0,P|337:50|358:54,1,35
475,65,47420,6,0,P|461:100|470:146,1,70,8|0,0:0|0:0,0:0:0:0:
487,237,47605,1,0,0:0:0:0:
487,237,47698,1,0,0:0:0:0:
487,237,47790,2,0,P|439:228|406:234,1,70,8|0,0:0|0:0,0:0:0:0:
349,273,47975,1,0,0:0:0:0:
349,273,48068,1,0,0:0:0:0:
349,272,48160,2,0,P|315:280|280:278,1,70,8|0,0:0|0:0,0:0:0:0:
205,259,48346,1,0,0:0:0:0:
205,259,48439,1,0,0:0:0:0:
205,259,48531,2,0,P|157:250|124:256,1,70,8|0,0:0|0:0,0:0:0:0:
11,307,48716,2,0,P|59:316|92:310,1,70,8|0,0:0|0:0,0:0:0:0:
266,200,48901,6,0,B|277:175|277:175|266:124,1,70,8|0,0:0|0:0,0:0:0:0:
252,29,49086,1,0,0:0:0:0:
252,29,49179,1,0,0:0:0:0:
252,29,49272,2,0,B|227:18|227:18|176:28,1,70,8|0,0:0|0:0,0:0:0:0:
42,134,49457,1,0,0:0:0:0:
42,134,49550,1,0,0:0:0:0:
42,134,49643,2,0,B|67:145|67:145|118:134,1,70,8|0,0:0|0:0,0:0:0:0:
388,65,49827,1,0,0:0:0:0:
388,65,49920,1,0,0:0:0:0:
388,65,50012,2,0,B|408:116|408:116|372:248,1,157.500006008148,8|0,0:0|0:0,0:0:0:0:
283,384,50198,2,0,B|263:333|263:333|299:201,1,157.500006008148,8|0,0:0|0:0,0:0:0:0:
375,315,50383,5,8,0:0:0:0:
375,315,50475,1,0,0:0:0:0:
375,315,50568,2,0,P|339:316|280:301,1,70
90,211,50753,1,8,0:0:0:0:
90,211,50845,1,0,0:0:0:0:
90,211,50938,2,0,P|127:209|182:193,1,70
445,98,51124,1,8,0:0:0:0:
445,98,51216,1,0,0:0:0:0:
445,98,51309,2,0,P|409:115|380:143,1,70
260,352,51494,1,8,0:0:0:0:
242,284,51586,1,0,0:0:0:0:
243,213,51679,1,0,0:0:0:0:
265,146,51772,1,0,0:0:0:0:
290,81,51864,6,0,P|256:73|215:77,1,70,8|0,0:0|0:0,0:0:0:0:
121,94,52049,1,0,0:0:0:0:
121,94,52142,1,0,0:0:0:0:
121,94,52235,2,0,P|122:130|143:169,1,70,8|0,0:0|0:0,0:0:0:0:
233,313,52420,1,0,0:0:0:0:
233,313,52512,1,0,0:0:0:0:
233,313,52605,2,0,P|182:303|151:311,2,70,8|8|8,0:0|0:0|0:0,0:0:0:0:
381,343,52975,2,4,P|375:361|362:373,3,35
347,379,53161,2,4,P|390:353|454:376,1,105
456,372,53346,2,0,L|461:291,1,70,8|0,0:0|0:0,0:0:0:0:
469,192,53531,5,0,0:0:0:0:
469,192,53624,1,0,0:0:0:0:
469,192,53716,2,0,P|424:195|396:182,1,70,8|0,0:0|0:0,0:0:0:0:
221,110,53901,2,0,P|266:107|294:120,1,70
93,44,54086,1,8,0:0:0:0:
93,44,54179,1,0,0:0:0:0:
93,44,54272,2,0,P|109:80|101:121,1,70
70,173,54457,2,0,P|54:209|62:250,1,70,8|0,0:0|0:0,0:0:0:0:
97,299,54642,2,0,P|113:335|105:376,1,70
16,99,54827,5,8,0:0:0:0:
16,99,54920,1,0,0:0:0:0:
16,99,55012,2,0,L|105:111,1,70
163,165,55197,1,8,0:0:0:0:
163,165,55290,1,0,0:0:0:0:
163,165,55382,2,0,L|252:153,1,70
371,130,55568,2,0,P|332:131|298:123,1,70,8|0,0:0|0:0,0:0:0:0:
426,173,55753,2,0,P|455:176|499:166,1,70
302,125,55938,2,0,P|303:161|295:194,1,70,8|0,0:0|0:0,0:0:0:0:
494,167,56124,2,0,P|493:203|500:236,1,70
415,68,56309,6,0,P|382:59|335:62,1,70,8|0,0:0|0:0,0:0:0:0:
96,137,56494,1,0,0:0:0:0:
96,137,56586,1,0,0:0:0:0:
96,137,56679,2,0,P|132:143|176:131,1,70,8|0,0:0|0:0,0:0:0:0:
236,36,56864,1,0,0:0:0:0:
236,36,56957,1,0,0:0:0:0:
236,36,57049,2,0,L|263:127,1,70,8|0,0:0|0:0,0:0:0:0:
327,202,57235,1,0,0:0:0:0:
327,202,57328,1,0,0:0:0:0:
327,202,57420,2,0,L|300:293,1,70,8|0,0:0|0:0,0:0:0:0:
181,384,57605,2,0,L|208:293,1,70
222,234,57790,5,8,0:0:0:0:
439,255,57975,1,8,0:0:0:0:
133,165,58161,1,4,0:0:0:0:
167,158,58207,1,0,0:0:0:0:
201,151,58253,1,4,0:0:0:0:
235,145,58299,1,0,0:0:0:0:
270,138,58346,1,4,0:0:0:0:
304,132,58392,1,0,0:0:0:0:
339,125,58438,1,4,0:0:0:0:
372,114,58531,5,8,0:0:0:0:
312,78,58623,5,8,0:0:0:0:
243,67,58716,5,8,0:0:0:0:
175,82,58808,5,8,0:0:0:0:
116,120,58901,5,8,0:0:0:0:
383,37,59086,1,8,0:0:0:0:
247,359,59272,2,4,L|279:202,1,140,4|4,3:3|3:3,3:3:0:0:
299,108,59457,5,4,3:3:0:0:
299,108,59549,1,4,3:3:0:0:
299,108,59642,2,4,L|118:143,1,140,4|4,3:3|3:3,3:3:0:0:
33,162,59827,5,4,3:3:0:0:
33,162,59920,1,4,3:3:0:0:
33,162,60012,2,4,B|71:219|71:219|70:306,1,140,4|4,3:3|3:3,3:3:0:0:
84,59,60198,5,4,3:3:0:0:
84,59,60290,1,4,3:3:0:0:
84,59,60383,2,4,B|152:68|152:68|242:41,1,140,4|4,3:3|3:3,3:3:0:0:
428,325,60568,2,4,B|360:316|360:316|270:343,1,140,4|4,3:3|3:3,3:3:0:0:
310,268,60753,1,4,3:3:0:0:
330,200,60846,1,4,3:3:0:0:
347,132,60938,1,4,3:3:0:0:
432,45,61124,6,4,P|377:19|294:29,1,140,4|4,3:3|3:3,3:3:0:0:
173,117,61309,1,4,3:3:0:0:
173,117,61401,1,4,3:3:0:0:
173,117,61494,2,4,P|215:174|200:254,1,140,4|4,3:3|3:3,3:3:0:0:
143,342,61679,6,8,P|223:348|325:312,1,157.500006008148,8|8,3:3|3:3,3:3:0:0:
468,239,61864,2,12,L|270:201,1,175,12|12,3:3|3:3,3:3:0:0:
80,131,62049,2,12,P|170:88|289:116,1,210.000008010865,12|12,3:3|3:3,3:3:0:0:
468,239,62235,5,8,3:3:0:0:
468,239,62327,1,8,3:3:0:0:
468,239,62420,2,8,B|445:167|445:167|459:89,1,140,8|8,3:3|3:3,3:3:0:0:
372,232,62605,2,8,B|395:304|395:304|381:382,1,140,8|8,3:3|3:3,3:3:0:0:
355,127,62790,5,8,3:3:0:0:
355,127,62883,1,8,3:3:0:0:
355,127,62975,2,8,P|292:148|213:127,1,140,8|8,3:3|3:3,3:3:0:0:
16,88,63161,5,8,3:3:0:0:
16,88,63254,1,8,3:3:0:0:
16,88,63346,2,8,P|79:67|158:88,1,140,8|8,3:3|3:3,3:3:0:0:
355,127,63531,2,8,P|292:148|213:127,1,140,8|8,3:3|3:3,3:3:0:0:
149,82,63716,5,8,3:3:0:0:
132,150,63809,1,8,3:3:0:0:
129,219,63901,1,8,3:3:0:0:
146,286,63994,1,8,3:3:0:0:
218,336,64086,1,8,3:3:0:0:
235,268,64179,1,8,3:3:0:0:
238,199,64271,1,8,3:3:0:0:
221,132,64364,1,8,3:3:0:0:
149,82,64457,5,10,3:3:0:0:
253,44,64549,1,10,3:3:0:0:
361,14,64642,1,10,3:3:0:0:
336,128,64827,1,10,3:3:0:0:
336,128,64874,1,10,3:3:0:0:
336,128,64920,1,10,3:3:0:0:
336,128,64966,1,10,3:3:0:0:
336,128,65012,2,10,B|330:167|330:167|337:216,1,70,10|10,3:3|3:3,3:3:0:0:
373,321,65105,2,10,B|379:282|379:282|372:233,1,70,10|10,3:3|3:3,3:3:0:0:
336,128,65198,6,10,B|371:108|417:104|417:104|304:120|200:84,1,280,10|10,3:3|3:3,3:3:0:0:
88,53,65568,2,12,B|62:108|102:132|70:200,1,140,12|12,3:3|3:3,3:3:0:0:
26,323,65753,1,12,3:3:0:0:
26,323,65846,1,12,3:3:0:0:
26,323,65938,2,12,P|101:302|176:323,1,140,12|12,3:3|3:3,3:3:0:0:
378,352,66124,2,12,P|303:373|228:352,1,140,12|12,3:3|3:3,3:3:0:0:
331,219,66309,1,12,3:3:0:0:
331,219,66401,1,12,3:3:0:0:
330,218,66494,2,12,P|341:170|317:213,1,140,12|12,3:3|3:3,3:3:0:0:
310,328,66679,5,12,3:3:0:0:
310,328,66772,1,12,3:3:0:0:
310,328,66864,2,12,B|281:308|275:270|275:270|246:248|239:195,1,140,12|12,3:3|3:3,3:3:0:0:
183,34,67049,2,12,B|255:37|255:37|332:56,1,140,12|12,3:3|3:3,3:3:0:0:
482,147,67235,2,12,B|414:152|414:152|337:136,1,140,12|12,3:3|3:3,3:3:0:0:
99,50,67420,1,12,3:3:0:0:
99,50,67512,1,12,3:3:0:0:
99,50,67605,2,12,P|78:114|111:202,1,140,12|12,3:3|3:3,3:3:0:0:
159,257,67790,2,12,P|166:295|154:255,1,140,12|12,3:3|3:3,3:3:0:0:
254,191,67975,2,12,P|292:197|250:195,1,140,12|12,3:3|3:3,3:3:0:0:
192,110,68161,5,12,3:3:0:0:
192,110,68253,1,12,3:3:0:0:
192,110,68346,2,12,B|257:30|257:30|281:134,1,140,12|12,3:3|3:3,3:3:0:0:
305,383,68531,2,0,P|369:337|422:259,1,140
476,115,68716,1,0,0:0:0:0:
476,115,68809,1,0,0:0:0:0:
476,115,68901,2,0,P|397:111|329:150,1,140
151,350,69086,2,0,B|113:369|113:369|144:276,1,140
217,132,69272,1,0,0:0:0:0:
217,132,69364,1,0,0:0:0:0:
217,132,69457,2,0,P|280:108|350:144,1,140
153,191,69642,5,12,3:3:0:0:
287,22,69827,1,12,3:3:0:0:
273,242,70012,1,0,0:0:0:0:
273,242,70059,1,0,0:0:0:0:
273,242,70105,1,0,0:0:0:0:
273,242,70151,1,0,0:0:0:0:
273,242,70198,1,0,0:0:0:0:
273,242,70244,1,0,0:0:0:0:
273,242,70290,1,0,0:0:0:0:
273,242,70336,1,0,0:0:0:0:
273,242,70383,2,4,B|325:223|384:224|384:224|339:184,3,140,4|4|4|4,2:3|2:3|2:3|2:3,2:3:0:0:
312,145,70753,5,2,2:3:0:0:
312,145,70800,1,2,2:3:0:0:
312,145,70846,1,2,2:3:0:0:
312,145,70892,1,2,2:3:0:0:
312,145,70938,2,4,P|379:135|440:188,1,140,4|4,2:3|2:3,2:3:0:0:
469,248,71123,6,0,L|465:296,7,35
398,308,71864,6,0,L|394:356,7,35
251,209,72605,6,0,L|255:257,7,35
322,269,73346,6,0,L|326:317,7,35
476,101,74086,6,0,L|472:149,7,35
395,162,74827,6,0,L|391:210,7,35
387,44,75568,6,0,L|339:39,3,35
325,115,75938,6,0,L|290:118,3,35
261,37,76309,6,0,L|213:32,3,35
199,108,76679,6,0,L|164:111,3,35
128,31,77049,6,0,L|80:26,3,35
66,102,77419,6,0,L|31:105,3,35
111,203,77790,6,0,L|121:257,3,35
49,292,78161,6,0,L|64:349,3,35
252,323,78531,6,0,L|207:318,15,35
331,245,80012,6,0,L|369:243,3,35
426,292,80383,6,0,L|464:290,3,35
259,299,80753,6,0,L|249:256,3,35
270,182,81123,6,0,L|260:139,3,35
338,48,81494,6,0,L|330:99,7,35
439,15,82235,6,0,L|447:66,7,35
463,151,82975,6,0,L|471:192,3,35
376,226,83346,6,0,L|368:266,7,35
464,295,84086,6,0,L|455:338,7,35
341,363,84827,6,0,L|381:354,3,35
215,294,85198,6,0,L|261:287,3,35
158,109,85568,6,0,L|169:153,3,35
239,32,85938,6,0,L|248:73,7,35
95,299,86679,6,0,L|86:340,7,35
41,207,87420,6,0,L|87:199,1,35
63,115,87605,2,0,L|114:128,1,43.75
121,41,87790,2,0,L|162:81,1,52.5000020027161
206,0,87975,2,0,L|232:62,1,61.2500005841255
304,1,88161,2,0,L|300:83,1,70
391,37,88346,2,0,L|359:106,1,66.4999982242585
452,108,88531,2,0,L|395:159,1,62.9999980773926
471,200,88716,2,0,L|404:220,1,59.5000011348725
446,296,88901,6,0,L|400:287,15,35
310,250,90383,6,0,B|340:262|341:284|326:300|307:307|288:299|266:276|275:229|275:229|190:218|179:139|179:139|162:65|80:46|80:46|107:77|95:121,1,507.5
55,178,91864,6,0,P|44:193|34:214,3,35
96,254,92235,2,0,P|92:272|92:295,3,35
159,315,92605,2,0,P|163:333|173:354,3,35
244,347,92975,2,0,P|255:361|273:376,3,35
350,371,93346,2,0,B|434:390|489:330|489:330|412:330|326:289|403:242|332:191|246:187,1,437.5
113,179,94642,1,0,0:0:0:0:
113,179,94735,1,0,0:0:0:0:
113,179,94827,5,2,2:2:0:0:
116,196,94919,1,2,2:2:0:0:
121,212,95012,1,2,2:2:0:0:
129,228,95104,1,2,2:2:0:0:
138,243,95197,1,2,2:2:0:0:
150,256,95289,1,2,2:2:0:0:
163,268,95382,1,2,2:2:0:0:
177,278,95475,1,2,2:2:0:0:
193,286,95567,1,2,2:2:0:0:
209,292,95660,1,2,2:2:0:0:
226,295,95752,1,2,2:2:0:0:
243,297,95845,1,2,2:2:0:0:
261,296,95938,1,2,2:2:0:0:
278,293,96030,1,2,2:2:0:0:
295,288,96123,1,2,2:2:0:0:
311,280,96215,1,2,2:2:0:0:
331,266,96309,5,2,2:2:0:0:
345,245,96401,1,2,2:2:0:0:
364,230,96494,1,2,2:2:0:0:
387,222,96586,1,2,2:2:0:0:
411,222,96679,1,2,2:2:0:0:
434,230,96771,1,2,2:2:0:0:
454,246,96864,1,2,2:2:0:0:
467,266,96957,1,2,2:2:0:0:
473,290,97049,1,2,2:2:0:0:
470,314,97142,1,2,2:2:0:0:
460,336,97234,1,2,2:2:0:0:
444,354,97327,1,2,2:2:0:0:
422,365,97420,1,2,2:2:0:0:
398,369,97512,1,2,2:2:0:0:
374,365,97605,1,2,2:2:0:0:
353,353,97697,1,2,2:2:0:0:
326,335,97790,5,2,2:2:0:0:
304,313,97882,1,2,2:2:0:0:
286,288,97975,1,2,2:2:0:0:
272,259,98067,1,2,2:2:0:0:
264,229,98160,1,2,2:2:0:0:
262,197,98252,1,2,2:2:0:0:
265,166,98345,1,2,2:2:0:0:
274,136,98438,1,2,2:2:0:0:
287,107,98530,1,2,2:2:0:0:
306,82,98623,1,2,2:2:0:0:
329,60,98715,1,2,2:2:0:0:
355,43,98808,1,2,2:2:0:0:
384,30,98901,1,2,2:2:0:0:
414,23,98993,1,2,2:2:0:0:
446,22,99086,1,2,2:2:0:0:
477,25,99178,1,2,2:2:0:0:
511,44,99272,5,2,2:2:0:0:
474,56,99364,1,2,2:2:0:0:
441,75,99457,1,2,2:2:0:0:
410,98,99549,1,2,2:2:0:0:
380,123,99642,1,2,2:2:0:0:
352,149,99734,1,2,2:2:0:0:
324,176,99827,1,2,2:2:0:0:
297,203,99920,1,2,2:2:0:0:
269,229,100012,1,2,2:2:0:0:
241,255,100105,1,2,2:2:0:0:
212,280,100197,1,2,2:2:0:0:
181,304,100290,1,2,2:2:0:0:
149,325,100383,1,2,2:2:0:0:
114,342,100475,1,2,2:2:0:0:
78,355,100568,1,2,2:2:0:0:
40,362,100660,1,2,2:2:0:0:
6,344,100753,5,2,2:2:0:0:
23,309,100845,1,2,2:2:0:0:
51,283,100938,1,2,2:2:0:0:
87,269,101030,1,2,2:2:0:0:
125,268,101123,1,2,2:2:0:0:
161,280,101215,1,2,2:2:0:0:
191,305,101308,1,2,2:2:0:0:
210,338,101401,1,2,2:2:0:0:
233,368,101494,1,2,2:2:0:0:
269,378,101586,1,2,2:2:0:0:
308,377,101679,1,2,2:2:0:0:
344,365,101771,1,2,2:2:0:0:
376,344,101864,1,2,2:2:0:0:
400,314,101956,1,2,2:2:0:0:
415,278,102049,1,2,2:2:0:0:
419,240,102142,1,2,2:2:0:0:
413,202,102235,6,2,L|462:210,3,38.5000011749268,2|2|2|2,2:2|2:2|2:2|2:2,2:2:0:0:
364,142,102605,2,2,L|411:128,3,38.5000011749268,2|2|2|2,2:2|2:2|2:2|2:2,2:2:0:0:
296,104,102975,2,2,L|333:71,3,38.5000011749268,2|2|2|2,2:2|2:2|2:2|2:2,2:2:0:0:
218,102,103345,2,2,L|238:56,3,38.5000011749268,2|2|2|2,2:2|2:2|2:2|2:2,2:2:0:0:
256,192,103716,12,0,106309,0:0:0:0:
320,303,106494,5,0,0:0:0:0:
320,303,106586,1,0,0:0:0:0:
320,303,106679,2,0,L|315:266,10,23.3333333333333
248,230,107420,2,0,L|253:193,10,23.3333333333333
316,143,108161,6,0,L|311:106,10,23.3333333333333
251,60,108901,2,0,L|256:23,10,23.3333333333333
347,16,109642,6,0,L|342:53,10,23.3333333333333
427,145,110383,2,0,L|432:108,10,23.3333333333333
289,267,111123,2,0,L|294:230,10,23.3333333333333
209,138,111864,2,0,L|204:175,10,23.3333333333333
76,265,112605,6,0,L|100:267,6,17.5
165,333,112975,2,0,L|182:331,6,17.5
280,263,113346,2,0,L|304:265,6,17.5
369,331,113716,2,0,L|386:329,6,17.5
416,134,114086,2,0,L|409:162,30,17.5
330,46,115568,6,0,L|315:64,6,17.5
193,214,115938,2,0,L|184:198,6,17.5
104,50,116309,2,0,L|134:43,6,17.5
235,22,116679,2,0,L|230:51,6,17.5
152,377,117049,2,0,L|172:357,30,17.5
386,194,118531,6,4,L|301:180,1,77.0000023498536,4|4,2:2|2:2,2:2:0:0:
287,67,118901,2,4,L|202:53,1,77.0000023498536,4|4,2:2|2:2,2:2:0:0:
44,154,119272,2,4,L|129:140,1,77.0000023498536,4|4,2:2|2:2,2:2:0:0:
234,193,119642,2,4,L|319:179,1,77.0000023498536,4|4,2:2|2:2,2:2:0:0:
100,270,120012,2,4,L|122:185,1,77.0000023498536,4|4,2:2|2:2,2:2:0:0:
243,318,120383,2,4,L|265:233,1,77.0000023498536,4|4,2:2|2:2,2:2:0:0:
443,218,120753,2,4,L|363:228,3,77.0000023498536,4|4|4|4,2:2|2:2|2:2|2:2,2:2:0:0:
292,254,121494,5,0,2:2:0:0:
292,254,121540,1,0,2:2:0:0:
292,254,121633,2,0,L|284:288,6,19.2500005874634,0|0|0|0|0|0|0,2:2|2:2|2:2|2:2|2:2|2:2|2:2,2:2:0:0:
308,183,121957,2,0,L|320:137,2,38.5000011749268,0|0|0,2:2|2:2|2:2,2:2:0:0:
144,45,124457,5,0,2:2:0:0:
168,127,124549,1,0,2:2:0:0:
223,65,124642,2,0,P|248:117|200:207,1,154.000004699707,0|0,2:2|2:2,2:2:0:0:
138,252,125105,5,0,2:2:0:0:
168,336,125475,5,0,2:2:0:0:
261,298,125753,6,0,L|282:266,1,38.5000011749268,0|0,2:2|2:2,2:2:0:0:
422,54,125938,2,8,B|329:40|258:77|258:77|244:71|244:71|174:112|20:107,1,350,8|8,3:3|3:3,3:3:0:0:
457,243,126309,2,0,B|364:240|364:240|350:199|303:178|303:178|351:199|401:186|401:186|467:223,1,350,0|0,3:3|3:3,3:3:0:0:
54,318,126679,2,0,B|147:315|147:315|161:274|208:253|208:253|160:274|110:261|110:261|44:298,1,350,0|0,3:3|3:3,3:3:0:0:
154,183,127049,5,8,3:3:0:0:
154,183,127142,2,8,B|230:149|313:155|313:155|327:142|327:142|413:145|496:97,1,350,8|8,3:3|3:3,3:3:0:0:
487,85,127420,2,8,B|407:131|323:128|323:128|309:141|309:141|228:135|154:169,1,350,8|8,3:3|3:3,3:3:0:0:
32,240,127698,1,4,3:3:0:0:
32,240,127790,2,0,B|132:240|199:308|199:308|132:336|132:336|82:304|12:314,1,350,0|0,3:3|3:3,3:3:0:0:
480,240,128068,1,4,3:3:0:0:
480,240,128160,2,0,B|380:240|313:308|313:308|380:336|380:336|430:304|500:314,1,350,0|0,3:3|3:3,3:3:0:0:
256,256,128531,2,0,L|256:192,1,52.5,0|0,3:3|3:3,3:3:0:0:
216,61,128901,2,0,B|172:86|127:73|127:73|53:134|101:239|1:348,1,350,0|0,3:3|3:3,3:3:0:0:
296,61,129272,2,0,B|340:86|385:73|385:73|459:134|411:239|511:348,1,350,0|0,3:3|3:3,3:3:0:0:
512,384,129642,5,0,3:3:0:0:
416,371,129735,1,0,3:3:0:0:
326,359,129827,1,0,3:3:0:0:
196,327,130012,1,2,3:3:0:0:
178,323,130059,1,2,3:3:0:0:
160,323,130105,1,2,3:3:0:0:
143,327,130151,1,2,3:3:0:0:
126,332,130198,2,2,P|176:341|289:281,1,175,2|2,3:3|3:3,3:3:0:0:
341,217,130383,5,2,3:3:0:0:
360,188,130475,1,2,3:3:0:0:
391,172,130568,1,2,3:3:0:0:
425,168,130661,1,2,3:3:0:0:
461,169,130753,2,8,P|422:74|290:94,1,245.000002336502,8|8,3:3|3:3,3:3:0:0:
236,151,131031,1,4,3:3:0:0:
236,151,131123,2,8,P|111:152|48:32,1,245.000002336502,8|8,3:3|3:3,3:3:0:0:
178,70,131401,1,4,3:3:0:0:
178,70,131494,2,8,P|132:179|68:293,1,245.000002336502,8|8,3:3|3:3,3:3:0:0:
0,384,131772,5,4,3:3:0:0:
0,384,131864,2,8,B|49:346|140:339|98:382|183:370|237:284,1,245.000002336502,8|8,3:3|3:3,3:3:0:0:
384,183,132142,1,0,0:0:0:0:
384,183,132235,2,0,B|334:157|237:150|293:224|214:231|147:207,1,245.000002336502
98,164,132512,5,0,0:0:0:0:
142,105,132605,1,0,0:0:0:0:
216,64,132697,1,0,0:0:0:0:
301,53,132790,1,0,0:0:0:0:
382,78,132882,1,0,0:0:0:0:
447,134,132975,5,0,0:0:0:0:
445,243,133067,1,0,0:0:0:0:
369,323,133160,1,0,0:0:0:0:
264,356,133252,1,0,0:0:0:0:
155,346,133346,6,8,P|130:326|115:286,3,52.5000020027161,8|8|8|8,3:3|3:3|3:3|3:3,3:3:0:0:
72,209,133716,1,4,3:3:0:0:
72,209,133809,1,4,3:3:0:0:
72,209,133901,2,8,L|35:253,1,52.5000020027161,8|8,3:3|3:3,3:3:0:0:
87,53,134086,6,8,L|111:116,3,52.5000020027161,8|8|8|8,3:3|3:3|3:3|3:3,3:3:0:0:
218,141,134457,2,8,L|242:204,3,52.5000020027161,8|8|8|8,3:3|3:3|3:3|3:3,3:3:0:0:
189,73,134827,5,14,3:3:0:0:
188,330,135012,1,14,3:3:0:0:
291,129,135197,1,2,3:3:0:0:
291,129,135244,1,2,3:3:0:0:
291,129,135290,1,2,3:3:0:0:
291,129,135336,1,2,3:3:0:0:
291,129,135383,1,2,3:3:0:0:
291,129,135430,1,2,3:3:0:0:
291,129,135476,1,2,3:3:0:0:
291,129,135522,1,2,3:3:0:0:
291,129,135568,2,6,B|343:103|402:111|402:111|357:71,3,140,6|6|6|6,3:3|3:3|3:3|3:3,3:3:0:0:
332,40,135938,5,14,3:3:0:0:
332,40,135985,1,14,3:3:0:0:
332,40,136031,1,14,3:3:0:0:
332,40,136077,1,14,3:3:0:0:
332,40,136123,2,14,P|258:65|202:111,1,140,14|14,3:3|3:3,3:3:0:0:
123,288,136309,5,8,3:1:0:0:
129,253,136401,1,0,3:1:0:0:
134,218,136494,2,0,B|166:253|166:253|162:294,1,70,0|0,3:1|3:1,3:1:0:0:
97,128,136679,5,8,3:1:0:0:
72,101,136771,1,0,3:1:0:0:
49,75,136864,2,0,B|41:121|41:121|66:153,1,70,0|0,3:1|3:1,3:1:0:0:
199,361,137049,5,8,3:1:0:0:
234,361,137142,1,0,3:1:0:0:
268,357,137235,2,0,P|302:349|342:327,1,70,0|0,3:1|3:1,3:1:0:0:
408,276,137420,2,0,L|404:323,1,35,0|0,3:1|3:1,3:1:0:0:
477,229,137512,2,0,L|481:182,1,35,0|0,3:1|3:1,3:1:0:0:
481,176,137605,1,0,3:1:0:0:
483,140,137698,1,0,3:1:0:0:
493,13,137790,6,0,B|438:20|438:20|417:32,1,70,8|0,3:1|3:1,3:1:0:0:
311,171,137975,1,0,3:1:0:0:
311,171,138068,1,0,3:1:0:0:
311,171,138161,2,0,B|260:162|260:162|240:150,1,70,8|0,3:1|3:1,3:1:0:0:
54,59,138346,2,0,L|125:74,1,70,0|0,3:1|3:1,3:1:0:0:
311,171,138531,6,0,P|330:224|281:311,1,122.500001168251,8|0,3:1|3:1,3:1:0:0:
148,372,138716,2,0,B|175:258|175:258|197:239,1,140,0|0,3:1|3:1,3:1:0:0:
415,177,138901,2,0,P|451:116|391:46,1,157.500006008148,8|0,3:1|3:1,3:1:0:0:
58,5,139086,2,0,L|299:33,1,175,0|0,3:1|3:1,3:1:0:0:
511,57,139272,5,8,3:1:0:0:
511,57,139364,1,0,3:1:0:0:
511,57,139457,2,0,L|501:162,1,70,0|0,3:1|3:1,3:1:0:0:
482,375,139642,5,8,3:1:0:0:
482,375,139735,1,0,3:1:0:0:
482,375,139827,2,0,L|390:363,1,70,0|0,3:1|3:1,3:1:0:0:
178,271,140012,6,0,L|264:285,1,70,8|0,3:1|3:1,3:1:0:0:
33,134,140198,1,0,3:1:0:0:
33,134,140290,1,0,3:1:0:0:
33,134,140383,2,0,P|27:173|35:219,1,70,8|8,3:1|3:1,3:1:0:0:
60,334,140568,5,0,3:1:0:0:
60,334,140661,1,0,3:1:0:0:
60,334,140753,2,0,L|92:259,1,70,8|0,3:1|3:1,3:1:0:0:
183,23,140938,5,0,3:1:0:0:
183,23,141031,1,0,3:1:0:0:
183,23,141123,2,0,L|216:105,1,70,8|0,3:1|3:1,3:1:0:0:
309,370,141309,5,0,3:1:0:0:
309,370,141401,1,0,3:1:0:0:
309,370,141494,5,8,3:1:0:0:
347,240,141586,1,8,3:1:0:0:
256,289,141679,1,8,3:1:0:0:
348,117,141864,5,8,3:1:0:0:
344,130,141911,1,8,3:1:0:0:
338,142,141957,1,8,3:1:0:0:
329,153,142003,1,8,3:1:0:0:
318,162,142049,2,8,P|353:157|411:183,1,70,8|8,3:1|3:1,3:1:0:0:
512,241,142235,5,8,3:1:0:0:
512,241,142327,1,0,3:1:0:0:
512,241,142420,2,0,L|416:260,1,70,0|0,3:1|3:1,3:1:0:0:
169,276,142605,1,8,3:1:0:0:
169,276,142698,1,0,3:1:0:0:
169,276,142790,2,0,P|160:223|177:190,1,70,0|0,3:1|3:1,3:1:0:0:
288,44,142975,2,0,P|297:97|280:130,1,70,8|0,3:1|3:1,3:1:0:0:
18,382,143161,2,0,P|9:329|26:296,1,70,0|0,3:1|3:1,3:1:0:0:
123,115,143346,2,0,P|180:106|219:126,3,70,8|0|0|0,3:1|3:1|3:1|3:1,3:1:0:0:
396,174,143716,5,8,3:1:0:0:
396,174,143809,1,0,3:1:0:0:
396,174,143901,2,0,B|368:188|368:188|325:182,1,70,0|0,3:1|3:1,3:1:0:0:
3,46,144086,1,8,3:1:0:0:
3,46,144179,1,0,3:1:0:0:
3,46,144271,2,0,B|31:32|31:32|74:38,1,70,0|0,3:1|3:1,3:1:0:0:
396,174,144457,2,0,B|420:245|420:245|399:312,1,122.500001168251,8|0,3:1|3:1,3:1:0:0:
231,383,144642,2,0,B|261:273|261:273|281:245,1,140,0|0,3:1|3:1,3:1:0:0:
396,174,144827,2,0,B|313:175|313:175|254:151,1,140,8|0,3:1|3:1,3:1:0:0:
26,32,145012,2,0,B|109:31|109:31|168:55,1,140,0|0,3:1|3:1,3:1:0:0:
228,83,145198,6,0,B|309:157|459:120|459:120|387:190|292:187|292:187|362:256|366:353|366:353|421:25,1,945.000036048891,0|0,3:1|3:1,3:1:0:0:
66,32,145938,2,0,B|144:337|144:337|146:254|182:177|182:177|81:234|21:158|21:158|109:129|158:52|158:52|122:109|125:175,1,945.000036048891,0|0,3:1|3:1,3:1:0:0:
288,352,146679,2,0,B|240:272|304:208|304:208|240:128|304:48,3,315.000012016297,0|0|0|0,3:1|3:1|3:1|3:1,3:1:0:0:
425,73,148161,5,8,3:1:0:0:
411,123,148253,1,0,3:1:0:0:
397,173,148346,2,0,L|379:85,1,87.5,0|0,3:1|3:1,3:1:0:0:
382,363,148531,1,8,3:1:0:0:
396,313,148623,1,0,3:1:0:0:
410,263,148716,2,0,L|428:351,1,87.5,0|0,3:1|3:1,3:1:0:0:
364,15,148901,6,0,P|327:32|305:78,1,87.5,8|0,3:1|3:1,3:1:0:0:
203,346,149086,2,0,P|240:329|262:283,1,87.5,0|0,3:1|3:1,3:1:0:0:
249,165,149272,2,0,P|201:167|154:146,3,87.5,8|0|0|0,3:1|3:1|3:1|3:1,3:1:0:0:
29,34,149642,5,8,3:1:0:0:
79,50,149735,1,0,3:1:0:0:
128,66,149827,2,0,B|72:76|72:76|45:105,1,87.5,0|0,3:1|3:1,3:1:0:0:
54,322,150012,1,8,3:1:0:0:
104,306,150105,1,0,3:1:0:0:
153,290,150197,2,0,B|97:280|97:280|70:251,1,87.5,0|0,3:1|3:1,3:1:0:0:
272,245,150383,5,8,3:1:0:0:
323,237,150475,1,0,3:1:0:0:
375,228,150568,1,0,3:1:0:0:
357,277,150661,1,0,3:1:0:0:
449,33,150753,1,8,3:1:0:0:
429,81,150846,1,0,3:1:0:0:
408,129,150938,1,0,3:1:0:0:
455,106,151031,1,0,3:1:0:0:
304,81,151123,6,0,B|291:118|291:118|309:173,1,87.5,8|0,3:1|3:1,3:1:0:0:
359,359,151309,2,0,B|372:322|372:322|354:267,1,87.5,0|0,3:1|3:1,3:1:0:0:
224,49,151494,2,0,B|183:57|183:57|133:41,1,87.5,8|0,3:1|3:1,3:1:0:0:
0,129,151679,2,0,B|41:121|41:121|91:137,1,87.5,0|0,3:1|3:1,3:1:0:0:
288,238,151864,5,8,3:1:0:0:
288,238,151957,1,0,3:1:0:0:
288,238,152049,2,0,P|245:233|184:263,1,87.5,0|0,3:1|3:1,3:1:0:0:
31,330,152235,1,8,3:1:0:0:
31,330,152327,1,0,3:1:0:0:
31,330,152420,2,0,P|22:278|44:236,1,87.5,0|0,3:1|3:1,3:1:0:0:
135,53,152605,5,8,3:1:0:0:
160,60,152698,1,0,3:1:0:0:
185,64,152790,2,0,P|229:60|290:83,1,87.5,0|0,3:1|3:1,3:1:0:0:
412,138,152975,2,0,B|411:174|395:206|395:206|399:227|399:227|382:255|383:321,1,157.500006008148,8|0,3:1|3:1,3:1:0:0:
384,357,153346,1,8,3:1:0:0:
329,219,153438,1,8,3:1:0:0:
465,213,153531,1,8,3:1:0:0:
179,288,153716,5,4,3:1:0:0:
181,280,153762,1,4,3:1:0:0:
183,272,153809,1,4,3:1:0:0:
185,264,153855,1,4,3:1:0:0:
187,256,153901,2,4,L|204:187,1,52.5000020027161,4|4,3:1|3:1,3:1:0:0:
222,345,154086,1,8,3:1:0:0:
222,345,154179,1,0,3:1:0:0:
222,345,154272,2,8,P|164:359|115:330,1,105.000004005432,0|0,3:1|3:1,3:1:0:0:
314,236,154457,5,8,3:1:0:0:
314,236,154549,1,0,3:1:0:0:
314,236,154642,2,0,P|336:289|327:352,1,105.000004005432,0|0,3:1|3:1,3:1:0:0:
472,104,154827,2,0,P|447:155|394:191,1,105.000004005432,8|0,3:1|3:1,3:1:0:0:
191,250,155012,1,0,3:1:0:0:
191,250,155105,1,0,3:1:0:0:
191,250,155198,2,0,P|129:244|91:212,1,105.000004005432,8|0,3:1|3:1,3:1:0:0:
9,89,155383,2,0,P|71:95|109:127,1,105.000004005432,0|0,3:1|3:1,3:1:0:0:
236,341,155568,5,8,3:1:0:0:
236,341,155661,1,0,3:1:0:0:
236,341,155753,2,0,P|289:345|346:330,1,105.000004005432,0|0,3:1|3:1,3:1:0:0:
489,221,155938,1,8,3:1:0:0:
489,221,156031,1,0,3:1:0:0:
489,221,156123,2,0,P|451:191|390:187,1,105.000004005432,0|0,3:1|3:1,3:1:0:0:
172,244,156309,2,0,P|151:196|173:141,1,105.000004005432,8|0,3:1|3:1,3:1:0:0:
282,43,156494,2,0,B|265:103|265:103|271:117|271:117|252:195,1,140,0|0,3:1|3:1,3:1:0:0:
228,366,156679,2,0,B|235:332|235:332|354:251,1,140,8|0,3:1|3:1,3:1:0:0:
476,131,156864,2,0,B|452:104|452:104|337:98,1,140,8|0,3:1|3:1,3:1:0:0:
31,89,157049,5,8,3:1:0:0:
31,89,157142,1,0,3:1:0:0:
31,89,157235,2,0,L|62:237,1,140,0|0,3:1|3:1,3:1:0:0:
134,384,157420,1,8,3:1:0:0:
134,384,157513,1,0,3:1:0:0:
134,384,157606,2,0,L|165:236,1,140,0|0,3:1|3:1,3:1:0:0:
206,10,157790,1,8,3:1:0:0:
206,10,157883,1,0,3:1:0:0:
206,10,157976,2,0,L|237:158,1,140,0|0,3:1|3:1,3:1:0:0:
291,384,158161,1,8,3:1:0:0:
291,384,158254,1,0,3:1:0:0:
291,384,158347,2,0,L|322:236,1,140,0|0,3:1|3:1,3:1:0:0:
346,118,158531,5,8,3:1:0:0:
397,336,158716,1,8,3:1:0:0:
119,179,158901,1,4,3:1:0:0:
139,181,158947,1,4,3:1:0:0:
160,184,158993,1,4,3:1:0:0:
181,187,159039,1,4,3:1:0:0:
202,190,159086,1,4,3:1:0:0:
222,193,159132,1,4,3:1:0:0:
243,196,159178,1,4,3:1:0:0:
264,200,159225,1,4,3:1:0:0:
285,202,159272,5,8,3:1:0:0:
241,130,159364,1,8,3:1:0:0:
158,113,159457,1,8,3:1:0:0:
74,121,159549,1,8,3:1:0:0:
107,54,159642,5,0,0:0:0:0:
107,54,159688,1,0,0:0:0:0:
107,54,159735,1,0,0:0:0:0:
107,54,159781,1,0,0:0:0:0:
107,54,159827,2,4,L|200:26,1,70,4|4,3:1|3:1,3:1:0:0:
264,17,160012,2,0,B|335:53|489:33|489:33|349:356|349:356|350:290|314:268|314:268|383:108|383:108|259:115|174:34|174:34|256:202|119:351|119:351|197:315|291:332,1,1592.5,0|0,3:1|3:1,3:1:0:0:
256,192,168531,12,0,175012,3:1:0:0:
