osu file format v14

[General]
AudioFilename: audio.mp3
AudioLeadIn: 0
PreviewTime: 52040
Countdown: 0
SampleSet: Soft
StackLeniency: 0.2
Mode: 0
LetterboxInBreaks: 0
WidescreenStoryboard: 1

[Editor]
DistanceSpacing: 0.1
BeatDivisor: 4
GridSize: 8
TimelineZoom: 2.22

[Metadata]
Title:Why?
TitleUnicode:Why?
Artist:Devin Townsend
ArtistUnicode:Devin Townsend
Creator:WashedUp Player
Version:Are You Feeling Alright?
Source:
Tags:progressive death rock metal empath English
BeatmapID:2404144
BeatmapSetID:1136531

[Difficulty]
HPDrainRate:6.5
CircleSize:5
OverallDifficulty:8.5
ApproachRate:8.5
SliderMultiplier:1.32
SliderTickRate:1

[Events]
//Background and Video events
0,0,"download.jpg",0,0
//Break Periods
//Storyboard Layer 0 (Background)
//Storyboard Layer 1 (Fail)
//Storyboard Layer 2 (Pass)
//Storyboard Layer 3 (Foreground)
//Storyboard Layer 4 (Overlay)
//Storyboard Sound Samples

[TimingPoints]
151,645.855758880517,4,2,1,30,1,0
151,-33.3333333333333,4,2,1,50,0,0
635,-33.3333333333333,4,2,1,5,0,0
797,722.89156626506,4,2,1,30,1,0
797,-50,4,2,1,45,0,0
1339,-66.6666666666667,4,2,1,5,0,0
1520,774.193548387097,4,2,1,35,1,0
1520,-80,4,2,1,35,0,0
2100,-80,4,2,1,5,0,0
2295,923.076923076923,4,2,1,20,1,0
2295,-133.333333333333,4,2,1,20,0,0
2987,-133.333333333333,4,2,1,5,0,0
3218,1150.52732502397,4,2,1,10,1,0
3218,-200,4,2,1,10,0,0
4080,-200,4,2,1,5,0,0
4369,400,3,2,1,20,1,0
4369,-200,3,2,1,20,0,0
19969,-200,3,2,1,20,0,0
23569,-200,3,2,1,25,0,0
27369,-200,3,2,1,5,0,0
27569,-200,3,2,1,25,0,0
27769,-200,3,2,1,5,0,0
27969,-200,3,2,1,25,0,0
28169,-200,3,2,1,5,0,0
28369,-200,3,2,1,25,0,0
34769,-100,3,2,1,25,0,0
35169,-200,3,2,1,25,0,0
37169,-133.333333333333,3,2,1,25,0,0
37569,-200,3,2,1,25,0,0
39569,-100,3,2,1,25,0,0
39969,-133.333333333333,3,2,1,25,0,0
41569,-200,3,2,1,25,0,0
41969,-133.333333333333,3,2,1,25,0,0
42369,-100,3,2,1,25,0,0
46369,-133.333333333333,3,2,1,25,0,0
51369,-133.333333333333,3,2,1,5,0,0
51569,-133.333333333333,3,2,1,25,0,0
51769,-133.333333333333,3,2,1,5,0,0
51969,-133.333333333333,3,2,1,25,0,0
52169,-133.333333333333,3,2,1,5,0,0
52369,-100,3,2,1,30,0,0
61969,-100,3,2,1,30,0,0
65569,-166.666666666667,3,2,1,30,0,0
70769,-125,3,2,1,30,0,0
71169,-100,3,2,1,30,0,0
71569,-100,3,2,1,35,0,0
72769,-400,3,2,1,35,0,0
73969,-100,3,2,1,35,0,0
75569,-90.9090909090909,3,2,1,35,0,0
75969,-83.3333333333333,3,2,1,35,0,0
76369,-100,3,2,1,35,0,0
77569,-400,3,2,1,35,0,0
78169,-100,3,2,1,35,0,0
80369,-90.9090909090909,3,2,1,35,0,0
80769,-83.3333333333333,3,2,1,35,0,0
81167,-100,3,2,1,35,0,0
89169,-133.333333333333,3,2,1,35,0,0
89369,-105.263157894737,3,2,1,35,0,0
89569,-86.9565217391303,3,2,1,35,0,0
89769,-74.0740740740741,3,2,1,35,0,0
89969,-74.0740740740741,3,2,1,45,0,0
90817,400,3,2,1,35,1,0
91169,400,4,2,1,35,1,0
91169,-66.6666666666667,4,2,1,55,0,0
91969,400,3,2,1,30,1,0
91969,-45.4545454545455,4,2,1,50,0,1
93169,-66.6666666666667,4,2,1,15,0,0
93569,-66.6666666666667,4,2,1,10,0,0
93969,-66.6666666666667,4,2,1,6,0,0
94369,-25,4,2,1,50,0,1
94669,-25,4,2,1,45,0,0
94769,-25,4,2,1,50,0,1
95069,-25,4,2,1,45,0,0
95169,-25,4,2,1,50,0,1
95469,-25,4,2,1,45,0,0
95569,-25,4,2,1,50,0,1
95969,-25,4,2,1,35,0,0
99167,-100,4,2,1,35,0,0
103169,-33.3333333333333,4,2,1,50,0,1
103569,-33.3333333333333,4,2,1,30,0,0
103769,-31.25,4,2,1,50,0,1
104169,-31.25,4,2,1,30,0,0
104369,-28.5714285714286,4,2,1,50,0,1
104769,-28.5714285714286,4,2,1,35,0,0
106767,-133.333333333333,4,2,1,35,0,0
107969,-33.3333333333333,4,2,1,50,0,1
108369,-33.3333333333333,4,2,1,45,0,0
108569,-31.25,4,2,1,45,0,1
108969,-31.25,4,2,1,35,0,0
109169,-66.6666666666667,4,2,1,35,0,0
109569,-57.1428571428571,4,2,1,35,0,0
109969,-50,4,2,1,35,0,0
113969,-45.4545454545455,4,2,1,35,0,0
114369,-41.6666666666667,4,2,1,35,0,0
114769,-38.4615384615385,4,2,1,35,0,0
116569,-100,4,2,1,35,0,0
116969,-38.4615384615385,4,2,1,35,0,0
118769,-35.7142857142857,4,2,1,35,0,0
119169,-33.3333333333333,4,2,1,35,0,0
119569,-100,4,2,1,35,0,0
133169,-80,4,2,1,35,0,0
133369,-80,4,2,1,30,0,0
133569,-66.6666666666667,4,2,1,40,0,0
133769,-66.6666666666667,4,2,1,45,0,0
133969,-40,4,2,1,45,0,0
134169,-40,4,2,1,45,0,0
134369,-40,4,2,1,35,0,0
136369,-100,4,2,1,35,0,0
137969,-83.3333333333333,4,2,1,35,0,0
138369,-71.4285714285714,4,2,1,35,0,0
138769,-80,4,2,1,35,0,0
152369,-74.0740740740741,4,2,1,35,0,0
152769,-68.9655172413793,4,2,1,35,0,0
153169,-80,4,2,1,35,0,0
157169,-74.0740740740741,4,2,1,35,0,0
157569,-68.9655172413793,4,2,1,35,0,0
157969,-80,4,2,1,40,0,0
167569,-80,4,2,1,30,0,0
171169,-80,4,2,1,35,0,0
171569,-80,4,2,1,40,0,0
171969,-80,4,2,1,45,0,0
172369,-66.6666666666667,4,2,1,35,0,0
193569,-100,4,2,1,35,0,0
227469,-100,4,2,1,5,0,0
227569,-100,4,2,1,35,0,0
228669,-100,4,2,1,5,0,0
228769,-100,4,2,1,35,0,0
229769,-100,4,2,1,5,0,0
229969,-100,4,2,1,45,0,0
232369,-80,4,2,1,45,0,0
233569,-40,4,2,1,45,0,0
237169,-66.6666666666667,4,2,1,45,0,0
244369,-66.6666666666667,4,2,1,50,0,0
246369,-40,4,2,1,50,0,0
249169,-66.6666666666667,4,2,1,50,0,0
252769,-36.3636363636364,4,2,1,50,0,0
256369,-66.6666666666667,4,2,1,50,0,0
258769,-100,4,2,1,40,0,0
277169,-76.9230769230769,4,2,1,50,0,0
277569,-62.5,4,2,1,50,0,0
281569,-38.4615384615385,4,2,1,50,0,0
284369,-80,4,2,1,50,0,0
287169,-80,4,2,1,50,0,0
287569,-80,4,2,1,45,0,1
294769,-100,4,2,1,55,0,0
295969,-100,4,2,1,40,0,0
297169,-100,4,2,1,30,0,0
298369,-100,4,2,1,20,0,0
298769,-100,4,2,1,10,0,0
299169,-100,4,2,1,5,0,0

[Colours]
Combo1 : 0,0,255
Combo2 : 128,0,64
Combo3 : 192,192,192
Combo4 : 23,209,116
Combo5 : 128,64,64

[HitObjects]
60,26,151,6,0,B|-11:-26|-83:92|10:173|79:65|118:180,1,297.000011329651,2|0,0:0|0:0,0:0:0:0:
116,174,797,6,0,B|101:125|36:119|36:119|-6:165|9:205,1,198,2|0,0:0|0:0,0:0:0:0:
185,231,1520,6,0,P|187:170|185:108,1,123.75,2|0,0:0|0:0,0:0:0:0:
205,234,2295,6,0,P|211:198|215:161,1,74.2500028324128,2|0,0:0|0:0,0:0:0:0:
221,249,3218,6,0,P|233:214|237:195,1,49.5,2|0,0:0|0:0,0:0:0:0:
141,348,4369,6,0,L|269:384,1,132,4|0,0:0|0:0,0:0:0:0:
326,337,5569,1,2,0:0:0:0:
198,226,5969,1,2,0:0:0:0:
292,227,6369,1,0,0:0:0:0:
375,260,6769,2,0,P|412:316|433:379,1,132,2|0,0:0|0:0,0:0:0:0:
356,367,7969,1,0,0:0:0:0:
512,286,8369,1,0,0:0:0:0:
308,223,8769,1,0,0:0:0:0:
179,384,9169,6,0,L|193:251,1,132,4|0,0:0|0:0,0:0:0:0:
119,282,10369,1,2,0:0:0:0:
269,384,10769,1,2,0:0:0:0:
318,294,11169,1,0,0:0:0:0:
298,248,11569,2,0,P|317:315|378:347,1,132,2|0,0:0|0:0,0:0:0:0:
419,267,12769,1,2,0:2:0:0:
430,336,13169,1,2,0:2:0:0:
495,360,13569,1,2,0:2:0:0:
511,222,13969,6,0,L|376:236,1,132,6|0,0:2|0:0,0:0:0:0:
275,223,15169,1,2,0:0:0:0:
319,384,15569,1,2,0:0:0:0:
267,322,15969,1,0,0:0:0:0:
191,295,16369,2,0,P|105:294|46:301,1,132,2|0,0:0|0:0,0:0:0:0:
103,370,17569,1,0,0:0:0:0:
164,323,17969,2,0,L|175:281,1,33,2|0,0:0|0:0,0:0:0:0:
88,274,18369,2,0,L|77:232,1,33,2|0,0:0|0:0,0:0:0:0:
251,224,18769,6,0,P|269:286|274:363,1,132,4|0,0:0|0:0,0:0:0:0:
353,306,19969,1,2,0:0:0:0:
433,381,20369,1,2,0:0:0:0:
478,332,20769,1,0,0:0:0:0:
501,269,21169,2,0,P|467:255|362:251,1,132,2|0,0:0|0:0,0:0:0:0:
321,321,22369,1,0,0:0:0:0:
222,227,22769,1,0,0:0:0:0:
159,278,23169,1,0,0:0:0:0:
79,383,23569,6,0,P|83:343|84:305,1,66,2|0,1:2|0:0,0:0:0:0:
20,244,24169,1,2,0:0:0:0:
0,260,24569,5,0,0:0:0:0:
124,224,24769,2,0,L|178:268,1,66,2|2,0:0|0:0,0:0:0:0:
291,226,25369,1,2,0:0:0:0:
251,287,25569,1,2,0:0:0:0:
310,329,25769,1,2,0:0:0:0:
260,383,25969,1,0,1:0:0:0:
246,384,26369,5,0,0:0:0:0:
398,374,26569,1,2,0:0:0:0:
411,377,26969,5,0,0:0:0:0:
331,223,27169,2,0,P|309:224|282:232,1,33,2|0,1:2|0:0,0:0:0:0:
387,268,27569,2,0,P|408:269|436:277,1,33,2|0,1:2|0:0,0:0:0:0:
300,319,27969,2,0,P|278:320|251:328,1,33,2|0,1:2|0:0,0:0:0:0:
389,369,28369,1,2,0:0:0:0:
382,384,28769,5,2,0:0:0:0:
427,237,28969,1,0,1:0:0:0:
413,224,29369,5,0,0:0:0:0:
463,348,29569,2,0,P|465:310|461:268,1,66,2|2,1:2|0:0,0:0:0:0:
387,336,30169,1,2,0:0:0:0:
322,301,30369,1,2,0:0:0:0:
259,339,30569,1,2,0:0:0:0:
194,304,30769,1,2,1:2:0:0:
200,293,31169,5,2,0:0:0:0:
101,372,31369,1,0,1:0:0:0:
118,381,31769,5,2,0:0:0:0:
27,221,31969,2,0,L|18:265,1,33,2|0,1:2|0:0,0:0:0:0:
107,275,32369,2,0,L|116:319,1,33,2|0,1:2|0:0,0:0:0:0:
6,349,32769,2,0,L|-3:393,1,33,2|0,1:2|0:0,0:0:0:0:
154,191,33169,5,14,0:2:0:0:
181,224,33569,5,2,0:0:0:0:
25,251,33769,1,0,1:0:0:0:
0,249,34169,5,0,0:0:0:0:
149,291,34369,2,0,P|129:295|103:296,1,33,2|0,1:2|0:0,0:0:0:0:
234,96,34769,2,0,B|201:96|201:96|169:104,1,66,6|0,1:2|0:0,0:0:0:0:
294,226,35169,2,0,P|274:230|248:231,1,33,2|0,0:0|0:0,0:0:0:0:
442,236,35569,5,2,1:2:0:0:
462,225,35969,5,2,0:0:0:0:
439,372,36169,1,0,1:0:0:0:
462,382,36569,5,2,0:0:0:0:
379,244,36769,2,0,P|360:240|334:233,1,33,2|0,1:2|0:0,0:0:0:0:
321,109,37169,2,0,P|297:99|273:95,1,49.5000018882752,4|0,0:0|0:0,0:0:0:0:
399,236,37569,2,0,P|395:253|388:279,1,33,0|0,1:0|0:0,0:0:0:0:
487,187,37969,5,6,1:2:0:0:
512,223,38369,5,0,0:0:0:0:
393,253,38569,1,0,1:0:0:0:
376,231,38969,5,0,0:0:0:0:
411,362,39169,2,0,P|400:332|398:318,1,33,2|0,1:2|0:0,0:0:0:0:
389,59,39569,2,0,B|405:92|405:92|405:123,1,66,4|0,1:2|0:0,0:0:0:0:
250,191,39969,2,0,L|192:193,1,49.5000018882752,6|0,0:0|0:0,0:0:0:0:
348,359,40369,5,2,1:2:0:0:
367,378,40769,5,0,0:0:0:0:
217,355,40969,1,0,1:0:0:0:
202,368,41369,5,0,0:0:0:0:
392,311,41569,2,0,L|362:296,1,33,2|0,1:2|0:0,0:0:0:0:
226,217,41969,2,0,L|210:169,1,49.5,2|0,1:2|0:0,0:0:0:0:
365,133,42369,2,0,B|377:102|377:102|387:55,1,66,6|0,1:2|0:0,0:0:0:0:
3,135,42769,5,6,0:0:0:0:
19,122,43169,5,2,0:0:0:0:
1,261,43369,1,0,1:0:0:0:
22,288,43769,5,0,0:0:0:0:
1,192,43969,1,0,1:0:0:0:
150,138,44369,5,2,0:0:0:0:
127,268,44569,1,2,0:0:0:0:
85,337,44769,1,2,0:0:0:0:
49,280,44969,1,2,0:0:0:0:
25,302,45169,1,0,1:0:0:0:
33,282,45569,5,2,0:0:0:0:
153,370,45769,1,0,1:0:0:0:
148,384,46169,5,0,0:0:0:0:
178,226,46369,2,0,B|227:253|189:279|236:304,2,99.0000037765504,0|2|0,1:0|0:0|1:0,0:0:0:0:
300,320,47569,1,0,1:0:0:0:
302,349,47969,5,2,0:0:0:0:
280,227,48169,1,0,1:0:0:0:
311,222,48569,5,2,0:0:0:0:
251,371,48769,1,0,1:0:0:0:
257,384,49169,5,2,0:0:0:0:
128,236,49369,1,2,0:0:0:0:
193,267,49569,1,2,0:0:0:0:
62,337,49769,1,2,0:0:0:0:
66,188,49969,1,0,1:0:0:0:
73,174,50369,5,2,0:0:0:0:
0,332,50569,1,0,1:0:0:0:
14,342,50969,5,2,0:0:0:0:
0,141,51169,2,0,L|3:190,1,49.5000018882752,2|0,1:2|0:0,0:0:0:0:
137,240,51569,2,0,L|140:289,1,49.5000018882752,2|0,1:2|0:0,0:0:0:0:
275,335,51969,2,0,L|278:384,1,49.5000018882752,2|0,1:2|0:0,0:0:0:0:
498,156,52369,6,0,P|437:133|359:148,1,132,14|2,0:0|0:0,0:0:0:0:
476,42,52969,1,2,0:0:0:0:
255,43,53169,1,2,0:0:0:0:
372,141,53369,1,2,0:0:0:0:
332,0,53569,2,0,L|317:97,1,66,0|0,1:0|0:0,0:0:0:0:
297,192,53969,1,2,1:2:0:0:
297,192,54769,5,2,0:0:0:0:
174,117,54969,1,2,0:0:0:0:
255,11,55169,1,2,0:0:0:0:
257,123,55369,1,2,0:0:0:0:
45,32,55569,2,0,L|36:120,1,66,2|2,1:2|0:0,0:0:0:0:
116,193,55969,5,2,1:2:0:0:
182,169,56369,1,0,1:0:0:0:
225,115,56769,1,2,1:2:0:0:
231,40,57169,2,0,P|244:19|383:44,1,132,14|2,0:0|0:0,0:0:0:0:
339,150,57769,1,2,0:0:0:0:
429,96,57969,1,2,0:0:0:0:
254,69,58169,1,2,0:0:0:0:
417,209,58369,1,2,1:2:0:0:
479,0,58769,1,2,1:2:0:0:
479,0,59569,6,0,P|475:36|493:147,1,132,14|2,0:0|0:0,0:0:0:0:
510,250,60169,1,2,0:0:0:0:
352,117,60369,1,2,0:0:0:0:
207,206,60569,1,2,0:0:0:0:
87,154,60769,5,10,0:0:0:0:
138,263,61169,1,8,0:0:0:0:
163,51,61569,1,8,0:0:0:0:
189,372,61969,1,2,0:0:0:0:
192,359,62169,1,0,0:0:0:0:
190,345,62369,1,0,0:0:0:0:
185,332,62569,1,2,0:0:0:0:
166,325,62969,5,2,0:0:0:0:
402,382,63169,1,2,1:2:0:0:
425,332,63569,5,2,0:0:0:0:
411,332,63769,1,0,0:0:0:0:
398,336,63969,1,2,0:0:0:0:
387,343,64169,1,2,0:0:0:0:
378,353,64369,1,2,1:2:0:0:
374,377,64769,5,2,0:0:0:0:
338,186,64969,1,2,1:2:0:0:
378,144,65369,5,2,0:0:0:0:
287,350,65569,2,0,P|275:312|248:284,2,79.1999975830079,2|0|2,1:2|1:0|1:2,0:0:0:0:
385,130,66769,1,4,0:0:0:0:
406,126,67169,5,2,0:0:0:0:
210,158,67369,1,0,1:0:0:0:
201,175,67769,5,2,0:0:0:0:
179,0,67969,2,0,P|175:21|188:65,1,39.5999987915039,2|0,1:2|0:0,0:0:0:0:
275,103,68369,2,0,P|279:124|266:168,1,39.5999987915039,2|2,0:0|0:0,0:0:0:0:
222,261,68769,1,2,0:0:0:0:
122,288,68969,1,2,0:0:0:0:
304,384,69169,1,0,1:0:0:0:
320,382,69569,5,2,0:0:0:0:
168,345,69769,1,0,1:0:0:0:
162,356,70169,5,2,0:0:0:0:
275,179,70369,2,0,P|279:153|272:118,1,39.5999987915039,2|0,1:2|0:0,0:0:0:0:
421,167,70769,2,0,P|398:135|354:106,1,52.8,2|0,1:2|0:0,0:0:0:0:
512,48,71169,2,0,P|466:40|404:53,1,66,6|0,1:2|0:0,0:0:0:0:
512,299,71569,5,2,1:2:0:0:
441,334,71769,1,0,0:0:0:0:
373,276,71969,1,0,0:0:0:0:
286,343,72169,2,0,P|218:350|136:348,1,132,0|2,1:0|0:0,0:0:0:0:
134,257,72769,2,0,L|99:264,1,33,12|2,0:0|0:0,0:0:0:0:
3,300,73369,1,2,0:0:0:0:
39,236,73569,1,2,0:0:0:0:
21,154,73769,5,0,3:0:0:0:
26,156,73869,1,0,3:0:0:0:
31,158,73969,2,0,L|170:172,1,132,2|2,3:2|0:0,0:0:0:0:
288,55,74569,2,0,L|149:41,1,132,0|2,1:0|0:0,0:0:0:0:
141,375,75169,6,0,P|154:342|150:292,1,66,2|0,1:2|0:0,0:0:0:0:
263,304,75569,2,0,P|257:268|229:227,1,72.6000022155762,2|0,1:2|0:0,0:0:0:0:
316,166,75969,2,0,P|293:138|248:116,1,79.1999975830079,6|0,1:2|0:0,0:0:0:0:
448,213,76369,6,0,P|383:224|340:273,1,132,2|2,1:2|0:0,0:0:0:0:
478,120,76969,2,0,P|514:168|508:247,1,132,2|2,1:2|0:0,0:0:0:0:
401,106,77569,6,0,L|403:70,1,33,12|2,0:0|0:0,0:0:0:0:
347,22,78169,1,2,0:0:0:0:
293,65,78369,1,2,0:0:0:0:
291,140,78569,1,2,3:2:0:0:
291,140,78669,1,0,3:0:0:0:
291,140,78769,2,0,P|276:171|206:240,1,132,2|0,3:2|0:0,0:0:0:0:
0,267,79369,1,2,1:2:0:0:
84,208,79569,1,0,0:0:0:0:
191,246,79769,1,2,0:0:0:0:
56,34,79969,6,0,P|46:66|45:102,1,66,0|2,1:0|0:0,0:0:0:0:
175,110,80369,2,0,P|183:144|200:178,1,72.6000022155762,2|0,1:2|0:0,0:0:0:0:
354,142,80769,2,0,P|380:169|415:192,1,79.1999975830079,6|0,1:2|0:0,0:0:0:0:
506,46,81169,5,2,1:2:0:0:
436,61,81369,1,0,0:0:0:0:
400,124,81569,1,0,0:0:0:0:
281,82,81769,1,2,1:2:0:0:
283,168,81969,1,0,0:0:0:0:
226,240,82169,1,0,0:0:0:0:
90,131,82369,5,2,1:2:0:0:
89,112,82469,1,2,1:2:0:0:
88,93,82569,1,2,1:2:0:0:
46,237,82769,1,2,1:2:0:0:
110,24,82969,1,2,1:2:0:0:
127,317,83169,1,14,0:2:0:0:
127,317,83569,5,2,1:2:0:0:
221,316,83769,1,0,0:0:0:0:
275,238,83969,1,0,0:0:0:0:
410,183,84169,1,2,1:2:0:0:
344,250,84369,1,0,0:0:0:0:
361,343,84569,1,0,0:0:0:0:
321,144,84769,5,2,1:2:0:0:
316,124,84869,1,2,1:2:0:0:
311,104,84969,1,2,1:2:0:0:
272,247,85169,1,2,1:2:0:0:
332,22,85369,1,2,1:2:0:0:
356,328,85569,1,14,0:2:0:0:
356,328,85969,5,2,1:2:0:0:
407,268,86169,1,0,0:0:0:0:
416,185,86369,1,0,0:0:0:0:
260,241,86569,1,2,1:2:0:0:
269,324,86769,1,0,0:0:0:0:
320,384,86969,1,0,0:0:0:0:
353,258,87169,5,2,1:2:0:0:
333,263,87269,1,2,1:2:0:0:
313,269,87369,1,2,1:2:0:0:
442,235,87569,1,2,1:2:0:0:
228,293,87769,1,2,1:2:0:0:
512,284,87969,2,0,P|511:237|488:179,1,66,14|0,0:2|0:0,0:0:0:0:
259,98,88369,6,0,P|186:159|268:163,1,198,2|0,1:2|0:0,0:0:0:0:
440,28,89169,2,0,L|442:70,1,24.7500009441376,2|0,0:0|0:0,0:0:0:0:
411,28,89369,2,0,L|413:70,1,31.3499991628647
382,28,89569,2,0,L|384:70,1,37.9500007238388,2|0,0:2|0:0,0:0:0:0:
353,28,89769,2,0,L|355:77,1,44.5500001699448
276,24,89969,5,2,1:2:0:0:
512,203,90169,1,2,1:2:0:0:
0,292,90817,5,2,1:2:0:0:
136,149,91169,2,0,L|199:173,1,49.5000018882752,6|0,0:0|0:0,0:0:0:0:
399,0,91369,2,0,L|336:24,1,49.5000018882752,6|0,0:0|0:0,0:0:0:0:
183,167,91969,6,0,B|184:166|183:167|183:167|183:167|185:163|194:157|213:156|237:177|247:222|218:279|137:312|33:274|-26:147|32:0|186:-65|341:-1|413:141|365:285|261:369|139:358|50:285|-6:205|95:62,1,871.200026586915,6|0,0:0|0:0,1:0:0:0:
88,67,93369,1,0,0:0:0:0:
91,57,93569,1,0,0:0:0:0:
94,47,93769,1,0,0:0:0:0:
96,37,93969,1,0,0:0:0:0:
97,27,94169,1,0,0:0:0:0:
92,7,94369,6,0,B|92:136|92:136|167:249|167:249|167:385,1,396,14|0,0:0|0:0,0:0:0:0:
92,383,94769,2,0,B|92:247|92:247|167:134|167:134|167:6,1,396,14|0,0:0|0:0,0:0:0:0:
126,28,95169,2,0,B|32:125|32:125|32:262|32:262|125:354,1,396,14|0,0:0|0:0,0:0:0:0:
283,353,95569,2,0,B|147:353|147:353|54:259|54:259|55:127|55:127|145:36,1,528,14|2,0:0|0:0,0:0:0:0:
461,220,96169,1,0,1:2:0:0:
491,226,96569,5,2,0:0:0:0:
137,157,96769,1,2,1:2:0:0:
206,119,97169,5,2,0:0:0:0:
165,251,97369,1,2,0:0:0:0:
160,53,97569,1,2,0:0:0:0:
211,317,97769,1,2,0:0:0:0:
300,221,97969,1,2,1:2:0:0:
325,221,98369,5,2,0:0:0:0:
168,202,98569,1,2,1:2:0:0:
154,212,98969,5,2,0:0:0:0:
372,155,99169,2,0,L|435:134,1,66,2|0,1:2|0:0,0:0:0:0:
268,77,99569,2,0,L|204:56,1,66,2|0,1:2|0:0,0:0:0:0:
401,22,99969,2,0,L|511:-14,1,66,6|0,1:2|0:0,0:0:0:0:
346,245,100369,5,2,1:2:0:0:
308,328,100569,1,2,0:0:0:0:
215,198,100769,1,2,0:0:0:0:
251,277,100969,1,2,0:0:0:0:
240,293,101369,5,2,0:0:0:0:
321,175,101569,2,0,L|375:85,1,66,0|0,1:0|0:0,0:0:0:0:
453,244,101969,2,0,L|399:154,1,66,0|0,1:0|0:0,0:0:0:0:
330,310,102369,2,0,L|384:220,1,66,0|0,1:0|0:0,0:0:0:0:
450,384,102769,2,0,L|396:294,1,66,0|0,1:0|0:0,0:0:0:0:
145,145,103169,6,0,B|80:249|80:249|206:188|206:188|95:86,1,396.000015106202,14|0,0:0|0:0,0:0:0:0:
260,139,103769,6,0,B|342:260|342:260|264:244|264:244|356:58,1,422.4,14|0,0:0|0:0,0:0:0:0:
474,197,104369,6,0,B|400:385|400:385|452:391|452:391|399:190,1,462.000004405975,14|0,0:0|0:0,0:0:0:0:
496,51,105169,5,2,1:2:0:0:
409,98,105369,1,2,0:0:0:0:
421,28,105569,1,2,0:0:0:0:
437,155,105769,1,2,0:0:0:0:
327,42,105969,1,2,0:0:0:0:
379,237,106169,1,2,0:0:0:0:
509,83,106369,5,0,1:0:0:0:
220,202,106769,2,0,P|248:193|315:150,1,99.0000037765504,0|0,1:0|0:0,0:0:0:0:
94,159,107369,1,0,3:0:0:0:
95,170,107469,1,0,3:0:0:0:
95,180,107569,2,0,L|95:247,1,49.5000018882752,2|0,3:2|0:0,0:0:0:0:
170,380,107969,6,0,B|169:264|169:264|70:217|70:217|227:337,1,396.000015106202,14|0,0:0|0:0,0:0:0:0:
311,214,108569,6,0,B|345:102|345:102|413:189|413:189|227:263,1,422.4,14|0,0:0|0:0,0:0:0:0:
191,142,109169,6,0,B|161:98|161:98|161:47|161:47,1,99.0000037765504,2|0,1:2|0:0,0:0:0:0:
220,258,109569,2,0,B|241:201|241:201|288:168|288:168,1,115.500001101494,2|0,1:2|0:0,0:0:0:0:
117,331,109969,2,0,B|183:314|183:314|244:336|244:336,1,132,2|0,1:2|0:0,0:0:0:0:
81,191,110369,5,2,0:0:0:0:
52,316,110569,1,2,1:2:0:0:
75,345,110969,5,2,0:0:0:0:
24,130,111169,2,0,B|7:196|7:196|29:257|29:257,1,132,0|0,1:0|0:0,0:0:0:0:
212,88,111569,5,2,0:0:0:0:
81,191,111769,1,0,1:0:0:0:
70,189,112169,5,2,0:0:0:0:
358,251,112369,2,0,B|291:234|291:234|230:256|230:256,1,132,2|0,1:2|0:0,0:0:0:0:
389,348,112769,5,2,0:0:0:0:
452,202,112969,1,2,0:0:0:0:
387,110,113169,1,2,0:0:0:0:
416,42,113369,1,2,0:0:0:0:
377,0,113569,2,0,B|360:66|360:66|382:127|382:127,1,132,2|0,1:2|0:0,0:0:0:0:
180,0,113969,2,0,B|229:57|229:57|300:76|300:76,1,145.200004431152,2|0,1:2|0:0,0:0:0:0:
51,169,114369,2,0,B|136:160|136:160|199:107|199:107,1,158.399995166016,2|0,1:2|0:0,0:0:0:0:
120,384,114769,2,0,B|165:303|165:303|157:215|157:215,1,171.599992144776,2|0,1:2|0:0,0:0:0:0:
95,79,115169,5,2,0:0:0:0:
57,255,115369,1,0,1:2:0:0:
67,279,115769,5,2,0:0:0:0:
15,42,115969,2,0,B|40:130|40:130|107:187|107:187,1,171.599992144776,2|0,1:2|0:0,0:0:0:0:
294,191,116369,1,2,0:0:0:0:
59,287,116569,2,0,P|36:311|16:357,1,66,2|0,0:0|0:0,0:0:0:0:
109,372,116969,1,0,3:0:0:0:
110,378,117069,1,0,3:0:0:0:
111,384,117169,2,0,B|199:358|199:358|256:291|256:291,1,171.599992144776,0|0,1:2|0:0,0:0:0:0:
295,112,117569,5,2,0:0:0:0:
317,204,117769,1,2,0:0:0:0:
258,111,117969,1,0,0:0:0:0:
387,151,118169,1,2,0:0:0:0:
143,53,118369,2,0,B|175:138|175:138|245:191|245:191,1,171.599992144776,0|0,1:0|0:0,0:0:0:0:
62,193,118769,2,0,B|155:217|155:217|243:187|243:187,1,184.799994360352,2|0,1:2|0:0,0:0:0:0:
135,348,119169,2,0,B|213:281|213:281|240:187|240:187,1,198.000007553101,6|0,1:2|0:0,0:0:0:0:
51,0,119569,6,0,B|29:36|48:62|48:62|67:94|53:125,1,132,6|0,1:2|0:0,0:0:0:0:
13,198,120169,1,0,0:0:0:0:
57,294,120369,1,0,0:0:0:0:
14,379,120569,1,0,0:0:0:0:
132,179,120769,2,0,P|197:166|355:180,1,198,0|0,1:0|0:0,0:0:0:0:
247,357,121569,6,0,L|260:270,1,66,2|0,1:2|0:0,0:0:0:0:
360,378,121969,2,0,L|320:156,1,198,2|0,1:2|0:0,0:0:0:0:
212,90,122769,1,0,0:0:0:0:
64,158,122969,1,0,0:0:0:0:
136,273,123169,2,0,P|149:219|124:73,1,198,2|0,1:2|0:0,0:0:0:0:
10,100,123969,6,0,L|-4:185,1,66,0|0,1:0|0:0,0:0:0:0:
177,0,124369,2,0,L|196:220,1,198,2|0,1:2|0:0,0:0:0:0:
266,309,125169,1,0,0:0:0:0:
175,344,125369,1,0,0:0:0:0:
333,381,125569,2,0,B|360:340|342:288|342:288|309:239|324:182,1,198,2|0,1:2|0:0,0:0:0:0:
475,229,126369,6,0,L|385:215,1,66,0|0,1:0|0:0,0:0:0:0:
511,122,126769,2,0,L|278:159,1,198,2|0,1:2|0:0,0:0:0:0:
167,254,127569,6,0,L|174:320,1,66,0|0,1:0|0:0,0:0:0:0:
93,138,127969,2,0,L|42:360,1,198,2|0,1:2|0:0,0:0:0:0:
317,101,128769,6,0,P|293:78|243:59,1,66,0|0,1:0|0:0,0:0:0:0:
511,318,129169,2,0,P|382:185|197:259,2,396,2|2|2,1:2|0:0|1:2,0:0:0:0:
356,58,131969,5,2,0:0:0:0:
399,128,132169,1,0,0:0:0:0:
361,224,132369,1,0,0:0:0:0:
415,349,132569,1,2,0:0:0:0:
272,118,132769,6,0,L|186:95,1,66,0|0,1:2|0:0,0:0:0:0:
314,203,133169,2,0,L|228:180,1,82.5,2|0,1:2|0:0,0:0:0:0:
358,287,133569,2,0,L|193:243,1,99.0000037765504,6|0,1:2|0:0,0:0:0:0:
450,384,133969,2,0,B|285:340,1,165,14|0,0:0|0:0,0:0:0:0:
4,245,134369,5,2,0:0:0:0:
55,137,134569,1,2,0:0:0:0:
99,306,134769,1,0,0:0:0:0:
74,217,134969,1,2,0:0:0:0:
232,300,135169,1,0,1:0:0:0:
232,300,135569,5,2,0:0:0:0:
210,134,135769,1,2,0:0:0:0:
99,306,135969,1,2,0:0:0:0:
220,213,136169,1,2,0:0:0:0:
125,3,136369,6,0,P|121:68|123:135,1,132,0|2,1:0|0:0,0:0:0:0:
205,70,136969,1,2,0:0:0:0:
222,157,137169,1,0,0:0:0:0:
296,39,137369,1,2,0:0:0:0:
287,217,137569,2,0,P|299:187|310:121,1,66,0|0,1:0|0:0,0:0:0:0:
189,310,137969,2,0,P|169:277|142:203,1,79.1999975830079,0|0,1:0|0:0,0:0:0:0:
317,384,138369,2,0,P|343:353|384:281,1,92.3999971801759,2|0,1:2|0:0,0:0:0:0:
20,219,138769,6,0,B|14:261|28:305|28:305|39:355|30:399,1,165,6|0,0:2|0:0,0:0:0:0:
102,253,139369,1,0,0:0:0:0:
0,151,139569,1,0,0:0:0:0:
203,137,139769,1,0,0:0:0:0:
92,169,139969,2,0,P|101:80|228:-6,1,247.5,0|0,1:0|0:0,0:0:0:0:
235,220,140769,6,0,L|191:118,1,82.5,2|0,1:2|0:0,0:0:0:0:
323,310,141169,2,0,L|329:48,1,247.5,2|0,1:2|0:0,0:0:0:0:
465,119,141969,1,0,0:0:0:0:
424,233,142169,1,0,0:0:0:0:
512,321,142369,2,0,P|395:341|271:384,1,247.5,2|0,1:2|0:0,0:0:0:0:
108,246,143169,6,0,L|130:334,1,82.5,0|0,1:0|0:0,0:0:0:0:
54,140,143569,2,0,L|-9:423,1,247.5,2|0,1:2|0:0,0:0:0:0:
84,297,144369,1,0,0:0:0:0:
20,196,144569,1,0,0:0:0:0:
186,279,144769,2,0,P|302:289|444:262,1,247.5,2|0,1:2|0:0,0:0:0:0:
422,114,145569,6,0,L|405:217,1,82.5,0|0,1:0|0:0,0:0:0:0:
253,19,145969,2,0,L|284:276,1,247.5,2|0,1:2|0:0,0:0:0:0:
451,384,146769,6,0,L|332:371,1,82.5,0|0,1:0|0:0,0:0:0:0:
512,146,147169,2,0,L|245:271,1,247.5,2|0,1:2|0:0,0:0:0:0:
141,109,147969,6,0,L|224:141,1,82.5,0|0,1:0|0:0,0:0:0:0:
63,330,148369,2,0,B|230:376|233:217|233:217|234:59|405:105,2,495,2|2|2,1:2|0:0|1:2,0:0:0:0:
342,240,151169,1,0,0:0:0:0:
268,107,151369,1,0,0:0:0:0:
237,325,151569,1,0,0:0:0:0:
271,202,151769,1,0,0:0:0:0:
443,284,151969,2,0,P|456:241|463:176,1,82.5,0|0,1:0|0:0,0:0:0:0:
287,316,152369,2,0,P|266:275|248:213,1,89.1000003398895,0|0,1:0|0:0,0:0:0:0:
462,361,152769,2,0,P|488:325|517:266,1,95.7000029205323,0|0,1:0|0:0,0:0:0:0:
142,192,153169,6,0,P|126:280|132:357,1,165,6|2,1:2|0:0,0:0:0:0:
199,264,153769,1,2,0:0:0:0:
21,228,153969,1,0,0:0:0:0:
101,283,154169,1,2,0:0:0:0:
25,150,154369,2,0,P|70:63|156:33,1,165,0|2,1:0|0:0,0:0:0:0:
212,154,154969,1,2,0:0:0:0:
277,52,155169,1,2,0:0:0:0:
151,105,155369,1,2,0:0:0:0:
317,169,155569,6,0,L|327:282,1,82.5,2|0,1:2|0:0,0:0:0:0:
378,339,155969,1,2,0:0:0:0:
401,186,156169,2,0,L|409:103,1,82.5,2|0,1:2|0:0,0:0:0:0:
352,28,156569,1,2,0:0:0:0:
443,248,156769,6,0,L|453:361,1,82.5,0|0,1:0|0:0,0:0:0:0:
505,159,157169,2,0,L|515:46,1,89.1000003398895,0|0,1:0|0:0,0:0:0:0:
413,269,157569,2,0,L|423:382,1,95.7000029205323,2|0,1:2|0:0,0:0:0:0:
508,28,157969,6,0,B|362:0|343:113|81:24,1,412.5,6|0,1:2|0:0,0:0:0:0:
25,159,159169,2,0,P|54:56|55:1,1,82.5,2|0,0:0|0:0,0:0:0:0:
56,246,159569,2,0,P|149:193|188:155,1,82.5,2|0,0:0|0:0,0:0:0:0:
16,329,159969,2,0,P|119:358|174:359,1,82.5,2|0,0:0|0:0,0:0:0:0:
277,165,160369,2,0,P|198:258|382:243,1,412.5,2|0,1:2|0:0,0:0:0:0:
258,198,161569,6,0,B|198:217|137:187|137:187|90:167|-1:200,1,247.5,2|0,1:2|0:0,0:0:0:0:
99,342,162369,2,0,P|175:358|216:356,1,82.5,2|0,0:0|0:0,0:0:0:0:
393,239,162769,2,0,P|272:204|213:325,1,247.5,6|0,1:2|0:0,0:0:0:0:
334,357,163569,2,0,P|349:249|342:162,2,165,2|2|0,0:0|0:0|0:0,0:0:0:0:
405,38,164769,5,2,0:0:0:0:
454,171,164969,1,2,0:0:0:0:
428,384,165169,2,0,P|420:301|423:194,1,165,6|0,1:2|0:0,0:0:0:0:
162,147,165969,5,2,0:0:0:0:
130,229,166169,1,2,0:0:0:0:
151,315,166369,2,0,P|163:134|96:3,1,330,6|0,1:2|0:0,0:0:0:0:
10,338,167569,6,0,B|101:379|238:332|238:332|365:272|493:344,1,495,6|0,1:2|1:0,0:0:0:0:
494,345,169169,1,2,0:0:0:0:
450,207,169369,1,2,0:0:0:0:
390,291,169569,1,2,0:0:0:0:
346,153,169769,1,2,0:0:0:0:
260,358,169969,1,2,1:2:0:0:
275,377,170369,5,2,0:0:0:0:
176,250,170569,1,0,1:0:0:0:
166,263,170969,5,2,0:0:0:0:
271,122,171169,1,8,0:0:0:0:
344,140,171369,1,8,0:0:0:0:
198,104,171569,1,8,0:0:0:0:
417,158,171769,1,8,0:0:0:0:
125,86,171969,2,0,L|35:65,1,82.5,12|0,0:0|0:0,0:0:0:0:
272,243,172369,6,0,L|174:266,2,99.0000037765504,2|0|0,1:2|0:0|0:0,0:0:0:0:
315,177,172969,2,0,L|413:200,2,99.0000037765504,2|0|0,1:2|0:0|2:2,0:0:0:0:
218,325,173569,2,0,L|316:348,1,99.0000037765504,2|0,1:2|0:0,0:0:0:0:
74,145,173969,6,0,P|38:104|-42:69,1,99.0000037765504,4|0,0:0|0:0,0:0:0:0:
82,320,174369,2,0,P|118:361|198:396,1,99.0000037765504,4|0,0:0|0:0,0:0:0:0:
172,145,174769,6,0,L|206:39,2,99.0000037765504,2|0|0,1:2|0:2|0:2,0:2:0:0:
261,178,175369,2,0,L|291:272,2,99.0000037765504,2|0|0,1:2|0:2|0:2,0:2:0:0:
411,62,175969,6,0,L|396:189,1,99.0000037765504,4|0,1:2|0:0,0:0:0:0:
133,113,176369,2,0,L|121:212,1,99.0000037765504,4|0,1:2|0:0,0:0:0:0:
450,273,176769,2,0,L|461:173,1,99.0000037765504,4|0,1:2|0:0,0:0:0:0:
247,97,177169,6,0,L|101:117,2,99.0000037765504,2|0|0,1:2|0:0|0:0,0:0:0:0:
280,183,177769,2,0,L|426:203,2,99.0000037765504,2|0|0,1:2|0:0|0:0,0:0:0:0:
226,14,178369,2,0,L|372:34,1,99.0000037765504,2|2,1:2|0:0,0:0:0:0:
462,281,178769,6,0,P|478:339|454:434,1,99.0000037765504,4|0,0:0|0:0,0:0:0:0:
179,293,179169,2,0,P|163:235|187:140,1,99.0000037765504,4|0,0:0|0:0,0:0:0:0:
488,210,179569,5,2,0:0:0:0:
430,232,179769,1,0,0:0:0:0:
357,192,179969,1,0,0:0:0:0:
288,250,180169,1,2,0:0:0:0:
177,202,180369,1,0,0:0:0:0:
64,276,180569,1,0,0:0:0:0:
259,63,180769,6,0,P|283:110|298:188,1,99.0000037765504,6|0,0:0|0:0,0:0:0:0:
45,384,181169,2,0,P|39:331|53:253,1,99.0000037765504,6|0,0:0|0:0,0:0:0:0:
332,143,181569,2,0,P|329:195|303:270,1,99.0000037765504,6|0,0:0|0:0,0:0:0:0:
86,68,181969,6,0,L|184:81,2,99.0000037765504,2|0|0,1:2|0:1|0:1,0:1:0:0:
315,142,182569,2,0,L|216:155,2,99.0000037765504,2|0|0,1:2|0:2|0:2,0:2:0:0:
0,123,183169,2,0,L|120:139,1,99.0000037765504,2|0,1:2|3:0,0:0:0:0:
128,182,183469,1,0,3:0:0:0:
157,228,183569,2,0,P|157:262|109:339,1,99.0000037765504,6|0,2:2|0:0,0:0:0:0:
99,136,183969,2,0,P|107:103|174:41,1,99.0000037765504,6|0,2:2|0:0,0:0:0:0:
269,9,184369,5,2,0:0:0:0:
326,55,184569,1,0,0:0:0:0:
324,136,184769,1,0,0:0:0:0:
374,213,184969,1,2,0:0:0:0:
354,312,185169,1,0,0:0:0:0:
434,377,185369,1,0,0:0:0:0:
246,212,185569,6,0,P|230:165|228:89,1,99.0000037765504,6|0,0:0|0:0,0:0:0:0:
512,245,185969,2,0,P|512:294|491:367,1,99.0000037765504,4|0,0:0|0:0,0:0:0:0:
312,116,186369,2,0,P|333:71|386:16,1,99.0000037765504,6|0,0:0|0:0,0:0:0:0:
371,259,186769,6,0,L|272:271,2,99.0000037765504,2|0|0,1:2|0:2|0:2,0:2:0:0:
134,160,187369,2,0,L|232:172,2,99.0000037765504,2|0|0,1:2|0:2|0:2,0:2:0:0:
327,288,187969,2,0,L|205:304,1,99.0000037765504,0|0,1:0|3:0,0:0:0:0:
172,293,188269,1,0,3:0:0:0:
128,259,188369,2,0,P|125:192|144:141,1,99.0000037765504,6|0,3:2|0:0,0:0:0:0:
329,88,188769,2,0,P|332:155|313:206,1,99.0000037765504,4|0,0:0|0:0,0:0:0:0:
0,160,189169,5,2,0:0:0:0:
71,193,189369,1,0,0:0:0:0:
156,146,189569,1,0,0:0:0:0:
258,224,189769,1,2,0:0:0:0:
384,144,189969,1,0,0:0:0:0:
509,246,190169,1,0,0:0:0:0:
284,82,190369,6,0,P|241:68|140:67,1,99.0000037765504,2|0,1:2|0:0,0:0:0:0:
346,275,190769,2,0,P|389:289|490:290,1,99.0000037765504,2|0,1:2|0:0,0:0:0:0:
205,131,191169,2,0,P|160:137|68:180,1,99.0000037765504,2|0,1:2|0:0,0:0:0:0:
192,227,191569,5,6,0:2:0:0:
214,260,191769,1,0,0:0:0:0:
212,299,191969,1,0,0:0:0:0:
192,333,192169,1,0,0:0:0:0:
304,312,192369,1,2,0:0:0:0:
304,312,192569,1,2,0:0:0:0:
192,227,192769,5,0,0:0:0:0:
225,205,192969,1,0,0:0:0:0:
264,207,193169,1,0,0:0:0:0:
298,227,193369,1,0,0:0:0:0:
277,115,193569,1,2,0:0:0:0:
277,115,193769,1,2,0:0:0:0:
140,65,193969,6,0,L|186:283,1,198,6|0,1:2|0:0,0:0:0:0:
85,167,194769,1,2,0:0:0:0:
85,167,194969,1,2,0:0:0:0:
295,129,195169,2,0,P|295:229|215:336,1,198,6|0,1:2|0:0,0:0:0:0:
326,192,195969,6,0,P|410:178|440:180,1,66,2|2,0:0|0:0,0:0:0:0:
470,306,196369,2,0,P|436:301|404:292,1,66,6|2,1:2|0:0,0:0:0:0:
497,70,196769,2,0,P|458:163|283:114,1,264,2|6,0:0|1:2,0:0:0:0:
399,88,197769,1,0,0:0:0:0:
326,96,197969,1,0,0:0:0:0:
254,78,198169,1,0,0:0:0:0:
110,187,198369,5,2,0:0:0:0:
182,173,198569,1,2,0:0:0:0:
295,219,198769,2,0,P|223:270|88:240,1,198,6|0,1:2|0:0,0:0:0:0:
334,150,199569,2,0,P|381:210|388:261,1,66,2|2,0:0|0:0,0:0:0:0:
284,384,199969,2,0,P|233:312|263:177,1,198,6|0,1:2|0:0,0:0:0:0:
401,142,200769,5,2,0:0:0:0:
302,121,200969,1,2,0:0:0:0:
461,66,201169,1,4,1:2:0:0:
489,133,201369,1,0,0:0:0:0:
486,206,201569,1,0,0:0:0:0:
448,269,201769,1,0,0:0:0:0:
401,142,201969,1,2,0:0:0:0:
401,142,202169,1,2,0:0:0:0:
448,269,202369,5,4,1:2:0:0:
375,256,202569,1,0,0:0:0:0:
301,261,202769,1,0,0:0:0:0:
234,291,202969,1,0,0:0:0:0:
399,363,203169,1,2,0:0:0:0:
399,363,203369,1,2,0:0:0:0:
224,345,203569,6,0,P|307:298|320:202,1,198,6|0,1:2|0:0,0:0:0:0:
205,121,204369,1,2,0:0:0:0:
217,191,204569,1,2,0:0:0:0:
149,224,204769,2,0,P|77:287|84:383,1,198,6|0,1:2|0:0,0:0:0:0:
238,292,205569,2,0,P|256:258|260:185,1,66,2|2,0:0|0:0,0:0:0:0:
141,109,205969,6,0,P|204:181|300:171,1,198,6|0,1:2|0:0,0:0:0:0:
206,89,206769,1,2,0:0:0:0:
206,89,206969,1,2,0:0:0:0:
172,325,207169,2,0,P|210:237|162:154,1,198,6|0,1:2|0:0,0:0:0:0:
90,310,207969,1,2,0:0:0:0:
90,310,208169,1,2,0:0:0:0:
311,348,208369,2,0,P|265:284|113:323,1,198,6|0,1:2|0:0,0:0:0:0:
375,247,209169,1,2,0:0:0:0:
375,247,209369,1,2,0:0:0:0:
431,76,209569,2,0,P|410:178|458:282,1,198,6|0,1:2|0:0,0:0:0:0:
508,85,210369,6,0,P|479:31|461:16,1,66,2|0,0:0|0:0,0:0:0:0:
213,116,210769,2,0,P|380:147|428:143,1,198,6|0,1:2|0:0,0:0:0:0:
154,56,211569,1,2,0:0:0:0:
132,133,211769,1,2,0:0:0:0:
150,210,211969,1,4,1:2:0:0:
28,174,212169,1,0,0:0:0:0:
205,153,212369,1,2,0:0:0:0:
100,282,212569,1,2,0:0:0:0:
83,109,212769,6,0,P|169:101|204:120,1,66,2|2,0:0|0:0,0:0:0:0:
267,195,213169,2,0,P|190:177|235:65,1,198,6|0,1:2|0:0,0:0:0:0:
339,138,213969,1,2,0:0:0:0:
347,217,214169,1,2,0:0:0:0:
289,272,214369,2,0,P|191:283|66:264,1,198,6|0,1:2|0:0,0:0:0:0:
173,308,215169,5,2,1:2:0:0:
285,246,215369,1,2,1:2:0:0:
438,298,215569,2,0,B|392:148|475:218|409:70,1,198,6|0,1:2|0:0,0:0:0:0:
268,116,216369,1,2,0:0:0:0:
368,155,216569,1,2,0:0:0:0:
317,45,216769,2,0,P|237:36|113:71,1,198,6|0,1:2|0:0,0:0:0:0:
125,210,217569,6,0,P|156:188|175:145,1,66,2|0,0:0|0:0,0:0:0:0:
0,99,217969,2,0,P|-19:207|31:337,1,198,6|0,1:2|0:0,0:0:0:0:
138,384,218769,1,2,0:0:0:0:
107,193,218969,1,2,0:0:0:0:
229,321,219169,2,0,P|131:314|7:266,1,198,6|0,1:2|0:0,0:0:0:0:
176,177,219969,2,0,P|212:171|254:176,1,66,2|0,0:0|0:0,0:0:0:0:
361,280,220369,2,0,P|265:253|363:43,3,396,6|2|2|2,0:0|0:0|0:0|0:0,0:0:0:0:
361,280,225169,1,2,0:0:0:0:
256,192,226369,12,0,227469,0:0:0:0:
256,192,227569,12,0,228669,0:0:0:0:
256,192,228769,12,0,229769,0:0:0:0:
183,139,229969,5,6,1:2:0:0:
131,239,230169,1,2,0:0:0:0:
288,179,230368,1,2,0:0:0:0:
205,325,230569,2,0,P|195:356|171:393,1,66,0|2,1:2|0:0,0:0:0:0:
293,173,230969,1,2,0:0:0:0:
414,297,231169,5,0,1:0:0:0:
323,339,231369,1,2,0:0:0:0:
280,248,231569,1,0,1:0:0:0:
371,206,231769,1,2,0:0:0:0:
250,321,231969,5,0,1:0:0:0:
99,200,232169,1,2,0:0:0:0:
120,341,232369,2,0,P|194:376|277:384,1,165,2|2,1:2|0:0,0:0:0:0:
250,321,232969,1,0,1:0:0:0:
16,384,233169,1,2,0:0:0:0:
185,288,233369,1,2,0:0:0:0:
117,43,233569,6,0,B|140:100|140:100|113:291,1,247.5,14|0,0:0|0:0,0:0:0:0:
254,216,233969,2,0,B|88:127|88:127|26:129,1,247.5,14|0,0:0|0:0,0:0:0:0:
120,286,234369,2,2,B|143:228|143:228|116:37,1,247.5,14|2,0:0|0:0,0:0:0:0:
0,134,234769,5,2,1:2:0:0:
67,221,234969,1,2,0:0:0:0:
167,222,235169,1,2,0:0:0:0:
309,147,235369,5,2,1:2:0:0:
208,101,235569,1,2,0:2:0:0:
120,147,235769,1,2,0:0:0:0:
308,43,235969,6,0,B|288:4|288:4|39:48,1,247.5,2|0,1:2|0:0,0:0:0:0:
190,67,236369,1,0,1:0:0:0:
221,169,236569,1,2,0:0:0:0:
159,260,236769,5,0,1:0:0:0:
271,215,236969,1,2,0:0:0:0:
284,178,237069,1,2,0:0:0:0:
278,134,237169,2,0,B|259:96|259:96|226:180|324:257,2,198.000007553101,2|2|2,1:2|0:0|0:0,0:0:0:0:
208,263,238169,1,2,0:0:0:0:
421,0,238369,5,12,0:0:0:0:
472,384,238769,1,12,0:0:0:0:
512,0,239169,1,12,0:0:0:0:
374,384,239569,5,2,1:2:0:0:
195,263,239769,1,0,3:0:0:0:
254,258,239869,1,0,3:0:0:0:
313,253,239969,1,2,3:2:0:0:
102,218,240169,1,0,1:2:0:0:
290,323,240369,1,2,1:2:0:0:
119,142,240569,1,2,1:2:0:0:
44,383,240769,1,2,1:2:0:0:
19,283,240969,1,0,1:2:0:0:
35,185,241169,2,0,P|42:151|-16:-17,1,198.000007553101,2|0,1:2|1:0,0:0:0:0:
433,319,241969,5,2,1:2:0:0:
311,93,242169,1,0,3:0:0:0:
317,152,242269,1,0,3:0:0:0:
324,211,242369,1,2,3:2:0:0:
393,51,242569,1,0,1:0:0:0:
224,258,242769,1,2,1:2:0:0:
391,167,242969,1,2,0:0:0:0:
114,62,243169,5,6,1:2:0:0:
121,215,243369,1,0,1:0:0:0:
240,138,243569,1,2,1:2:0:0:
199,296,243769,1,0,1:0:0:0:
19,152,243969,5,0,3:0:0:0:
38,153,244069,1,0,3:0:0:0:
57,154,244169,1,0,3:0:0:0:
76,155,244269,1,0,3:0:0:0:
117,215,244369,1,6,3:2:0:0:
176,47,244569,1,0,3:0:0:0:
189,105,244669,1,0,3:0:0:0:
202,163,244769,1,0,3:0:0:0:
77,21,244969,1,2,0:0:0:0:
256,98,245169,1,0,3:2:0:0:
221,91,245269,1,0,3:2:0:0:
186,93,245369,1,2,3:2:0:0:
154,107,245469,1,0,3:2:0:0:
150,195,245569,1,6,3:2:0:0:
203,19,245769,1,2,3:2:0:0:
230,66,245869,1,2,3:2:0:0:
226,120,245969,1,0,3:2:0:0:
112,0,246169,1,2,2:2:0:0:
345,16,246369,2,0,B|351:31|351:31|343:50|343:50|349:75|349:75|335:98|335:98|345:127|345:127|332:144|332:144|343:168|343:168|325:188|325:188|338:212|338:212|329:235|329:235|338:256|338:256|328:285|328:285,1,247.5,6|0,0:0|0:0,0:0:0:0:
307,384,246769,5,2,1:2:0:0:
190,289,246969,1,0,1:2:0:0:
329,235,247169,1,0,1:2:0:0:
226,110,247369,5,0,1:2:0:0:
190,289,247569,1,0,1:2:0:0:
49,171,247769,1,0,1:2:0:0:
308,70,247969,5,2,1:2:0:0:
190,289,248169,1,0,1:2:0:0:
59,77,248369,1,0,1:2:0:0:
437,298,248569,5,0,1:2:0:0:
190,289,248769,2,0,P|176:205|193:125,1,165,0|0,1:2|0:0,0:0:0:0:
490,28,249169,6,0,B|456:84|476:143|476:143|508:189|495:280,1,198.000007553101,6|2,1:2|0:0,0:0:0:0:
457,377,249769,1,0,1:0:0:0:
457,377,250169,5,2,0:0:0:0:
358,132,250369,2,0,L|239:54,1,99.0000037765504,0|2,1:0|0:0,0:0:0:0:
166,224,250769,1,0,1:0:0:0:
249,169,250969,1,2,0:0:0:0:
329,311,251169,1,0,1:0:0:0:
246,256,251369,1,2,0:0:0:0:
370,126,251569,1,0,3:2:0:0:
368,130,251669,1,0,3:0:0:0:
366,134,251769,1,0,3:0:0:0:
397,211,251969,5,0,0:0:0:0:
302,36,252169,2,0,P|288:83|287:163,1,99.0000037765504,6|0,2:0|0:0,0:0:0:0:
349,384,252569,1,0,0:0:0:0:
483,222,252769,6,0,B|507:113|507:113|480:47,1,181.500001730919,14|0,0:0|0:0,0:0:0:0:
307,225,253169,2,0,B|417:249|417:249|483:222,1,181.500001730919,14|0,0:0|0:0,0:0:0:0:
310,49,253569,2,0,B|283:115|283:115|306:224,1,181.500001730919,14|0,0:0|0:0,0:0:0:0:
401,19,253969,5,0,1:0:0:0:
392,147,254169,1,2,0:0:0:0:
269,184,254369,1,2,0:0:0:0:
356,285,254569,5,0,1:0:0:0:
232,320,254769,1,2,0:0:0:0:
155,217,254969,1,2,0:0:0:0:
499,61,255169,6,0,B|511:80|511:80|499:324,1,181.500001730919,0|2,1:0|0:0,0:0:0:0:
393,379,255569,5,0,1:0:0:0:
192,144,255969,1,0,1:0:0:0:
388,210,256369,5,0,3:3:0:0:
385,214,256469,1,0,3:3:0:0:
382,218,256569,1,0,3:3:0:0:
379,301,256769,1,2,0:0:0:0:
330,82,256969,2,0,P|315:124|302:242,1,99.0000037765504,0|2,1:0|0:0,0:0:0:0:
434,360,257369,1,2,0:0:0:0:
512,58,257569,5,12,0:0:0:0:
259,384,257969,1,12,0:0:0:0:
173,0,258369,1,12,0:0:0:0:
65,256,258769,6,0,P|105:261|177:250,1,66,2|0,1:2|0:0,0:0:0:0:
237,172,259169,1,0,0:0:0:0:
58,270,259369,2,0,P|98:275|170:264,1,66,2|0,0:0|0:0,0:0:0:0:
230,186,259769,1,0,0:0:0:0:
51,284,259969,2,0,P|91:289|163:278,1,66,2|0,0:0|0:0,0:0:0:0:
65,145,260369,2,0,P|25:140|-47:151,1,66,2|0,0:0|0:0,0:0:0:0:
44,298,260769,2,0,P|84:303|156:292,1,66,2|0,0:0|0:0,0:0:0:0:
273,178,261169,6,0,P|306:177|339:182,1,66,2|0,1:2|0:0,0:0:0:0:
423,296,261569,1,0,0:0:0:0:
280,164,261769,2,0,P|313:163|346:168,1,66,2|0,0:0|0:0,0:0:0:0:
418,278,262169,1,0,0:0:0:0:
287,150,262369,2,0,P|320:149|353:154,1,66,2|0,0:0|0:0,0:0:0:0:
263,293,262769,2,0,P|229:293|196:288,1,66,2|0,0:0|0:0,0:0:0:0:
294,136,263169,2,0,P|327:135|360:140,1,66,2|0,0:0|0:0,0:0:0:0:
303,380,263569,6,0,P|292:351|287:284,1,66,2|0,1:2|0:0,0:0:0:0:
329,178,263969,1,0,0:0:0:0:
379,318,264169,2,0,P|390:289|395:222,1,66,2|0,0:0|0:0,0:0:0:0:
326,153,264569,1,0,0:0:0:0:
283,324,264769,2,0,P|272:295|267:228,1,66,2|0,0:0|0:0,0:0:0:0:
392,264,265169,2,0,P|403:235|408:168,1,66,2|0,0:0|0:0,0:0:0:0:
265,268,265569,2,0,P|254:239|249:172,1,66,2|0,0:0|0:0,0:0:0:0:
360,0,265969,6,0,P|371:29|376:96,1,66,2|0,1:2|0:0,0:0:0:0:
332,205,266369,1,0,0:0:0:0:
282,63,266569,2,0,P|271:92|266:159,1,66,2|0,0:0|0:0,0:0:0:0:
335,230,266969,1,0,0:0:0:0:
378,57,267169,2,0,P|389:86|394:153,1,66,2|0,0:0|0:0,0:0:0:0:
269,117,267569,2,0,P|258:146|253:213,1,66,2|0,0:0|0:0,0:0:0:0:
396,113,267969,2,0,P|407:142|412:209,1,66,2|0,0:0|0:0,0:0:0:0:
152,382,268369,6,0,L|163:275,1,66,2|0,1:2|0:0,0:0:0:0:
55,205,268769,1,0,0:0:0:0:
252,292,268969,2,0,L|258:358,1,66,2|0,0:0|0:0,0:0:0:0:
49,214,269369,1,0,0:0:0:0:
152,382,269569,2,0,L|163:275,1,66,2|0,0:0|0:0,0:0:0:0:
252,292,269969,2,0,L|258:358,1,66,2|0,0:0|0:0,0:0:0:0:
158,315,270369,2,0,L|164:248,1,66,2|0,0:0|0:0,0:0:0:0:
332,101,270769,6,0,L|338:167,1,66,2|0,1:2|0:0,0:0:0:0:
312,289,271169,1,0,0:0:0:0:
440,147,271369,2,0,L|447:81,1,66,2|0,0:0|0:0,0:0:0:0:
309,297,271769,1,0,0:0:0:0:
332,101,271969,2,0,L|338:167,1,66,2|0,0:0|0:0,0:0:0:0:
440,147,272369,2,0,L|447:81,1,66,2|0,0:0|0:0,0:0:0:0:
338,167,272769,2,0,L|344:233,1,66,2|0,0:0|0:0,0:0:0:0:
511,357,273169,6,0,P|478:350|418:351,1,66,2|0,1:2|0:0,0:0:0:0:
301,384,273569,1,0,0:0:0:0:
420,262,273769,2,0,P|391:280|349:323,1,66,2|0,0:0|0:0,0:0:0:0:
301,384,274169,1,0,0:0:0:0:
511,357,274369,2,0,P|478:350|418:351,1,66,2|0,0:0|0:0,0:0:0:0:
420,262,274769,2,0,P|391:280|349:323,1,66,2|0,0:0|0:0,0:0:0:0:
288,259,275169,2,0,P|280:292|282:352,1,66,2|0,0:0|0:0,0:0:0:0:
8,233,275569,6,0,L|177:233,1,132,2|0,1:2|0:0,0:0:0:0:
241,234,276169,1,2,0:0:0:0:
191,164,276369,1,0,0:0:0:0:
208,62,276569,1,0,0:0:0:0:
220,384,276769,6,0,L|236:265,1,66,2|0,1:2|0:0,0:0:0:0:
345,158,277169,2,0,L|333:243,1,85.7999960723879,2|0,1:2|0:0,0:0:0:0:
141,384,277569,2,0,L|158:253,1,105.6,2|0,1:2|0:0,0:0:0:0:
184,69,277969,5,6,1:2:0:0:
238,224,278169,1,2,0:0:0:0:
66,187,278369,1,2,0:0:0:0:
184,69,278569,5,0,1:0:0:0:
331,155,278769,1,2,0:0:0:0:
188,269,278969,1,2,0:0:0:0:
184,69,279169,5,0,1:0:0:0:
105,227,279369,1,2,0:0:0:0:
230,158,279569,1,0,1:0:0:0:
309,316,279769,1,2,0:0:0:0:
184,69,279969,5,0,1:0:0:0:
105,227,280169,1,2,0:0:0:0:
266,85,280369,5,0,1:0:0:0:
353,178,280569,1,2,0:0:0:0:
331,304,280769,1,2,0:0:0:0:
215,369,280969,5,0,1:0:0:0:
276,250,281169,1,2,0:0:0:0:
415,237,281369,1,2,0:0:0:0:
94,188,281569,6,0,B|108:154|108:154|267:175,1,171.599992144776,2|0,1:2|0:0,0:0:0:0:
243,171,281969,2,0,B|229:137|229:137|70:158,1,171.599992144776,2|0,1:2|0:0,0:0:0:0:
93,154,282369,2,0,B|107:120|107:120|266:141,1,171.599992144776,6|0,1:2|0:0,0:0:0:0:
174,282,282769,5,0,1:0:0:0:
52,280,282969,1,2,0:0:0:0:
2,169,283169,1,2,0:0:0:0:
70,90,283369,5,0,1:0:0:0:
154,177,283569,1,2,0:0:0:0:
111,291,283769,1,2,0:0:0:0:
154,93,283969,5,0,1:0:0:0:
187,258,284169,1,2,0:0:0:0:
220,55,284369,2,0,L|321:32,1,82.5,0|2,1:0|0:0,0:0:0:0:
270,257,284769,2,0,L|169:280,1,82.5,0|2,1:0|0:0,0:0:0:0:
389,12,285169,5,0,1:0:0:0:
414,130,285369,1,2,0:0:0:0:
387,246,285569,1,2,0:0:0:0:
292,325,285769,5,0,1:0:0:0:
266,206,285969,1,2,0:0:0:0:
311,93,286169,1,2,0:0:0:0:
374,346,286369,5,0,1:0:0:0:
189,101,286769,1,0,1:0:0:0:
511,192,287169,1,6,0:3:0:0:
450,222,287302,1,6,0:3:0:0:
449,231,287435,1,6,0:3:0:0:
370,122,287569,5,8,3:0:0:0:
336,93,287702,1,0,3:0:0:0:
292,88,287835,1,0,3:0:0:0:
253,110,287969,1,0,3:0:0:0:
224,143,288102,1,0,3:0:0:0:
182,156,288235,1,0,3:0:0:0:
138,148,288369,1,0,3:0:0:0:
103,120,288502,1,0,3:0:0:0:
91,77,288635,1,0,3:0:0:0:
217,80,288769,5,8,3:3:0:0:
231,115,288902,1,0,3:0:0:0:
231,150,289035,1,0,3:0:0:0:
124,299,289169,5,8,3:3:0:0:
123,255,289302,1,0,3:0:0:0:
132,213,289435,1,0,3:0:0:0:
278,276,289569,5,8,3:3:0:0:
286,331,289702,1,0,3:0:0:0:
269,384,289835,1,0,3:0:0:0:
218,233,289969,5,8,3:3:0:0:
254,209,290102,1,0,3:0:0:0:
297,209,290235,1,0,3:0:0:0:
334,233,290369,1,0,3:0:0:0:
351,273,290502,1,0,3:0:0:0:
385,299,290635,1,0,3:0:0:0:
429,295,290769,1,0,3:0:0:0:
453,258,290902,1,0,3:0:0:0:
441,215,291035,1,0,3:0:0:0:
309,233,291169,5,12,3:0:0:0:
278,271,291302,1,0,3:0:0:0:
273,320,291435,1,0,3:0:0:0:
340,125,291569,5,12,3:0:0:0:
284,130,291702,1,0,3:0:0:0:
246,172,291835,1,0,3:0:0:0:
439,71,291969,5,12,3:0:0:0:
387,32,292102,1,0,3:0:0:0:
320,34,292235,1,0,3:0:0:0:
458,181,292369,5,8,3:0:0:0:
465,213,292469,1,0,3:0:0:0:
463,245,292569,1,0,3:0:0:0:
446,273,292669,1,0,3:0:0:0:
417,289,292769,1,0,3:0:0:0:
401,318,292869,1,0,3:0:0:0:
498,362,292969,5,8,3:0:0:0:
512,327,293069,1,0,3:0:0:0:
507,290,293169,1,0,3:0:0:0:
488,257,293269,1,0,3:0:0:0:
482,220,293369,1,0,3:0:0:0:
494,184,293469,1,0,3:0:0:0:
502,97,293569,5,8,3:0:0:0:
509,52,293669,1,0,3:0:0:0:
470,45,293769,1,0,3:0:0:0:
461,0,293869,1,0,3:0:0:0:
381,71,293969,5,8,3:0:0:0:
388,116,294069,1,0,3:0:0:0:
349,123,294169,1,0,3:0:0:0:
340,168,294269,1,0,3:0:0:0:
300,267,294369,5,8,3:0:0:0:
252,253,294469,1,0,3:0:0:0:
310,229,294569,1,0,3:0:0:0:
364,265,294669,1,0,3:0:0:0:
298,354,294769,1,14,3:2:0:0:
256,192,294869,12,0,300169,0:0:0:0:
