osu file format v14

[General]
AudioFilename: audio.mp3
AudioLeadIn: 0
PreviewTime: -1
Countdown: 0
SampleSet: Soft
StackLeniency: 0.7
Mode: 0
LetterboxInBreaks: 0
WidescreenStoryboard: 0

[Editor]
Bookmarks: 48916,87316,125716,151316,176916,204116,242516,280916,306516,344916,384916,410516,436116,461716,487316,514516
DistanceSpacing: 0.5
BeatDivisor: 4
GridSize: 32
TimelineZoom: 2.3

[Metadata]
Title:Vergil Battle 2 (Extended Version)
TitleUnicode:Vergil Battle 2 (Extended Version)
Artist:Devil May Cry 3
ArtistUnicode:Devil May Cry 3
Creator:L1NKED
Version:Insane
Source:
Tags:
BeatmapID:1080816
BeatmapSetID:508183

[Difficulty]
HPDrainRate:6
CircleSize:4.5
OverallDifficulty:8.5
ApproachRate:9
SliderMultiplier:3
SliderTickRate:1

[Events]
//Background and Video events
0,0,"dmc 3 dante vs vergil.png",0,0
//Break Periods
//Storyboard Layer 0 (Background)
//Storyboard Layer 1 (Fail)
//Storyboard Layer 2 (Pass)
//Storyboard Layer 3 (Foreground)
//Storyboard Sound Samples

[TimingPoints]
48916,400,4,2,0,70,1,0
100116,-90.9090909090909,4,2,0,70,0,0
151716,-200,4,2,0,70,0,0
176116,-153.846153846154,4,2,0,70,0,0
176516,-133.333333333333,4,2,0,70,0,0
176916,-125,4,2,0,70,0,0
189716,-111.111111111111,4,2,0,70,0,0
197716,-100,4,2,0,70,0,0
204316,-133.333333333333,4,2,0,70,0,0
216516,-100,4,2,0,70,0,0
219916,-133.333333333333,4,2,0,70,0,0
242916,-100,4,2,0,70,0,0
255716,-76.9230769230769,4,2,0,70,0,0

[HitObjects]
48,192,48916,5,0,0:1:0:0:
96,80,49116,1,0,0:1:0:0:
224,48,49316,2,0,L|128:48,2,75
368,48,49716,1,0,0:1:0:0:
288,128,49916,1,0,0:1:0:0:
400,192,50116,2,0,L|400:272,2,75
64,288,50516,6,0,L|128:352,1,75
96,176,50716,2,0,L|160:240,1,75
256,320,50916,2,0,L|352:320,2,75
464,240,51316,1,0,0:0:0:0:
432,208,51416,1,0,0:0:0:0:
400,176,51516,1,0,0:0:0:0:
448,64,51716,2,0,L|368:112,2,75
304,160,52116,5,0,0:0:0:0:
272,128,52216,1,0,0:0:0:0:
240,96,52316,1,0,0:0:0:0:
64,48,52516,2,0,L|128:128,2,75
80,192,52916,1,0,0:0:0:0:
80,192,53016,1,0,0:0:0:0:
80,192,53116,1,0,0:0:0:0:
256,112,53316,2,0,L|256:208,2,75
352,128,53716,6,0,P|272:192|272:224,1,75
304,256,53916,2,0,P|368:192|352:176,1,75
112,288,54116,2,0,L|192:288,2,75
64,208,54516,1,0,0:0:0:0:
88,168,54616,1,0,0:0:0:0:
128,152,54716,1,0,0:0:0:0:
432,64,54916,2,0,P|304:224|304:240,1,225
400,320,55316,6,0,B|480:272|384:208|384:336,1,150
224,352,55716,2,0,L|224:272,2,75
128,128,56116,1,0,0:0:0:0:
88,152,56216,1,0,0:0:0:0:
72,196,56316,1,0,0:0:0:0:
256,64,56516,2,0,L|256:144,2,75
352,176,56916,6,0,L|320:96,1,75
432,96,57116,2,0,L|464:16,1,75
400,240,57316,2,0,L|400:336,2,75
288,272,57716,1,0,0:0:0:0:
280,224,57816,1,0,0:0:0:0:
240,200,57916,1,0,0:0:0:0:
144,304,58116,2,0,L|256:304,2,75
128,224,58516,6,0,L|176:160,1,75
112,48,58716,2,0,L|48:128,1,75
272,64,58916,2,0,L|176:32,2,75
192,128,59316,1,0,0:0:0:0:
224,160,59416,1,0,0:0:0:0:
256,192,59516,1,0,0:0:0:0:
336,304,59716,2,0,B|256:240|384:240|368:320,1,150
64,272,60116,5,0,0:0:0:0:
384,336,60316,1,0,0:0:0:0:
128,64,60716,1,0,0:0:0:0:
448,128,60916,1,0,0:0:0:0:
128,64,61316,1,0,0:0:0:0:
276,40,61716,5,0,0:0:0:0:
200,36,61916,1,0,0:0:0:0:
128,64,62116,2,0,P|128:224|160:256,1,150
224,336,62516,1,0,0:0:0:0:
416,288,62716,1,0,0:0:0:0:
320,64,62916,2,0,P|320:224|352:256,1,150
400,336,63316,5,0,0:0:0:0:
496,176,63516,1,0,0:0:0:0:
352,288,63716,2,0,P|384:128|416:96,1,150
464,48,64116,1,0,0:0:0:0:
256,32,64316,1,0,0:0:0:0:
128,288,64516,2,0,P|96:128|64:96,1,150
32,256,64916,5,0,0:0:0:0:
208,160,65116,1,0,0:0:0:0:
128,64,65316,2,0,L|288:128,1,150
232,176,65716,1,0,0:0:0:0:
96,224,65916,1,0,0:0:0:0:
352,224,66116,2,0,L|192:288,1,150
176,240,66516,5,0,0:0:0:0:
96,80,66716,1,0,0:0:0:0:
96,192,66916,2,0,P|160:352|192:384,1,150
256,160,67316,2,0,P|192:0|192:-32,1,150
384,224,67716,2,0,P|448:352|480:384,1,150
448,304,68116,5,0,0:0:0:0:
280,352,68316,1,0,0:0:0:0:
96,352,68516,2,0,L|288:288,1,150
368,232,68916,2,0,L|448:192,1,75
408,112,69116,2,0,L|472:72,1,75
160,224,69316,2,0,L|288:128,1,150
352,112,69716,5,0,0:0:0:0:
416,192,69916,1,0,0:0:0:0:
440,296,70116,2,0,L|288:272,1,150
192,240,70516,2,0,L|112:192,1,75
128,128,70716,2,0,L|48:64,1,75
400,208,70916,2,0,L|272:128,1,150
436,144,71316,5,0,0:0:0:0:
388,108,71416,1,0,0:0:0:0:
340,72,71516,1,0,0:0:0:0:
240,48,71716,2,0,B|144:128|160:144|64:144,1,150
112,192,72116,1,0,0:0:0:0:
156,232,72216,1,0,0:0:0:0:
112,272,72316,1,0,0:0:0:0:
256,224,72516,1,0,0:0:0:0:
400,160,72716,1,0,0:0:0:0:
160,96,72916,6,0,P|112:16|112:-16,1,75
320,176,73116,2,0,P|352:96|352:64,1,75
96,320,73316,1,0,0:0:0:0:
96,320,73416,1,0,0:0:0:0:
96,320,73516,1,0,0:0:0:0:
400,320,73716,1,0,0:0:0:0:
256,192,74116,1,0,0:0:0:0:
400,112,74516,5,0,0:0:0:0:
160,48,74716,1,0,0:0:0:0:
304,96,74916,2,0,L|144:48,1,150
96,176,75316,1,0,0:0:0:0:
192,320,75516,1,0,0:0:0:0:
400,224,75716,2,0,L|240:304,1,150
272,160,76116,5,0,0:0:0:0:
416,320,76316,1,0,0:0:0:0:
432,144,76516,2,0,B|368:32|304:128|304:176,1,150
256,192,76916,1,0,0:0:0:0:
196,192,77016,1,0,0:0:0:0:
136,192,77116,1,0,0:0:0:0:
272,48,77316,2,0,L|416:112,1,150
384,240,77716,5,0,0:0:0:0:
96,256,77916,1,0,0:0:0:0:
176,64,78116,2,0,L|112:224,1,150
256,304,78516,1,0,0:0:0:0:
464,288,78716,1,0,0:0:0:0:
160,64,78916,2,0,B|320:64|240:176|256:176,1,150
368,288,79316,5,0,0:0:0:0:
96,336,79516,1,0,0:0:0:0:
416,176,79716,2,0,L|240:224,1,150
160,240,80116,1,0,0:0:0:0:
112,204,80216,1,0,0:0:0:0:
116,144,80316,1,0,0:0:0:0:
224,48,80516,1,0,0:0:0:0:
416,96,80716,1,0,0:0:0:0:
320,336,80916,6,0,L|384:176,1,150
240,160,81316,1,0,0:0:0:0:
176,320,81516,1,0,0:0:0:0:
176,48,81716,2,0,L|96:208,1,150
256,320,82116,1,0,0:0:0:0:
96,320,82316,1,0,0:0:0:0:
416,320,82516,6,0,L|256:320,1,150
144,224,82916,1,0,0:0:0:0:
208,48,83116,1,0,0:0:0:0:
448,80,83316,2,0,L|240:112,1,150
224,112,83716,1,0,0:0:0:0:
132,88,83916,1,0,0:0:0:0:
80,240,84116,5,0,0:0:0:0:
108,292,84216,1,0,0:0:0:0:
160,320,84316,1,0,0:0:0:0:
216,336,84416,1,0,0:0:0:0:
276,336,84516,1,0,0:0:0:0:
328,308,84616,1,0,0:0:0:0:
368,264,84716,1,0,0:0:0:0:
380,204,84816,1,0,0:0:0:0:
372,144,84916,1,0,0:0:0:0:
352,88,85016,5,0,0:0:0:0:
320,36,85116,1,0,0:0:0:0:
376,60,85216,1,0,0:0:0:0:
412,108,85316,1,0,0:0:0:0:
428,164,85416,1,0,0:0:0:0:
424,224,85516,1,0,0:0:0:0:
404,280,85616,1,0,0:0:0:0:
360,320,85716,1,0,0:0:0:0:
304,336,85816,1,0,0:0:0:0:
244,332,85916,1,0,0:0:0:0:
188,316,86016,5,0,0:0:0:0:
144,272,86116,1,0,0:0:0:0:
124,216,86216,1,0,0:0:0:0:
124,156,86316,1,0,0:0:0:0:
148,100,86416,1,0,0:0:0:0:
188,60,86516,1,0,0:0:0:0:
308,44,86716,1,0,0:0:0:0:
392,128,86916,1,0,0:0:0:0:
256,192,87116,1,0,0:0:0:0:
91,114,87316,5,0,0:0:0:0:
158,301,87516,1,0,0:0:0:0:
304,160,87716,2,0,P|380:170|453:223,1,150
376,301,88016,1,0,0:0:0:0:
376,301,88116,2,0,P|329:290|278:251,1,75
192,160,88316,2,0,L|206:245,1,75
224,334,88516,1,0,0:0:0:0:
290,172,88716,1,0,0:0:0:0:
104,215,88916,5,0,0:0:0:0:
352,121,89116,1,0,0:0:0:0:
352,121,89216,1,0,0:0:0:0:
352,121,89316,2,0,P|430:120|502:149,1,150
411,216,89616,1,0,0:0:0:0:
411,216,89716,1,0,0:0:0:0:
253,84,89916,1,0,0:0:0:0:
278,264,90116,1,0,0:0:0:0:
127,154,90316,1,0,0:0:0:0:
91,165,90416,1,0,0:0:0:0:
55,176,90516,5,0,0:0:0:0:
126,71,90716,1,0,0:0:0:0:
95,269,90916,1,0,0:0:0:0:
233,182,91116,1,0,0:0:0:0:
269,193,91216,1,0,0:0:0:0:
305,204,91316,1,0,0:0:0:0:
399,347,91516,1,0,0:0:0:0:
432,330,91616,1,0,0:0:0:0:
466,313,91716,1,0,0:0:0:0:
320,290,91916,1,0,0:0:0:0:
226,348,92116,6,0,P|147:340|92:287,1,150
74,190,92416,1,0,0:0:0:0:
74,190,92516,2,0,L|82:88,1,75
160,104,92716,2,0,L|174:10,1,75
256,22,92916,2,0,P|348:18|420:55,1,150
453,101,93216,1,0,0:0:0:0:
453,101,93316,1,0,0:0:0:0:
373,243,93516,1,0,0:0:0:0:
343,142,93716,5,0,0:0:0:0:
481,204,93916,1,0,0:0:0:0:
343,142,94116,1,0,0:0:0:0:
287,338,94316,1,0,0:0:0:0:
287,338,94416,1,0,0:0:0:0:
287,338,94516,2,0,L|284:258,1,75
162,192,94716,1,0,0:0:0:0:
162,192,94816,1,0,0:0:0:0:
162,192,94916,2,0,L|159:112,1,75
72,279,95116,2,0,L|74:353,1,75
41,203,95316,5,0,0:0:0:0:
261,323,95516,1,0,0:0:0:0:
261,323,95616,1,0,0:0:0:0:
261,323,95716,1,0,0:0:0:0:
290,316,95816,1,0,0:0:0:0:
319,311,95916,1,0,0:0:0:0:
349,313,96016,1,0,0:0:0:0:
378,321,96116,1,0,0:0:0:0:
405,334,96216,1,0,0:0:0:0:
428,353,96316,1,0,0:0:0:0:
481,254,96516,2,0,L|476:151,1,75
476,145,96816,1,0,0:0:0:0:
476,145,96916,5,0,0:0:0:0:
365,197,97116,1,0,0:0:0:0:
229,115,97316,1,0,0:0:0:0:
199,113,97416,1,0,0:0:0:0:
169,119,97516,1,0,0:0:0:0:
142,133,97616,1,0,0:0:0:0:
122,155,97716,2,0,P|97:191|85:223,1,75
174,222,97916,1,0,0:0:0:0:
35,138,98116,1,0,0:0:0:0:
10,307,98316,1,0,0:0:0:0:
190,225,98516,5,0,0:0:0:0:
66,205,98716,2,0,L|26:118,1,75
66,171,98916,2,0,L|42:79,1,75
73,139,99116,2,0,L|65:43,1,75
262,122,99316,1,0,0:0:0:0:
262,122,99416,1,0,0:0:0:0:
288,79,99516,1,0,0:0:0:0:
424,298,99716,1,0,0:0:0:0:
424,298,100116,6,0,L|331:313,1,82.5000025177003
212,219,100316,6,0,L|293:232,1,82.5000025177003
182,350,100516,1,0,0:0:0:0:
100,94,100716,1,0,0:0:0:0:
143,70,100816,1,0,0:0:0:0:
192,65,100916,1,0,0:0:0:0:
241,71,101016,1,0,0:0:0:0:
286,89,101116,1,0,0:0:0:0:
416,227,101316,1,0,0:0:0:0:
261,327,101516,1,0,0:0:0:0:
211,323,101616,1,0,0:0:0:0:
161,316,101716,6,0,L|40:293,1,82.5000025177003
266,175,101916,1,0,0:0:0:0:
399,347,102116,1,0,0:0:0:0:
399,347,102216,1,0,0:0:0:0:
489,158,102416,1,0,0:0:0:0:
489,158,102516,1,0,0:0:0:0:
261,263,102716,1,0,0:0:0:0:
100,81,102916,1,0,0:0:0:0:
96,225,103116,1,0,0:0:0:0:
96,225,103216,1,0,0:0:0:0:
96,225,103316,6,0,L|100:317,1,82.5000025177003
252,158,103516,2,0,L|161:160,1,82.5000025177003
247,281,103716,1,0,0:0:0:0:
354,86,103916,1,0,0:0:0:0:
393,96,104016,1,0,0:0:0:0:
432,107,104116,1,0,0:0:0:0:
472,116,104216,1,0,0:0:0:0:
511,126,104316,1,0,0:0:0:0:
394,254,104516,1,0,0:0:0:0:
283,180,104716,1,0,0:0:0:0:
244,190,104816,1,0,0:0:0:0:
205,201,104916,6,0,L|124:224,1,82.5000025177003
189,292,105116,1,0,0:0:0:0:
129,113,105316,1,0,0:0:0:0:
115,73,105416,1,0,0:0:0:0:
269,59,105616,1,0,0:0:0:0:
284,20,105716,1,0,0:0:0:0:
419,207,105916,1,0,0:0:0:0:
223,345,106116,1,0,0:0:0:0:
153,190,106316,1,0,0:0:0:0:
153,190,106416,1,0,0:0:0:0:
153,190,106516,6,0,L|66:217,1,82.5000025177003
98,123,106716,2,0,L|118:34,1,82.5000025177003
187,115,106916,2,0,L|253:176,1,82.5000025177003
318,115,107116,1,0,0:0:0:0:
357,103,107216,1,0,0:0:0:0:
398,107,107316,1,0,0:0:0:0:
435,125,107416,1,0,0:0:0:0:
462,155,107516,1,0,0:0:0:0:
349,294,107716,1,0,0:0:0:0:
376,163,107916,2,0,L|399:75,1,82.5000025177003
357,103,108116,6,0,L|332:15,1,82.5000025177003
311,61,108316,2,0,L|246:-2,1,82.5000025177003
181,127,108516,1,0,0:0:0:0:
142,141,108616,1,0,0:0:0:0:
218,284,108816,1,0,0:0:0:0:
178,273,108916,1,0,0:0:0:0:
319,224,109116,1,0,0:0:0:0:
442,353,109316,1,0,0:0:0:0:
496,205,109516,1,0,0:0:0:0:
496,205,109616,1,0,0:0:0:0:
496,205,109716,6,0,L|482:104,1,82.5000025177003
335,122,109916,2,0,L|349:20,1,82.5000025177003
407,272,110116,2,0,L|398:167,1,82.5000025177003
421,76,110316,1,0,0:0:0:0:
266,54,110516,1,0,0:0:0:0:
225,50,110616,1,0,0:0:0:0:
184,55,110716,1,0,0:0:0:0:
145,68,110816,1,0,0:0:0:0:
110,90,110916,1,0,0:0:0:0:
136,226,111116,2,0,L|122:317,2,82.5000025177003
47,203,111516,5,0,0:0:0:0:
211,167,111716,1,0,0:0:0:0:
251,159,111816,1,0,0:0:0:0:
292,164,111916,1,0,0:0:0:0:
330,180,112016,1,0,0:0:0:0:
361,206,112116,1,0,0:0:0:0:
263,290,112316,1,0,0:0:0:0:
126,111,112516,1,0,0:0:0:0:
192,62,112616,1,0,0:0:0:0:
271,41,112716,1,0,0:0:0:0:
353,51,112816,1,0,0:0:0:0:
425,90,112916,5,0,0:0:0:0:
231,199,113116,1,0,0:0:0:0:
301,115,113316,1,0,0:0:0:0:
361,219,113516,1,0,0:0:0:0:
365,251,113616,1,0,0:0:0:0:
371,283,113716,1,0,0:0:0:0:
236,304,113916,1,0,0:0:0:0:
469,203,114116,1,0,0:0:0:0:
231,199,114316,1,0,0:0:0:0:
381,73,114516,5,0,0:0:0:0:
361,280,114716,1,0,0:0:0:0:
171,123,114916,1,0,0:0:0:0:
171,123,115016,1,0,0:0:0:0:
342,173,115216,1,0,0:0:0:0:
342,173,115316,1,0,0:0:0:0:
215,278,115516,1,0,0:0:0:0:
343,75,115716,2,0,P|433:101|481:169,1,165.000005035401
444,274,116016,1,0,0:0:0:0:
444,274,116116,6,0,L|373:323,1,82.5000025177003
300,258,116316,2,0,L|211:241,1,82.5000025177003
166,322,116516,1,0,0:0:0:0:
246,146,116716,1,0,0:0:0:0:
285,133,116816,1,0,0:0:0:0:
326,132,116916,1,0,0:0:0:0:
366,142,117016,1,0,0:0:0:0:
401,163,117116,1,0,0:0:0:0:
275,230,117316,1,0,0:0:0:0:
154,78,117516,1,0,0:0:0:0:
358,55,117716,6,0,L|448:37,1,82.5000025177003
401,163,117916,2,0,L|407:251,1,82.5000025177003
371,343,118116,2,0,L|461:325,1,82.5000025177003
90,263,118416,1,0,0:0:0:0:
87,244,118516,1,0,0:0:0:0:
273,112,118716,1,0,0:0:0:0:
436,256,118916,1,0,0:0:0:0:
238,210,119116,1,0,0:0:0:0:
199,195,119216,1,0,0:0:0:0:
175,160,119316,5,0,0:0:0:0:
415,69,119516,1,0,0:0:0:0:
454,84,119616,1,0,0:0:0:0:
478,119,119716,1,0,0:0:0:0:
250,343,119916,1,0,0:0:0:0:
209,336,120016,1,0,0:0:0:0:
172,318,120116,1,0,0:0:0:0:
142,290,120216,1,0,0:0:0:0:
121,254,120316,1,0,0:0:0:0:
252,112,120516,1,0,0:0:0:0:
227,238,120716,1,0,0:0:0:0:
391,198,120916,5,0,0:0:0:0:
107,131,121116,1,0,0:0:0:0:
147,278,121316,1,0,0:0:0:0:
149,310,121416,1,0,0:0:0:0:
271,340,121616,1,0,0:0:0:0:
267,372,121716,1,0,0:0:0:0:
375,152,121916,1,0,0:0:0:0:
415,303,122116,1,0,0:0:0:0:
227,213,122316,1,0,0:0:0:0:
231,180,122416,1,0,0:0:0:0:
236,147,122516,6,0,L|249:61,1,82.5000025177003
114,186,122716,1,0,0:0:0:0:
287,297,122916,1,0,0:0:0:0:
421,149,123116,1,0,0:0:0:0:
263,36,123316,1,0,0:0:0:0:
222,28,123416,1,0,0:0:0:0:
181,30,123516,1,0,0:0:0:0:
141,42,123616,1,0,0:0:0:0:
106,62,123716,1,0,0:0:0:0:
158,235,123916,1,0,0:0:0:0:
319,174,124116,5,0,0:0:0:0:
176,277,124316,1,0,0:0:0:0:
319,174,124516,2,0,L|336:258,1,82.5000025177003
305,262,124716,2,0,L|288:346,1,82.5000025177003
239,215,124916,2,0,L|222:131,1,82.5000025177003
278,87,125116,2,0,L|295:3,1,82.5000025177003
401,137,125316,1,0,0:0:0:0:
403,178,125416,1,0,0:0:0:0:
406,219,125516,1,0,0:0:0:0:
409,260,125616,1,0,0:0:0:0:
412,301,125716,6,0,L|320:304,2,82.5000025177003
112,64,126316,1,0,0:0:0:0:
112,64,126416,1,0,0:0:0:0:
112,64,126516,1,0,0:0:0:0:
188,80,126716,1,0,0:0:0:0:
272,96,126916,2,0,L|80:64,1,165.000005035401
416,64,127316,5,0,0:0:0:0:
416,64,127416,1,0,0:0:0:0:
416,64,127516,1,0,0:0:0:0:
112,304,127916,1,0,0:0:0:0:
112,304,128016,1,0,0:0:0:0:
112,304,128116,1,0,0:0:0:0:
192,276,128316,1,0,0:0:0:0:
272,256,128516,2,0,L|80:304,1,165.000005035401
448,192,128916,5,0,0:0:0:0:
416,192,129016,1,0,0:0:0:0:
384,192,129116,1,0,0:0:0:0:
144,192,129516,1,0,0:0:0:0:
112,192,129616,1,0,0:0:0:0:
80,192,129716,1,0,0:0:0:0:
124,116,129916,1,0,0:0:0:0:
160,48,130116,2,0,L|80:192,1,165.000005035401
240,48,130516,5,0,0:0:0:0:
288,48,130616,1,0,0:0:0:0:
336,48,130716,1,0,0:0:0:0:
400,64,130916,2,0,P|336:224|304:224,1,165.000005035401
224,160,131316,2,0,L|288:224,2,82.5000025177003
64,208,131716,2,0,P|192:320|240:320,1,165.000005035401
64,112,132116,5,0,0:0:0:0:
96,168,132216,1,0,0:0:0:0:
80,232,132316,1,0,0:0:0:0:
384,48,132716,1,0,0:0:0:0:
356,108,132816,1,0,0:0:0:0:
376,172,132916,1,0,0:0:0:0:
432,256,133116,1,0,0:0:0:0:
352,320,133316,2,0,P|256:208|240:208,1,165.000005035401
416,304,133716,5,0,0:0:0:0:
352,320,133816,1,0,0:0:0:0:
288,300,133916,1,0,0:0:0:0:
64,80,134316,1,0,0:0:0:0:
128,64,134416,1,0,0:0:0:0:
192,80,134516,1,0,0:0:0:0:
48,176,134716,1,0,0:0:0:0:
288,144,134916,2,0,P|112:176|96:192,1,165.000005035401
400,64,135316,5,0,0:0:0:0:
368,124,135416,1,0,0:0:0:0:
404,180,135516,1,0,0:0:0:0:
176,160,135916,1,0,0:0:0:0:
136,108,136016,1,0,0:0:0:0:
168,52,136116,1,0,0:0:0:0:
308,52,136316,1,0,0:0:0:0:
184,161,136516,2,0,L|328:33,1,165.000005035401
368,112,136916,5,0,0:0:0:0:
368,176,137016,1,0,0:0:0:0:
328,228,137116,1,0,0:0:0:0:
400,320,137316,2,0,P|352:240|400:224,1,165.000005035401
112,48,137716,2,0,P|160:144|112:160,1,165.000005035401
224,160,138116,2,0,B|320:272,2,82.5000025177003
72,60,138516,5,0,0:0:0:0:
52,124,138616,1,0,0:0:0:0:
80,184,138716,2,0,P|132:256|192:264,1,82.5000025177003
320,320,138916,2,0,P|256:256|224:256,1,82.5000025177003
448,272,139116,1,0,0:0:0:0:
400,224,139216,1,0,0:0:0:0:
352,176,139316,1,0,0:0:0:0:
352,336,139516,1,0,0:0:0:0:
448,144,139716,2,0,L|352:336,1,165.000005035401
60,176,140116,5,0,0:0:0:0:
96,120,140216,1,0,0:0:0:0:
152,84,140316,2,0,P|216:20|200:-28,1,82.5000025177003
208,160,140516,2,0,P|272:80|272:48,1,82.5000025177003
288,240,140716,1,0,0:0:0:0:
284,176,140816,1,0,0:0:0:0:
320,120,140916,1,0,0:0:0:0:
448,48,141116,1,0,0:0:0:0:
432,256,141316,2,0,P|432:80|448:48,1,165.000005035401
288,224,141716,5,0,0:0:0:0:
268,288,141816,1,0,0:0:0:0:
288,352,141916,2,0,P|368:304|368:272,1,82.5000025177003
416,144,142116,2,0,P|384:224|400:272,1,82.5000025177003
176,48,142316,1,0,0:0:0:0:
156,112,142416,1,0,0:0:0:0:
184,172,142516,1,0,0:0:0:0:
64,48,142716,1,0,0:0:0:0:
64,224,142916,2,0,P|64:48|48:16,1,165.000005035401
128,256,143316,5,0,0:0:0:0:
156,188,143416,1,0,0:0:0:0:
184,120,143516,2,0,L|136:248,1,82.5000025177003
256,112,143716,2,0,L|288:16,1,82.5000025177003
368,168,143916,1,0,0:0:0:0:
332,232,144016,1,0,0:0:0:0:
296,296,144116,1,0,0:0:0:0:
416,64,144316,1,0,0:0:0:0:
288,160,144516,2,0,P|416:64|448:64,1,165.000005035401
408,304,144916,5,0,0:0:0:0:
360,248,145016,1,0,0:0:0:0:
312,192,145116,2,0,L|376:272,1,82.5000025177003
224,96,145316,2,0,L|160:16,1,82.5000025177003
68,72,145516,1,0,0:0:0:0:
112,132,145616,1,0,0:0:0:0:
160,188,145716,1,0,0:0:0:0:
64,224,145916,1,0,0:0:0:0:
128,336,146116,2,0,P|64:224|32:240,1,165.000005035401
64,112,146516,5,0,0:0:0:0:
124,84,146616,1,0,0:0:0:0:
180,120,146716,2,0,P|84:152|68:136,1,82.5000025177003
192,304,146916,2,0,P|272:240|320:256,1,82.5000025177003
432,256,147116,1,0,0:0:0:0:
368,276,147216,1,0,0:0:0:0:
304,256,147316,1,0,0:0:0:0:
464,144,147516,1,0,0:0:0:0:
336,80,147716,2,0,P|464:144|464:160,1,165.000005035401
144,96,148116,5,0,0:0:0:0:
116,156,148216,1,0,0:0:0:0:
104,220,148316,2,0,P|184:284|200:204,1,165.000005035401
400,48,148716,1,0,0:0:0:0:
400,64,148816,1,0,0:0:0:0:
400,80,148916,1,0,0:0:0:0:
400,96,149016,1,0,0:0:0:0:
400,112,149116,1,0,0:0:0:0:
400,128,149216,1,0,0:0:0:0:
400,144,149316,1,0,0:0:0:0:
400,160,149416,1,0,0:0:0:0:
400,176,149516,1,0,0:0:0:0:
256,192,149716,12,0,150416,0:0:0:0:
256,192,150516,12,0,151316,0:0:0:0:
405,111,152116,6,0,P|319:104|257:127,1,150
249,224,152916,2,0,P|163:231|101:208,1,150
229,122,153716,5,0,0:0:0:0:
357,208,154116,2,0,L|350:360,1,150
205,288,154916,1,0,0:0:0:0:
229,122,155316,6,0,P|315:126|383:170,1,150
338,311,156116,2,0,P|252:307|184:263,1,150
291,80,156916,6,0,L|448:98,1,150
254,155,157716,2,0,L|97:173,1,150
162,253,158516,5,0,0:0:0:0:
95,332,158916,1,0,0:0:0:0:
264,299,159316,2,0,L|427:317,1,150
317,209,160116,6,0,L|466:192,1,150
346,118,160916,2,0,P|261:132|221:206,1,150
314,200,161716,6,0,L|304:351,1,150
223,109,162516,2,0,L|233:260,1,150
143,10,163316,6,0,L|133:161,1,150
259,99,164116,2,0,P|351:95|416:124,1,150
314,208,164916,5,0,0:0:0:0:
259,99,165316,1,0,0:0:0:0:
403,115,165716,2,0,L|392:271,1,150
290,201,166516,5,0,0:0:0:0:
194,273,166916,1,0,0:0:0:0:
73,200,167316,2,0,L|83:349,1,150
219,111,168116,6,0,L|208:260,1,150
353,10,168916,2,0,L|363:159,1,150
171,234,169716,5,0,0:0:0:0:
181,85,170116,1,0,0:0:0:0:
326,157,170516,2,0,L|475:145,1,150
254,73,171316,5,0,0:0:0:0:
349,281,171716,1,0,0:0:0:0:
152,107,172116,2,0,L|-18:124,1,150
293,204,172916,5,0,0:0:0:0:
144,190,173316,1,0,0:0:0:0:
313,98,173716,6,0,P|370:101|413:120,1,75
455,154,174116,1,0,0:0:0:0:
372,357,174516,6,0,P|315:354|272:335,1,75
230,301,174916,1,0,0:0:0:0:
170,117,175316,6,0,L|86:129,1,75
125,196,175716,2,0,L|114:245,2,37.5
362,197,176116,6,0,L|265:183,1,97.4999955368044
296,46,176516,2,0,L|310:116,2,56.2500021457673
480,44,176916,1,0,0:0:0:0:
452,44,177016,1,0,0:0:0:0:
424,44,177116,1,0,0:0:0:0:
396,44,177216,1,0,0:0:0:0:
368,48,177316,1,0,0:0:0:0:
336,48,177416,1,0,0:0:0:0:
308,48,177516,1,0,0:0:0:0:
280,48,177616,1,0,0:0:0:0:
252,48,177716,1,0,0:0:0:0:
224,48,177816,1,0,0:0:0:0:
196,48,177916,1,0,0:0:0:0:
168,48,178016,1,0,0:0:0:0:
140,48,178116,1,0,0:0:0:0:
112,48,178216,1,0,0:0:0:0:
84,48,178316,1,0,0:0:0:0:
56,56,178416,1,0,0:0:0:0:
36,80,178516,5,0,0:0:0:0:
40,108,178616,1,0,0:0:0:0:
56,132,178716,1,0,0:0:0:0:
84,144,178816,1,0,0:0:0:0:
112,148,178916,1,0,0:0:0:0:
140,148,179016,1,0,0:0:0:0:
168,148,179116,1,0,0:0:0:0:
196,156,179216,1,0,0:0:0:0:
220,176,179316,1,0,0:0:0:0:
208,204,179416,1,0,0:0:0:0:
180,220,179516,1,0,0:0:0:0:
152,224,179616,1,0,0:0:0:0:
120,224,179716,1,0,0:0:0:0:
92,224,179816,1,0,0:0:0:0:
64,236,179916,1,0,0:0:0:0:
48,260,180016,1,0,0:0:0:0:
52,288,180116,5,0,0:0:0:0:
72,312,180216,1,0,0:0:0:0:
100,320,180316,1,0,0:0:0:0:
128,320,180416,1,0,0:0:0:0:
156,320,180516,1,0,0:0:0:0:
184,320,180616,1,0,0:0:0:0:
212,320,180716,1,0,0:0:0:0:
240,320,180816,1,0,0:0:0:0:
268,320,180916,1,0,0:0:0:0:
296,320,181016,1,0,0:0:0:0:
324,320,181116,1,0,0:0:0:0:
352,312,181216,1,0,0:0:0:0:
380,300,181316,1,0,0:0:0:0:
404,284,181416,1,0,0:0:0:0:
424,260,181516,1,0,0:0:0:0:
432,232,181616,1,0,0:0:0:0:
416,208,181716,5,0,0:0:0:0:
396,188,181816,1,0,0:0:0:0:
372,168,181916,1,0,0:0:0:0:
364,140,182016,1,0,0:0:0:0:
380,112,182116,1,0,0:0:0:0:
404,96,182216,1,0,0:0:0:0:
432,84,182316,1,0,0:0:0:0:
456,68,182416,1,0,0:0:0:0:
464,40,182516,1,0,0:0:0:0:
436,28,182616,1,0,0:0:0:0:
408,28,182716,1,0,0:0:0:0:
376,28,182816,1,0,0:0:0:0:
348,28,182916,1,0,0:0:0:0:
320,28,183016,1,0,0:0:0:0:
292,28,183116,1,0,0:0:0:0:
264,28,183216,1,0,0:0:0:0:
236,28,183316,5,0,0:0:0:0:
200,28,183416,1,0,0:0:0:0:
164,28,183516,1,0,0:0:0:0:
128,28,183616,1,0,0:0:0:0:
92,36,183716,1,0,0:0:0:0:
64,60,183816,1,0,0:0:0:0:
52,96,183916,1,0,0:0:0:0:
64,132,184016,1,0,0:0:0:0:
96,148,184116,1,0,0:0:0:0:
128,136,184216,1,0,0:0:0:0:
160,120,184316,1,0,0:0:0:0:
192,132,184416,1,0,0:0:0:0:
220,152,184516,1,0,0:0:0:0:
252,168,184616,1,0,0:0:0:0:
284,148,184716,1,0,0:0:0:0:
312,128,184816,1,0,0:0:0:0:
344,108,184916,5,0,0:0:0:0:
380,120,185016,1,0,0:0:0:0:
404,148,185116,1,0,0:0:0:0:
416,180,185216,1,0,0:0:0:0:
412,216,185316,1,0,0:0:0:0:
388,240,185416,1,0,0:0:0:0:
352,252,185516,1,0,0:0:0:0:
304,256,185616,1,0,0:0:0:0:
268,256,185716,1,0,0:0:0:0:
232,260,185816,1,0,0:0:0:0:
196,268,185916,1,0,0:0:0:0:
164,280,186016,1,0,0:0:0:0:
136,256,186116,1,0,0:0:0:0:
128,220,186216,1,0,0:0:0:0:
108,188,186316,1,0,0:0:0:0:
72,184,186416,1,0,0:0:0:0:
44,204,186516,5,0,0:0:0:0:
36,244,186616,1,0,0:0:0:0:
60,280,186716,1,0,0:0:0:0:
96,300,186816,1,0,0:0:0:0:
136,308,186916,1,0,0:0:0:0:
176,308,187016,1,0,0:0:0:0:
216,300,187116,1,0,0:0:0:0:
244,272,187216,1,0,0:0:0:0:
236,232,187316,1,0,0:0:0:0:
204,208,187416,1,0,0:0:0:0:
176,176,187516,1,0,0:0:0:0:
156,140,187616,1,0,0:0:0:0:
184,108,187716,1,0,0:0:0:0:
224,100,187816,1,0,0:0:0:0:
264,88,187916,1,0,0:0:0:0:
296,64,188016,1,0,0:0:0:0:
268,32,188116,5,0,0:0:0:0:
228,32,188216,1,0,0:0:0:0:
188,40,188316,1,0,0:0:0:0:
152,64,188416,1,0,0:0:0:0:
124,96,188516,1,0,0:0:0:0:
112,136,188616,1,0,0:0:0:0:
120,176,188716,1,0,0:0:0:0:
108,216,188816,1,0,0:0:0:0:
72,240,188916,1,0,0:0:0:0:
48,272,189016,1,0,0:0:0:0:
40,312,189116,1,0,0:0:0:0:
68,344,189216,1,0,0:0:0:0:
108,344,189316,1,0,0:0:0:0:
148,340,189416,1,0,0:0:0:0:
188,336,189516,1,0,0:0:0:0:
228,324,189616,1,0,0:0:0:0:
268,300,189716,5,0,0:0:0:0:
304,272,189816,1,0,0:0:0:0:
336,240,189916,1,0,0:0:0:0:
356,196,190016,1,0,0:0:0:0:
400,184,190116,1,0,0:0:0:0:
448,184,190216,1,0,0:0:0:0:
476,148,190316,1,0,0:0:0:0:
472,100,190416,1,0,0:0:0:0:
460,56,190516,1,0,0:0:0:0:
416,36,190616,1,0,0:0:0:0:
368,28,190716,1,0,0:0:0:0:
320,28,190816,1,0,0:0:0:0:
276,48,190916,1,0,0:0:0:0:
248,84,191016,1,0,0:0:0:0:
236,128,191116,1,0,0:0:0:0:
252,172,191216,1,0,0:0:0:0:
292,200,191316,5,0,0:0:0:0:
340,200,191416,1,0,0:0:0:0:
384,180,191516,1,0,0:0:0:0:
432,188,191616,1,0,0:0:0:0:
464,224,191716,1,0,0:0:0:0:
480,268,191816,1,0,0:0:0:0:
464,312,191916,1,0,0:0:0:0:
420,328,192016,1,0,0:0:0:0:
372,324,192116,1,0,0:0:0:0:
328,312,192216,1,0,0:0:0:0:
284,284,192316,1,0,0:0:0:0:
256,244,192416,1,0,0:0:0:0:
252,196,192516,1,0,0:0:0:0:
260,148,192616,1,0,0:0:0:0:
296,116,192716,1,0,0:0:0:0:
344,116,192816,1,0,0:0:0:0:
380,144,192916,5,0,0:0:0:0:
380,192,193016,1,0,0:0:0:0:
348,228,193116,1,0,0:0:0:0:
304,244,193216,1,0,0:0:0:0:
260,260,193316,1,0,0:0:0:0:
232,296,193416,1,0,0:0:0:0:
252,340,193516,1,0,0:0:0:0:
300,352,193616,1,0,0:0:0:0:
348,344,193716,1,0,0:0:0:0:
388,320,193816,1,0,0:0:0:0:
420,284,193916,1,0,0:0:0:0:
432,240,194016,1,0,0:0:0:0:
436,192,194116,1,0,0:0:0:0:
428,144,194216,1,0,0:0:0:0:
412,100,194316,1,0,0:0:0:0:
376,72,194416,1,0,0:0:0:0:
332,52,194516,5,0,0:0:0:0:
284,44,194616,1,0,0:0:0:0:
236,44,194716,1,0,0:0:0:0:
188,52,194816,1,0,0:0:0:0:
148,80,194916,1,0,0:0:0:0:
124,120,195016,1,0,0:0:0:0:
116,168,195116,1,0,0:0:0:0:
124,216,195216,1,0,0:0:0:0:
144,260,195316,1,0,0:0:0:0:
188,244,195416,1,0,0:0:0:0:
220,208,195516,1,0,0:0:0:0:
248,168,195616,1,0,0:0:0:0:
276,128,195716,1,0,0:0:0:0:
300,88,195816,1,0,0:0:0:0:
316,44,195916,1,0,0:0:0:0:
360,60,196016,1,0,0:0:0:0:
396,88,196116,5,0,0:0:0:0:
416,132,196216,1,0,0:0:0:0:
432,176,196316,1,0,0:0:0:0:
428,224,196416,1,0,0:0:0:0:
416,268,196516,1,0,0:0:0:0:
388,304,196616,1,0,0:0:0:0:
344,316,196716,1,0,0:0:0:0:
296,316,196816,1,0,0:0:0:0:
248,316,196916,1,0,0:0:0:0:
208,292,197016,1,0,0:0:0:0:
172,264,197116,1,0,0:0:0:0:
140,228,197216,1,0,0:0:0:0:
108,192,197316,1,0,0:0:0:0:
76,156,197416,1,0,0:0:0:0:
44,124,197516,1,0,0:0:0:0:
56,80,197616,1,0,0:0:0:0:
96,44,197716,5,0,0:0:0:0:
136,80,197816,1,0,0:0:0:0:
176,112,197916,1,0,0:0:0:0:
228,124,198016,1,0,0:0:0:0:
280,128,198116,1,0,0:0:0:0:
312,168,198216,1,0,0:0:0:0:
268,196,198316,1,0,0:0:0:0:
220,216,198416,1,0,0:0:0:0:
200,264,198516,1,0,0:0:0:0:
248,284,198616,1,0,0:0:0:0:
300,284,198716,1,0,0:0:0:0:
344,312,198816,1,0,0:0:0:0:
304,344,198916,1,0,0:0:0:0:
252,344,199016,1,0,0:0:0:0:
200,344,199116,1,0,0:0:0:0:
148,344,199216,1,0,0:0:0:0:
148,344,199316,6,0,P|143:264|130:251,1,75
80,220,199716,1,0,0:0:0:0:
52,168,199816,1,0,0:0:0:0:
160,124,200016,1,0,0:0:0:0:
188,72,200116,1,0,0:0:0:0:
256,192,200316,1,0,0:0:0:0:
256,192,200416,1,0,0:0:0:0:
256,192,200516,2,0,L|256:304,2,75
416,32,200916,2,0,B|-176:32|-176:192|688:192|688:352|16:336,2,1200
362,104,204316,5,0,0:0:0:0:
232,66,204516,2,0,L|162:78,3,56.2500021457673
93,105,204916,1,0,0:0:0:0:
59,109,205016,1,0,0:0:0:0:
125,197,205216,1,0,0:0:0:0:
91,201,205316,1,0,0:0:0:0:
218,148,205516,1,0,0:0:0:0:
146,319,205716,5,0,0:0:0:0:
285,261,205916,1,0,0:0:0:0:
285,261,206116,2,0,L|367:271,2,56.2500021457673
428,256,206416,1,0,0:0:0:0:
461,261,206516,1,0,0:0:0:0:
385,158,206716,1,0,0:0:0:0:
340,358,206916,1,0,0:0:0:0:
276,184,207116,1,0,0:0:0:0:
242,189,207216,1,0,0:0:0:0:
208,194,207316,5,0,0:0:0:0:
274,293,207516,1,0,0:0:0:0:
213,93,207716,2,0,L|305:77,3,56.2500021457673
361,54,208116,1,0,0:0:0:0:
394,59,208216,1,0,0:0:0:0:
363,198,208416,1,0,0:0:0:0:
330,193,208516,1,0,0:0:0:0:
239,89,208716,1,0,0:0:0:0:
252,292,208916,5,0,0:0:0:0:
328,46,209116,1,0,0:0:0:0:
218,164,209316,2,0,L|147:148,2,56.2500021457673
287,225,209616,1,0,0:0:0:0:
320,219,209716,1,0,0:0:0:0:
243,87,209916,1,0,0:0:0:0:
193,307,210116,1,0,0:0:0:0:
110,67,210316,1,0,0:0:0:0:
77,76,210416,1,0,0:0:0:0:
44,85,210516,5,0,0:0:0:0:
250,166,210716,1,0,0:0:0:0:
229,17,210916,1,0,0:0:0:0:
229,17,211116,1,0,0:0:0:0:
262,22,211216,1,0,0:0:0:0:
295,28,211316,1,0,0:0:0:0:
328,34,211416,1,0,0:0:0:0:
365,125,211616,1,0,0:0:0:0:
332,131,211716,1,0,0:0:0:0:
432,49,211916,1,0,0:0:0:0:
388,264,212116,5,0,0:0:0:0:
388,264,212316,1,0,0:0:0:0:
276,226,212516,1,0,0:0:0:0:
242,232,212616,1,0,0:0:0:0:
142,265,212816,1,0,0:0:0:0:
108,259,212916,1,0,0:0:0:0:
75,251,213016,1,0,0:0:0:0:
41,244,213116,1,0,0:0:0:0:
122,168,213316,1,0,0:0:0:0:
75,350,213516,1,0,0:0:0:0:
75,350,213616,1,0,0:0:0:0:
75,350,213716,5,0,0:0:0:0:
221,149,213916,1,0,0:0:0:0:
52,91,214116,1,0,0:0:0:0:
52,91,214316,1,0,0:0:0:0:
85,86,214416,1,0,0:0:0:0:
118,82,214516,1,0,0:0:0:0:
151,77,214616,1,0,0:0:0:0:
198,239,214816,1,0,0:0:0:0:
165,248,214916,1,0,0:0:0:0:
290,129,215116,1,0,0:0:0:0:
406,274,215316,5,0,0:0:0:0:
118,82,215516,1,0,0:0:0:0:
118,82,215716,1,0,0:0:0:0:
359,149,215916,1,0,0:0:0:0:
144,218,216116,1,0,0:0:0:0:
254,65,216316,1,0,0:0:0:0:
255,158,216516,6,0,L|255:328,1,150
255,308,216916,5,0,0:0:0:0:
103,147,217116,1,0,0:0:0:0:
68,266,217316,1,0,0:0:0:0:
246,138,217516,1,0,0:0:0:0:
283,132,217616,1,0,0:0:0:0:
320,135,217716,1,0,0:0:0:0:
356,146,217816,1,0,0:0:0:0:
388,165,217916,1,0,0:0:0:0:
416,190,218016,1,0,0:0:0:0:
438,220,218116,1,0,0:0:0:0:
388,352,218316,1,0,0:0:0:0:
319,220,218516,5,0,0:0:0:0:
215,308,218716,1,0,0:0:0:0:
161,199,218916,1,0,0:0:0:0:
117,209,219016,1,0,0:0:0:0:
206,92,219216,1,0,0:0:0:0:
163,78,219316,1,0,0:0:0:0:
254,209,219516,1,0,0:0:0:0:
316,30,219716,1,0,0:0:0:0:
316,30,219916,2,0,L|384:19,2,56.2500021457673
440,209,220316,5,0,0:0:0:0:
263,136,220516,1,0,0:0:0:0:
464,122,220716,1,0,0:0:0:0:
484,140,220816,1,0,0:0:0:0:
501,163,220916,1,0,0:0:0:0:
511,189,221016,1,0,0:0:0:0:
512,217,221116,1,0,0:0:0:0:
512,245,221216,1,0,0:0:0:0:
502,271,221316,1,0,0:0:0:0:
345,195,221516,5,0,0:0:0:0:
408,362,221716,1,0,0:0:0:0:
215,273,221916,1,0,0:0:0:0:
98,332,222116,1,0,0:0:0:0:
64,326,222216,1,0,0:0:0:0:
64,168,222416,1,0,0:0:0:0:
97,165,222516,1,0,0:0:0:0:
215,273,222716,1,0,0:0:0:0:
73,246,222916,1,0,0:0:0:0:
224,157,223116,2,0,L|285:147,2,56.2500021457673
185,72,223516,5,0,0:0:0:0:
266,263,223716,1,0,0:0:0:0:
393,181,223916,1,0,0:0:0:0:
395,153,224016,1,0,0:0:0:0:
396,125,224116,1,0,0:0:0:0:
398,97,224216,1,0,0:0:0:0:
399,69,224316,1,0,0:0:0:0:
400,41,224416,1,0,0:0:0:0:
402,13,224516,1,0,0:0:0:0:
472,116,224716,1,0,0:0:0:0:
308,65,224916,5,0,0:0:0:0:
187,119,225116,1,0,0:0:0:0:
77,63,225316,1,0,0:0:0:0:
82,29,225416,1,0,0:0:0:0:
53,209,225616,1,0,0:0:0:0:
58,175,225716,1,0,0:0:0:0:
38,340,225916,1,0,0:0:0:0:
191,262,226116,1,0,0:0:0:0:
288,349,226316,1,0,0:0:0:0:
321,344,226416,1,0,0:0:0:0:
354,339,226516,5,0,0:0:0:0:
234,196,226716,1,0,0:0:0:0:
94,244,226916,1,0,0:0:0:0:
311,124,227116,1,0,0:0:0:0:
338,130,227216,1,0,0:0:0:0:
365,136,227316,1,0,0:0:0:0:
393,142,227416,1,0,0:0:0:0:
420,148,227516,1,0,0:0:0:0:
448,155,227616,1,0,0:0:0:0:
475,161,227716,1,0,0:0:0:0:
446,64,227916,1,0,0:0:0:0:
357,248,228116,5,0,0:0:0:0:
159,152,228316,1,0,0:0:0:0:
286,146,228516,1,0,0:0:0:0:
271,176,228616,1,0,0:0:0:0:
112,265,228816,1,0,0:0:0:0:
81,250,228916,1,0,0:0:0:0:
149,72,229116,1,0,0:0:0:0:
273,331,229316,1,0,0:0:0:0:
273,331,229416,1,0,0:0:0:0:
273,331,229516,1,0,0:0:0:0:
273,331,229616,1,0,0:0:0:0:
273,331,229716,5,0,0:0:0:0:
247,34,229916,1,0,0:0:0:0:
155,289,230116,1,0,0:0:0:0:
453,253,230316,1,0,0:0:0:0:
461,216,230416,1,0,0:0:0:0:
462,179,230516,1,0,0:0:0:0:
454,142,230616,1,0,0:0:0:0:
439,108,230716,1,0,0:0:0:0:
416,78,230816,1,0,0:0:0:0:
388,54,230916,1,0,0:0:0:0:
214,48,231116,1,0,0:0:0:0:
117,173,231316,5,0,0:0:0:0:
226,139,231516,1,0,0:0:0:0:
66,98,231716,1,0,0:0:0:0:
33,88,231816,1,0,0:0:0:0:
199,232,232016,1,0,0:0:0:0:
232,222,232116,1,0,0:0:0:0:
185,73,232316,1,0,0:0:0:0:
112,344,232516,1,0,0:0:0:0:
376,260,232716,1,0,0:0:0:0:
409,263,232816,1,0,0:0:0:0:
442,266,232916,5,0,0:0:0:0:
230,153,233116,1,0,0:0:0:0:
39,236,233316,1,0,0:0:0:0:
296,64,233516,1,0,0:0:0:0:
332,72,233616,1,0,0:0:0:0:
368,81,233716,1,0,0:0:0:0:
405,89,233816,1,0,0:0:0:0:
441,98,233916,1,0,0:0:0:0:
478,107,234016,1,0,0:0:0:0:
512,117,234116,1,0,0:0:0:0:
437,269,234316,1,0,0:0:0:0:
451,8,234516,5,0,0:0:0:0:
276,208,234716,1,0,0:0:0:0:
365,63,234916,1,0,0:0:0:0:
358,29,235016,1,0,0:0:0:0:
437,269,235216,1,0,0:0:0:0:
448,301,235316,1,0,0:0:0:0:
262,198,235516,1,0,0:0:0:0:
97,268,235716,1,0,0:0:0:0:
129,101,235916,1,0,0:0:0:0:
161,92,236016,1,0,0:0:0:0:
194,94,236116,5,0,0:0:0:0:
347,176,236316,1,0,0:0:0:0:
200,275,236516,1,0,0:0:0:0:
343,74,236716,1,0,0:0:0:0:
379,82,236816,1,0,0:0:0:0:
411,101,236916,1,0,0:0:0:0:
435,130,237016,1,0,0:0:0:0:
449,165,237116,1,0,0:0:0:0:
451,202,237216,1,0,0:0:0:0:
441,238,237316,1,0,0:0:0:0:
169,162,237516,1,0,0:0:0:0:
362,180,237716,5,0,0:0:0:0:
239,342,237916,1,0,0:0:0:0:
80,228,238116,1,0,0:0:0:0:
76,194,238216,1,0,0:0:0:0:
226,67,238416,1,0,0:0:0:0:
258,74,238516,1,0,0:0:0:0:
412,196,238716,1,0,0:0:0:0:
233,348,238916,1,0,0:0:0:0:
85,170,239116,1,0,0:0:0:0:
94,137,239216,1,0,0:0:0:0:
118,113,239316,1,0,0:0:0:0:
411,155,239516,1,0,0:0:0:0:
296,325,239716,5,0,0:0:0:0:
263,314,239816,1,0,0:0:0:0:
230,322,239916,1,0,0:0:0:0:
196,317,240016,5,0,0:0:0:0:
176,289,240116,1,0,0:0:0:0:
144,285,240216,1,0,0:0:0:0:
123,258,240316,5,0,0:0:0:0:
132,225,240416,1,0,0:0:0:0:
144,193,240516,1,0,0:0:0:0:
132,161,240616,5,0,0:0:0:0:
140,128,240716,1,0,0:0:0:0:
126,97,240816,1,0,0:0:0:0:
142,67,240916,5,0,0:0:0:0:
263,155,241116,1,0,0:0:0:0:
370,79,241316,2,0,L|390:20,3,56.2500021457673
457,165,241716,2,0,L|437:106,3,56.2500021457673
430,236,242116,1,0,0:0:0:0:
387,272,242216,1,0,0:0:0:0:
332,287,242316,1,0,0:0:0:0:
276,278,242416,1,0,0:0:0:0:
234,239,242516,5,0,0:0:0:0:
160,144,242716,1,0,0:0:0:0:
256,144,242916,2,0,L|352:224,2,75
472,224,243316,1,0,0:0:0:0:
428,188,243416,1,0,0:0:0:0:
380,156,243516,1,0,0:0:0:0:
244,304,243716,2,0,L|164:368,2,75
328,136,244116,6,0,L|440:56,1,75
216,76,244316,2,0,L|280:28,1,75
48,144,244516,2,0,L|48:224,2,75
64,352,244916,1,0,0:0:0:0:
256,224,245116,1,0,0:0:0:0:
448,352,245316,2,0,L|448:272,2,75
340,60,245716,5,0,0:0:0:0:
392,60,245816,1,0,0:0:0:0:
444,60,245916,1,0,0:0:0:0:
96,284,246116,2,0,L|32:348,2,75
240,144,246516,1,0,0:0:0:0:
272,184,246616,1,0,0:0:0:0:
244,228,246716,1,0,0:0:0:0:
404,92,246916,2,0,L|468:28,2,75
396,216,247316,2,0,P|452:160|460:112,1,75
264,184,247516,2,0,P|336:120|384:120,1,75
96,340,247716,6,0,L|-8:252,2,75
40,160,248116,1,0,0:0:0:0:
56,112,248216,1,0,0:0:0:0:
96,80,248316,1,0,0:0:0:0:
224,36,248516,2,0,P|336:196|320:244,1,225
460,296,248916,2,0,B|300:368|548:368|492:296,1,150
448,48,249316,2,0,L|448:160,2,75
216,44,249716,1,0,0:0:0:0:
264,68,249816,1,0,0:0:0:0:
296,108,249916,1,0,0:0:0:0:
64,120,250116,2,0,L|64:16,2,75
152,240,250516,2,0,P|88:176|80:136,1,75
104,336,250716,2,0,P|40:272|40:232,1,75
472,316,250916,6,0,P|368:348|352:364,2,75
456,100,251316,5,0,0:0:0:0:
480,148,251416,1,0,0:0:0:0:
456,196,251516,1,0,0:0:0:0:
216,48,251716,2,0,L|328:48,2,75
56,156,252116,2,0,P|120:100|144:100,1,75
48,280,252316,2,0,P|120:224|128:192,1,75
228,344,252516,2,0,L|340:344,2,75
456,168,252916,1,0,0:0:0:0:
440,216,253016,1,0,0:0:0:0:
456,264,253116,1,0,0:0:0:0:
384,328,253316,5,0,0:0:0:0:
384,56,253516,1,0,0:0:0:0:
124,36,253716,2,0,P|44:124|68:156,1,150
476,132,254116,2,0,P|380:36|340:52,1,150
312,328,254516,2,0,P|352:264|336:224,1,75
416,296,254716,2,0,P|488:240|512:232,1,75
36,260,254916,2,0,P|140:340|172:324,1,150
468,340,255316,5,0,0:0:0:0:
312,192,255516,1,0,0:0:0:0:
472,40,255716,2,0,L|344:40,2,97.4999955368044
70,113,256116,1,0,0:0:0:0:
133,87,256216,1,0,0:0:0:0:
184,42,256316,1,0,0:0:0:0:
124,268,256516,2,0,L|14:347,2,97.4999955368044
258,304,256916,2,0,P|357:266|354:229,1,97.4999955368044
339,208,257116,2,0,P|425:154|460:162,1,97.4999955368044
457,337,257316,6,0,L|457:209,2,97.4999955368044
368,44,257716,1,0,0:0:0:0:
424,82,257816,1,0,0:0:0:0:
461,139,257916,1,0,0:0:0:0:
202,191,258116,2,0,L|323:191,2,97.4999955368044
64,328,258516,1,0,0:0:0:0:
131,316,258616,1,0,0:0:0:0:
194,291,258716,1,0,0:0:0:0:
56,138,258916,6,0,L|55:251,2,97.4999955368044
132,37,259316,1,0,0:0:0:0:
162,97,259416,1,0,0:0:0:0:
129,156,259516,1,0,0:0:0:0:
448,57,259716,2,0,L|360:125,2,97.4999955368044
349,256,260116,2,0,P|407:175|386:137,1,97.4999955368044
174,251,260316,2,0,P|257:195|298:202,1,97.4999955368044
39,329,260516,6,0,L|150:329,2,97.4999955368044
355,324,260916,1,0,0:0:0:0:
287,314,261016,1,0,0:0:0:0:
220,327,261116,1,0,0:0:0:0:
481,184,261316,2,0,P|422:266|447:299,2,97.4999955368044
394,343,261716,2,0,L|472:254,1,97.4999955368044
191,247,261916,2,0,L|266:164,1,97.4999955368044
60,46,262116,6,0,L|187:143,2,97.4999955368044
422,129,262516,1,0,0:0:0:0:
367,87,262616,1,0,0:0:0:0:
313,44,262716,1,0,0:0:0:0:
469,342,262916,2,0,L|368:276,2,97.4999955368044
422,129,263316,2,0,L|306:38,1,97.4999955368044
344,265,263516,2,0,L|263:201,1,97.4999955368044
144,42,263716,6,0,L|58:123,2,97.4999955368044
69,332,264116,1,0,0:0:0:0:
63,263,264216,1,0,0:0:0:0:
71,195,264316,1,0,0:0:0:0:
252,308,264516,2,0,P|243:196|266:167,2,97.4999955368044
441,291,264916,2,0,P|469:175|478:151,1,97.4999955368044
347,148,265116,2,0,P|313:34|289:-13,1,97.4999955368044
420,45,265316,6,0,B|454:141|511:42|416:40,2,97.4999955368044
206,73,265716,1,0,0:0:0:0:
263,36,265816,1,0,0:0:0:0:
102,84,266016,1,0,0:0:0:0:
47,45,266116,1,0,0:0:0:0:
151,183,266316,1,0,0:0:0:0:
32,222,266516,2,0,L|112:305,1,97.4999955368044
181,286,266716,2,0,L|100:207,1,97.4999955368044
118,142,266916,2,0,L|199:221,1,97.4999955368044
276,211,267116,2,0,P|195:132|193:130,1,97.4999955368044
233,86,267316,2,0,P|314:169|314:169,1,97.4999955368044
384,154,267516,2,0,L|303:74,1,97.4999955368044
369,35,267716,1,0,0:0:0:0:
418,81,267816,1,0,0:0:0:0:
463,131,267916,1,0,0:0:0:0:
458,235,268116,6,0,L|353:288,1,97.4999955368044
207,259,268316,2,0,L|296:211,1,97.4999955368044
64,224,268516,2,0,L|64:336,2,97.4999955368044
80,128,268916,1,0,0:0:0:0:
95,61,269016,1,0,0:0:0:0:
156,31,269116,1,0,0:0:0:0:
472,104,269316,2,0,L|376:8,2,97.4999955368044
400,256,269716,2,0,L|500:138,1,97.4999955368044
232,296,269916,2,0,L|362:287,1,97.4999955368044
48,320,270116,6,0,L|48:208,2,97.4999955368044
240,320,270516,1,0,0:0:0:0:
172,309,270616,1,0,0:0:0:0:
188,242,270716,1,0,0:0:0:0:
480,280,270916,2,0,L|400:344,2,97.4999955368044
388,124,271316,2,0,L|468:60,1,97.4999955368044
212,96,271516,2,0,L|292:32,1,97.4999955368044
32,32,271716,6,0,B|80:32|80:32|32:96,2,97.4999955368044
80,160,272116,1,0,0:0:0:0:
30,206,272216,1,0,0:0:0:0:
83,247,272316,1,0,0:0:0:0:
262,303,272516,2,0,L|147:360,2,97.4999955368044
384,32,272916,2,0,P|352:128|336:128,1,97.4999955368044
448,144,273116,2,0,P|416:224|400:224,1,97.4999955368044
192,160,273316,6,0,P|272:208|288:256,2,97.4999955368044
448,320,273716,1,0,0:0:0:0:
387,289,273816,1,0,0:0:0:0:
327,322,273916,1,0,0:0:0:0:
146,303,274116,2,0,P|326:254|407:286,1,194.999991073609
96,336,274516,2,0,B|192:304|192:304|24:296|24:296|200:256|200:256|24:232|24:232|208:200|208:200|24:168|24:168|208:144,1,1169.99994644165
368,336,275916,1,0,0:0:0:0:
368,232,276116,2,0,B|464:200|464:200|296:192|296:192|472:152|472:152|296:128|296:128|480:96|480:96|296:64|296:64|480:40,1,1169.99994644165
104,32,277516,1,0,0:0:0:0:
48,104,277716,5,0,0:0:0:0:
84,116,277816,1,0,0:0:0:0:
120,128,277916,1,0,0:0:0:0:
156,144,278016,1,0,0:0:0:0:
120,160,278116,1,0,0:0:0:0:
84,172,278216,1,0,0:0:0:0:
48,184,278316,1,0,0:0:0:0:
84,200,278416,1,0,0:0:0:0:
120,220,278516,1,0,0:0:0:0:
156,236,278616,1,0,0:0:0:0:
120,252,278716,1,0,0:0:0:0:
84,268,278816,1,0,0:0:0:0:
48,280,278916,1,0,0:0:0:0:
84,300,279016,1,0,0:0:0:0:
120,320,279116,1,0,0:0:0:0:
156,340,279216,1,0,0:0:0:0:
196,340,279316,5,0,0:0:0:0:
244,340,279416,1,0,0:0:0:0:
292,340,279516,1,0,0:0:0:0:
340,340,279616,1,0,0:0:0:0:
388,340,279716,1,0,0:0:0:0:
432,324,279816,1,0,0:0:0:0:
464,284,279916,1,0,0:0:0:0:
480,240,280016,1,0,0:0:0:0:
484,192,280116,1,0,0:0:0:0:
484,144,280216,1,0,0:0:0:0:
484,96,280316,1,0,0:0:0:0:
460,52,280416,1,0,0:0:0:0:
416,32,280516,1,0,0:0:0:0:
368,32,280616,1,0,0:0:0:0:
320,32,280716,1,0,0:0:0:0:
272,32,280816,1,0,0:0:0:0:
