osu file format v14

[General]
AudioFilename: audio.ogg
AudioLeadIn: 0
PreviewTime: 50616
Countdown: 0
SampleSet: Soft
StackLeniency: 0.5
Mode: 0
LetterboxInBreaks: 0
WidescreenStoryboard: 1

[Editor]
Bookmarks: 38116,45616
DistanceSpacing: 1.2
BeatDivisor: 4
GridSize: 8
TimelineZoom: 2.1

[Metadata]
Title:Innocent Blue (TV Size)
TitleUnicode:イノセント・ブルー (TV Size)
Artist:DeviceHigh
ArtistUnicode:DeviceHigh
Creator:oplexz
Version:Hard
Source:スクールデイズ
Tags:school days pop japanese j-pop jpop anime op opening
BeatmapID:4318017
BeatmapSetID:2064427

[Difficulty]
HPDrainRate:4
CircleSize:3.8
OverallDifficulty:6
ApproachRate:7.5
SliderMultiplier:1.4
SliderTickRate:1

[Events]
//Background and Video events
0,0,"animebg.jpg",0,0
//Break Periods
2,14662,24406
//Storyboard Layer 0 (Background)
//Storyboard Layer 1 (Fail)
//Storyboard Layer 2 (Pass)
//Storyboard Layer 3 (Foreground)
//Storyboard Layer 4 (Overlay)
//Storyboard Sound Samples

[TimingPoints]
616,384.615384615385,4,2,0,55,1,0
51192,-90.9090909090909,4,2,0,65,0,0
76000,-200,4,2,0,45,0,0

[Colours]
Combo1 : 255,192,0
Combo2 : 0,64,128
Combo3 : 255,128,0
Combo4 : 128,128,255

[HitObjects]
145,154,616,5,4,1:2:0:0:
222,302,1000,1,8,0:0:0:0:
372,226,1385,1,2,1:2:0:0:
312,166,1577,2,0,P|304:131|308:97,1,70,0|0,3:0|3:0,0:0:0:0:
398,18,1962,6,0,L|236:-1,1,140,4|0,1:0|0:0,0:0:0:0:
186,45,2539,1,8,0:0:0:0:
114,9,2731,1,2,3:2:0:0:
114,9,2827,1,0,3:0:0:0:
114,9,2923,2,0,P|76:5|43:9,1,70,0|0,1:0|3:0,3:0:0:0:
10,88,3308,1,8,0:0:0:0:
10,88,3500,1,0,3:0:0:0:
69,147,3692,6,0,P|124:106|192:110,1,140,0|8,1:0|0:0,0:0:0:0:
252,169,4269,1,2,3:0:0:0:
191,229,4462,1,2,1:2:0:0:
191,229,4558,1,0,3:0:0:0:
191,229,4654,1,2,3:0:0:0:
252,286,4846,1,10,0:2:0:0:
316,232,5039,6,0,P|367:257|459:244,1,140,0|0,1:0|3:0,0:0:0:0:
501,184,5616,2,0,L|487:110,1,70,8|0,0:0|0:2,0:0:0:0:
428,55,6000,1,0,1:0:0:0:
428,55,6096,1,0,0:0:0:0:
428,55,6192,1,0,0:0:0:0:
381,124,6385,2,0,L|395:198,1,70,8|0,0:0|0:0,0:0:0:0:
312,279,6769,6,0,P|252:244|183:250,1,140,2|8,1:2|0:0,0:0:0:0:
111,306,7346,2,0,P|145:246|139:177,1,140,2|2,3:2|3:0,0:0:0:0:
89,109,7923,1,8,0:0:0:0:
170,75,8116,1,2,3:2:0:0:
170,75,8211,1,0,3:0:0:0:
170,75,8308,2,0,L|331:98,2,140,4|8|0,1:2|0:0|3:0,0:0:0:0:
97,32,9269,1,2,3:2:0:0:
35,89,9462,2,0,P|31:123|36:158,1,70,8|0,0:0|3:2,0:0:0:0:
114,238,9846,6,0,P|160:189|227:199,1,140,0|8,1:0|0:0,0:0:0:0:
294,266,10423,1,2,3:0:0:0:
294,266,10519,1,0,0:0:0:0:
294,266,10616,2,0,L|286:346,1,70,2|0,0:0|3:0,0:0:0:0:
366,361,11000,2,0,L|374:281,1,70,8|0,0:0|3:0,0:0:0:0:
340,190,11385,6,0,P|280:231|205:219,1,140,0|8,1:0|0:0,0:0:0:0:
156,165,11962,1,2,3:0:0:0:
215,105,12154,1,0,1:0:0:0:
215,105,12250,1,0,3:0:0:0:
215,105,12346,1,2,3:0:0:0:
152,42,12539,6,0,L|71:56,1,70,12|0,0:0|0:0,0:0:0:0:
31,121,12923,1,0,1:0:0:0:
31,121,13116,1,2,3:3:0:0:
90,180,13308,2,0,P|97:213|86:250,1,70,8|0,0:0|3:0,0:0:0:0:
41,327,13692,5,10,1:2:0:0:
41,327,13789,1,0,3:0:0:0:
41,327,13885,1,2,3:0:0:0:
120,353,14077,1,8,0:0:0:0:
193,313,14269,1,2,3:2:0:0:
256,368,14462,5,4,1:0:0:0:
256,192,25231,12,0,26385,0:0:0:0:
191,130,26769,6,0,L|114:138,1,70,4|0,1:0|0:0,0:0:0:0:
55,84,27154,2,0,P|97:26|172:21,1,140,8|0,0:0|0:0,0:0:0:0:
232,61,27731,1,0,3:0:0:0:
309,28,27923,1,8,3:2:0:0:
309,28,28308,2,0,L|386:32,1,70,2|0,1:3|0:0,0:0:0:0:
407,110,28692,2,0,L|337:106,1,70,10|0,3:2|0:0,0:0:0:0:
277,165,29077,2,0,P|296:231|280:299,1,140,2|8,1:3|0:0,0:0:0:0:
280,299,29654,1,2,3:2:0:0:
185,371,29846,6,0,L|35:355,1,140,4|8,1:2|0:0,0:0:0:0:
3,193,30616,2,0,L|17:116,1,70,2|0,1:2|0:0,0:0:0:0:
75,64,31000,1,8,0:0:0:0:
75,64,31192,2,0,P|129:105|198:106,1,140,0|0,1:0|0:0,0:0:0:0:
269,59,31769,6,0,L|350:70,1,70,8|0,0:0|0:0,0:0:0:0:
405,135,32154,1,2,3:2:0:0:
405,135,32250,1,0,3:0:0:0:
405,135,32346,1,2,3:0:0:0:
347,196,32539,1,8,0:0:0:0:
347,196,32731,1,2,3:0:0:0:
397,262,32923,5,4,1:2:0:0:
397,262,33308,6,0,L|473:273,1,70,8|0,0:0|0:0,0:0:0:0:
429,347,33692,2,0,L|353:336,1,70,2|0,1:2|0:0,0:0:0:0:
313,266,34077,1,8,3:2:0:0:
313,266,34462,2,0,P|260:225|169:230,1,140,0|8,1:2|0:0,0:0:0:0:
156,300,35039,2,0,L|121:149,1,140,2|0,3:0|3:3,0:0:0:0:
183,104,35616,1,8,0:0:0:0:
183,104,36000,6,0,L|259:112,1,70,0|0,1:0|0:0,0:0:0:0:
312,51,36385,1,8,0:0:0:0:
312,51,36577,2,0,P|353:92|439:95,1,140,0|0,1:0|0:0,0:0:0:0:
483,181,37154,6,2,L|475:261,1,70,10|0,0:0|0:0,0:1:0:0:
347,123,37539,6,2,L|356:276,1,140,2|8,1:2|0:0,0:1:0:0:
223,193,38116,5,2,1:2:0:0:
223,193,38212,1,0,3:0:0:0:
223,193,38308,2,0,L|215:273,1,70,2|0,1:0|3:0,0:0:0:0:
204,345,38692,1,10,0:1:0:0:
121,329,38885,1,2,3:0:0:0:
133,246,39077,5,4,1:0:0:0:
133,246,39462,6,0,L|141:171,1,70,8|0,0:0|0:0,0:0:0:0:
101,101,39846,2,0,P|160:154|235:156,1,140,2|8,1:2|0:0,0:0:0:0:
217,160,40423,1,0,3:0:0:0:
315,227,40616,2,0,L|299:66,1,140,2|8,1:2|0:0,0:0:0:0:
384,83,41192,2,0,L|400:244,1,140,2|0,3:0|3:0,0:0:0:0:
408,305,41769,1,12,0:0:0:0:
256,378,42154,6,0,P|195:309|127:305,1,140,4|8,1:0|0:0,0:0:0:0:
3,381,42923,2,0,L|20:294,1,70,2|2,1:2|3:2,0:0:0:0:
76,252,43308,1,8,0:0:0:0:
23,186,43500,2,0,P|67:134|150:148,1,140,0|0,1:0|0:0,0:0:0:0:
201,200,44077,2,0,L|292:190,1,70,8|0,0:0|0:0,0:0:0:0:
330,132,44462,1,2,1:2:0:0:
330,132,44558,1,0,3:0:0:0:
330,132,44654,1,0,3:0:0:0:
387,192,44846,2,0,L|375:261,1,70,8|0,0:0|0:0,0:0:0:0:
458,345,45230,6,0,L|475:203,1,140,4|8,1:2|0:0,0:0:0:0:
486,114,45808,1,2,3:3:0:0:
495,23,46000,2,0,L|412:13,1,70,2|0,1:2|0:0,0:0:0:0:
347,62,46385,2,0,L|277:70,1,70,8|0,0:0|0:0,0:0:0:0:
203,25,46769,2,0,P|232:91|213:166,1,140,0|8,1:0|0:0,0:0:0:0:
154,220,47346,1,0,3:0:0:0:
78,168,47539,2,0,L|86:124,2,35,2|0|2,1:2|0:0|3:0,0:0:0:0:
18,236,47923,1,8,0:0:0:0:
18,236,48116,1,2,3:2:0:0:
77,338,48308,6,0,B|153:356|153:356|225:338,1,140,0|8,1:0|0:0,0:0:0:0:
213,340,48885,1,2,3:0:0:0:
277,277,49077,2,0,L|271:233,3,35,2|0|0|0,1:2|0:0|0:0|0:0,0:0:0:0:
291,204,49462,2,0,L|285:160,1,35,8|0,0:0|3:0,0:0:0:0:
307,133,49654,2,0,L|301:89,1,35,2|0,3:0|3:0,0:0:0:0:
296,56,49846,5,4,1:2:0:0:
119,23,50231,1,8,0:0:0:0:
86,202,50616,5,4,1:2:0:0:
202,223,50808,1,0,1:0:0:0:
202,223,51192,6,2,P|236:174|330:180,1,154.000004699707,6|0,1:0|1:0,0:1:0:0:
403,222,51769,1,8,0:1:0:0:
479,170,51962,1,2,3:0:0:0:
479,170,52058,1,0,3:0:0:0:
479,170,52154,2,0,L|467:90,1,77.0000023498536,0|0,1:0|3:2,0:0:0:0:
397,33,52539,2,0,L|317:45,1,77.0000023498536,8|0,1:0|0:0,0:0:0:0:
290,131,52923,6,2,P|282:54|209:20,1,154.000004699707,2|8,1:0|0:1,0:1:0:0:
142,70,53500,2,0,L|53:56,1,77.0000023498536,2|0,1:0|0:0,0:0:0:0:
91,147,53885,2,0,L|180:161,1,77.0000023498536,2|8,1:3|0:1,0:0:0:0:
230,225,54269,1,2,3:2:0:0:
139,319,54462,6,0,P|93:259|7:251,1,154.000004699707,4|8,1:2|1:0,0:0:0:0:
50,342,55039,1,2,3:0:0:0:
50,342,55135,1,0,3:0:0:0:
50,342,55231,1,2,1:2:0:0:
139,319,55423,1,2,3:0:0:0:
221,361,55616,2,0,L|306:370,1,77.0000023498536,10|0,1:0|0:0,0:0:0:0:
384,271,56000,6,0,L|230:254,1,154.000004699707,2|8,1:0|1:0,0:0:0:0:
165,189,56577,1,2,1:0:0:0:
230,123,56770,1,2,1:2:0:0:
230,123,56866,1,0,3:0:0:0:
230,123,56962,1,2,1:0:0:0:
311,165,57154,2,0,L|401:157,1,77.0000023498536,8|0,0:1|1:0,0:0:0:0:
456,96,57539,6,0,P|424:189|440:255,1,154.000004699707,4|8,1:0|1:1,0:0:0:0:
434,241,58308,1,2,1:0:0:0:
434,241,58404,1,0,3:0:0:0:
434,241,58500,1,2,3:0:0:0:
368,306,58692,2,0,L|291:317,1,77.0000023498536,8|0,1:0|0:0,0:0:0:0:
214,276,59077,1,2,1:0:0:0:
214,276,59269,1,2,3:0:0:0:
133,322,59462,2,0,P|117:285|121:245,1,77.0000023498536,8|0,1:0|0:0,0:0:0:0:
182,181,59846,2,0,L|341:202,1,154.000004699707,2|10,1:2|1:0,0:0:0:0:
334,201,60423,1,0,3:0:0:0:
397,85,60616,6,2,L|244:64,1,154.000004699707,6|8,1:0|0:1,0:1:0:0:
173,5,61192,1,0,3:0:0:0:
107,70,61385,2,0,L|121:153,1,77.0000023498536,2|0,1:2|3:0,0:0:0:0:
187,208,61769,1,10,1:0:0:0:
132,282,61962,1,0,1:0:0:0:
204,338,62154,6,0,L|257:330,3,38.5000011749268,4|0|0|0,1:2|3:0|1:0|3:0,0:0:0:0:
283,352,62539,2,0,L|333:347,1,38.5000011749268,10|0,1:0|3:0,0:0:0:0:
362,368,62731,2,0,L|412:363,1,38.5000011749268,2|0,1:2|1:0,0:0:0:0:
432,331,62923,1,4,1:2:0:0:
407,241,63116,1,10,1:3:0:0:
407,241,63500,6,2,L|428:76,1,154.000004699707,6|0,1:0|1:0,0:1:0:0:
360,22,64077,1,10,1:0:0:0:
294,87,64269,1,2,3:0:0:0:
294,87,64366,1,0,3:0:0:0:
294,87,64462,2,0,L|212:75,1,77.0000023498536,2|0,1:2|3:0,0:0:0:0:
152,10,64846,2,0,L|70:22,1,77.0000023498536,10|0,1:0|0:0,0:0:0:0:
10,86,65231,6,2,P|60:142|59:217,1,154.000004699707,2|8,1:0|0:1,0:1:0:0:
34,306,65808,2,0,L|52:390,1,77.0000023498536,2|2,3:0|1:2,0:0:0:0:
141,366,66192,2,0,L|124:290,1,77.0000023498536,2|10,1:3|1:0,0:0:0:0:
172,211,66577,1,2,1:2:0:0:
172,211,66769,6,0,P|251:251|330:236,1,154.000004699707,6|8,1:0|1:0,0:0:0:0:
360,166,67346,1,2,3:0:0:0:
360,166,67442,1,0,3:0:0:0:
360,166,67539,1,2,1:2:0:0:
274,131,67731,1,0,3:0:0:0:
237,215,67923,2,0,L|251:306,1,77.0000023498536,10|0,1:0|0:0,0:0:0:0:
378,273,68308,6,2,L|354:120,1,154.000004699707,2|8,1:0|1:0,0:1:0:0:
344,28,68885,1,2,3:0:0:0:
344,28,68981,1,0,0:0:0:0:
344,28,69077,1,2,1:2:0:0:
252,41,69269,2,0,L|264:117,1,77.0000023498536,2|10,3:0|1:0,0:0:0:0:
198,182,69654,1,0,1:0:0:0:
198,182,69846,6,0,P|148:126|73:127,1,154.000004699707,6|8,1:0|1:0,0:0:0:0:
10,205,70423,1,2,3:0:0:0:
10,205,70519,1,0,0:0:0:0:
10,205,70616,2,0,L|24:296,1,77.0000023498536,2|2,1:2|3:0,0:0:0:0:
119,302,71000,2,0,L|105:211,1,77.0000023498536,8|0,1:0|0:0,0:0:0:0:
212,160,71385,6,0,L|240:342,1,154.000004699707,4|8,1:2|0:1,0:0:0:0:
312,377,71962,1,2,3:0:0:0:
405,341,72154,1,2,1:2:0:0:
405,341,72250,1,0,3:0:0:0:
405,341,72346,1,2,3:0:0:0:
496,382,72539,2,0,P|504:344|498:306,1,77.0000023498536,10|0,1:0|0:0,0:0:0:0:
432,211,72923,6,2,L|271:237,1,154.000004699707,6|8,1:0|0:1,0:1:0:0:
198,153,73500,1,2,3:0:0:0:
198,153,73692,2,0,L|277:141,1,77.0000023498536,2|2,1:2|3:0,0:0:0:0:
325,37,74077,2,0,L|246:49,1,77.0000023498536,12|0,1:2|0:0,0:0:0:0:
198,153,74462,5,2,1:2:0:0:
198,153,74654,1,0,3:0:0:0:
256,233,74846,2,0,P|263:270|256:308,1,77.0000023498536,8|2,1:0|3:0,0:0:0:0:
174,362,75231,1,4,1:2:0:0:
174,362,75327,1,0,3:0:0:0:
174,362,75423,1,2,3:0:0:0:
86,312,75616,1,10,1:0:0:0:
102,213,75808,1,2,1:2:0:0:
191,167,76000,6,0,P|267:227|423:214,1,245,4|2,1:0|0:0,0:0:0:0:
409,221,79077,2,4,L|427:364,1,140,4|0,0:0|0:0,0:0:0:0:
426,359,80423,2,0,P|376:299|299:307,1,157.5,2|2,3:2|0:0,0:0:0:0:
302,304,82154,2,0,L|117:279,1,175,2|0,3:2|0:0,0:0:0:0:
128,280,83500,2,0,B|106:188|106:188|125:105,1,175,2|0,0:0|0:0,0:0:0:0:
214,75,84846,1,2,0:0:0:0:
256,155,85231,5,4,0:0:0:0:
256,192,85423,12,0,88116,0:0:0:0:
