osu file format v14

[General]
AudioFilename: audio.mp3
AudioLeadIn: 0
PreviewTime: 66323
Countdown: 0
SampleSet: Soft
StackLeniency: 0.4
Mode: 0
LetterboxInBreaks: 0
WidescreenStoryboard: 1

[Editor]
Bookmarks: 935,9090,10255,19575,28896,38216,47536,56857,66177,84818,103459,122100,122682
DistanceSpacing: 1.4
BeatDivisor: 8
GridSize: 32
TimelineZoom: 2.699999

[Metadata]
Title:Fansong (Cut Ver.)
TitleUnicode:Fansong (Cut Ver.)
Artist:Dethklok
ArtistUnicode:Dethklok
Creator:Sieg
Version:Mortem's Hard
Source:Metalocalypse
Tags:themefisto mortem lmt namki melodic death metal english deathklok mordland the dethalbum fan song
BeatmapID:1714942
BeatmapSetID:810450

[Difficulty]
HPDrainRate:6
CircleSize:3.7
OverallDifficulty:7
ApproachRate:8
SliderMultiplier:1.7
SliderTickRate:1

[Events]
//Background and Video events
0,0,"vvvvv.jpg",0,0
//Break Periods
//Storyboard Layer 0 (Background)
//Storyboard Layer 1 (Fail)
//Storyboard Layer 2 (Pass)
//Storyboard Layer 3 (Foreground)
//Storyboard Layer 4 (Overlay)
//Storyboard Sound Samples

[TimingPoints]
935,582.52427184466,4,2,69,85,1,0
10255,-55.5555555555556,4,2,69,85,0,1
10328,-55.5555555555556,4,2,69,85,0,0
38216,-55.5555555555556,4,2,69,85,0,1
47464,-55.5555555555556,4,2,69,85,0,0
47536,-55.5555555555556,4,2,69,85,0,1
47609,-55.5555555555556,4,2,69,75,0,0
56857,-55.5555555555556,4,2,69,65,0,1
65012,-55.5555555555556,4,2,69,85,0,1
65595,-55.5555555555556,4,2,69,95,0,1
66104,-55.5555555555556,4,2,69,95,0,0
66177,-55.5555555555556,4,2,69,100,0,1
66250,-55.5555555555556,4,2,69,85,0,0
84818,-55.5555555555556,4,2,69,85,0,1
84891,-55.5555555555556,4,2,69,85,0,0
103459,-55.5555555555556,4,2,69,85,0,1
122027,-55.5555555555556,4,2,69,85,0,0
122682,-55.5555555555556,4,2,69,85,0,1
122755,-55.5555555555556,4,2,69,85,0,0

[Colours]
Combo1 : 100,60,60
Combo2 : 207,48,48
Combo3 : 180,151,73
Combo4 : 0,128,128

[HitObjects]
105,255,9090,6,0,L|60:244,2,42.5,12|12|12,0:3|0:3|0:3,0:0:0:0:
77,152,9526,2,0,L|16:137,2,42.5,12|12|12,0:3|0:3|0:3,0:0:0:0:
167,95,9963,2,0,L|227:109,1,42.5,12|12,0:3|0:3,0:0:0:0:
344,40,10256,5,12,0:0:0:0:
344,40,10401,2,0,B|503:68,1,152.999995330811
506,177,10838,1,10,0:0:0:0:
506,177,10984,2,0,L|337:147,1,152.999995330811
261,202,11421,2,0,P|231:187|176:192,2,76.4999976654053,10|0|2,0:0|0:0|0:0,0:0:0:0:
421,343,12003,2,0,P|459:359|500:359,2,76.4999976654053,10|0|2,0:0|0:0|0:0,0:0:0:0:
211,271,12586,5,12,0:0:0:0:
211,271,12731,2,0,B|163:290|163:290|54:260,1,152.999995330811
10,176,13168,1,10,0:0:0:0:
10,176,13313,2,0,B|58:157|58:157|173:188,1,152.999995330811
249,129,13751,2,0,P|276:110|332:114,2,76.4999976654053,10|0|2,0:0|0:0|0:0,0:0:0:0:
159,329,14333,2,0,P|130:344|72:341,2,76.4999976654053,10|0|2,0:0|0:0|0:0,0:0:0:0:
308,188,14916,5,12,0:0:0:0:
308,188,15061,2,0,B|323:227|323:227|315:344,1,152.999995330811
421,373,15498,1,10,0:0:0:0:
421,373,15643,2,0,B|430:209,1,152.999995330811
376,116,16081,2,0,B|347:104|347:104|301:105,2,76.4999976654053,10|0|2,0:0|0:0|0:0,0:0:0:0:
152,82,16663,2,0,B|181:70|181:70|234:71,2,76.4999976654053,10|0|2,0:0|0:0|0:0,0:0:0:0:
217,329,17246,5,12,0:0:0:0:
217,329,17391,2,0,B|168:341|168:341|61:305,1,152.999995330811,0|0,0:0|0:0,0:0:0:0:
21,218,17828,1,10,0:0:0:0:
21,218,17974,2,0,B|11:179|11:179|48:66,1,152.999995330811
146,34,18411,2,0,P|177:46|228:43,2,76.4999976654053,10|0|2,0:0|0:0|0:0,0:0:0:0:
151,275,18993,2,0,P|141:298|135:348,2,76.4999976654053,10|0|0,0:0|0:0|0:0,0:0:0:0:
116,173,19430,1,0,0:0:0:0:
171,81,19576,6,0,L|332:109,1,152.999995330811,12|2,0:0|0:0,0:0:0:0:
412,50,20013,1,0,0:0:0:0:
478,133,20158,1,10,0:0:0:0:
382,181,20304,2,0,B|364:231|364:231|392:330,1,152.999995330811
464,240,20741,1,10,0:0:0:0:
478,133,20887,2,0,B|439:93|439:93|330:80,1,152.999995330811
237,97,21323,2,0,B|131:83|131:83|89:57,1,152.999995330811,10|0,0:0|0:0,0:0:0:0:
8,125,21760,1,0,0:0:0:0:
8,125,21906,6,0,B|47:152|47:152|48:279,1,152.999995330811,12|2,0:0|0:0,0:0:0:0:
90,355,22343,1,0,0:0:0:0:
183,301,22489,1,10,0:0:0:0:
269,238,22634,2,0,B|315:213|315:213|421:243,1,152.999995330811
511,279,23071,1,10,0:0:0:0:
431,351,23217,2,0,B|385:376|385:376|280:345,1,152.999995330811
197,294,23654,1,10,0:0:0:0:
117,223,23799,2,0,B|103:68,1,152.999995330811
204,36,24236,6,0,L|303:26,1,76.4999976654053,12|0,0:0|0:0,0:0:0:0:
354,105,24527,2,0,L|454:96,1,76.4999976654053,2|0,0:0|0:0,0:0:0:0:
483,192,24819,2,0,B|468:245|468:245|489:344,1,152.999995330811,10|2,0:0|0:0,0:0:0:0:
274,351,25401,2,0,L|173:364,1,76.4999976654053,10|0,0:0|0:0,0:0:0:0:
111,297,25692,2,0,L|14:309,1,76.4999976654053,2|0,0:0|0:0,0:0:0:0:
27,198,25984,2,0,B|42:145|42:145|21:47,1,152.999995330811,10|2,0:0|0:0,0:0:0:0:
127,64,26421,1,0,0:0:0:0:
227,29,26566,6,0,L|306:19,1,76.4999976654053,12|0,0:0|0:0,0:0:0:0:
408,56,26857,1,2,0:0:0:0:
408,56,27003,1,0,0:0:0:0:
367,160,27149,2,0,L|447:149,1,76.4999976654053,10|0,0:0|0:0,0:0:0:0:
482,263,27440,1,2,0:0:0:0:
482,263,27586,1,0,0:0:0:0:
482,263,27731,2,0,L|465:342,1,76.4999976654053,10|0,0:0|0:0,0:0:0:0:
354,361,28022,2,0,L|369:283,1,76.4999976654053,2|0,0:0|0:0,0:0:0:0:
287,186,28314,2,0,L|257:345,1,152.999995330811,10|0,0:0|0:0,0:0:0:0:
104,188,28896,5,12,0:3:0:0:
99,219,29042,1,12,0:3:0:0:
84,245,29188,1,12,0:3:0:0:
61,264,29333,1,12,0:3:0:0:
31,270,29479,2,0,P|4:215|45:111,1,152.999995330811,12|0,0:0|0:0,0:0:0:0:
235,87,30061,5,12,0:3:0:0:
246,57,30207,1,12,0:3:0:0:
267,35,30353,1,12,0:3:0:0:
293,22,30498,1,12,0:3:0:0:
324,23,30644,2,0,P|337:82|274:174,1,152.999995330811,12|0,0:0|0:0,0:0:0:0:
203,353,31226,6,0,P|171:336|115:341,1,76.4999976654053,12|12,0:3|0:3,0:0:0:0:
45,261,31518,2,0,P|34:226|-1:195,2,76.4999976654053,12|12|12,0:3|0:3|0:0,0:0:0:0:
135,193,31955,2,0,P|140:151|121:108,2,76.4999976654053
190,299,32391,5,12,0:3:0:0:
245,352,32537,1,12,0:3:0:0:
321,359,32683,1,12,0:3:0:0:
394,340,32828,1,12,0:3:0:0:
436,279,32974,2,0,P|417:210|502:73,1,229.499992996216,12|0,0:0|0:0,0:0:0:0:
387,48,33556,5,12,0:3:0:0:
387,48,33702,1,12,0:3:0:0:
387,48,33848,1,12,0:3:0:0:
387,48,33993,1,12,0:3:0:0:
387,48,34139,2,0,B|221:35|221:35|282:66,1,229.499992996216,12|0,0:0|0:0,0:0:0:0:
246,184,34722,5,12,0:3:0:0:
246,184,34868,1,12,0:3:0:0:
246,184,35012,1,12,0:3:0:0:
246,184,35159,1,12,0:3:0:0:
246,184,35303,2,0,B|80:197|80:197|141:166,1,229.499992996216,12|0,0:0|0:0,0:0:0:0:
204,35,35887,5,12,0:3:0:0:
279,24,36033,1,12,0:3:0:0:
353,43,36177,1,12,0:3:0:0:
414,88,36324,1,12,0:3:0:0:
459,148,36469,2,0,P|495:232|440:358,1,229.499992996216,12|0,0:0|0:0,0:0:0:0:
346,286,37052,6,0,P|303:271|255:279,1,76.4999976654053,8|8,0:0|0:0,0:0:0:0:
197,358,37343,2,0,P|157:362|114:347,1,76.4999976654053,8|0,0:0|0:0,0:0:0:0:
41,274,37634,2,0,P|45:239|27:199,1,76.4999976654053,8|8,0:0|0:0,0:0:0:0:
87,109,37925,2,0,P|72:74|73:36,1,76.4999976654053,8|0,0:0|0:0,0:0:0:0:
211,39,38217,6,0,B|269:60|269:60|442:40,1,229.499992996216,12|0,0:0|0:0,0:0:0:0:
470,142,38799,2,0,B|449:200|449:200|454:370,1,229.499992996216,10|0,0:0|0:0,0:0:0:0:
348,345,39382,2,0,B|273:312|273:312|122:350,1,229.499992996216,10|0,0:0|0:0,0:0:0:0:
75,262,39964,2,0,B|93:155|93:155|48:38,1,229.499992996216,10|0,0:0|0:0,0:0:0:0:
171,47,40547,6,0,P|205:31|265:32,2,76.4999976654053,12|0|2,0:0|0:0|0:0,0:0:0:0:
75,262,41129,2,0,P|42:280|-13:276,2,76.4999976654053,10|0|2,0:0|0:0|0:0,0:0:0:0:
283,186,41712,2,0,P|290:147|266:98,2,76.4999976654053,10|0|2,0:0|0:0|0:0,0:0:0:0:
475,292,42294,2,0,P|463:331|480:389,2,76.4999976654053,10|0|2,0:0|0:0|0:0,0:0:0:0:
512,66,42877,6,0,B|348:46|348:46|275:83,1,229.499992996216,12|0,0:0|0:0,0:0:0:0:
222,158,43459,2,0,B|177:179|177:179|-8:160,1,229.499992996216,10|0,0:0|0:0,0:0:0:0:
11,267,44042,6,0,B|113:278|113:278|232:329,1,229.499992996216,10|0,0:0|0:0,0:0:0:0:
289,239,44624,2,0,B|356:270|356:270|528:261,1,229.499992996216,10|0,0:0|0:0,0:0:0:0:
474,127,45207,6,0,P|464:97|467:51,2,76.4999976654053,12|0|2,0:0|0:0|0:0,0:0:0:0:
257,103,45789,2,0,P|264:68|252:19,2,76.4999976654053,10|0|2,0:0|0:0|0:0,0:0:0:0:
111,261,46372,2,0,P|86:266|15:240,2,76.4999976654053,10|0|2,0:0|0:0|0:0,0:0:0:0:
321,208,46955,2,0,L|346:133,1,76.4999976654053,10|0,0:0|0:0,0:0:0:0:
453,113,47246,2,0,L|428:187,1,76.4999976654053,2|0,0:0|0:0,0:0:0:0:
427,295,47537,6,0,B|381:324|381:324|273:309,1,152.999995330811,12|10,0:0|0:0,0:0:0:0:
184,264,47973,1,0,0:0:0:0:
87,210,48119,2,0,L|-1:206,1,76.4999976654053,10|0,0:0|0:0,0:0:0:0:
83,111,48410,2,0,L|166:115,1,76.4999976654053,10|0,0:0|0:0,0:0:0:0:
251,37,48702,1,10,0:0:0:0:
360,68,48847,1,0,0:0:0:0:
394,177,48993,1,10,0:0:0:0:
281,158,49138,1,0,0:0:0:0:
251,37,49284,2,0,L|163:31,2,76.4999976654053,10|0|10,0:0|0:0|0:0,0:0:0:0:
360,68,49721,1,0,0:0:0:0:
394,177,49867,6,0,B|374:232|374:232|408:329,1,152.999995330811,10|10,0:0|0:0,0:0:0:0:
510,358,50303,1,0,0:0:0:0:
405,321,50449,2,0,L|312:315,1,76.4999976654053,10|0,0:0|0:0,0:0:0:0:
221,332,50740,2,0,L|135:327,1,76.4999976654053,10|0,0:0|0:0,0:0:0:0:
77,231,51032,1,10,0:0:0:0:
147,140,51177,1,0,0:0:0:0:
32,124,51323,1,10,0:0:0:0:
77,231,51469,1,0,0:0:0:0:
147,140,51614,2,0,L|227:124,1,76.4999976654053,10|0,0:0|0:0,0:0:0:0:
306,201,51905,2,0,L|385:184,1,76.4999976654053,10|0,0:0|0:0,0:0:0:0:
472,255,52197,6,0,L|483:336,2,76.4999976654053,12|0|10,0:0|0:0|0:0,0:0:0:0:
380,184,52634,1,0,0:0:0:0:
297,104,52779,2,0,L|288:24,2,76.4999976654053,10|0|10,0:0|0:0|0:0,0:0:0:0:
202,169,53216,1,0,0:0:0:0:
102,220,53362,1,10,0:0:0:0:
166,316,53507,1,0,0:0:0:0:
269,264,53653,1,10,0:0:0:0:
202,169,53799,1,0,0:0:0:0:
133,77,53944,2,0,L|115:0,2,76.4999976654053,10|0|10,0:0|0:0|0:0,0:0:0:0:
202,169,54381,1,0,0:0:0:0:
269,264,54527,6,0,L|361:249,2,76.4999976654053,10|0|10,0:0|0:0|0:0,0:0:0:0:
155,242,54964,1,0,0:0:0:0:
76,168,55109,2,0,L|-24:186,2,76.4999976654053,10|0|10,0:0|0:0|0:0,0:0:0:0:
134,71,55546,1,0,0:0:0:0:
233,29,55692,2,0,L|317:14,1,76.4999976654053,10|0,0:0|0:0,0:0:0:0:
375,100,55983,2,0,L|452:85,1,76.4999976654053,10|0,0:0|0:0,0:0:0:0:
413,203,56274,2,0,L|335:216,1,76.4999976654053,10|0,0:0|0:0,0:0:0:0:
330,323,56565,2,0,L|244:338,1,76.4999976654053,10|0,0:0|0:0,0:0:0:0:
147,352,56857,6,0,P|119:342|104:327,6,38.2499988327027,12|0|0|0|2|0|0,0:0|0:0|0:0|0:0|0:0|0:0|0:0,0:0:0:0:
127,246,57439,2,0,P|102:241|76:219,6,38.2499988327027,12|0|0|0|2|0|0,0:0|0:0|0:0|0:0|0:0|0:0|0:0,0:0:0:0:
124,137,58022,2,0,P|102:132|76:114,6,38.2499988327027,12|0|0|0|2|0|0,0:0|0:0|0:0|0:0|0:0|0:0|0:0,0:0:0:0:
92,34,58604,2,0,P|72:25|50:7,6,38.2499988327027,12|0|0|0|2|0|0,0:0|0:0|0:0|0:0|0:0|0:0|0:0,0:0:0:0:
192,73,59187,6,0,P|217:154|175:220,1,152.999995330811,12|2,0:0|0:0,0:0:0:0:
96,267,59624,1,0,0:0:0:0:
26,349,59770,2,0,L|186:368,1,152.999995330811,12|2,0:0|0:0,0:0:0:0:
275,323,60206,1,0,0:0:0:0:
381,334,60352,2,0,P|377:220|415:177,1,152.999995330811,12|2,0:0|0:0,0:0:0:0:
472,268,60789,1,0,0:0:0:0:
501,168,60935,2,0,L|511:14,1,152.999995330811,12|2,0:0|0:0,0:0:0:0:
298,38,61517,6,0,P|281:26|264:26,6,38.2499988327027,12|0|0|0|2|0|0,0:0|0:0|0:0|0:0|0:0|0:0|0:0,0:0:0:0:
235,127,62100,2,0,P|216:122|192:131,6,38.2499988327027,12|0|0|0|2|0|0,0:0|0:0|0:0|0:0|0:0|0:0|0:0,0:0:0:0:
187,224,62682,2,0,P|163:226|136:243,6,38.2499988327027,12|0|0|0|2|0|0,0:0|0:0|0:0|0:0|0:0|0:0|0:0,0:0:0:0:
219,328,63265,2,0,P|199:332|181:343,6,38.2499988327027,12|0|0|0|2|0|0,0:0|0:0|0:0|0:0|0:0|0:0|0:0,0:0:0:0:
325,312,63847,6,0,P|400:270|418:190,1,152.999995330811,12|2,0:0|0:0,0:0:0:0:
313,204,64284,1,0,0:0:0:0:
225,141,64430,2,0,L|65:122,1,152.999995330811,12|2,0:0|0:0,0:0:0:0:
9,37,64866,1,0,0:0:0:0:
115,19,65012,2,0,L|204:31,1,76.4999976654053,14|4,0:0|0:0,0:0:0:0:
2,290,65595,1,8,0:3:0:0:
426,238,66177,5,4,0:0:0:0:
386,29,66469,2,0,L|390:117,1,76.4999976654053,2|0,0:0|0:0,0:0:0:0:
299,164,66760,2,0,L|296:81,1,76.4999976654053,10|0,0:1|0:0,0:0:0:0:
201,36,67051,2,0,L|201:119,1,76.4999976654053,2|0,0:0|0:0,0:0:0:0:
100,153,67343,1,10,0:1:0:0:
178,366,67634,5,2,0:0:0:0:
250,342,67780,1,0,0:0:0:0:
323,318,67925,1,10,0:1:0:0:
396,295,68071,1,0,0:0:0:0:
470,273,68216,2,0,L|448:195,1,76.4999976654053,2|0,0:0|0:0,0:0:0:0:
324,157,68508,2,0,P|314:183|323:240,2,76.4999976654053,10|0|2,0:1|0:0|0:0,0:0:0:0:
125,292,69090,2,0,P|100:312|45:320,2,76.4999976654053,10|0|2,0:1|0:0|0:0,0:0:0:0:
134,74,69673,5,10,0:1:0:0:
208,57,69818,1,0,0:0:0:0:
283,40,69964,1,2,0:0:0:0:
358,24,70110,1,0,0:0:0:0:
432,7,70255,2,0,P|392:84|459:199,1,229.499992996216,10|0,0:1|0:0,0:0:0:0:
508,251,70838,5,14,0:1:0:0:
431,244,70983,1,0,0:0:0:0:
355,260,71129,1,2,0:0:0:0:
299,316,71275,1,0,0:0:0:0:
248,373,71420,2,0,B|164:378,1,76.4999976654053,10|0,0:1|0:0,0:0:0:0:
102,296,71712,2,0,B|186:288,1,76.4999976654053,2|0,0:0|0:0,0:0:0:0:
250,211,72003,1,10,0:1:0:0:
52,66,72294,5,2,0:0:0:0:
117,108,72440,1,0,0:0:0:0:
192,108,72585,1,10,0:1:0:0:
252,60,72731,1,0,0:0:0:0:
315,17,72876,2,0,L|397:30,1,76.4999976654053,2|0,0:0|0:0,0:0:0:0:
430,105,73168,2,0,P|466:106|518:70,2,76.4999976654053,10|0|2,0:1|0:0|0:0,0:0:0:0:
302,276,73750,2,0,P|297:312|319:356,2,76.4999976654053,10|0|2,0:1|0:0|0:0,0:0:0:0:
227,85,74333,5,10,0:1:0:0:
157,54,74478,1,0,0:0:0:0:
80,66,74624,1,2,0:0:0:0:
23,119,74770,1,0,0:0:0:0:
52,192,74915,2,0,P|157:199|285:206,1,229.499992996216,10|0,0:1|0:0,0:0:0:0:
354,284,75498,6,0,P|394:274|450:289,2,76.4999976654053,14|0|2,0:1|0:0|0:0,0:0:0:0:
116,244,76081,2,0,P|89:275|31:296,2,76.4999976654053,10|0|2,0:1|0:0|0:0,0:0:0:0:
275,53,76663,2,0,B|329:45|329:45|431:63,1,152.999995330811,10|2,0:1|0:0,0:0:0:0:
499,143,77100,1,0,0:0:0:0:
398,191,77246,2,0,B|391:223|391:223|405:288,1,76.4999976654053,10|0,0:1|0:0,0:0:0:0:
512,324,77537,2,0,B|520:293|520:293|506:224,1,76.4999976654053,2|0,0:0|0:0,0:0:0:0:
398,191,77828,6,0,P|306:223|198:152,1,229.499992996216,10|0,0:1|0:0,0:0:0:0:
178,81,78411,1,10,0:1:0:0:
114,38,78556,1,0,0:0:0:0:
40,60,78702,1,2,0:0:0:0:
13,138,78848,1,0,0:0:0:0:
50,211,78993,2,0,P|68:262|43:360,1,152.999995330811,10|2,0:1|0:0,0:0:0:0:
138,363,79430,1,0,0:0:0:0:
138,363,79575,2,0,P|210:323|355:357,1,229.499992996216,10|0,0:1|0:0,0:0:0:0:
420,273,80158,6,0,L|513:256,1,76.4999976654053,14|0,0:1|0:0,0:0:0:0:
437,164,80449,2,0,L|527:146,1,76.4999976654053,2|0,0:0|0:0,0:0:0:0:
438,59,80741,1,10,0:1:0:0:
438,59,80886,2,0,L|354:76,1,76.4999976654053,0|2,0:0|0:0,0:0:0:0:
262,36,81178,1,0,0:0:0:0:
262,36,81323,2,0,B|174:25|174:25|33:58,1,229.499992996216,10|0,0:1|0:0,0:0:0:0:
7,165,81906,1,10,0:1:0:0:
7,165,82051,1,0,0:0:0:0:
72,266,82197,1,2,0:0:0:0:
72,266,82343,1,0,0:0:0:0:
196,181,82488,6,0,P|201:148|198:102,1,76.4999976654053,10|0,0:1|0:0,0:0:0:0:
329,94,82780,2,0,P|325:56|319:18,1,76.4999976654053,2|0,0:0|0:0,0:0:0:0:
445,71,83071,2,0,P|453:117|454:152,1,76.4999976654053,10|0,0:1|0:0,0:0:0:0:
383,249,83363,2,0,L|298:254,1,76.4999976654053,2|0,0:0|0:0,0:0:0:0:
226,356,83653,2,0,L|313:349,2,76.4999976654053,10|0|2,0:1|0:0|0:0,0:0:0:0:
90,336,84090,1,0,0:0:0:0:
90,336,84236,2,0,P|55:356|20:355,2,76.4999976654053,10|0|2,0:1|0:0|0:0,0:0:0:0:
142,224,84673,1,0,0:0:0:0:
224,132,84818,6,0,B|285:152|285:152|526:49,1,305.999990661621,12|12,0:3|0:0,0:0:0:0:
42,73,85983,5,12,0:3:0:0:
65,97,86129,1,12,0:3:0:0:
53,129,86275,1,12,0:3:0:0:
69,158,86420,1,12,0:3:0:0:
52,188,86566,2,0,L|216:168,1,152.999995330811,12|0,0:0|0:0,0:0:0:0:
387,278,87148,6,0,L|473:266,1,76.4999976654053,12|12,0:3|0:3,0:0:0:0:
429,160,87440,2,0,L|510:149,2,76.4999976654053,12|12|12,0:3|0:3|0:0,0:0:0:0:
338,213,87877,2,0,L|252:224,2,76.4999976654053
409,298,88313,5,12,0:3:0:0:
354,351,88459,1,12,0:3:0:0:
278,358,88605,1,12,0:3:0:0:
205,339,88750,1,12,0:3:0:0:
158,277,88896,2,0,B|172:225|172:225|112:50,1,229.499992996216,12|4,0:0|0:3,0:0:0:0:
249,46,89479,5,12,0:3:0:0:
249,46,89624,1,12,0:3:0:0:
249,46,89770,1,12,0:3:0:0:
249,46,89915,1,12,0:3:0:0:
249,46,90061,2,0,B|310:60|310:60|414:30,1,152.999995330811,12|0,0:0|0:0,0:0:0:0:
485,263,90644,5,12,0:3:0:0:
485,263,90790,1,12,0:3:0:0:
485,263,90934,1,12,0:3:0:0:
485,263,91081,1,12,0:3:0:0:
485,263,91226,2,0,B|424:276|424:276|332:247,1,152.999995330811,12|0,0:0|0:0,0:0:0:0:
212,48,91809,6,0,L|117:47,1,76.4999976654053,12|12,0:3|0:3,0:0:0:0:
61,142,92100,2,0,L|142:143,1,76.4999976654053,12|12,0:3|0:3,0:0:0:0:
242,175,92391,2,0,B|212:355|212:355|249:310,1,229.499992996216,12|0,0:0|0:0,0:0:0:0:
323,289,92974,5,12,0:3:0:0:
399,318,93120,1,12,0:3:0:0:
476,297,93266,1,12,0:3:0:0:
494,217,93411,1,12,0:3:0:0:
446,155,93556,2,0,L|355:148,1,76.4999976654053,12|4,0:0|0:3,0:0:0:0:
318,51,93847,2,0,L|226:44,1,76.4999976654053,8|4,0:3|0:3,0:0:0:0:
119,96,94139,6,0,P|80:78|40:78,2,76.4999976654053,12|12|12,0:3|0:3|0:3,0:0:0:0:
179,184,94576,1,12,0:3:0:0:
284,196,94721,2,0,B|337:174|337:174|512:232,1,229.499992996216,12|0,0:0|0:0,0:0:0:0:
441,318,95304,6,0,L|523:345,2,76.4999976654053,12|12|12,0:3|0:3|0:3,0:0:0:0:
338,349,95741,1,12,0:3:0:0:
234,306,95886,2,0,P|189:209|252:104,1,229.499992996216,12|0,0:0|0:0,0:0:0:0:
315,218,96469,5,12,0:3:0:0:
315,218,96615,1,12,0:3:0:0:
315,218,96761,1,12,0:3:0:0:
315,218,96906,1,12,0:3:0:0:
315,218,97051,2,0,P|201:198|85:182,1,229.499992996216,12|0,0:0|0:0,0:0:0:0:
43,73,97634,6,0,P|44:41|28:-3,2,76.4999976654053,12|12|12,0:3|0:3|0:3,0:0:0:0:
88,182,98071,1,12,0:3:0:0:
31,284,98216,2,0,P|26:314|41:359,2,76.4999976654053,12|8|8,0:0|0:3|0:3,0:0:0:0:
88,182,98653,1,0,0:0:0:0:
179,98,98799,6,0,L|168:14,1,76.4999976654053,12|12,0:3|0:3,0:0:0:0:
288,90,99090,2,0,L|272:171,1,76.4999976654053,12|12,0:3|0:3,0:0:0:0:
311,272,99381,2,0,P|198:315|100:245,1,229.499992996216,12|0,0:0|0:0,0:0:0:0:
41,211,99964,5,12,0:3:0:0:
41,211,100110,1,12,0:3:0:0:
41,211,100255,1,12,0:3:0:0:
41,211,100401,1,12,0:3:0:0:
41,211,100547,2,0,P|162:198|291:183,1,229.499992996216,12|0,0:0|0:0,0:0:0:0:
309,65,101129,6,0,L|390:78,1,76.4999976654053,12|12,0:3|0:3,0:0:0:0:
475,161,101420,2,0,L|385:172,1,76.4999976654053,12|12,0:3|0:3,0:0:0:0:
316,260,101712,2,0,L|398:274,1,76.4999976654053,12|0,0:0|0:0,0:0:0:0:
446,365,102003,2,0,L|362:378,1,76.4999976654053
261,361,102294,5,8,0:0:0:0:
261,361,102439,1,8,0:0:0:0:
261,361,102585,1,8,0:0:0:0:
261,361,102731,1,8,0:0:0:0:
261,361,102877,2,0,P|132:361|85:272,1,229.499992996216,8|8,0:0|0:0,0:0:0:0:
18,178,103459,6,0,P|147:198|275:218,1,229.499992996216,12|0,0:0|0:0,0:0:0:0:
310,129,104041,2,0,P|414:100|518:182,1,229.499992996216,10|0,0:0|0:0,0:0:0:0:
503,277,104624,2,0,P|392:287|274:300,1,229.499992996216,10|0,0:0|0:0,0:0:0:0:
173,347,105207,2,0,P|65:314|31:193,1,229.499992996216,10|0,0:0|0:0,0:0:0:0:
82,110,105789,6,0,L|167:94,2,76.4999976654053,10|0|2,0:0|0:0|0:0,0:0:0:0:
321,126,106371,2,0,L|407:113,2,76.4999976654053,10|0|2,0:0|0:0|0:0,0:0:0:0:
225,338,106954,2,0,B|207:301|227:252,2,76.4999976654053,10|0|2,0:0|0:0|0:0,0:0:0:0:
413,206,107536,2,0,P|422:242|406:294,2,76.4999976654053,10|0|2,0:0|0:0|0:0,0:0:0:0:
225,338,108119,6,0,B|179:356|179:356|-3:338,1,229.499992996216,12|0,0:0|0:0,0:0:0:0:
81,246,108702,2,0,B|126:227|126:227|310:245,1,229.499992996216,10|0,0:0|0:0,0:0:0:0:
411,307,109284,6,0,B|444:226|444:226|379:92,1,229.499992996216,10|0,0:0|0:0,0:0:0:0:
291,36,109867,2,0,B|250:133|250:133|307:247,1,229.499992996216,10|0,0:0|0:0,0:0:0:0:
411,307,110449,6,0,P|445:291|490:297,2,76.4999976654053,10|0|2,0:0|0:0|0:0,0:0:0:0:
189,350,111031,2,0,P|153:348|120:327,2,76.4999976654053,10|0|2,0:0|0:0|0:0,0:0:0:0:
267,125,111614,2,0,P|269:87|290:43,2,76.4999976654053,10|0|2,0:0|0:0|0:0,0:0:0:0:
91,249,112197,2,0,L|64:326,1,76.4999976654053,10|0,0:0|0:0,0:0:0:0:
176,289,112488,2,0,L|199:211,1,76.4999976654053,2|0,0:0|0:0,0:0:0:0:
290,153,112780,6,0,L|445:182,1,152.999995330811,12|2,0:0|0:0,0:0:0:0:
500,277,113217,1,0,0:0:0:0:
401,328,113362,2,0,B|346:317|346:317|237:349,1,152.999995330811,10|2,0:0|0:0,0:0:0:0:
166,117,113945,1,10,0:0:0:0:
91,203,114091,2,0,B|65:250|65:250|102:350,1,152.999995330811
181,260,114527,2,0,B|199:207|199:207|164:113,1,152.999995330811,10|2,0:0|0:0,0:0:0:0:
329,86,115110,6,0,B|383:86|383:86|471:146,1,152.999995330811,10|2,0:0|0:0,0:0:0:0:
507,240,115547,1,0,0:0:0:0:
443,322,115692,2,0,B|390:321|390:321|303:265,1,152.999995330811,10|2,0:0|0:0,0:0:0:0:
227,67,116274,2,0,B|136:12|136:12|78:28,1,152.999995330811,10|0,0:0|0:0,0:0:0:0:
123,126,116711,1,0,0:0:0:0:
225,179,116857,2,0,B|267:208|267:208|267:315,1,152.999995330811,10|2,0:0|0:0,0:0:0:0:
14,341,117440,6,0,L|111:360,1,76.4999976654053,12|0,0:0|0:0,0:0:0:0:
157,248,117731,2,0,L|62:259,1,76.4999976654053,2|0,0:0|0:0,0:0:0:0:
32,160,118023,2,0,B|48:104|48:104|25:9,1,152.999995330811,10|2,0:0|0:0,0:0:0:0:
265,38,118605,6,0,L|365:26,1,76.4999976654053,10|0,0:0|0:0,0:0:0:0:
401,129,118896,2,0,L|304:117,1,76.4999976654053,2|0,0:0|0:0,0:0:0:0:
239,193,119188,2,0,B|223:249|223:249|245:344,1,152.999995330811,10|2,0:0|0:0,0:0:0:0:
468,354,119770,6,0,P|486:321|526:305,2,76.4999976654053,10|0|2,0:0|0:0|0:0,0:0:0:0:
409,148,120352,2,0,P|436:112|470:96,2,76.4999976654053,10|0|2,0:0|0:0|0:0,0:0:0:0:
169,237,120935,2,0,P|135:252|87:248,1,76.4999976654053,10|0,0:0|0:0,0:0:0:0:
136,137,121226,2,0,P|92:126|58:99,1,76.4999976654053,2|0,0:0|0:0,0:0:0:0:
188,41,121517,2,0,P|225:30|264:33,1,76.4999976654053,10|0,0:0|0:0,0:0:0:0:
344,111,121808,2,0,P|377:120|409:148,1,76.4999976654053,2|0,0:0|0:0,0:0:0:0:
427,242,122100,5,12,0:3:0:0:
370,291,122245,1,12,0:3:0:0:
296,297,122391,1,12,0:3:0:0:
233,256,122536,1,12,0:3:0:0:
208,185,122682,1,12,0:0:0:0:
