osu file format v14

[General]
AudioFilename: audio.mp3
AudioLeadIn: 0
PreviewTime: 32866
Countdown: 0
SampleSet: Normal
StackLeniency: 0.7
Mode: 1
LetterboxInBreaks: 0
WidescreenStoryboard: 0

[Editor]
Bookmarks: 850,8851,16848,24849,32866,40848,48849,56851,66853,69857
DistanceSpacing: 0.1
BeatDivisor: 4
GridSize: 32
TimelineZoom: 3.099999

[Metadata]
Title:Duncan Hills Coffee Jingle
TitleUnicode:Duncan Hills Coffee Jingle
Artist:Dethklok
ArtistUnicode:Dethklok
Creator:frukoyurdakul
Version:Kantan
Source:Metalocalypse
Tags:Melodic Death Metal The Dethalbum Brendon Small Ulrich Wild William Street Records Nathan Explosion Skwisgaar Skwigelf Toki Wartooth Pickles Murderface Curse of
BeatmapID:1545510
BeatmapSetID:732443

[Difficulty]
HPDrainRate:8
CircleSize:2
OverallDifficulty:4
ApproachRate:10
SliderMultiplier:1.2
SliderTickRate:1

[Events]
//Background and Video events
0,0,"BG.jpg",0,50
//Break Periods
//Storyboard Layer 0 (Background)
//Storyboard Layer 1 (Fail)
//Storyboard Layer 2 (Pass)
//Storyboard Layer 3 (Foreground)
//Storyboard Sound Samples

[TimingPoints]
902,250.052094186289,4,1,0,100,1,0
902,-99.9999999999999,4,1,0,100,0,0
16405,252.764612954186,4,1,0,100,1,8
16405,-98.9268597624507,4,1,0,100,0,8
16900,250.052094186289,4,1,0,100,1,0
16900,-99.9999999999999,4,1,0,100,0,0
32653,265.486725663717,4,1,0,100,1,8
32653,-94.1862888101687,4,1,0,100,0,8
32918,248.96265560166,4,1,0,100,1,0
32918,-100.437591164826,4,1,0,100,0,0
36901,250.521920668058,4,1,0,100,1,0
36901,-99.8124609293605,4,1,0,100,0,0
40658,242.914979757085,4,1,0,100,1,8
40658,-102.938112106689,4,1,0,100,0,8
40900,250.052094186289,4,1,0,100,1,0
40900,-99.9999999999999,4,1,0,100,0,0
48901,-99.9999999999999,4,1,0,100,0,1
66905,251.046025104603,4,1,0,100,1,0
66905,-99.6040841842049,4,1,0,100,0,0
69659,250.521920668058,4,1,0,100,1,8
69659,-99.8124609293605,4,1,0,100,0,8
69909,250.521920668058,4,1,0,100,1,0
69909,-99.8124609293605,4,1,0,100,0,0

[HitObjects]
160,288,902,5,4,0:0:0:0:
352,96,1902,1,8,0:0:0:0:
160,96,2902,1,0,0:0:0:0:
352,96,3902,1,8,0:0:0:0:
352,96,4402,1,8,0:0:0:0:
160,96,4902,1,0,0:0:0:0:
352,96,5903,1,8,0:0:0:0:
160,96,6903,1,0,0:0:0:0:
352,96,7903,1,8,0:0:0:0:
352,96,8403,1,8,0:0:0:0:
160,288,8903,1,4,0:0:0:0:
352,96,9903,1,8,0:0:0:0:
160,96,10403,1,0,0:0:0:0:
160,96,10904,1,0,0:0:0:0:
352,96,11904,1,8,0:0:0:0:
352,96,12404,1,8,0:0:0:0:
160,96,12904,1,0,0:0:0:0:
352,96,13904,1,8,0:0:0:0:
160,96,14404,1,0,0:0:0:0:
160,96,14904,1,0,0:0:0:0:
352,96,15905,1,8,0:0:0:0:
352,288,16900,1,12,0:0:0:0:
352,96,17400,1,8,0:0:0:0:
160,96,17900,1,0,0:0:0:0:
160,96,18900,1,0,0:0:0:0:
352,96,19400,1,8,0:0:0:0:
160,96,19900,1,0,0:0:0:0:
160,96,20900,1,0,0:0:0:0:
352,96,21400,1,8,0:0:0:0:
160,96,21901,1,0,0:0:0:0:
352,96,22401,1,8,0:0:0:0:
352,96,22901,1,8,0:0:0:0:
352,96,23401,1,8,0:0:0:0:
160,96,23901,1,0,0:0:0:0:
160,96,24901,1,0,0:0:0:0:
352,96,25401,1,8,0:0:0:0:
160,96,25901,1,0,0:0:0:0:
352,96,26902,1,8,0:0:0:0:
352,96,27402,1,8,0:0:0:0:
160,96,27902,1,0,0:0:0:0:
160,96,28902,1,0,0:0:0:0:
352,96,29402,1,8,0:0:0:0:
352,96,29902,1,8,0:0:0:0:
352,96,30402,1,8,0:0:0:0:
352,96,30902,1,8,0:0:0:0:
352,96,31403,1,8,0:0:0:0:
160,96,31903,1,0,0:0:0:0:
352,96,32403,1,8,0:0:0:0:
160,288,32918,1,4,0:0:0:0:
352,288,33913,1,12,0:0:0:0:
160,288,34909,1,4,0:0:0:0:
352,288,35905,1,12,0:0:0:0:
352,288,36403,1,12,0:0:0:0:
160,288,36901,1,4,0:0:0:0:
352,288,37903,1,12,0:0:0:0:
160,288,38905,1,4,0:0:0:0:
352,288,39907,1,12,0:0:0:0:
352,288,40408,1,12,0:0:0:0:
160,288,40900,1,4,0:0:0:0:
352,96,41900,1,8,0:0:0:0:
352,96,42400,1,8,0:0:0:0:
160,96,42900,1,0,0:0:0:0:
352,96,43400,1,8,0:0:0:0:
352,96,43900,1,8,0:0:0:0:
352,96,44900,1,8,0:0:0:0:
160,96,45400,1,0,0:0:0:0:
352,96,45901,1,8,0:0:0:0:
352,96,46401,1,8,0:0:0:0:
160,96,46901,1,0,0:0:0:0:
352,96,47901,1,8,0:0:0:0:
160,96,48401,1,0,0:0:0:0:
352,288,48901,1,12,0:0:0:0:
352,96,49401,1,8,0:0:0:0:
352,96,49651,1,8,0:0:0:0:
352,96,49901,1,8,0:0:0:0:
352,96,50902,1,8,0:0:0:0:
352,96,51402,1,8,0:0:0:0:
160,96,51652,1,0,0:0:0:0:
352,96,51902,1,8,0:0:0:0:
352,96,52902,1,8,0:0:0:0:
160,96,53402,1,0,0:0:0:0:
352,96,53902,1,8,0:0:0:0:
352,96,54402,1,8,0:0:0:0:
352,96,54902,1,8,0:0:0:0:
160,96,55403,1,0,0:0:0:0:
352,96,55903,1,8,0:0:0:0:
160,96,56153,1,0,0:0:0:0:
352,96,56403,1,8,0:0:0:0:
352,288,56903,1,12,0:0:0:0:
352,96,57903,1,8,0:0:0:0:
352,96,58153,1,8,0:0:0:0:
352,96,58403,1,8,0:0:0:0:
352,96,58903,1,8,0:0:0:0:
160,96,59403,1,0,0:0:0:0:
352,96,59903,1,8,0:0:0:0:
352,96,60904,1,8,0:0:0:0:
160,96,61404,1,0,0:0:0:0:
352,96,61904,1,8,0:0:0:0:
352,96,62904,1,8,0:0:0:0:
160,96,63404,1,0,0:0:0:0:
352,96,63904,1,8,0:0:0:0:
352,96,64905,1,8,0:0:0:0:
352,96,65155,1,8,0:0:0:0:
160,96,65405,1,0,0:0:0:0:
352,96,65905,1,8,0:0:0:0:
160,96,66405,1,0,0:0:0:0:
160,96,66655,1,0,0:0:0:0:
352,288,66905,1,12,0:0:0:0:
160,288,67407,1,4,0:0:0:0:
352,288,67909,1,12,0:0:0:0:
160,288,68411,1,4,0:0:0:0:
352,288,68913,1,12,0:0:0:0:
160,96,69415,1,0,0:0:0:0:
352,96,69659,1,8,0:0:0:0:
160,288,69909,1,4,0:0:0:0:
