osu file format v14

[General]
AudioFilename: audio.mp3
AudioLeadIn: 0
PreviewTime: 9622
Countdown: 0
SampleSet: Normal
StackLeniency: 0.7
Mode: 1
LetterboxInBreaks: 0
WidescreenStoryboard: 1

[Editor]
Bookmarks: 5080,7480,9880,29080,33880,36280
DistanceSpacing: 0.8
BeatDivisor: 4
GridSize: 32
TimelineZoom: 1.8

[Metadata]
Title:Fisica o Quimica (TV Size)
TitleUnicode:Física o Química (TV Size)
Artist:Despistaos
ArtistUnicode:Despistaos
Creator:Arach
Version:Muzukashii
Source:Física o Química
Tags:lo que hemos vivido spanish rock espanol español tv series opening intro vized ida y vuelta producciones antena 3 foq
BeatmapID:2120615
BeatmapSetID:1013120

[Difficulty]
HPDrainRate:8
CircleSize:2
OverallDifficulty:5
ApproachRate:5
SliderMultiplier:1.4
SliderTickRate:1

[Events]
//Background and Video events
0,0,"foq-bg.jpg",0,0
//Break Periods
//Storyboard Layer 0 (Background)
//Storyboard Layer 1 (Fail)
//Storyboard Layer 2 (Pass)
//Storyboard Layer 3 (Foreground)
//Storyboard Layer 4 (Overlay)
//Storyboard Sound Samples

[TimingPoints]
280,300,4,1,0,100,1,0
9880,-100,4,1,0,100,0,1
29080,-100,4,1,0,100,0,0

[HitObjects]
256,192,280,5,4,0:0:0:0:
256,192,580,1,8,0:0:0:0:
256,192,880,1,0,0:0:0:0:
256,192,1030,1,0,0:0:0:0:
256,192,1180,1,8,0:0:0:0:
256,192,1330,1,0,0:0:0:0:
260,192,1630,1,0,0:0:0:0:
256,192,1780,1,8,0:0:0:0:
256,200,2080,1,0,0:0:0:0:
256,200,2230,1,0,0:0:0:0:
256,192,2380,1,8,0:0:0:0:
256,192,2680,1,0,0:0:0:0:
256,192,2980,1,8,0:0:0:0:
256,192,3280,1,0,0:0:0:0:
256,192,3430,1,0,0:0:0:0:
256,192,3580,1,8,0:0:0:0:
256,192,3730,1,0,0:0:0:0:
252,196,4030,1,0,0:0:0:0:
256,192,4180,1,8,0:0:0:0:
256,192,4480,1,0,0:0:0:0:
252,196,4630,1,0,0:0:0:0:
256,192,4780,1,8,0:0:0:0:
256,192,5080,1,4,0:0:0:0:
256,192,5380,1,8,0:0:0:0:
256,192,5680,1,8,0:0:0:0:
256,192,5830,1,0,0:0:0:0:
256,192,5980,1,8,0:0:0:0:
256,192,6130,1,0,0:0:0:0:
256,192,6205,1,0,0:0:0:0:
256,192,6280,1,0,0:0:0:0:
256,192,6430,1,8,0:0:0:0:
256,192,6580,1,8,0:0:0:0:
256,192,6880,1,8,0:0:0:0:
256,192,7030,1,0,0:0:0:0:
256,192,7180,1,8,0:0:0:0:
256,192,7480,1,12,0:0:0:0:
256,192,8430,1,0,0:0:0:0:
256,192,9280,1,8,0:0:0:0:
256,192,9580,1,4,0:0:0:0:
256,192,9880,1,12,0:0:0:0:
256,192,10180,1,8,0:0:0:0:
256,192,10480,1,0,0:0:0:0:
256,192,10780,1,8,0:0:0:0:
256,192,10930,1,0,0:0:0:0:
260,200,11080,1,0,0:0:0:0:
256,192,11230,1,8,0:0:0:0:
256,192,11305,1,8,0:0:0:0:
256,192,11380,1,8,0:0:0:0:
256,192,11530,1,8,0:0:0:0:
256,192,11680,1,0,0:0:0:0:
256,192,11830,1,0,0:0:0:0:
256,192,11980,1,8,0:0:0:0:
244,196,12280,1,0,0:0:0:0:
256,192,12580,1,8,0:0:0:0:
256,192,12880,1,8,0:0:0:0:
244,196,13030,1,0,0:0:0:0:
244,196,13180,1,8,0:0:0:0:
256,192,13480,1,8,0:0:0:0:
256,192,13630,1,0,0:0:0:0:
256,192,13780,1,8,0:0:0:0:
256,192,13930,1,0,0:0:0:0:
256,192,14005,1,0,0:0:0:0:
256,192,14080,1,0,0:0:0:0:
256,192,14230,1,0,0:0:0:0:
256,192,14380,1,8,0:0:0:0:
256,192,14530,1,0,0:0:0:0:
256,196,14680,1,8,0:0:0:0:
256,192,14980,1,8,0:0:0:0:
256,192,15280,1,8,0:0:0:0:
256,192,15730,1,8,0:0:0:0:
256,192,15880,1,8,0:0:0:0:
256,192,16030,1,0,0:0:0:0:
256,192,16180,1,8,0:0:0:0:
256,196,16330,1,0,0:0:0:0:
256,192,16405,1,0,0:0:0:0:
256,192,16480,1,0,0:0:0:0:
256,196,16630,1,0,0:0:0:0:
256,192,16780,1,8,0:0:0:0:
256,192,17080,1,8,0:0:0:0:
256,196,17380,1,8,0:0:0:0:
256,192,17680,1,8,0:0:0:0:
256,192,17830,1,0,0:0:0:0:
256,192,17980,1,8,0:0:0:0:
256,192,18130,1,8,0:0:0:0:
256,196,18205,1,8,0:0:0:0:
256,192,18280,1,8,0:0:0:0:
256,192,18580,1,8,0:0:0:0:
256,196,18730,1,8,0:0:0:0:
256,192,18880,1,0,0:0:0:0:
256,192,19030,1,8,0:0:0:0:
256,192,19180,1,8,0:0:0:0:
256,192,19330,1,8,0:0:0:0:
268,200,19480,1,0,0:0:0:0:
256,192,19780,1,12,0:0:0:0:
256,192,20080,1,0,0:0:0:0:
260,200,20680,1,0,0:0:0:0:
256,192,20830,1,0,0:0:0:0:
256,192,20980,1,8,0:0:0:0:
256,192,21130,1,0,0:0:0:0:
256,192,21205,1,0,0:0:0:0:
256,192,21280,1,0,0:0:0:0:
256,192,21430,1,0,0:0:0:0:
256,192,21580,1,8,0:0:0:0:
256,192,21880,1,8,0:0:0:0:
256,192,22180,1,8,0:0:0:0:
260,196,22480,1,8,0:0:0:0:
256,192,22630,1,0,0:0:0:0:
256,192,22780,1,8,0:0:0:0:
256,192,23080,1,0,0:0:0:0:
256,192,23230,1,0,0:0:0:0:
256,192,23380,1,8,0:0:0:0:
256,192,23530,1,0,0:0:0:0:
244,196,23605,1,0,0:0:0:0:
256,192,23680,1,0,0:0:0:0:
256,192,23830,1,0,0:0:0:0:
256,192,23980,1,8,0:0:0:0:
256,192,24130,1,0,0:0:0:0:
256,196,24280,1,8,0:0:0:0:
256,192,24580,1,8,0:0:0:0:
256,192,24880,1,8,0:0:0:0:
256,196,25330,1,8,0:0:0:0:
256,192,25480,1,0,0:0:0:0:
260,196,25630,1,0,0:0:0:0:
256,192,25780,1,8,0:0:0:0:
256,196,25930,1,0,0:0:0:0:
256,192,26005,1,0,0:0:0:0:
256,192,26080,1,0,0:0:0:0:
256,196,26230,1,0,0:0:0:0:
256,192,26380,1,8,0:0:0:0:
256,192,26680,1,0,0:0:0:0:
256,192,26980,1,8,0:0:0:0:
256,192,27280,1,0,0:0:0:0:
256,192,27430,1,0,0:0:0:0:
256,192,27580,1,8,0:0:0:0:
264,192,27880,1,0,0:0:0:0:
264,192,28030,1,0,0:0:0:0:
256,192,28180,1,8,0:0:0:0:
256,192,28330,1,0,0:0:0:0:
260,184,28480,1,8,0:0:0:0:
256,192,28680,1,8,0:0:0:0:
256,192,28780,1,8,0:0:0:0:
264,192,28980,1,8,0:0:0:0:
264,192,29080,1,4,0:0:0:0:
256,192,29380,1,8,0:0:0:0:
256,192,29980,1,8,0:0:0:0:
260,204,30280,1,0,0:0:0:0:
256,192,30580,1,8,0:0:0:0:
256,192,30880,1,0,0:0:0:0:
256,192,31030,1,0,0:0:0:0:
256,192,31180,1,8,0:0:0:0:
256,192,31480,1,0,0:0:0:0:
256,192,31780,1,8,0:0:0:0:
256,192,32080,1,0,0:0:0:0:
256,192,32380,1,8,0:0:0:0:
260,196,32530,1,8,0:0:0:0:
256,200,32830,1,0,0:0:0:0:
256,192,32980,1,8,0:0:0:0:
256,200,33280,1,0,0:0:0:0:
260,196,33430,1,0,0:0:0:0:
256,192,33580,1,12,0:0:0:0:
264,196,33730,1,0,0:0:0:0:
256,200,33805,1,0,0:0:0:0:
256,192,33880,1,0,0:0:0:0:
256,192,34030,1,0,0:0:0:0:
256,192,34180,1,8,0:0:0:0:
256,192,34480,1,8,0:0:0:0:
252,196,34630,1,0,0:0:0:0:
256,192,34780,1,8,0:0:0:0:
256,192,34930,1,0,0:0:0:0:
256,192,35005,1,0,0:0:0:0:
256,192,35080,1,0,0:0:0:0:
256,192,35230,1,8,0:0:0:0:
256,192,35380,1,8,0:0:0:0:
256,192,35680,1,8,0:0:0:0:
256,192,35830,1,0,0:0:0:0:
256,192,35980,1,8,0:0:0:0:
256,192,36280,1,12,0:0:0:0:
256,192,37230,1,0,0:0:0:0:
256,200,38080,1,8,0:0:0:0:
