osu file format v14

[General]
AudioFilename: audio.mp3
AudioLeadIn: 0
PreviewTime: 9622
Countdown: 0
SampleSet: Normal
StackLeniency: 0.7
Mode: 1
LetterboxInBreaks: 0
WidescreenStoryboard: 1

[Editor]
Bookmarks: 7480,9880,36280
DistanceSpacing: 0.8
BeatDivisor: 4
GridSize: 32
TimelineZoom: 1.4

[Metadata]
Title:Fisica o Quimica (TV Size)
TitleUnicode:Física o Química (TV Size)
Artist:Despistaos
ArtistUnicode:Despistaos
Creator:Arach
Version:Kantan
Source:Física o Química
Tags:lo que hemos vivido spanish rock espanol español tv series opening intro vized ida y vuelta producciones antena 3 foq
BeatmapID:2120614
BeatmapSetID:1013120

[Difficulty]
HPDrainRate:10
CircleSize:2
OverallDifficulty:3.5
ApproachRate:5
SliderMultiplier:1.4
SliderTickRate:1

[Events]
//Background and Video events
0,0,"foq-bg.jpg",0,0
//Break Periods
//Storyboard Layer 0 (Background)
//Storyboard Layer 1 (Fail)
//Storyboard Layer 2 (Pass)
//Storyboard Layer 3 (Foreground)
//Storyboard Layer 4 (Overlay)
//Storyboard Sound Samples

[TimingPoints]
280,300,4,1,0,100,1,0
9880,-100,4,1,0,100,0,1
29080,-100,4,1,0,100,0,0

[HitObjects]
256,192,280,5,4,0:0:0:0:
256,192,1180,1,8,0:0:0:0:
256,192,1780,1,8,0:0:0:0:
256,192,2080,1,0,0:0:0:0:
256,192,2680,1,0,0:0:0:0:
256,192,3580,1,8,0:0:0:0:
256,192,4180,1,8,0:0:0:0:
256,192,4480,1,0,0:0:0:0:
256,192,5080,1,4,0:0:0:0:
256,192,5680,1,8,0:0:0:0:
256,192,6280,1,0,0:0:0:0:
256,192,6880,1,8,0:0:0:0:
256,192,7480,1,12,0:0:0:0:
256,192,9580,1,4,0:0:0:0:
256,192,9880,1,12,0:0:0:0:
256,192,10480,1,0,0:0:0:0:
256,192,11080,1,8,0:0:0:0:
256,192,12280,1,0,0:0:0:0:
256,192,12580,1,8,0:0:0:0:
256,192,12880,1,8,0:0:0:0:
256,192,13480,1,0,0:0:0:0:
256,192,14680,1,8,0:0:0:0:
256,192,14980,1,8,0:0:0:0:
256,192,15280,1,8,0:0:0:0:
256,192,15880,1,0,0:0:0:0:
256,192,17080,1,0,0:0:0:0:
256,192,17380,1,8,0:0:0:0:
256,192,17680,1,8,0:0:0:0:
256,192,18280,1,8,0:0:0:0:
256,192,19180,1,8,0:0:0:0:
256,192,19480,1,0,0:0:0:0:
256,192,19780,1,12,0:0:0:0:
256,192,20680,1,0,0:0:0:0:
256,192,20980,1,8,0:0:0:0:
256,192,21880,1,8,0:0:0:0:
256,192,22180,1,8,0:0:0:0:
256,192,22480,1,8,0:0:0:0:
256,192,23080,1,0,0:0:0:0:
256,192,24280,1,8,0:0:0:0:
256,192,24580,1,8,0:0:0:0:
256,192,24880,1,8,0:0:0:0:
256,192,25480,1,0,0:0:0:0:
256,192,26380,1,8,0:0:0:0:
256,192,26680,1,0,0:0:0:0:
256,192,27280,1,0,0:0:0:0:
256,192,27880,1,0,0:0:0:0:
256,192,29080,1,4,0:0:0:0:
256,192,29980,1,8,0:0:0:0:
256,192,30280,1,0,0:0:0:0:
256,192,30580,1,8,0:0:0:0:
256,192,31180,1,8,0:0:0:0:
256,192,31780,1,8,0:0:0:0:
256,192,32380,1,8,0:0:0:0:
256,192,32680,1,0,0:0:0:0:
256,192,32980,1,8,0:0:0:0:
256,192,33580,1,12,0:0:0:0:
256,192,33880,1,0,0:0:0:0:
256,192,34480,1,8,0:0:0:0:
256,192,35380,1,0,0:0:0:0:
256,192,35680,1,8,0:0:0:0:
260,196,36280,1,12,0:0:0:0:
260,196,37230,1,0,0:0:0:0:
260,196,38080,1,8,0:0:0:0:
