osu file format v14

[General]
AudioFilename: audio.mp3
AudioLeadIn: 0
PreviewTime: 76481
Countdown: 0
SampleSet: Normal
StackLeniency: 0.5
Mode: 0
LetterboxInBreaks: 0
WidescreenStoryboard: 0

[Editor]
Bookmarks: 62516,90944,128277,156721,178037,192259,222481,250925
DistanceSpacing: 2.2
BeatDivisor: 4
GridSize: 32
TimelineZoom: 2.500003

[Metadata]
Title:Anaveis Foties
TitleUnicode:Ανάβεις φωτιές
Artist:Despina Vandi
ArtistUnicode:Δέσποινα Βανδή
Creator:Genjuro
Version:Inferno
Source:
Tags:greek pop
BeatmapID:1711083
BeatmapSetID:815885

[Difficulty]
HPDrainRate:6
CircleSize:4
OverallDifficulty:8
ApproachRate:8.5
SliderMultiplier:2
SliderTickRate:1

[Events]
//Background and Video events
0,0,"bg.jpg",0,70
//Break Periods
//Storyboard Layer 0 (Background)
//Storyboard Layer 1 (Fail)
//Storyboard Layer 2 (Pass)
//Storyboard Layer 3 (Foreground)
//Storyboard Layer 4 (Overlay)
//Storyboard Sound Samples

[TimingPoints]
2103,444.444444444444,4,2,0,70,1,0
28769,437.956204379562,4,2,0,70,1,0
32294,444.444444444444,4,2,0,70,1,0
62516,-83.3333333333333,4,1,0,70,0,1
76722,444.444444444444,4,1,0,70,1,1
76722,-71.4285714285714,4,1,0,70,0,1
90944,-100,4,2,0,70,0,0
128277,-83.3333333333333,4,1,0,70,0,1
142499,-71.4285714285714,4,1,0,70,0,1
156721,-100,4,2,0,70,0,0
170926,444.444444444444,4,2,0,70,1,0
178037,-100,4,2,0,70,0,1
192259,-100,4,2,0,70,0,0
222481,-100,4,2,0,70,0,1
250925,-100,4,2,0,70,0,0

[HitObjects]
256,192,30520,12,0,31834,0:0:0:0:
79,234,32294,6,0,L|216:241,1,100,0|0,0:0|0:0,0:0:0:0:
261,183,32738,1,0,0:0:0:0:
261,183,32849,1,0,0:0:0:0:
261,183,32960,1,0,0:0:0:0:
186,116,33182,1,0,0:0:0:0:
186,116,33405,1,0,0:0:0:0:
199,256,33627,2,0,P|242:277|314:264,1,100,0|0,0:0|0:0,0:0:0:0:
432,139,34071,6,0,B|388:161|371:216,1,100
393,308,34516,1,0,0:0:0:0:
393,308,34627,1,0,0:0:0:0:
393,308,34738,1,0,0:0:0:0:
462,236,34960,1,0,0:0:0:0:
462,236,35182,1,0,0:0:0:0:
299,343,35405,2,0,L|180:338,1,100
78,189,35849,6,0,P|123:209|153:249,1,100
59,284,36293,1,0,0:0:0:0:
59,284,36405,1,0,0:0:0:0:
59,284,36516,1,0,0:0:0:0:
151,206,36738,2,0,L|275:202,1,100
347,226,37182,1,0,0:0:0:0:
367,303,37627,6,0,P|360:254|378:208,1,100
459,262,38071,1,0,0:0:0:0:
459,262,38183,1,0,0:0:0:0:
459,262,38294,1,0,0:0:0:0:
317,275,38516,2,0,L|196:269,1,100
152,193,38960,1,0,0:0:0:0:
325,307,39182,1,0,0:0:0:0:
321,291,39293,1,0,0:0:0:0:
317,275,39405,6,0,L|217:270,1,100
128,316,39849,1,0,0:0:0:0:
128,316,39960,1,0,0:0:0:0:
128,316,40071,1,0,0:0:0:0:
131,216,40293,1,0,0:0:0:0:
131,216,40516,1,0,0:0:0:0:
226,245,40738,2,0,P|274:246|329:224,1,100
353,30,41182,6,0,L|343:130,1,100
423,189,41627,1,0,0:0:0:0:
423,189,41738,1,0,0:0:0:0:
423,189,41849,1,0,0:0:0:0:
435,89,42071,1,0,0:0:0:0:
435,89,42293,1,0,0:0:0:0:
343,130,42516,2,0,L|222:132,1,100
76,29,42960,6,0,P|125:39|161:73,1,100
78,129,43405,1,0,0:0:0:0:
78,129,43516,1,0,0:0:0:0:
78,129,43627,1,0,0:0:0:0:
172,56,43849,2,0,L|292:53,1,100
367,84,44293,1,0,0:0:0:0:
430,148,44738,6,0,P|396:112|386:63,1,100
485,64,45183,1,0,0:0:0:0:
485,64,45294,1,0,0:0:0:0:
485,64,45405,1,0,0:0:0:0:
377,117,45627,2,0,L|269:123,1,100
207,50,46071,1,0,0:0:0:0:
207,50,46182,1,0,0:0:0:0:
407,135,46405,1,0,0:0:0:0:
407,135,46516,6,0,L|299:141,1,100
239,214,46960,1,0,0:0:0:0:
239,214,47071,1,0,0:0:0:0:
239,214,47182,1,0,0:0:0:0:
338,225,47405,2,0,L|437:219,1,100
500,141,47849,1,0,0:0:0:0:
446,28,48293,6,0,P|467:73|464:123,1,100
365,143,48738,2,0,L|299:143,2,50
434,214,49182,1,0,0:0:0:0:
432,251,49293,1,0,0:0:0:0:
415,283,49404,1,0,0:0:0:0:
384,305,49515,1,0,0:0:0:0:
348,310,49626,5,0,0:0:0:0:
348,310,49738,1,0,0:0:0:0:
273,244,49960,1,0,0:0:0:0:
273,244,50071,6,0,L|161:251,1,100
125,338,50516,1,0,0:0:0:0:
125,338,50627,1,0,0:0:0:0:
125,338,50738,1,0,0:0:0:0:
224,341,50960,1,0,0:0:0:0:
224,341,51182,1,0,0:0:0:0:
187,247,51405,2,0,L|185:128,1,100
221,55,51738,1,0,0:0:0:0:
221,55,51849,6,0,P|199:97|137:132,1,100
41,86,52293,1,0,0:0:0:0:
41,86,52405,1,0,0:0:0:0:
41,86,52516,1,0,0:0:0:0:
131,44,52738,1,0,0:0:0:0:
131,44,52960,1,0,0:0:0:0:
133,143,53182,2,0,L|136:260,1,100
117,329,53516,1,0,0:0:0:0:
117,329,53627,6,0,P|140:279|189:243,1,100
273,257,54071,1,0,0:0:0:0:
273,257,54182,1,0,0:0:0:0:
273,257,54293,1,0,0:0:0:0:
211,336,54516,1,0,0:0:0:0:
211,336,54738,1,0,0:0:0:0:
172,243,54960,2,0,L|173:137,1,100
152,34,55405,6,0,P|159:81|137:153,1,100
48,143,55849,1,0,0:0:0:0:
48,143,55960,1,0,0:0:0:0:
48,143,56071,1,0,0:0:0:0:
180,101,56293,2,0,L|315:91,1,100
421,176,56738,2,0,L|322:184,1,100
335,10,57182,5,0,0:0:0:0:
335,10,57849,5,0,0:0:0:0:
335,26,57923,1,0,0:0:0:0:
336,43,57997,1,0,0:0:0:0:
336,59,58071,1,4,0:0:0:0:
73,182,58960,5,0,0:0:0:0:
73,182,59701,6,0,L|23:206,2,33.3333333333333,0|0|4,0:0|0:0|0:0,0:0:0:0:
471,217,60738,5,0,0:0:0:0:
471,217,61627,5,0,0:0:0:0:
445,210,61849,1,0,0:0:0:0:
109,340,62516,6,0,P|132:283|130:204,1,119.999996337891,4|8,0:0|0:0,0:0:0:0:
59,131,62960,1,0,0:0:0:0:
59,131,63071,1,0,0:0:0:0:
59,131,63182,1,8,0:0:0:0:
170,273,63405,1,0,0:0:0:0:
29,243,63627,1,0,0:0:0:0:
163,192,63849,2,0,P|218:210|252:270,1,119.999996337891,8|0,0:0|0:0,0:0:0:0:
240,332,64182,1,0,0:0:0:0:
240,332,64293,5,0,0:0:0:0:
243,187,64516,1,8,0:0:0:0:
126,271,64738,1,0,0:0:0:0:
126,271,64849,1,0,0:0:0:0:
126,271,64960,1,8,0:0:0:0:
330,259,65182,5,0,0:0:0:0:
223,161,65405,1,0,0:0:0:0:
223,161,65516,1,0,0:0:0:0:
223,161,65627,1,8,0:0:0:0:
179,349,65849,1,0,0:0:0:0:
313,238,66071,6,0,L|441:225,1,119.999996337891,0|8,0:0|0:0,0:0:0:0:
477,327,66516,1,0,0:0:0:0:
477,327,66627,1,0,0:0:0:0:
477,327,66738,1,8,0:0:0:0:
366,193,66960,1,0,0:0:0:0:
317,328,67182,1,0,0:0:0:0:
448,208,67405,2,0,P|435:150|389:113,1,119.999996337891,8|0,0:0|0:0,0:0:0:0:
318,117,67738,1,0,0:0:0:0:
318,117,67849,5,0,0:0:0:0:
480,151,68071,1,8,0:0:0:0:
380,254,68293,1,0,0:0:0:0:
380,254,68405,1,0,0:0:0:0:
380,254,68516,1,8,0:0:0:0:
381,63,68738,5,0,0:0:0:0:
493,181,68960,1,0,0:0:0:0:
493,181,69071,1,0,0:0:0:0:
493,181,69182,2,0,L|420:192,1,59.9999981689454,8|0,0:0|0:0,0:0:0:0:
306,169,69405,2,8,L|366:161,1,59.9999981689454
460,287,69627,6,0,P|426:328|360:339,1,119.999996337891,4|8,0:0|0:0,0:0:0:0:
284,218,70071,1,0,0:0:0:0:
284,218,70182,1,0,0:0:0:0:
284,218,70293,1,8,0:0:0:0:
443,357,70516,1,0,0:0:0:0:
439,213,70738,1,0,0:0:0:0:
280,307,70960,2,0,L|136:311,1,119.999996337891,8|0,0:0|0:0,0:0:0:0:
94,281,71293,1,0,0:0:0:0:
94,281,71405,5,0,0:0:0:0:
222,215,71627,1,8,0:0:0:0:
199,357,71849,1,0,0:0:0:0:
199,357,71960,1,0,0:0:0:0:
199,357,72071,1,8,0:0:0:0:
117,156,72293,5,0,0:0:0:0:
317,218,72516,1,0,0:0:0:0:
317,218,72627,1,0,0:0:0:0:
317,218,72738,1,8,0:0:0:0:
108,320,72960,1,0,0:0:0:0:
158,82,73182,6,0,L|161:201,1,119.999996337891,0|8,0:0|0:0,0:0:0:0:
22,243,73627,1,0,0:0:0:0:
22,243,73738,1,0,0:0:0:0:
22,243,73849,1,8,0:0:0:0:
199,146,74071,1,0,0:0:0:0:
66,89,74293,1,0,0:0:0:0:
144,212,74516,2,0,P|200:229|271:198,1,119.999996337891,8|0,0:0|0:0,0:0:0:0:
293,148,74849,1,0,0:0:0:0:
293,148,74960,5,0,0:0:0:0:
200,270,75182,1,8,0:0:0:0:
133,111,75405,1,0,0:0:0:0:
133,111,75516,1,0,0:0:0:0:
133,111,75627,1,8,0:0:0:0:
442,144,75849,5,0,0:0:0:0:
397,151,75960,1,0,0:0:0:0:
353,157,76071,1,0,0:0:0:0:
308,163,76182,1,0,0:0:0:0:
264,170,76293,1,8,0:0:0:0:
338,19,76516,2,8,L|356:92,1,59.9999981689454
402,255,76722,6,0,P|351:287|251:273,1,139.999995727539,4|8,0:0|0:0,0:0:0:0:
271,116,77166,1,0,0:0:0:0:
271,116,77277,1,0,0:0:0:0:
271,116,77388,1,8,0:0:0:0:
343,321,77610,1,0,0:0:0:0:
368,154,77833,1,0,0:0:0:0:
172,275,78055,1,8,0:0:0:0:
430,325,78277,1,0,0:0:0:0:
280,52,78499,6,0,P|286:121|358:179,1,139.999995727539,0|8,0:0|0:0,0:0:0:0:
496,130,78944,1,0,0:0:0:0:
496,130,79055,1,0,0:0:0:0:
496,130,79166,1,8,0:0:0:0:
255,128,79388,1,0,0:0:0:0:
376,12,79610,1,0,0:0:0:0:
376,12,79722,1,0,0:0:0:0:
376,12,79833,1,8,0:0:0:0:
416,213,80055,1,0,0:0:0:0:
258,44,80277,6,0,P|191:68|169:151,1,139.999995727539,0|8,0:0|0:0,0:0:0:0:
197,230,80722,1,0,0:0:0:0:
197,230,80833,1,0,0:0:0:0:
197,230,80944,1,8,0:0:0:0:
156,39,81166,1,0,0:0:0:0:
254,131,81388,1,0,0:0:0:0:
64,168,81610,2,0,L|45:320,1,139.999995727539,8|0,0:0|0:0,0:0:0:0:
105,368,81944,1,0,0:0:0:0:
105,368,82055,5,0,0:0:0:0:
7,231,82277,1,8,0:0:0:0:
214,184,82499,1,0,0:0:0:0:
214,184,82610,1,0,0:0:0:0:
214,184,82722,1,8,0:0:0:0:
116,320,82944,5,0,0:0:0:0:
84,102,83166,1,0,0:0:0:0:
84,102,83277,1,0,0:0:0:0:
84,102,83388,2,0,L|172:87,1,69.9999978637696,8|0,0:0|0:0,0:0:0:0:
300,108,83610,2,8,L|231:120,1,69.9999978637696
175,314,83833,6,0,P|159:246|168:177,1,139.999995727539,4|8,0:0|0:0,0:0:0:0:
253,32,84277,1,0,0:0:0:0:
253,32,84388,1,0,0:0:0:0:
253,32,84499,1,8,0:0:0:0:
280,192,84721,1,0,0:0:0:0:
104,110,84944,1,0,0:0:0:0:
369,34,85166,1,8,0:0:0:0:
220,270,85388,1,0,0:0:0:0:
144,26,85610,6,0,P|183:78|183:158,1,139.999995727539,0|8,0:0|0:0,0:0:0:0:
66,206,86055,1,0,0:0:0:0:
66,206,86166,1,0,0:0:0:0:
66,206,86277,1,8,0:0:0:0:
224,78,86499,5,0,0:0:0:0:
217,245,86721,1,0,0:0:0:0:
217,245,86833,1,0,0:0:0:0:
217,245,86944,1,8,0:0:0:0:
38,104,87166,1,0,0:0:0:0:
296,146,87388,6,0,L|476:120,1,139.999995727539,0|8,0:0|0:0,0:0:0:0:
388,7,87833,1,0,0:0:0:0:
388,7,87944,1,0,0:0:0:0:
388,7,88055,1,8,0:0:0:0:
370,173,88277,1,0,0:0:0:0:
497,63,88499,1,0,0:0:0:0:
296,134,88721,2,0,P|293:203|342:252,1,139.999995727539,8|0,0:0|0:0,0:0:0:0:
424,247,89055,1,0,0:0:0:0:
424,247,89166,5,0,0:0:0:0:
246,207,89388,1,8,0:0:0:0:
422,121,89610,1,0,0:0:0:0:
222,224,89833,1,8,0:0:0:0:
462,297,90055,1,0,0:0:0:0:
329,50,90277,1,0,0:0:0:0:
218,337,90499,1,8,0:0:0:0:
484,186,90944,6,0,B|384:160|384:224|288:192,1,200
329,69,91610,5,0,0:0:0:0:
331,85,91684,1,0,0:0:0:0:
334,101,91758,1,0,0:0:0:0:
336,118,91832,1,4,0:0:0:0:
230,117,92277,1,0,0:0:0:0:
404,339,92721,6,0,P|471:318|394:263,1,200
270,316,93462,6,0,L|228:327,2,33.3333333333333,0|0|4,0:0|0:0|0:0,0:0:0:0:
317,233,94055,1,0,0:0:0:0:
41,53,94499,5,0,0:0:0:0:
256,192,96277,12,0,97610,0:0:0:0:
433,150,98055,6,0,L|296:143,1,100,0|0,0:0|0:0,0:0:0:0:
251,201,98499,1,0,0:0:0:0:
251,201,98610,1,0,0:0:0:0:
251,201,98721,1,0,0:0:0:0:
326,268,98943,1,0,0:0:0:0:
326,268,99166,1,0,0:0:0:0:
313,128,99388,2,0,P|270:107|198:120,1,100,0|0,0:0|0:0,0:0:0:0:
80,245,99833,6,0,B|124:223|141:168,1,100
119,76,100277,1,0,0:0:0:0:
119,76,100388,1,0,0:0:0:0:
119,76,100499,1,0,0:0:0:0:
50,148,100721,1,0,0:0:0:0:
50,148,100943,1,0,0:0:0:0:
213,41,101166,2,0,L|332:46,1,100
434,195,101610,6,0,P|389:175|359:135,1,100
453,100,102054,1,0,0:0:0:0:
453,100,102166,1,0,0:0:0:0:
453,100,102277,1,0,0:0:0:0:
361,178,102499,2,0,L|237:182,1,100
165,158,102943,1,0,0:0:0:0:
145,81,103388,6,0,P|152:130|134:176,1,100
53,122,103832,1,0,0:0:0:0:
53,122,103944,1,0,0:0:0:0:
53,122,104055,1,0,0:0:0:0:
195,109,104277,2,0,L|316:115,1,100
360,191,104721,1,0,0:0:0:0:
187,77,104943,1,0,0:0:0:0:
191,93,105054,1,0,0:0:0:0:
195,109,105166,6,0,L|295:114,1,100
384,68,105610,1,0,0:0:0:0:
384,68,105721,1,0,0:0:0:0:
384,68,105832,1,0,0:0:0:0:
381,168,106054,1,0,0:0:0:0:
381,168,106277,1,0,0:0:0:0:
286,139,106499,2,0,P|238:138|183:160,1,100
159,354,106943,6,0,L|169:254,1,100
89,195,107388,1,0,0:0:0:0:
89,195,107499,1,0,0:0:0:0:
89,195,107610,1,0,0:0:0:0:
77,295,107832,1,0,0:0:0:0:
77,295,108054,1,0,0:0:0:0:
169,254,108277,2,0,L|290:252,1,100
436,355,108721,6,0,P|387:345|351:311,1,100
434,255,109166,1,0,0:0:0:0:
434,255,109277,1,0,0:0:0:0:
434,255,109388,1,0,0:0:0:0:
340,328,109610,2,0,L|220:331,1,100
145,300,110054,1,0,0:0:0:0:
82,236,110499,6,0,P|116:272|126:321,1,100
27,320,110944,1,0,0:0:0:0:
27,320,111055,1,0,0:0:0:0:
27,320,111166,1,0,0:0:0:0:
135,267,111388,2,0,L|243:261,1,100
305,334,111832,1,0,0:0:0:0:
305,334,111943,1,0,0:0:0:0:
105,249,112166,1,0,0:0:0:0:
105,249,112277,6,0,L|213:243,1,100
273,170,112721,1,0,0:0:0:0:
273,170,112832,1,0,0:0:0:0:
273,170,112943,1,0,0:0:0:0:
174,159,113166,2,0,L|75:165,1,100
12,243,113610,1,0,0:0:0:0:
66,356,114054,6,0,P|45:311|48:261,1,100
147,241,114499,2,0,L|213:241,2,50
78,170,114943,1,0,0:0:0:0:
80,133,115054,1,0,0:0:0:0:
97,101,115165,1,0,0:0:0:0:
128,79,115276,1,0,0:0:0:0:
164,74,115387,5,0,0:0:0:0:
164,74,115499,1,0,0:0:0:0:
239,140,115721,1,0,0:0:0:0:
239,140,115832,6,0,L|351:133,1,100
387,46,116277,1,0,0:0:0:0:
387,46,116388,1,0,0:0:0:0:
387,46,116499,1,0,0:0:0:0:
288,43,116721,1,0,0:0:0:0:
288,43,116943,1,0,0:0:0:0:
325,137,117166,2,0,L|327:256,1,100
291,329,117499,1,0,0:0:0:0:
291,329,117610,6,0,P|313:287|375:252,1,100
471,298,118054,1,0,0:0:0:0:
471,298,118166,1,0,0:0:0:0:
471,298,118277,1,0,0:0:0:0:
381,340,118499,1,0,0:0:0:0:
381,340,118721,1,0,0:0:0:0:
379,241,118943,2,0,L|376:124,1,100
395,55,119277,1,0,0:0:0:0:
395,55,119388,6,0,P|372:105|323:141,1,100
239,127,119832,1,0,0:0:0:0:
239,127,119943,1,0,0:0:0:0:
239,127,120054,1,0,0:0:0:0:
301,48,120277,1,0,0:0:0:0:
301,48,120499,1,0,0:0:0:0:
340,141,120721,2,0,L|339:247,1,100
360,350,121166,6,0,P|353:303|375:231,1,100
464,241,121610,1,0,0:0:0:0:
464,241,121721,1,0,0:0:0:0:
464,241,121832,1,0,0:0:0:0:
332,283,122054,2,0,L|197:293,1,100
91,208,122499,2,0,L|190:200,1,100
177,374,122943,5,0,0:0:0:0:
177,374,123610,5,0,0:0:0:0:
177,358,123684,1,0,0:0:0:0:
176,341,123758,1,0,0:0:0:0:
176,325,123832,1,4,0:0:0:0:
439,202,124721,5,0,0:0:0:0:
439,202,125462,6,0,L|489:178,2,33.3333333333333,0|0|4,0:0|0:0|0:0,0:0:0:0:
41,167,126499,5,0,0:0:0:0:
41,167,127388,5,0,0:0:0:0:
67,174,127610,1,0,0:0:0:0:
403,44,128277,6,0,P|380:101|382:180,1,119.999996337891,4|8,0:0|0:0,0:0:0:0:
453,253,128721,1,0,0:0:0:0:
453,253,128832,1,0,0:0:0:0:
453,253,128943,1,8,0:0:0:0:
342,111,129166,1,0,0:0:0:0:
483,141,129388,1,0,0:0:0:0:
349,192,129610,2,0,P|294:174|260:114,1,119.999996337891,8|0,0:0|0:0,0:0:0:0:
272,52,129943,1,0,0:0:0:0:
272,52,130054,5,0,0:0:0:0:
269,197,130277,1,8,0:0:0:0:
386,113,130499,1,0,0:0:0:0:
386,113,130610,1,0,0:0:0:0:
386,113,130721,1,8,0:0:0:0:
182,125,130943,5,0,0:0:0:0:
289,223,131166,1,0,0:0:0:0:
289,223,131277,1,0,0:0:0:0:
289,223,131388,1,8,0:0:0:0:
333,35,131610,1,0,0:0:0:0:
199,146,131832,6,0,L|71:159,1,119.999996337891,0|8,0:0|0:0,0:0:0:0:
35,57,132277,1,0,0:0:0:0:
35,57,132388,1,0,0:0:0:0:
35,57,132499,1,8,0:0:0:0:
146,191,132721,1,0,0:0:0:0:
195,56,132943,1,0,0:0:0:0:
64,176,133166,2,0,P|77:234|123:271,1,119.999996337891,8|0,0:0|0:0,0:0:0:0:
194,267,133499,1,0,0:0:0:0:
194,267,133610,5,0,0:0:0:0:
32,233,133832,1,8,0:0:0:0:
132,130,134054,1,0,0:0:0:0:
132,130,134166,1,0,0:0:0:0:
132,130,134277,1,8,0:0:0:0:
131,321,134499,5,0,0:0:0:0:
19,203,134721,1,0,0:0:0:0:
19,203,134832,1,0,0:0:0:0:
19,203,134943,2,0,L|92:192,1,59.9999981689454,8|0,0:0|0:0,0:0:0:0:
206,215,135166,2,8,L|146:223,1,59.9999981689454
52,97,135388,6,0,P|86:56|152:45,1,119.999996337891,4|8,0:0|0:0,0:0:0:0:
228,166,135832,1,0,0:0:0:0:
228,166,135943,1,0,0:0:0:0:
228,166,136054,1,8,0:0:0:0:
69,27,136277,1,0,0:0:0:0:
73,171,136499,1,0,0:0:0:0:
232,77,136721,2,0,L|376:73,1,119.999996337891,8|0,0:0|0:0,0:0:0:0:
418,103,137054,1,0,0:0:0:0:
418,103,137166,5,0,0:0:0:0:
290,169,137388,1,8,0:0:0:0:
313,27,137610,1,0,0:0:0:0:
313,27,137721,1,0,0:0:0:0:
313,27,137832,1,8,0:0:0:0:
395,228,138054,5,0,0:0:0:0:
195,166,138277,1,0,0:0:0:0:
195,166,138388,1,0,0:0:0:0:
195,166,138499,1,8,0:0:0:0:
404,64,138721,1,0,0:0:0:0:
354,302,138943,6,0,L|351:183,1,119.999996337891,0|8,0:0|0:0,0:0:0:0:
490,141,139388,1,0,0:0:0:0:
490,141,139499,1,0,0:0:0:0:
490,141,139610,1,8,0:0:0:0:
313,238,139832,1,0,0:0:0:0:
446,295,140054,1,0,0:0:0:0:
368,172,140277,2,0,P|312:155|241:186,1,119.999996337891,8|0,0:0|0:0,0:0:0:0:
219,236,140610,1,0,0:0:0:0:
219,236,140721,5,0,0:0:0:0:
312,114,140943,1,8,0:0:0:0:
379,273,141166,1,0,0:0:0:0:
379,273,141277,1,0,0:0:0:0:
379,273,141388,1,8,0:0:0:0:
70,240,141610,5,0,0:0:0:0:
115,233,141721,1,0,0:0:0:0:
159,227,141832,1,0,0:0:0:0:
204,221,141943,1,0,0:0:0:0:
248,214,142054,1,8,0:0:0:0:
174,365,142277,2,8,L|156:292,1,59.9999981689454
110,129,142500,6,0,P|161:97|261:111,1,139.999995727539,4|8,0:0|0:0,0:0:0:0:
241,268,142944,1,0,0:0:0:0:
241,268,143055,1,0,0:0:0:0:
241,268,143166,1,8,0:0:0:0:
169,63,143388,1,0,0:0:0:0:
144,230,143611,1,0,0:0:0:0:
340,109,143833,1,8,0:0:0:0:
82,59,144055,1,0,0:0:0:0:
232,332,144277,6,0,P|226:263|154:205,1,139.999995727539,0|8,0:0|0:0,0:0:0:0:
16,254,144722,1,0,0:0:0:0:
16,254,144833,1,0,0:0:0:0:
16,254,144944,1,8,0:0:0:0:
257,256,145166,1,0,0:0:0:0:
136,372,145388,1,0,0:0:0:0:
136,372,145500,1,0,0:0:0:0:
136,372,145611,1,8,0:0:0:0:
96,171,145833,1,0,0:0:0:0:
254,340,146055,6,0,P|321:316|343:233,1,139.999995727539,0|8,0:0|0:0,0:0:0:0:
315,154,146500,1,0,0:0:0:0:
315,154,146611,1,0,0:0:0:0:
315,154,146722,1,8,0:0:0:0:
356,345,146944,1,0,0:0:0:0:
258,253,147166,1,0,0:0:0:0:
448,216,147388,2,0,L|467:64,1,139.999995727539,8|0,0:0|0:0,0:0:0:0:
407,16,147722,1,0,0:0:0:0:
407,16,147833,5,0,0:0:0:0:
505,153,148055,1,8,0:0:0:0:
298,200,148277,1,0,0:0:0:0:
298,200,148388,1,0,0:0:0:0:
298,200,148500,1,8,0:0:0:0:
396,64,148722,5,0,0:0:0:0:
428,282,148944,1,0,0:0:0:0:
428,282,149055,1,0,0:0:0:0:
428,282,149166,2,0,L|340:297,1,69.9999978637696,8|0,0:0|0:0,0:0:0:0:
212,276,149388,2,8,L|281:264,1,69.9999978637696
337,70,149611,6,0,P|353:138|344:207,1,139.999995727539,4|8,0:0|0:0,0:0:0:0:
259,352,150055,1,0,0:0:0:0:
259,352,150166,1,0,0:0:0:0:
259,352,150277,1,8,0:0:0:0:
232,192,150499,1,0,0:0:0:0:
408,274,150722,1,0,0:0:0:0:
143,350,150944,1,8,0:0:0:0:
292,114,151166,1,0,0:0:0:0:
368,358,151388,6,0,P|329:306|329:226,1,139.999995727539,0|8,0:0|0:0,0:0:0:0:
446,178,151833,1,0,0:0:0:0:
446,178,151944,1,0,0:0:0:0:
446,178,152055,1,8,0:0:0:0:
288,306,152277,5,0,0:0:0:0:
295,139,152499,1,0,0:0:0:0:
295,139,152611,1,0,0:0:0:0:
295,139,152722,1,8,0:0:0:0:
474,280,152944,1,0,0:0:0:0:
216,238,153166,6,0,L|36:264,1,139.999995727539,0|8,0:0|0:0,0:0:0:0:
124,377,153611,1,0,0:0:0:0:
124,377,153722,1,0,0:0:0:0:
124,377,153833,1,8,0:0:0:0:
142,211,154055,1,0,0:0:0:0:
15,321,154277,1,0,0:0:0:0:
216,250,154499,2,0,P|219:181|170:132,1,139.999995727539,8|0,0:0|0:0,0:0:0:0:
88,137,154833,1,0,0:0:0:0:
88,137,154944,5,0,0:0:0:0:
266,177,155166,1,8,0:0:0:0:
90,263,155388,1,0,0:0:0:0:
290,160,155611,1,8,0:0:0:0:
50,87,155833,1,0,0:0:0:0:
183,334,156055,1,0,0:0:0:0:
294,47,156277,1,8,0:0:0:0:
28,198,156722,6,0,B|128:224|128:160|224:192,1,200
183,315,157388,5,0,0:0:0:0:
181,299,157462,1,0,0:0:0:0:
178,283,157536,1,0,0:0:0:0:
176,266,157610,1,4,0:0:0:0:
282,267,158055,1,0,0:0:0:0:
108,45,158499,6,0,P|41:66|118:121,1,200
242,68,159240,6,0,L|284:57,2,33.3333333333333,0|0|4,0:0|0:0|0:0,0:0:0:0:
195,151,159833,1,0,0:0:0:0:
471,331,160277,5,0,0:0:0:0:
256,192,162055,12,0,163388,0:0:0:0:
