osu file format v14

[General]
AudioFilename: Undone.mp3
AudioLeadIn: 0
PreviewTime: 136905
Countdown: 0
SampleSet: Normal
StackLeniency: 0.7
Mode: 0
LetterboxInBreaks: 0
WidescreenStoryboard: 0

[Editor]
Bookmarks: 27595,114836,148629,193112,212767,213285
DistanceSpacing: 1.6
BeatDivisor: 4
GridSize: 4
TimelineZoom: 2.1

[Metadata]
Title:Undone (feat. Steklo)
TitleUnicode:Undone (feat. Steklo)
Artist:Desmeon
ArtistUnicode:Desmeon
Creator:Pati
Version:140317
Source:
Tags:
BeatmapID:1240747
BeatmapSetID:585774

[Difficulty]
HPDrainRate:6
CircleSize:4
OverallDifficulty:8.4
ApproachRate:9.2
SliderMultiplier:1.94
SliderTickRate:1

[Events]
//Background and Video events
0,0,"neverforgetthisday.jpg",0,0
//Break Periods
2,44691,46680
2,115036,123921
//Storyboard Layer 0 (Background)
//Storyboard Layer 1 (Fail)
//Storyboard Layer 2 (Pass)
//Storyboard Layer 3 (Foreground)
//Storyboard Sound Samples

[TimingPoints]
354,344.827586206897,4,1,0,100,1,0
354,-125,4,1,0,100,0,0
19319,-111.111111111111,4,1,0,100,0,0
19664,-100,4,1,0,100,0,0
20181,-90.9090909090909,4,1,0,100,0,0
20698,-83.3333333333333,4,1,0,100,0,0
21043,-142.857142857143,4,1,0,100,0,0
21388,-142.857142857143,4,1,0,5,0,0
21733,-100,4,1,0,100,0,0
66560,-166.666666666667,4,1,0,100,0,0
67250,-62.5,4,1,0,100,0,0
67595,-83.3333333333333,4,1,0,100,0,0
68285,-125,4,1,0,100,0,0
68629,-100,4,1,0,100,0,0
69664,-71.4285714285714,4,1,0,100,0,0
70009,-62.5,4,1,0,100,0,0
70354,-83.3333333333333,4,1,0,100,0,0
71388,-125,4,1,0,100,0,0
72078,-100,4,1,0,100,0,0
72422,-55.5555555555556,4,1,0,100,0,0
72767,-62.5,4,1,0,100,0,0
73112,-83.3333333333333,4,1,0,100,0,0
74147,-100,4,1,0,100,0,0
74836,-71.4285714285714,4,1,0,100,0,0
75181,-166.666666666667,4,1,0,100,0,0
75526,-125,4,1,0,100,0,0
75871,-100,4,1,0,100,0,0
76560,-83.3333333333333,4,1,0,100,0,0
77250,-71.4285714285714,4,1,0,100,0,0
77595,-166.666666666667,4,1,0,100,0,0
78285,-62.5,4,1,0,100,0,0
79319,-125,4,1,0,100,0,0
79664,-100,4,1,0,100,0,0
80698,-71.4285714285714,4,1,0,100,0,0
81043,-62.5,4,1,0,100,0,0
82078,-83.3333333333333,4,1,0,100,0,0
82422,-125,4,1,0,100,0,0
83112,-100,4,1,0,100,0,0
83457,-55.5555555555556,4,1,0,100,0,0
83802,-62.5,4,1,0,100,0,0
84147,-83.3333333333333,4,1,0,100,0,0
85181,-100,4,1,0,100,0,0
85871,-71.4285714285714,4,1,0,100,0,0
88629,-166.666666666667,4,1,0,100,0,0
89319,-62.5,4,1,0,100,0,0
89664,-83.3333333333333,4,1,0,100,0,0
90354,-125,4,1,0,100,0,0
90698,-100,4,1,0,100,0,0
91733,-71.4285714285714,4,1,0,100,0,0
92078,-62.5,4,1,0,100,0,0
92423,-83.3333333333333,4,1,0,100,0,0
93457,-125,4,1,0,100,0,0
94147,-100,4,1,0,100,0,0
94491,-55.5555555555556,4,1,0,100,0,0
94836,-62.5,4,1,0,100,0,0
95181,-83.3333333333333,4,1,0,100,0,0
96216,-100,4,1,0,100,0,0
96905,-71.4285714285714,4,1,0,100,0,0
97250,-166.666666666667,4,1,0,100,0,0
97595,-125,4,1,0,100,0,0
97940,-100,4,1,0,100,0,0
98629,-83.3333333333333,4,1,0,100,0,0
99319,-71.4285714285714,4,1,0,100,0,0
99664,-166.666666666667,4,1,0,100,0,0
100354,-62.5,4,1,0,100,0,0
101388,-125,4,1,0,100,0,0
101733,-100,4,1,0,100,0,0
102767,-71.4285714285714,4,1,0,100,0,0
103112,-62.5,4,1,0,100,0,0
104147,-83.3333333333333,4,1,0,100,0,0
104491,-125,4,1,0,100,0,0
104836,-50,4,1,0,100,0,0
105181,-100,4,1,0,100,0,0
105526,-55.5555555555556,4,1,0,100,0,0
105871,-62.5,4,1,0,100,0,0
106216,-83.3333333333333,4,1,0,100,0,0
107250,-100,4,1,0,100,0,0
107940,-71.4285714285714,4,1,0,100,0,0
126733,-100,4,1,0,100,0,0
136905,-133.333333333333,4,1,0,70,0,0
136991,-133.333333333333,4,1,0,5,0,0
137078,-125,4,1,0,70,0,0
137164,-125,4,1,0,5,0,0
137250,-117.647058823529,4,1,0,70,0,0
137336,-117.647058823529,4,1,0,5,0,0
137422,-111.111111111111,4,1,0,70,0,0
137509,-111.111111111111,4,1,0,5,0,0
137595,-105.263157894737,4,1,0,70,0,0
137681,-105.263157894737,4,1,0,5,0,0
137767,-100,4,1,0,70,0,0
137854,-100,4,1,0,5,0,0
137940,-90.9090909090909,4,1,0,70,0,0
138026,-90.9090909090909,4,1,0,5,0,0
138112,-83.3333333333333,4,1,0,70,0,0
138198,-83.3333333333333,4,1,0,5,0,0
138285,-74.0740740740741,4,1,0,100,0,0
138371,-74.0740740740741,4,1,0,40,0,0
138974,-74.0740740740741,4,1,0,100,0,0
139147,-111.111111111111,4,1,0,40,0,0
139405,-111.111111111111,4,1,0,5,0,0
139491,-111.111111111111,4,1,0,40,0,0
139578,-111.111111111111,4,1,0,5,0,0
139664,-90.9090909090909,4,1,0,100,0,0
140354,-111.111111111111,4,1,0,100,0,0
141043,-74.0740740740741,4,1,0,100,0,0
142078,-111.111111111111,4,1,0,40,0,0
142164,-111.111111111111,4,1,0,5,0,0
142250,-111.111111111111,4,1,0,40,0,0
142336,-111.111111111111,4,1,0,5,0,0
142422,-111.111111111111,4,1,0,100,0,0
143802,-74.0740740740741,4,1,0,100,0,0
145181,-74.0740740740741,4,1,0,66,0,0
146905,-95.2380952380952,4,1,0,100,0,0
150526,344.827586206897,4,1,0,100,1,0
170957,-100,4,1,0,40,0,0
171732,-100,4,1,0,30,0,0
172594,-100,4,1,0,20,0,0
173974,-100,4,1,0,10,0,0
175353,-100,4,1,0,5,0,0

[HitObjects]
118,127,354,6,0,P|156:122|198:125,1,77.6
297,194,698,1,0,0:0:0:0:
407,136,871,2,0,P|418:96|413:56,2,77.6
441,255,1388,1,0,0:0:0:0:
441,255,1560,1,0,0:0:0:0:
332,315,1733,6,0,P|290:311|240:320,1,77.6
141,366,2078,1,0,0:0:0:0:
76,260,2250,2,0,L|76:165,1,77.6
165,95,2595,1,0,0:0:0:0:
257,177,2767,6,0,B|283:180|300:169|300:169|309:178|309:178|340:166|369:174,1,116.4
421,229,3112,6,0,P|417:302|337:329,1,155.2
241,269,3629,2,0,P|173:298|169:372,1,155.2
83,280,4147,1,0,0:0:0:0:
83,280,4319,1,0,0:0:0:0:
216,94,4491,5,0,0:0:0:0:
241,269,4664,1,0,0:0:0:0:
68,184,4836,1,0,0:0:0:0:
277,159,5009,2,0,L|355:170,1,77.6
241,269,5354,1,0,0:0:0:0:
211,78,5526,6,0,B|202:62|206:38|206:38|179:67|189:130,1,116.4
140,171,5871,6,0,P|103:179|50:164,1,77.6
145,266,6216,1,0,0:0:0:0:
253,205,6388,2,0,P|290:197|343:212,1,77.6
430,275,6733,1,0,0:0:0:0:
456,153,6905,1,0,0:0:0:0:
456,153,7078,1,0,0:0:0:0:
307,307,7250,6,0,L|218:303,1,77.6
116,250,7595,1,0,0:0:0:0:
210,169,7767,2,0,L|299:165,1,77.6
406,203,8112,1,0,0:0:0:0:
367,84,8285,6,0,B|341:61|341:61|299:48|240:63,1,116.4
194,98,8629,6,0,P|125:85|98:0,1,155.2
188,192,9147,2,0,P|257:205|284:290,1,155.2
193,324,9664,2,0,B|190:315|201:281|201:281|119:342,1,116.4
143,324,10009,5,0,0:0:0:0:
284,276,10181,2,0,L|336:283,1,38.8
343,177,10354,2,0,L|317:208,1,38.8
431,235,10526,6,0,L|392:229,1,38.8
217,174,10698,2,0,L|243:205,1,38.8
392,312,10871,5,0,0:0:0:0:
280,127,11043,6,0,P|224:96|160:123,1,116.4
79,246,11388,6,0,B|94:138|94:138|35:185,1,155.2
215,260,11905,2,0,P|254:270|302:259,2,77.6
393,124,12422,1,0,0:0:0:0:
451,243,12595,1,0,0:0:0:0:
280,135,12767,5,0,0:0:0:0:
456,46,12940,1,0,0:0:0:0:
365,225,13112,1,0,0:0:0:0:
335,38,13285,1,0,0:0:0:0:
488,165,13457,1,0,0:0:0:0:
275,145,13629,1,0,0:0:0:0:
420,333,13802,6,0,B|381:283|381:283|344:268|312:288,1,116.4
265,325,14147,6,0,P|226:332|177:317,1,77.6
85,255,14491,1,0,0:0:0:0:
208,163,14664,2,0,P|230:199|228:241,2,77.6
93,82,15181,1,0,0:0:0:0:
221,24,15354,1,0,0:0:0:0:
208,163,15526,5,0,0:0:0:0:
172,86,15698,1,0,0:0:0:0:
154,229,15871,1,0,0:0:0:0:
295,153,16043,2,0,P|342:148|396:162,2,77.6
472,256,16560,6,0,B|491:212|470:166|470:166|455:191,1,116.4
394,232,16905,6,0,P|413:318|483:335,1,155.2
297,278,17422,2,0,P|261:265|216:269,1,77.6
116,330,17767,1,0,0:0:0:0:
180,166,17940,1,0,0:0:0:0:
22,227,18112,1,0,0:0:0:0:
222,267,18285,5,0,0:0:0:0:
85,124,18457,1,0,0:0:0:0:
39,324,18629,1,0,0:0:0:0:
202,148,18802,1,0,0:0:0:0:
371,316,18974,2,0,P|420:325|466:315,1,77.6
361,107,19319,6,0,B|301:151|353:171|281:219,1,130.949996003723
451,80,19664,6,0,P|399:24|283:50,1,194
50,213,20181,6,0,P|96:247|171:133,1,213.400006512451
94,48,20698,6,0,P|90:110|181:152,1,174.599994671631
298,114,21043,6,0,B|348:114|348:114|386:130|386:130|440:130,1,135.799995855713
430,130,21733,5,0,0:0:0:0:
355,317,21905,1,0,0:0:0:0:
355,317,21991,1,0,0:0:0:0:
355,317,22078,1,0,0:0:0:0:
238,67,22250,1,0,0:0:0:0:
30,307,22422,6,0,P|80:335|194:261,1,194
267,138,22940,1,0,0:0:0:0:
113,54,23112,2,0,P|63:46|13:59,1,97
129,172,23457,1,0,0:0:0:0:
223,50,23629,1,0,0:0:0:0:
343,160,23802,6,0,P|403:167|440:161,1,97
345,289,24147,2,0,P|293:255|199:279,1,145.5
164,325,24491,1,0,0:0:0:0:
74,192,24664,1,0,0:0:0:0:
204,94,24836,2,0,P|255:84|303:97,1,97
419,180,25181,6,0,P|375:263|284:263,1,194
167,160,25698,1,0,0:0:0:0:
74,285,25871,2,0,P|60:332|66:380,1,97
203,246,26216,2,0,P|193:197|165:158,1,97
46,93,26560,5,0,0:0:0:0:
244,64,26733,1,0,0:0:0:0:
97,240,26905,1,0,0:0:0:0:
134,5,27078,1,0,0:0:0:0:
277,202,27250,2,0,P|324:216|380:210,1,97
478,80,27595,2,0,P|431:66|375:72,1,97
169,150,27940,6,0,B|202:250|137:250|166:339,1,194
73,202,28457,1,0,0:0:0:0:
242,75,28629,2,0,P|299:66|349:80,1,97
442,224,28974,2,0,P|394:232|347:223,1,97
192,169,29319,6,0,P|144:159|97:168,1,97
187,347,29664,2,0,P|247:368|327:331,1,145.5
356,271,30009,1,0,0:0:0:0:
282,157,30181,1,0,0:0:0:0:
387,70,30354,2,0,L|486:69,1,97
349,167,30698,6,0,B|282:158|282:158|225:178|225:178|138:165,1,194
71,76,31216,1,0,0:0:0:0:
52,295,31388,2,0,P|88:332|235:285,1,194
326,214,31905,1,0,0:0:0:0:
459,333,32078,6,0,B|473:285|448:248|448:248|464:226|464:226|489:189|476:151,1,194
346,59,32595,1,0,0:0:0:0:
230,162,32767,2,0,P|160:179|93:135,1,145.5
175,88,33112,2,0,B|138:160|183:166|146:231,1,145.5
93,341,33457,6,0,P|141:331|189:339,1,97
328,379,33802,1,0,0:0:0:0:
473,319,33974,1,0,0:0:0:0:
458,173,34147,2,0,P|403:141|360:144,1,97
234,265,34491,2,0,P|285:272|330:253,1,97
140,92,34836,6,0,B|111:144|111:144|105:294,1,194
265,172,35354,1,0,0:0:0:0:
178,18,35526,2,0,L|74:10,1,97
261,84,35871,2,0,L|365:76,1,97
461,178,36216,6,0,P|473:236|379:317,1,194
233,213,36733,1,0,0:0:0:0:
70,291,36905,2,0,P|48:337|59:390,1,97
233,213,37250,2,0,P|186:189|132:193,1,97
272,313,37595,5,0,0:0:0:0:
401,226,37767,1,0,0:0:0:0:
464,347,37940,1,0,0:0:0:0:
287,190,38112,5,0,0:0:0:0:
420,41,38285,1,0,0:0:0:0:
500,234,38457,1,0,0:0:0:0:
343,108,38629,2,0,P|288:97|231:105,1,97
134,195,38974,6,0,B|111:263|136:326|136:326|169:267,1,194
274,210,39491,1,0,0:0:0:0:
386,268,39664,2,0,P|439:277|483:268,1,97
443,147,40009,2,0,P|390:138|346:147,1,97
252,228,40354,6,0,B|152:216|152:216|101:262,1,145.5
82,314,40698,1,0,0:0:0:0:
168,140,40871,1,0,0:0:0:0:
276,301,41043,2,0,P|341:305|391:261,1,97
448,171,41388,2,0,L|465:281,1,97
336,142,41733,6,0,P|267:99|161:152,1,194
245,247,42250,1,0,0:0:0:0:
406,177,42422,2,0,P|411:125|382:79,1,97
113,85,42767,2,0,P|91:127|97:175,1,97
247,343,43112,5,0,0:0:0:0:
221,127,43285,1,0,0:0:0:0:
221,127,43371,1,0,0:0:0:0:
221,127,43457,1,0,0:0:0:0:
107,369,43629,1,0,0:0:0:0:
293,205,43802,6,0,B|356:185|417:218|417:218|439:189|439:189|479:225|516:215|520:169|513:138|479:123|447:108|418:114|393:140,1,388
128,168,47250,6,0,L|152:281,1,97
245,49,47595,2,0,L|221:162,1,97
346,300,47940,6,0,P|398:324|487:297,1,145.5
414,234,48285,2,0,P|362:210|273:237,1,145.5
58,349,48629,6,0,L|42:247,1,97
189,64,48974,2,0,L|173:159,1,97
291,311,49319,6,0,B|342:302|405:290|405:290|444:312,1,145.5
346,225,49664,2,0,L|202:251,1,145.5
63,68,50009,6,0,L|184:114,1,97
449,68,50354,2,0,L|328:114,1,97
206,205,50698,6,0,P|180:280|220:359,1,145.5
288,234,51043,2,0,P|256:255|331:285,1,145.5
365,236,51388,6,0,P|323:164|239:173,1,145.5
206,205,51733,1,0,0:0:0:0:
343,368,51905,1,0,0:0:0:0:
406,130,52078,2,0,P|369:88|280:75,1,145.5
205,100,52422,6,0,L|167:112,3,32.3333333333333
88,256,52767,6,0,P|134:291|220:260,1,145.5
242,198,53112,1,0,0:0:0:0:
336,347,53285,1,0,0:0:0:0:
417,149,53457,2,0,P|382:115|285:124,1,145.5
471,225,53802,2,0,L|460:76,1,145.5
379,18,54147,6,0,L|368:163,1,145.5
361,240,54491,1,0,0:0:0:0:
204,72,54664,1,0,0:0:0:0:
102,260,54836,6,0,L|64:271,2,32.3333333333333
163,313,55009,2,0,L|201:324,2,32.3333333333333
178,226,55181,6,0,L|196:185,2,32.3333333333333
247,265,55354,2,0,L|259:294,2,32.3333333333333
407,82,55526,5,0,0:0:0:0:
361,279,55698,1,0,0:0:0:0:
211,43,55871,5,0,0:0:0:0:
257,240,56043,1,0,0:0:0:0:
367,27,56216,5,0,0:0:0:0:
206,180,56388,1,0,0:0:0:0:
188,5,56560,5,0,0:0:0:0:
311,183,56733,1,0,0:0:0:0:
127,106,56905,5,0,0:0:0:0:
117,313,57078,1,0,0:0:0:0:
244,105,57250,5,0,0:0:0:0:
70,248,57422,1,0,0:0:0:0:
93,69,57595,5,0,0:0:0:0:
225,245,57767,1,0,0:0:0:0:
312,61,57940,5,0,0:0:0:0:
145,196,58112,1,0,0:0:0:0:
384,305,58285,5,0,0:0:0:0:
230,145,58457,1,0,0:0:0:0:
200,331,58629,5,0,0:0:0:0:
338,164,58802,1,0,0:0:0:0:
149,146,58974,5,0,0:0:0:0:
383,91,59147,1,0,0:0:0:0:
251,250,59319,5,0,0:0:0:0:
43,215,59491,1,0,0:0:0:0:
303,33,59664,5,0,0:0:0:0:
361,281,59836,1,0,0:0:0:0:
112,324,60009,5,0,0:0:0:0:
174,79,60181,1,0,0:0:0:0:
406,188,60354,5,0,0:0:0:0:
110,236,60526,1,0,0:0:0:0:
304,47,60698,5,0,0:0:0:0:
304,47,60785,1,0,0:0:0:0:
304,47,60871,1,0,0:0:0:0:
197,295,61043,5,0,0:0:0:0:
217,322,61129,1,0,0:0:0:0:
248,334,61216,2,0,P|277:339|308:334,1,48.5
432,181,61388,5,0,0:0:0:0:
412,154,61474,1,0,0:0:0:0:
381,142,61561,2,0,P|352:137|321:142,1,48.5
135,224,61733,5,0,0:0:0:0:
141,185,61819,1,0,0:0:0:0:
147,146,61905,2,0,L|110:179,1,48.5
211,343,62078,5,0,0:0:0:0:
167,346,62164,1,0,0:0:0:0:
123,349,62250,2,0,L|171:325,1,48.5
288,274,62422,5,0,0:0:0:0:
336,264,62509,1,0,0:0:0:0:
384,270,62595,2,0,P|364:256|351:234,1,48.5
331,65,62767,5,0,0:0:0:0:
381,47,62854,1,0,0:0:0:0:
434,51,62940,2,0,P|412:76|392:80,1,48.5
204,41,63112,5,0,0:0:0:0:
147,26,63198,1,0,0:0:0:0:
89,38,63285,2,0,P|67:71|62:102,1,48.5
108,260,63457,5,0,0:0:0:0:
169,246,63543,1,0,0:0:0:0:
230,233,63629,1,0,0:0:0:0:
292,220,63716,1,0,0:0:0:0:
356,271,63802,5,0,0:0:0:0:
256,192,63888,12,0,65698,0:0:0:0:
358,87,65871,5,0,0:0:0:0:
178,282,66043,1,0,0:0:0:0:
183,288,66129,1,0,0:0:0:0:
183,288,66216,1,0,0:0:0:0:
139,33,66388,1,0,0:0:0:0:
271,213,66560,6,0,B|332:192|365:221|365:221|395:207|395:207|417:230|462:216,1,203.69999378357
462,216,67250,6,0,B|381:196|381:196|310:216|310:216|231:199,1,232.8
125,130,67595,6,0,L|137:193,1,58.199998223877
220,57,67767,2,0,L|230:-1,1,58.199998223877
115,285,67940,5,0,0:0:0:0:
428,348,68112,1,0,0:0:0:0:
390,83,68285,2,0,P|346:66|265:117,1,116.4
356,178,68629,6,0,B|402:176|402:176|450:191|450:191|507:188,1,145.5
357,257,68974,2,0,L|211:261,1,145.5
106,316,69319,6,0,P|128:255|34:207,1,145.5
25,120,69664,6,0,B|40:106|40:106|61:114|61:114|80:99|80:99|98:110|98:110|139:60|224:99,1,203.69999378357
261,164,70009,6,0,B|220:274|220:274|159:167,1,232.8
377,129,70354,6,0,L|387:205,1,58.199998223877
463,65,70526,2,0,L|470:7,1,58.199998223877
489,289,70698,5,0,0:0:0:0:
261,164,70871,1,0,0:0:0:0:
336,358,71043,2,0,B|363:328|374:296|374:296|311:262|275:317,1,174.599994671631
221,352,71388,6,0,L|92:340,1,116.4
37,258,71733,2,0,L|166:246,1,116.4
224,218,72078,6,0,B|248:169|248:169|241:73,1,145.5
165,33,72422,6,0,L|172:137,1,87.2999973358155
325,192,72595,2,0,L|319:104,1,87.2999973358155
382,307,72767,6,0,B|279:268|279:342|144:292,1,232.8
70,246,73112,2,0,L|92:181,1,58.199998223877
170,120,73285,2,0,L|188:175,1,58.199998223877
70,69,73457,5,0,0:0:0:0:
322,7,73629,1,0,0:0:0:0:
250,247,73802,6,0,B|194:281|131:252|131:252|168:322,1,174.599994671631
257,348,74147,6,0,P|317:333|401:356,1,145.5
469,331,74491,2,0,P|443:279|477:196,1,145.5
508,120,74836,6,0,B|474:99|428:118|428:118|408:100|408:100|358:126|310:99,1,203.69999378357
222,87,75181,6,0,L|217:176,1,87.2999973358155
305,230,75526,6,0,P|294:205|184:188,1,116.4
122,249,75871,6,0,P|176:247|213:160,1,145.5
222,87,76216,5,0,0:0:0:0:
316,266,76388,1,0,0:0:0:0:
384,0,76560,6,0,L|374:61,1,58.199998223877
437,224,76733,2,0,L|427:166,1,58.199998223877
222,87,76905,6,0,L|297:98,1,58.199998223877
499,126,77078,1,0,0:0:0:0:
223,318,77250,6,0,B|184:248|115:261|115:261|134:309|85:349,1,203.69999378357
105,328,77595,6,0,P|165:322|142:198,1,203.69999378357
160,204,78285,6,0,B|216:222|251:190|251:190|275:210|275:210|317:170|393:192,1,232.8
485,336,78629,5,0,0:0:0:0:
432,69,78802,1,0,0:0:0:0:
235,343,78974,5,0,0:0:0:0:
512,223,79147,1,0,0:0:0:0:
270,71,79319,6,0,P|208:54|144:86,1,116.4
179,287,79664,6,0,L|216:141,1,145.5
288,234,80009,6,0,L|323:375,1,145.5
391,268,80354,6,0,P|418:219|371:145,1,145.5
287,144,80698,6,0,B|269:137|269:137|256:147|256:147|243:134|243:134|227:142|227:142|190:109|156:179|77:129,1,203.69999378357
136,71,81043,6,0,B|162:39|162:39|186:111|186:111|172:152|172:152|185:202|185:202|214:216,1,232.8
417,206,81388,5,0,0:0:0:0:
256,366,81560,1,0,0:0:0:0:
234,46,81733,5,0,0:0:0:0:
346,278,81905,1,0,0:0:0:0:
43,242,82078,6,0,B|100:271|142:244|142:244|155:211|145:170,1,174.599994671631
215,237,82422,6,0,P|198:294|128:316,1,116.4
286,295,82767,2,0,P|343:281|397:330,1,116.4
433,245,83112,6,0,B|479:231|479:231|383:216,1,145.5
173,88,83457,6,0,B|127:76|127:76|85:93,1,87.2999973358155
286,295,83629,2,0,B|332:307|332:307|374:290,1,87.2999973358155
177,166,83802,6,0,B|159:227|159:227|183:269|183:269|154:320|154:320|179:379,1,232.8
350,158,84147,5,0,0:0:0:0:
90,90,84319,1,0,0:0:0:0:
257,300,84491,5,0,0:0:0:0:
254,41,84664,1,0,0:0:0:0:
44,221,84836,6,0,B|17:301|64:315|64:315|110:299|153:317,1,174.599994671631
222,340,85181,6,0,P|274:290|263:207,1,145.5
215,163,85526,2,0,P|212:108|284:64,1,145.5
386,110,85871,6,0,B|380:148|399:182|399:182|360:198|330:182|330:182|362:247|341:305,1,271.599991711426
341,303,87250,5,0,0:0:0:0:
125,206,87767,6,0,L|95:254,2,45.2666652852377
221,68,88112,1,0,0:0:0:0:
339,205,88285,2,0,L|369:253,2,45.2666652852377
221,68,88629,6,0,B|200:113|231:170|231:170|254:222|228:282,1,203.69999378357
234,264,89319,6,0,B|268:135|145:166|145:166|136:201|176:250,1,232.8
152,307,89664,5,0,0:0:0:0:
424,184,89836,1,0,0:0:0:0:
212,94,90009,5,0,0:0:0:0:
341,351,90181,1,0,0:0:0:0:
505,144,90354,6,0,P|475:108|410:95,1,116.4
336,169,90698,6,0,P|277:196|198:149,1,145.5
275,103,91043,2,0,L|270:259,1,145.5
204,323,91388,6,0,B|162:285|102:295|102:295|144:344,1,145.5
125,322,91733,6,0,B|143:277|128:231|128:231|144:194|144:194|131:153|151:116,1,203.69999378357
175,94,92078,6,0,P|177:158|139:84,1,232.8
240,224,92422,6,0,P|277:213|326:217,1,77.6
464,362,92595,2,0,P|427:373|378:369,1,77.6
230,311,92767,5,0,0:0:0:0:
453,153,92940,1,0,0:0:0:0:
199,52,93112,2,0,P|134:70|101:168,1,174.599994671631
212,136,93457,6,0,P|192:121|207:159,1,116.4
285,136,93802,2,0,P|305:121|290:159,1,116.4
227,282,94147,6,0,B|173:282|173:282|135:303|135:303|82:303,1,145.5
199,372,94491,6,0,L|294:372,1,87.2999973358155
108,212,94664,2,0,L|13:212,1,87.2999973358155
305,69,94836,6,0,B|282:122|324:169|324:169|311:239|311:239|263:175,1,232.8
388,104,95181,5,0,0:0:0:0:
227,282,95354,1,0,0:0:0:0:
144,54,95526,5,0,0:0:0:0:
428,285,95698,1,0,0:0:0:0:
69,369,95871,2,0,P|23:313|82:223,1,174.599994671631
140,233,96216,6,0,P|190:243|275:205,1,145.5
340,166,96560,2,0,L|359:320,1,145.5
437,263,96905,6,0,P|405:221|374:318,1,203.69999378357
470,179,97250,6,0,P|431:154|381:147,1,87.2999973358155
286,174,97595,6,0,P|317:138|315:64,1,116.4
203,2,97940,6,0,P|184:51|247:105,1,145.5
318,71,98285,5,0,0:0:0:0:
251,304,98457,1,0,0:0:0:0:
397,160,98629,6,0,L|458:151,1,58.199998223877
150,193,98802,2,0,L|89:184,1,58.199998223877
325,284,98974,6,0,L|336:347,1,58.199998223877
224,73,99147,1,0,0:0:0:0:
88,308,99319,6,0,P|54:247|152:194,1,203.69999378357
205,247,99664,6,0,B|248:259|285:237|285:237|286:253|286:253|339:228|398:258,1,203.69999378357
448,360,100354,6,0,P|431:294|281:256,1,232.8
340,348,100698,5,0,0:0:0:0:
482,66,100871,1,0,0:0:0:0:
211,78,101043,5,0,0:0:0:0:
498,255,101216,1,0,0:0:0:0:
145,336,101388,2,0,P|99:322|71:250,1,116.4
94,188,101733,6,0,B|136:166|161:177|161:177|190:171|190:171|229:182|264:170,1,145.5
289,230,102078,2,0,B|350:241|395:223|395:223|420:258,1,145.5
472,204,102422,6,0,B|436:159|436:159|399:136|352:159,1,145.5
285,96,102767,6,0,B|310:142|354:158|354:158|399:135|390:62,1,203.69999378357
390,63,103112,6,0,B|394:121|354:155|354:155|324:170|267:138|267:138|222:154,1,232.8
152,200,103457,5,0,0:0:0:0:
262,10,103629,1,0,0:0:0:0:
260,277,103802,5,0,0:0:0:0:
149,41,103974,1,0,0:0:0:0:
33,330,104147,2,0,B|86:351|124:336|124:336|165:326|219:348,1,174.599994671631
279,357,104491,6,0,P|314:309|291:239,1,116.4
404,247,104836,6,0,P|302:168|313:263,1,291
479,258,105181,6,0,P|487:194|449:117,1,145.5
119,82,105526,6,0,P|162:106|214:109,1,87.2999973358155
355,353,105698,2,0,P|312:329|260:326,1,87.2999973358155
453,122,105871,6,0,B|394:140|376:220|376:220|349:160|398:111,1,232.8
473,214,106216,5,0,0:0:0:0:
296,94,106388,1,0,0:0:0:0:
358,310,106560,5,0,0:0:0:0:
416,36,106733,1,0,0:0:0:0:
216,226,106905,2,0,P|148:217|120:118,1,174.599994671631
119,50,107250,6,0,P|176:76|185:161,1,145.5
118,253,107595,6,0,P|126:183|188:151,1,145.5
191,228,107940,6,0,B|222:245|257:227|257:227|299:250|337:229|337:229|321:274|282:288|238:276,1,271.599991711426
241,276,109319,5,0,0:0:0:0:
364,171,109836,2,0,L|419:171,2,45.2666652852377
168,69,110181,1,0,0:0:0:0:
408,30,110354,2,0,L|459:29,2,45.2666652852377
256,192,110698,5,0,0:0:0:0:
256,192,110756,12,0,114836,0:0:0:0:
256,192,124491,12,0,125871,0:0:0:0:
152,236,126733,5,0,0:0:0:0:
152,236,126819,1,0,0:0:0:0:
152,236,126905,1,0,0:0:0:0:
364,74,127078,1,0,0:0:0:0:
480,317,127250,6,0,P|399:359|305:304,1,194
259,176,127767,1,0,0:0:0:0:
152,70,127940,2,0,P|105:59|56:67,1,97
164,172,128285,2,0,P|211:183|260:175,1,97
406,61,128629,6,0,L|441:275,1,194
326,341,129147,1,0,0:0:0:0:
201,278,129319,2,0,P|153:265|105:273,1,97
215,371,129664,1,0,0:0:0:0:
282,233,129836,1,0,0:0:0:0:
152,122,130009,6,0,P|198:156|283:75,1,194
431,28,130526,1,0,0:0:0:0:
378,173,130698,2,0,P|371:225|402:298,1,97
464,370,131043,2,0,P|410:356|365:363,1,97
221,377,131388,5,0,0:0:0:0:
272,197,131560,1,0,0:0:0:0:
132,268,131733,1,0,0:0:0:0:
183,88,131905,1,0,0:0:0:0:
323,17,132078,5,0,0:0:0:0:
272,197,132250,1,0,0:0:0:0:
412,126,132423,1,0,0:0:0:0:
412,126,132767,6,0,B|317:83|317:147|217:106,1,194
115,9,133285,1,0,0:0:0:0:
39,133,133457,2,0,P|58:179|99:211,1,97
221,280,133802,2,0,P|270:274|325:283,1,97
461,352,134147,6,0,L|477:256,1,97
317,121,134491,2,0,P|346:167|439:167,1,145.5
481,116,134836,1,0,0:0:0:0:
244,46,135009,1,0,0:0:0:0:
244,46,135181,2,0,L|228:142,1,97
189,249,135526,6,0,P|139:211|129:314,1,194
258,354,136043,1,0,0:0:0:0:
380,249,136216,2,0,P|390:197|372:145,1,97
210,59,136560,2,0,P|200:111|218:163,1,97
300,282,136905,6,0,P|274:272|255:271,1,36.3750013875962
193,335,137078,6,0,P|216:339|238:333,1,38.8
160,227,137250,6,0,L|194:268,1,41.2250007863045
309,359,137422,6,0,P|342:349|358:336,1,43.6499986679078
336,202,137595,6,0,P|307:192|280:190,1,46.0749987696648
117,310,137767,6,0,P|119:339|130:361,1,48.5
427,313,137940,6,0,P|409:287|380:268,1,53.3500016281128
178,136,138112,6,0,P|153:158|137:187,1,58.199998223877
417,151,138285,6,0,B|339:94|258:132|258:132|154:203|118:167|118:167|73:131|83:75|133:52|187:78|177:136,1,523.800001998138
321,237,139147,5,0,0:0:0:0:
131,353,139319,6,0,P|115:331|112:304,1,43.6499986679078
191,251,139491,2,0,P|193:283|185:304,1,43.6499986679078
87,177,139664,6,0,B|119:160|159:175|159:175|181:157|181:157|229:187|289:167,1,213.400006512451
388,85,140181,1,0,0:0:0:0:
452,231,140354,6,0,B|466:288|466:288|455:336|406:351,1,130.949996003723
386,279,140698,2,0,B|372:222|372:222|383:174|432:159,1,130.949996003723
452,231,141043,6,0,B|399:283|299:228|299:228|250:291|250:291|119:166|7:304,1,523.800001998138
133,353,141905,1,0,0:0:0:0:
233,166,142078,6,0,L|221:111,1,43.6499986679078
313,60,142250,2,0,L|303:102,1,43.6499986679078
212,260,142422,5,0,0:0:0:0:
74,218,142595,1,0,0:0:0:0:
259,338,142767,5,0,0:0:0:0:
397,296,142940,1,0,0:0:0:0:
197,137,143112,5,0,0:0:0:0:
145,305,143285,1,0,0:0:0:0:
359,128,143457,6,0,B|348:80|306:62|306:62|301:129,1,130.949996003723
376,250,143802,6,0,B|319:220|384:192|433:226|432:289|368:301|339:269|339:269|302:229|240:208|191:234|191:234|156:283|198:319|260:311|264:274|235:221,1,523.800001998138
106,63,145181,5,0,0:0:0:0:
123,97,145267,5,0,0:0:0:0:
162,120,145354,5,0,0:0:0:0:
213,113,145440,5,0,0:0:0:0:
265,86,145526,5,0,0:0:0:0:
330,81,145612,5,0,0:0:0:0:
389,121,145698,5,0,0:0:0:0:
403,198,145785,5,0,0:0:0:0:
349,263,145871,6,0,B|271:310|196:283|196:283|174:344|174:344|232:316|319:316|367:354|367:354|430:318|416:271,1,523.800001998138
306,96,146905,6,0,P|256:83|204:103,1,101.849996891785
410,184,147250,6,0,L|422:76,1,101.849996891785
133,168,147595,6,0,L|144:269,1,101.849996891785
340,343,147940,5,0,0:0:0:0:
340,343,148026,1,0,0:0:0:0:
340,343,148112,1,0,0:0:0:0:
265,94,148285,1,0,0:0:0:0:
144,269,148457,1,0,0:0:0:0:
328,195,148629,5,0,0:0:0:0:
184,129,148802,1,0,0:0:0:0:
229,245,148974,1,0,0:0:0:0:
303,69,149147,1,0,0:0:0:0:
318,276,149319,5,0,0:0:0:0:
184,129,149491,1,0,0:0:0:0:
375,94,149664,2,0,L|427:104,2,33.9499989639283
196,271,150009,5,0,0:0:0:0:
255,36,150181,2,0,L|289:29,2,33.9499989639283
66,124,150526,6,0,P|111:184|213:152,1,194
255,36,151043,1,0,0:0:0:0:
345,142,151215,2,0,P|363:209|275:288,1,194
187,263,151732,1,0,0:0:0:0:
450,343,151905,6,0,L|464:228,1,97
404,84,152250,2,0,P|335:64|273:98,1,145.5
237,168,152594,1,0,0:0:0:0:
305,312,152767,1,0,0:0:0:0:
137,343,152939,2,0,P|86:321|62:265,1,97
78,115,153284,6,0,P|132:144|137:268,1,194
51,213,153801,1,0,0:0:0:0:
223,125,153974,2,0,P|281:108|341:115,1,97
403,196,154319,2,0,P|345:213|285:206,1,97
161,69,154663,5,0,0:0:0:0:
123,257,154836,1,0,0:0:0:0:
56,17,155008,1,0,0:0:0:0:
217,184,155181,1,0,0:0:0:0:
17,151,155353,5,0,0:0:0:0:
161,69,155526,1,0,0:0:0:0:
315,126,155698,1,0,0:0:0:0:
199,317,156043,6,0,P|208:249|107:200,1,194
107,328,156560,1,0,0:0:0:0:
305,254,156732,2,0,P|357:240|407:258,2,97
466,342,157250,1,0,0:0:0:0:
482,126,157422,2,0,P|439:83|339:83,1,145.5
304,132,157767,5,0,0:0:0:0:
324,286,157939,1,0,0:0:0:0:
186,135,158112,1,0,0:0:0:0:
151,308,158284,1,0,0:0:0:0:
304,132,158457,1,0,0:0:0:0:
245,252,158801,6,0,P|312:262|380:215,1,145.5
396,146,159146,1,0,0:0:0:0:
440,320,159319,1,0,0:0:0:0:
295,172,159491,2,0,P|236:156|150:249,1,194
234,358,160008,1,0,0:0:0:0:
418,242,160181,6,0,B|423:219|423:219|408:193|408:193|422:160|422:160|408:123|408:123|422:93|422:93|395:59,1,194
239,12,160698,1,0,0:0:0:0:
200,174,160870,2,0,P|249:185|309:144,1,97
147,79,161215,2,0,P|98:68|38:109,1,97
136,322,161560,6,0,P|176:296|321:305,1,194
450,374,162077,1,0,0:0:0:0:
499,231,162250,2,0,P|506:178|489:133,1,97
357,97,162594,2,0,P|350:150|367:195,1,97
437,49,162939,6,0,P|350:5|268:71,1,194
241,180,163457,1,0,0:0:0:0:
136,258,163629,2,0,P|91:278|43:273,1,97
13,127,163974,2,0,P|58:150|77:203,1,97
111,350,164319,6,0,P|201:324|229:226,1,194
163,124,164836,1,0,0:0:0:0:
263,40,165008,2,0,P|309:28|363:40,1,97
439,140,165353,1,0,0:0:0:0:
439,140,165526,1,0,0:0:0:0:
318,284,165698,6,0,P|257:287|202:221,1,145.5
213,150,166043,1,0,0:0:0:0:
213,150,166388,5,0,0:0:0:0:
124,316,166560,1,0,0:0:0:0:
124,316,166646,1,0,0:0:0:0:
124,316,166732,1,0,0:0:0:0:
63,86,166905,1,0,0:0:0:0:
251,245,167077,6,0,P|337:263|388:233,1,145.5
419,167,167422,1,0,0:0:0:0:
424,175,168112,5,0,0:0:0:0:
346,257,168801,5,0,0:0:0:0:
342,272,169491,5,0,0:0:0:0:
251,184,170181,5,0,0:0:0:0:
256,192,170870,5,0,0:0:0:0:
256,192,170957,12,0,175353,0:0:0:0:
