osu file format v14

[General]
AudioFilename: audio.ogg
AudioLeadIn: 0
PreviewTime: 84875
Countdown: 0
SampleSet: Soft
StackLeniency: 0.7
Mode: 3
LetterboxInBreaks: 0
SpecialStyle: 0
WidescreenStoryboard: 1

[Editor]
Bookmarks: 59328,72687,79250
DistanceSpacing: 1
BeatDivisor: 4
GridSize: 32
TimelineZoom: 2.3

[Metadata]
Title:Sunshine City
TitleUnicode:Sunshine City
Artist:Desired
ArtistUnicode:Desired
Creator:dopaminos
Version:Poke's Hard
Source:Sailor Moon SuperS the Movie: Black Dream Hole
Tags:美少女戦士セーラームーンSuperS セーラー9戦士集結!ブラック・ドリーム・ホールの奇跡 Sailor Moon SuperS the Movie: Black Dream Hole Pretty Cast Morning Moonで会いましょう de Aimashou Let's Meet at Timeless Neoncity Records Team SRT002 Future Funk Electronic Pop J-Pop Japanese Jesuren JesusMD24 で会いましょう Instrumental PokeSky
BeatmapID:4483855
BeatmapSetID:1461767

[Difficulty]
HPDrainRate:8
CircleSize:4
OverallDifficulty:8
ApproachRate:5
SliderMultiplier:1.4
SliderTickRate:1

[Events]
//Background and Video events
0,0,"Konachan.com - 308943 sample.jpg",0,0
//Break Periods
//Storyboard Layer 0 (Background)
//Storyboard Layer 1 (Fail)
//Storyboard Layer 2 (Pass)
//Storyboard Layer 3 (Foreground)
//Storyboard Layer 4 (Overlay)
//Storyboard Sound Samples

[TimingPoints]
500,468.75,4,2,1,35,1,0
2375,-100,4,2,1,55,0,1
17375,-100,4,2,1,35,0,0
24875,-100,4,2,1,42,0,0
42687,-66.6666666666667,4,2,1,42,0,0
42726,-200,4,2,1,42,0,0
42765,-100,4,2,1,42,0,0
42843,-66.6666666666667,4,2,1,42,0,0
42882,-200,4,2,1,42,0,0
42921,-100,4,2,1,42,0,0
43000,-66.6666666666667,4,2,1,42,0,0
43039,-200,4,2,1,42,0,0
43078,-100,4,2,1,42,0,0
43156,-66.6666666666667,4,2,1,42,0,0
43214,-200,4,2,1,42,0,0
43273,-100,4,2,1,42,0,0
43390,-66.6666666666667,4,2,1,42,0,0
43448,-200,4,2,1,42,0,0
43507,-100,4,2,1,42,0,0
43625,-100,4,2,1,55,0,1
55226,-200,4,2,1,55,0,0
55285,-66.6666666666667,4,2,1,55,0,0
55343,-100,4,2,1,55,0,0
58625,-100,4,2,1,30,0,0
66125,-100,4,2,1,42,0,0
84875,-100,4,2,1,57,0,1
92375,-100,4,2,1,52,0,0
99875,-100,4,2,1,57,0,1
111476,-200,4,2,1,57,0,0
111535,-66.6666666666667,4,2,1,57,0,0
111593,-100,4,2,1,57,0,0
114875,-100,4,2,1,30,0,0

[HitObjects]
320,192,500,5,0,0:0:0:0:
448,192,500,1,0,3:0:0:0:
64,192,617,1,0,0:0:0:0:
192,192,734,1,0,0:0:0:0:
448,192,734,1,0,0:0:0:0:
320,192,851,1,0,0:0:0:0:
448,192,968,1,0,0:0:0:0:
64,192,968,1,0,0:0:0:0:
192,192,1085,1,0,0:0:0:0:
320,192,1203,1,0,0:0:0:0:
64,192,1203,1,0,0:0:0:0:
448,192,1320,1,0,0:0:0:0:
192,192,1437,1,0,0:0:0:0:
64,192,1437,1,0,3:0:0:0:
320,192,1554,1,0,0:0:0:0:
448,192,1671,1,0,0:0:0:0:
64,192,1671,1,0,0:0:0:0:
320,192,1789,1,0,0:0:0:0:
192,192,1906,1,0,0:0:0:0:
64,192,1906,1,0,3:0:0:0:
320,192,2023,1,0,0:0:0:0:
448,192,2023,1,0,0:0:0:0:
192,192,2140,1,0,0:0:0:0:
64,192,2140,1,0,0:0:0:0:
448,192,2218,1,0,0:0:0:0:
320,192,2296,1,0,0:0:0:0:
448,192,2375,1,0,0:0:0:0:
192,192,2375,1,0,3:0:0:0:
64,192,2375,128,4,2726:0:2:0:0:
320,192,2609,128,0,2843:0:0:0:0:
448,192,2843,1,8,0:0:0:0:
64,192,2843,1,0,0:0:0:0:
320,192,3078,128,0,3312:0:0:0:0:
192,192,3195,1,0,0:0:0:0:
64,192,3312,1,0,0:0:0:0:
448,192,3312,1,0,3:0:0:0:
320,192,3546,128,0,3781:0:0:0:0:
448,192,3781,1,0,0:0:0:0:
64,192,3781,1,8,0:0:0:0:
320,192,4015,128,0,4250:0:0:0:0:
448,192,4132,1,0,0:0:0:0:
64,192,4250,1,0,0:0:0:0:
192,192,4250,1,0,3:0:0:0:
320,192,4484,128,0,4718:0:0:0:0:
448,192,4718,1,0,0:0:0:0:
64,192,4718,1,8,0:0:0:0:
320,192,4953,128,0,5187:0:0:0:0:
192,192,5070,1,0,0:0:0:0:
448,192,5187,1,0,0:0:0:0:
64,192,5187,1,0,3:0:0:0:
320,192,5421,128,0,5656:0:0:0:0:
64,192,5656,1,0,0:0:0:0:
448,192,5656,1,8,0:0:0:0:
192,192,5890,128,0,6125:0:0:0:0:
64,192,6007,1,0,0:0:0:0:
448,192,6125,128,0,6476:0:0:0:0:
320,192,6125,1,0,3:0:0:0:
64,192,6359,128,0,6593:0:0:0:0:
448,192,6593,1,0,0:0:0:0:
320,192,6593,1,8,0:0:0:0:
64,192,6828,128,0,7062:0:0:0:0:
320,192,6945,1,0,0:0:0:0:
448,192,7062,1,0,0:0:0:0:
192,192,7062,1,0,3:0:0:0:
64,192,7296,128,2,7531:0:0:0:0:
448,192,7414,128,2,7765:0:0:0:0:
192,192,7531,1,2,0:0:0:0:
320,192,7531,1,8,0:0:0:0:
192,192,7765,128,2,8000:0:0:0:0:
64,192,7882,1,0,0:0:0:0:
448,192,8000,1,2,0:0:0:0:
320,192,8000,128,0,8234:3:0:0:0:
64,192,8234,128,0,8468:0:0:0:0:
192,192,8468,1,0,0:0:0:0:
448,192,8468,1,8,0:0:0:0:
64,192,8703,128,0,8937:0:0:0:0:
192,192,8820,1,0,0:0:0:0:
320,192,8937,1,2,0:0:0:0:
448,192,8937,128,0,9171:3:0:0:0:
64,192,9171,1,0,0:0:0:0:
192,192,9171,1,8,0:0:0:0:
448,192,9406,1,0,0:0:0:0:
64,192,9406,1,8,0:0:0:0:
192,192,9640,1,0,0:0:0:0:
320,192,9757,1,0,0:0:0:0:
192,192,9875,1,0,0:0:0:0:
64,192,9875,1,0,3:0:0:0:
448,192,9875,128,4,10226:0:2:0:0:
192,192,10109,128,0,10343:0:0:0:0:
448,192,10343,1,0,0:0:0:0:
64,192,10343,1,8,0:0:0:0:
192,192,10578,128,0,10812:0:0:0:0:
320,192,10695,1,0,0:0:0:0:
448,192,10812,1,0,0:0:0:0:
64,192,10812,1,0,3:0:0:0:
192,192,11046,128,0,11281:0:0:0:0:
448,192,11281,1,0,0:0:0:0:
64,192,11281,1,8,0:0:0:0:
192,192,11515,128,0,11750:0:0:0:0:
64,192,11632,1,0,0:0:0:0:
448,192,11750,1,0,0:0:0:0:
320,192,11750,1,0,3:0:0:0:
192,192,11984,128,0,12218:0:0:0:0:
64,192,12218,1,0,0:0:0:0:
448,192,12218,1,8,0:0:0:0:
192,192,12453,128,0,12687:0:0:0:0:
320,192,12570,1,0,0:0:0:0:
448,192,12687,1,0,3:0:0:0:
64,192,12687,1,0,0:0:0:0:
192,192,12921,128,0,13156:0:0:0:0:
448,192,13156,1,0,0:0:0:0:
64,192,13156,1,8,0:0:0:0:
320,192,13390,128,0,13625:0:0:0:0:
448,192,13507,1,0,0:0:0:0:
64,192,13625,128,0,13976:0:0:0:0:
192,192,13625,1,0,3:0:0:0:
448,192,13859,128,0,14093:0:0:0:0:
64,192,14093,1,0,0:0:0:0:
192,192,14093,1,8,0:0:0:0:
448,192,14328,128,0,14562:0:0:0:0:
192,192,14445,1,0,0:0:0:0:
64,192,14562,1,0,0:0:0:0:
320,192,14562,1,0,3:0:0:0:
448,192,14796,128,2,15031:0:0:0:0:
64,192,14914,128,2,15265:0:0:0:0:
320,192,15031,1,2,0:0:0:0:
192,192,15031,1,8,0:0:0:0:
320,192,15265,128,2,15500:0:0:0:0:
448,192,15382,1,0,0:0:0:0:
64,192,15500,1,2,0:0:0:0:
192,192,15500,128,0,15734:3:0:0:0:
448,192,15734,128,0,15968:0:0:0:0:
192,192,15968,1,0,0:0:0:0:
64,192,15968,1,8,0:0:0:0:
448,192,16203,128,0,16437:0:0:0:0:
320,192,16320,1,0,0:0:0:0:
192,192,16437,1,2,0:0:0:0:
64,192,16437,128,0,16671:3:0:0:0:
320,192,16671,1,0,0:0:0:0:
64,192,16906,1,0,0:0:0:0:
448,192,16906,1,8,0:0:0:0:
320,192,17140,1,0,0:0:0:0:
192,192,17257,1,0,0:0:0:0:
64,192,17375,1,0,0:0:0:0:
320,192,17375,1,0,3:0:0:0:
448,192,17375,128,4,17726:3:2:0:0:
192,192,17609,1,0,0:0:0:0:
320,192,17726,1,0,0:0:0:0:
64,192,17843,1,0,0:0:0:0:
448,192,17843,1,8,0:0:0:0:
320,192,18078,1,0,0:0:0:0:
192,192,18195,1,0,0:0:0:0:
448,192,18312,1,0,0:0:0:0:
64,192,18312,1,0,3:0:0:0:
192,192,18546,128,0,18781:0:0:0:0:
448,192,18781,1,0,0:0:0:0:
64,192,18781,1,8,0:0:0:0:
320,192,18898,128,0,19132:0:0:0:0:
64,192,19132,1,0,0:0:0:0:
448,192,19250,128,0,19601:0:0:0:0:
192,192,19250,1,0,3:0:0:0:
64,192,19484,1,0,0:0:0:0:
192,192,19601,1,0,0:0:0:0:
448,192,19718,1,0,0:0:0:0:
320,192,19718,1,8,0:0:0:0:
192,192,19953,128,0,20070:0:0:0:0:
448,192,20070,1,0,0:0:0:0:
192,192,20187,1,0,0:0:0:0:
320,192,20187,128,0,20304:3:0:0:0:
64,192,20421,128,0,20656:0:0:0:0:
192,192,20656,1,8,0:0:0:0:
448,192,20656,1,0,0:0:0:0:
320,192,20773,128,0,21007:0:0:0:0:
448,192,21007,1,0,0:0:0:0:
64,192,21125,128,0,21476:0:0:0:0:
192,192,21125,1,0,3:0:0:0:
448,192,21359,1,0,0:0:0:0:
320,192,21476,1,0,0:0:0:0:
64,192,21593,1,0,0:0:0:0:
192,192,21593,1,8,0:0:0:0:
320,192,21828,1,0,0:0:0:0:
64,192,21945,1,0,0:0:0:0:
448,192,22062,1,0,0:0:0:0:
192,192,22062,1,0,3:0:0:0:
320,192,22296,1,0,0:0:0:0:
64,192,22531,1,8,0:0:0:0:
192,192,22531,1,0,0:0:0:0:
320,192,22765,128,0,23117:0:0:0:0:
192,192,22765,128,0,23117:0:0:0:0:
192,192,23234,1,0,0:0:0:0:
448,192,23234,1,0,0:0:0:0:
320,192,23468,128,0,24406:0:0:0:0:
64,192,23468,128,0,24289:0:0:0:0:
192,192,24406,1,0,0:0:0:0:
64,192,24406,1,0,0:0:0:0:
192,192,24875,128,0,25109:0:0:0:0:
64,192,24875,1,0,3:0:0:0:
320,192,24875,1,4,3:2:0:0:
448,192,25109,1,0,0:0:0:0:
192,192,25226,1,0,0:0:0:0:
64,192,25343,1,8,0:0:0:0:
320,192,25343,1,0,0:0:0:0:
192,192,25578,128,0,25695:0:0:0:0:
64,192,25578,1,0,0:0:0:0:
192,192,25812,1,0,0:0:0:0:
448,192,25812,128,0,26046:3:0:0:0:
64,192,26046,1,0,0:0:0:0:
448,192,26164,1,0,0:0:0:0:
192,192,26281,1,0,0:0:0:0:
64,192,26281,1,8,0:0:0:0:
448,192,26515,128,0,26632:0:0:0:0:
192,192,26515,1,0,0:0:0:0:
448,192,26750,1,0,0:0:0:0:
64,192,26750,128,0,26984:3:0:0:0:
320,192,26984,1,0,0:0:0:0:
64,192,27101,1,0,0:0:0:0:
448,192,27218,1,8,0:0:0:0:
320,192,27218,1,0,0:0:0:0:
64,192,27453,128,0,27570:0:0:0:0:
448,192,27453,1,0,0:0:0:0:
320,192,27687,1,0,0:0:0:0:
64,192,27687,1,0,3:0:0:0:
320,192,27921,128,0,28039:0:0:0:0:
192,192,28039,128,0,28156:0:0:0:0:
448,192,28156,1,0,0:0:0:0:
64,192,28156,1,8,0:0:0:0:
320,192,28390,128,0,28507:0:0:0:0:
192,192,28507,128,0,28625:0:0:0:0:
64,192,28625,1,0,0:0:0:0:
448,192,28625,128,0,28859:3:0:0:0:
192,192,28859,1,0,0:0:0:0:
448,192,28976,1,0,0:0:0:0:
64,192,29093,1,8,0:0:0:0:
192,192,29093,1,0,0:0:0:0:
448,192,29328,128,0,29445:0:0:0:0:
64,192,29328,1,0,0:0:0:0:
448,192,29562,1,0,0:0:0:0:
192,192,29562,128,0,29796:3:0:0:0:
64,192,29796,1,0,0:0:0:0:
192,192,29914,1,0,0:0:0:0:
320,192,30031,1,0,0:0:0:0:
448,192,30031,1,8,0:0:0:0:
192,192,30265,128,0,30382:0:0:0:0:
448,192,30265,1,0,0:0:0:0:
192,192,30500,1,0,0:0:0:0:
320,192,30500,128,0,30734:3:0:0:0:
64,192,30734,1,0,0:0:0:0:
320,192,30851,1,0,0:0:0:0:
192,192,30968,1,0,0:0:0:0:
448,192,30968,1,8,0:0:0:0:
320,192,31203,128,0,31320:0:0:0:0:
64,192,31203,1,0,0:0:0:0:
320,192,31437,1,0,0:0:0:0:
448,192,31437,1,0,3:0:0:0:
192,192,31671,128,0,31789:0:0:0:0:
448,192,31789,128,0,31906:0:0:0:0:
192,192,31906,1,0,0:0:0:0:
64,192,31906,1,8,0:0:0:0:
192,192,32140,128,0,32257:0:0:0:0:
448,192,32257,128,0,32375:0:0:0:0:
64,192,32375,128,0,32609:3:0:0:0:
320,192,32375,1,0,0:0:0:0:
448,192,32609,1,0,0:0:0:0:
64,192,32726,1,0,0:0:0:0:
320,192,32843,1,0,0:0:0:0:
448,192,32843,1,8,0:0:0:0:
320,192,33078,1,0,0:0:0:0:
64,192,33078,128,0,33195:0:0:0:0:
64,192,33312,1,0,0:0:0:0:
448,192,33312,128,0,33546:3:0:0:0:
192,192,33546,1,0,0:0:0:0:
448,192,33664,1,0,0:0:0:0:
192,192,33781,1,0,0:0:0:0:
64,192,33781,1,8,0:0:0:0:
320,192,34015,128,0,34132:0:0:0:0:
64,192,34015,1,0,0:0:0:0:
192,192,34250,1,0,3:0:0:0:
320,192,34250,1,0,0:0:0:0:
64,192,34484,128,0,34601:0:0:0:0:
320,192,34601,128,0,34718:0:0:0:0:
448,192,34718,1,0,0:0:0:0:
64,192,34718,1,8,0:0:0:0:
320,192,34953,128,0,35070:0:0:0:0:
192,192,34953,1,0,0:0:0:0:
448,192,35187,128,0,35304:0:0:0:0:
192,192,35187,1,0,0:0:0:0:
64,192,35187,1,0,3:0:0:0:
320,192,35421,128,2,35539:0:0:0:0:
192,192,35539,128,2,35773:0:0:0:0:
64,192,35656,128,2,35773:0:0:0:0:
448,192,35656,1,8,0:0:0:0:
448,192,35890,128,2,36007:0:0:0:0:
64,192,36125,128,0,36359:3:0:0:0:
448,192,36125,1,2,0:0:0:0:
320,192,36359,1,0,0:0:0:0:
64,192,36476,1,0,0:0:0:0:
320,192,36593,1,0,0:0:0:0:
448,192,36593,1,8,0:0:0:0:
448,192,36828,128,0,36945:0:0:0:0:
64,192,36828,1,0,0:0:0:0:
192,192,37062,1,0,0:0:0:0:
320,192,37062,128,0,37296:3:0:0:0:
64,192,37296,1,0,0:0:0:0:
320,192,37414,1,0,0:0:0:0:
64,192,37531,1,0,0:0:0:0:
448,192,37531,1,8,0:0:0:0:
320,192,37765,128,0,37882:0:0:0:0:
192,192,37765,1,0,0:0:0:0:
64,192,38000,1,0,3:0:0:0:
320,192,38000,1,0,0:0:0:0:
192,192,38234,128,0,38351:0:0:0:0:
448,192,38351,128,0,38468:0:0:0:0:
320,192,38468,1,0,0:0:0:0:
64,192,38468,1,8,0:0:0:0:
192,192,38703,128,0,38820:0:0:0:0:
448,192,38820,128,0,38937:0:0:0:0:
320,192,38937,1,2,0:0:0:0:
64,192,38937,128,0,39171:3:0:0:0:
448,192,39171,1,0,0:0:0:0:
320,192,39171,1,8,0:0:0:0:
64,192,39289,1,2,0:0:0:0:
192,192,39406,1,2,0:0:0:0:
320,192,39406,1,8,0:0:0:0:
64,192,39640,1,0,0:0:0:0:
448,192,39640,128,2,39757:0:0:0:0:
448,192,39875,1,0,0:0:0:0:
192,192,39875,1,0,3:0:0:0:
192,192,40109,1,0,0:0:0:0:
448,192,40343,1,0,0:0:0:0:
64,192,40343,1,8,0:0:0:0:
320,192,40578,128,0,40695:0:0:0:0:
192,192,40578,1,0,0:0:0:0:
64,192,40812,128,0,40929:0:0:0:0:
448,192,40812,128,0,42687:3:0:0:0:
320,192,41046,1,0,0:0:0:0:
192,192,41281,1,0,0:0:0:0:
64,192,41281,1,8,0:0:0:0:
320,192,41515,1,0,0:0:0:0:
64,192,41750,1,0,3:0:0:0:
192,192,41750,1,0,0:0:0:0:
320,192,41984,1,0,0:0:0:0:
64,192,42218,1,0,0:0:0:0:
192,192,42218,1,8,0:0:0:0:
64,192,42453,128,0,42570:0:0:0:0:
192,192,42687,128,0,42765:0:0:0:0:
320,192,42687,1,0,3:0:0:0:
192,192,42843,128,0,42921:0:0:0:0:
192,192,43000,128,0,43078:0:0:0:0:
64,192,43156,1,0,0:0:0:0:
320,192,43156,128,8,43273:0:0:0:0:
320,192,43390,128,0,43507:0:0:0:0:
192,192,43625,1,0,0:0:0:0:
64,192,43625,1,0,3:0:0:0:
448,192,43625,128,4,43976:3:2:0:0:
192,192,43859,128,0,44093:0:0:0:0:
448,192,44093,1,0,0:0:0:0:
64,192,44093,1,8,0:0:0:0:
192,192,44328,128,0,44562:0:0:0:0:
320,192,44445,1,0,0:0:0:0:
448,192,44562,1,0,0:0:0:0:
64,192,44562,1,0,3:0:0:0:
192,192,44796,128,0,45031:0:0:0:0:
64,192,45031,1,0,0:0:0:0:
448,192,45031,1,8,0:0:0:0:
192,192,45265,128,0,45500:0:0:0:0:
64,192,45382,1,0,0:0:0:0:
448,192,45500,1,0,0:0:0:0:
320,192,45500,1,0,3:0:0:0:
192,192,45734,128,0,45968:0:0:0:0:
64,192,45968,1,0,0:0:0:0:
448,192,45968,1,8,0:0:0:0:
192,192,46203,128,0,46437:0:0:0:0:
320,192,46320,1,0,0:0:0:0:
64,192,46437,1,0,0:0:0:0:
448,192,46437,1,0,3:0:0:0:
192,192,46671,128,0,46906:0:0:0:0:
448,192,46906,1,0,0:0:0:0:
64,192,46906,1,8,0:0:0:0:
320,192,47140,128,0,47375:0:0:0:0:
448,192,47257,1,0,0:0:0:0:
64,192,47375,128,0,47726:0:0:0:0:
192,192,47375,1,0,3:0:0:0:
448,192,47609,128,0,47843:0:0:0:0:
192,192,47843,1,0,0:0:0:0:
64,192,47843,1,8,0:0:0:0:
448,192,48078,128,0,48312:0:0:0:0:
192,192,48195,1,0,0:0:0:0:
320,192,48312,1,0,3:0:0:0:
64,192,48312,1,0,0:0:0:0:
448,192,48546,128,2,48781:0:0:0:0:
64,192,48664,128,2,49015:0:0:0:0:
320,192,48781,1,2,0:0:0:0:
192,192,48781,1,8,0:0:0:0:
320,192,49015,128,2,49250:0:0:0:0:
448,192,49132,1,0,0:0:0:0:
64,192,49250,1,2,0:0:0:0:
192,192,49250,128,0,49484:3:0:0:0:
448,192,49484,128,0,49718:0:0:0:0:
192,192,49718,1,0,0:0:0:0:
64,192,49718,1,8,0:0:0:0:
448,192,49953,128,0,50187:0:0:0:0:
320,192,50070,1,0,0:0:0:0:
64,192,50187,128,0,50421:3:0:0:0:
192,192,50187,1,2,0:0:0:0:
320,192,50421,1,0,0:0:0:0:
64,192,50656,1,0,0:0:0:0:
448,192,50656,1,8,0:0:0:0:
320,192,50890,1,0,0:0:0:0:
192,192,51007,1,0,0:0:0:0:
448,192,51125,1,4,0:0:0:0:
64,192,51125,128,0,51476:3:0:0:0:
320,192,51359,128,0,51593:0:0:0:0:
64,192,51593,1,0,0:0:0:0:
448,192,51593,1,8,0:0:0:0:
320,192,51828,128,0,52062:0:0:0:0:
192,192,51945,1,0,0:0:0:0:
64,192,52062,1,0,0:0:0:0:
448,192,52062,1,0,3:0:0:0:
320,192,52296,128,0,52531:0:0:0:0:
448,192,52531,1,0,0:0:0:0:
64,192,52531,1,8,0:0:0:0:
320,192,52765,128,0,53000:0:0:0:0:
448,192,52882,1,0,0:0:0:0:
64,192,53000,1,0,0:0:0:0:
192,192,53000,1,0,3:0:0:0:
320,192,53234,128,0,53468:0:0:0:0:
448,192,53468,1,0,0:0:0:0:
64,192,53468,1,8,0:0:0:0:
320,192,53703,128,0,53937:0:0:0:0:
192,192,53820,1,0,0:0:0:0:
448,192,53937,1,0,0:0:0:0:
64,192,53937,1,0,3:0:0:0:
320,192,54171,128,0,54406:0:0:0:0:
64,192,54406,1,8,0:0:0:0:
192,192,54406,1,0,0:0:0:0:
192,192,54640,128,0,54875:0:0:0:0:
64,192,54757,1,0,0:0:0:0:
448,192,54875,128,0,55226:0:0:0:0:
320,192,54875,1,0,3:0:0:0:
64,192,55109,128,0,55226:0:0:0:0:
320,192,55343,1,0,0:0:0:0:
448,192,55343,1,8,0:0:0:0:
64,192,55578,128,0,55812:0:0:0:0:
320,192,55695,1,0,0:0:0:0:
448,192,55812,1,0,0:0:0:0:
192,192,55812,1,0,3:0:0:0:
64,192,56046,128,2,56281:0:0:0:0:
448,192,56164,128,2,56515:0:0:0:0:
320,192,56281,1,8,0:0:0:0:
192,192,56281,1,2,0:0:0:0:
192,192,56515,128,2,56750:0:0:0:0:
64,192,56632,1,0,0:0:0:0:
448,192,56750,1,2,0:0:0:0:
320,192,56750,128,0,56984:3:0:0:0:
64,192,56984,128,0,57218:0:0:0:0:
320,192,57218,1,0,0:0:0:0:
448,192,57218,1,8,0:0:0:0:
64,192,57453,128,0,57687:0:0:0:0:
192,192,57570,1,0,0:0:0:0:
320,192,57687,1,2,0:0:0:0:
448,192,57687,128,0,57921:3:0:0:0:
192,192,57921,1,0,0:0:0:0:
64,192,57921,1,8,0:0:0:0:
320,192,58156,1,8,0:0:0:0:
448,192,58156,1,0,0:0:0:0:
192,192,58390,1,0,0:0:0:0:
320,192,58507,1,0,0:0:0:0:
448,192,58625,1,0,0:0:0:0:
192,192,58625,1,0,3:0:0:0:
64,192,58625,128,4,58976:3:2:0:0:
320,192,58859,1,0,0:0:0:0:
64,192,59093,1,0,0:0:0:0:
448,192,59093,128,0,59328:0:0:0:0:
320,192,59210,128,0,59328:0:0:0:0:
192,192,59328,128,0,60500:0:0:0:0:
64,192,59328,1,0,0:0:0:0:
448,192,59562,1,0,0:0:0:0:
320,192,59562,1,0,0:0:0:0:
64,192,59796,1,0,0:0:0:0:
320,192,60031,1,0,0:0:0:0:
448,192,60031,1,0,0:0:0:0:
64,192,60265,1,0,0:0:0:0:
448,192,60500,1,0,0:0:0:0:
320,192,60500,1,0,0:0:0:0:
64,192,60734,128,0,60851:0:0:0:0:
320,192,60851,128,0,61085:0:0:0:0:
192,192,60968,128,0,61085:0:0:0:0:
448,192,60968,1,0,0:0:0:0:
64,192,61203,1,0,0:0:0:0:
320,192,61437,1,0,0:0:0:0:
448,192,61437,1,0,0:0:0:0:
192,192,61671,1,0,0:0:0:0:
320,192,61789,1,0,0:0:0:0:
64,192,61906,1,0,0:0:0:0:
448,192,61906,1,0,0:0:0:0:
192,192,62140,1,0,0:0:0:0:
320,192,62375,1,0,0:0:0:0:
448,192,62375,1,0,0:0:0:0:
64,192,62609,1,0,0:0:0:0:
320,192,62843,1,0,0:0:0:0:
192,192,62843,1,0,0:0:0:0:
448,192,63078,1,0,0:0:0:0:
448,192,63312,1,0,0:0:0:0:
64,192,63312,1,0,0:0:0:0:
192,192,63546,1,0,0:0:0:0:
320,192,63781,1,0,0:0:0:0:
448,192,63781,1,0,0:0:0:0:
64,192,64015,1,0,0:0:0:0:
192,192,64250,1,0,0:0:0:0:
448,192,64250,1,0,0:0:0:0:
320,192,64367,1,0,0:0:0:0:
64,192,64484,1,0,0:0:0:0:
192,192,64601,1,0,0:0:0:0:
320,192,64718,1,0,0:0:0:0:
448,192,64718,1,0,0:0:0:0:
64,192,64835,1,0,0:0:0:0:
448,192,64953,1,0,0:0:0:0:
320,192,65070,1,0,0:0:0:0:
192,192,65187,1,0,0:0:0:0:
64,192,65187,1,0,0:0:0:0:
448,192,65304,1,0,0:0:0:0:
320,192,65421,1,0,0:0:0:0:
192,192,65539,1,0,0:0:0:0:
320,192,65656,1,0,0:0:0:0:
448,192,65656,1,0,0:0:0:0:
192,192,65773,1,0,0:0:0:0:
64,192,65773,1,0,0:0:0:0:
320,192,65890,1,0,0:0:0:0:
448,192,65890,1,0,0:0:0:0:
64,192,65968,1,0,0:0:0:0:
192,192,66046,1,0,0:0:0:0:
64,192,66125,1,0,0:0:0:0:
320,192,66125,1,4,0:0:0:0:
448,192,66125,128,0,66359:3:0:0:0:
64,192,66359,1,0,0:0:0:0:
448,192,66476,128,0,66593:0:0:0:0:
192,192,66593,1,0,0:0:0:0:
320,192,66593,1,8,0:0:0:0:
320,192,66828,128,0,66945:0:0:0:0:
448,192,66828,1,0,0:0:0:0:
64,192,67062,128,0,67296:3:0:0:0:
320,192,67062,1,0,0:0:0:0:
448,192,67296,1,0,0:0:0:0:
64,192,67414,128,0,67531:0:0:0:0:
192,192,67531,1,0,0:0:0:0:
320,192,67531,1,8,0:0:0:0:
320,192,67765,128,0,67882:0:0:0:0:
64,192,67765,1,0,0:0:0:0:
192,192,68000,1,0,0:0:0:0:
448,192,68000,128,0,68234:3:0:0:0:
64,192,68234,1,0,0:0:0:0:
448,192,68351,128,0,68468:0:0:0:0:
320,192,68468,1,0,0:0:0:0:
192,192,68468,1,8,0:0:0:0:
320,192,68703,128,0,68820:0:0:0:0:
64,192,68703,1,0,0:0:0:0:
448,192,68937,128,0,69054:3:0:0:0:
192,192,68937,1,0,0:0:0:0:
192,192,69171,128,0,69289:0:0:0:0:
320,192,69289,128,0,69406:0:0:0:0:
64,192,69406,1,0,0:0:0:0:
448,192,69406,1,8,0:0:0:0:
192,192,69640,128,0,69757:0:0:0:0:
320,192,69757,128,0,69875:0:0:0:0:
448,192,69875,1,0,0:0:0:0:
64,192,69875,128,0,70109:3:0:0:0:
320,192,70109,1,0,0:0:0:0:
64,192,70226,128,0,70343:0:0:0:0:
320,192,70343,1,0,0:0:0:0:
448,192,70343,1,8,0:0:0:0:
448,192,70578,1,0,0:0:0:0:
192,192,70578,128,0,70695:0:0:0:0:
64,192,70812,1,0,0:0:0:0:
320,192,70812,128,0,71046:3:0:0:0:
448,192,71046,1,0,0:0:0:0:
320,192,71164,128,0,71281:0:0:0:0:
192,192,71281,1,0,0:0:0:0:
64,192,71281,1,8,0:0:0:0:
448,192,71515,128,0,71632:0:0:0:0:
64,192,71515,1,0,0:0:0:0:
320,192,71750,1,0,0:0:0:0:
192,192,71750,128,0,71984:3:0:0:0:
448,192,71984,1,0,0:0:0:0:
192,192,72101,128,0,72218:0:0:0:0:
64,192,72218,1,8,0:0:0:0:
320,192,72218,1,0,0:0:0:0:
64,192,72453,1,0,0:0:0:0:
448,192,72453,128,0,72570:0:0:0:0:
320,192,72687,1,0,0:0:0:0:
192,192,72687,128,0,72804:3:0:0:0:
320,192,72921,128,0,73039:0:0:0:0:
448,192,72921,1,8,0:0:0:0:
64,192,73039,128,0,73156:0:0:0:0:
192,192,73156,1,0,0:0:0:0:
448,192,73156,1,8,0:0:0:0:
320,192,73390,128,0,73507:0:0:0:0:
64,192,73507,128,0,73625:0:0:0:0:
448,192,73625,128,0,73859:3:0:0:0:
320,192,73625,1,4,0:2:0:0:
192,192,73859,1,0,0:0:0:0:
448,192,73976,128,0,74093:0:0:0:0:
320,192,74093,1,8,0:0:0:0:
64,192,74093,1,0,0:0:0:0:
192,192,74328,1,0,0:0:0:0:
320,192,74328,128,0,74445:0:0:0:0:
448,192,74562,1,0,0:0:0:0:
64,192,74562,128,0,74796:3:0:0:0:
320,192,74796,1,0,0:0:0:0:
64,192,74914,128,0,75031:0:0:0:0:
448,192,75031,1,0,0:0:0:0:
320,192,75031,1,8,0:0:0:0:
192,192,75265,128,0,75382:0:0:0:0:
448,192,75265,1,0,0:0:0:0:
192,192,75500,1,0,0:0:0:0:
320,192,75500,128,0,75617:3:0:0:0:
448,192,75734,128,0,75851:0:0:0:0:
192,192,75851,128,0,75968:0:0:0:0:
64,192,75968,1,0,0:0:0:0:
320,192,75968,1,8,0:0:0:0:
448,192,76203,128,0,76320:0:0:0:0:
192,192,76320,128,0,76437:0:0:0:0:
64,192,76437,128,0,76554:0:0:0:0:
320,192,76437,1,0,3:0:0:0:
192,192,76671,128,2,76789:0:0:0:0:
320,192,76789,128,2,77023:0:0:0:0:
448,192,76906,128,2,77023:0:0:0:0:
192,192,76906,1,0,0:0:0:0:
64,192,76906,1,8,0:0:0:0:
64,192,77140,128,2,77257:0:0:0:0:
64,192,77375,1,2,0:0:0:0:
448,192,77375,128,0,77609:3:0:0:0:
192,192,77609,1,0,0:0:0:0:
448,192,77726,128,0,77843:0:0:0:0:
192,192,77843,1,8,0:0:0:0:
64,192,77843,1,0,0:0:0:0:
64,192,78078,128,0,78195:0:0:0:0:
448,192,78078,1,0,0:0:0:0:
320,192,78312,1,0,0:0:0:0:
192,192,78312,128,0,78546:3:0:0:0:
448,192,78546,1,0,0:0:0:0:
192,192,78664,128,0,78781:0:0:0:0:
320,192,78781,1,0,0:0:0:0:
64,192,78781,1,8,0:0:0:0:
320,192,79015,1,0,0:0:0:0:
64,192,79015,128,0,79132:0:0:0:0:
192,192,79250,1,0,0:0:0:0:
448,192,79250,128,0,79367:3:0:0:0:
320,192,79484,128,0,79601:0:0:0:0:
64,192,79601,128,0,79718:0:0:0:0:
448,192,79718,1,8,0:0:0:0:
192,192,79718,1,0,0:0:0:0:
320,192,79953,128,0,80070:0:0:0:0:
64,192,80070,128,0,80187:0:0:0:0:
192,192,80187,1,2,0:0:0:0:
448,192,80187,128,0,80421:3:0:0:0:
64,192,80421,1,0,0:0:0:0:
448,192,80539,128,2,80656:0:0:0:0:
192,192,80656,1,2,0:0:0:0:
64,192,80656,1,8,0:0:0:0:
448,192,80890,1,0,0:0:0:0:
192,192,80890,128,2,81007:0:0:0:0:
320,192,81125,1,0,0:0:0:0:
64,192,81125,128,0,81476:3:0:0:0:
448,192,81359,1,0,0:0:0:0:
64,192,81593,1,8,0:0:0:0:
192,192,81593,1,0,0:0:0:0:
192,192,81828,128,2,81945:0:0:0:0:
320,192,81828,1,0,0:0:0:0:
448,192,82062,128,0,82179:0:0:0:0:
64,192,82062,128,0,82414:3:0:0:0:
192,192,82296,1,0,0:0:0:0:
448,192,82531,1,0,0:0:0:0:
64,192,82531,1,8,0:0:0:0:
192,192,82765,1,0,0:0:0:0:
448,192,83000,1,0,0:0:0:0:
64,192,83000,1,0,3:0:0:0:
320,192,83117,1,0,0:0:0:0:
192,192,83234,1,0,0:0:0:0:
448,192,83351,1,0,0:0:0:0:
64,192,83468,1,0,0:0:0:0:
192,192,83468,1,8,0:0:0:0:
320,192,83585,1,0,0:0:0:0:
64,192,83703,1,0,0:0:0:0:
192,192,83820,1,0,0:0:0:0:
320,192,83937,1,0,0:0:0:0:
448,192,83937,1,0,3:0:0:0:
64,192,84054,1,0,0:0:0:0:
192,192,84171,1,0,0:0:0:0:
320,192,84289,1,0,0:0:0:0:
64,192,84406,1,0,0:0:0:0:
448,192,84406,1,8,0:0:0:0:
192,192,84523,1,0,0:0:0:0:
320,192,84640,1,0,0:0:0:0:
192,192,84757,1,0,0:0:0:0:
448,192,84875,1,4,0:2:0:0:
320,192,84875,1,0,3:0:0:0:
64,192,84875,128,0,85226:0:0:0:0:
320,192,85109,128,0,85343:0:0:0:0:
448,192,85226,128,0,85343:0:0:0:0:
64,192,85343,1,0,0:0:0:0:
192,192,85343,1,8,0:0:0:0:
320,192,85578,128,0,85812:0:0:0:0:
448,192,85578,1,0,0:0:0:0:
64,192,85695,1,0,0:0:0:0:
448,192,85812,1,0,0:0:0:0:
192,192,85812,128,0,86046:3:0:0:0:
320,192,86046,128,0,86281:0:0:0:0:
192,192,86281,1,0,0:0:0:0:
64,192,86281,1,8,0:0:0:0:
320,192,86515,128,0,86750:0:0:0:0:
448,192,86632,1,0,0:0:0:0:
192,192,86750,1,0,3:0:0:0:
64,192,86750,1,0,0:0:0:0:
320,192,86984,128,0,87218:0:0:0:0:
448,192,87218,1,0,0:0:0:0:
64,192,87218,1,8,0:0:0:0:
320,192,87453,128,0,87687:0:0:0:0:
192,192,87570,1,0,0:0:0:0:
448,192,87687,1,0,0:0:0:0:
64,192,87687,128,0,87921:3:0:0:0:
320,192,87921,128,0,88156:0:0:0:0:
64,192,88156,1,0,0:0:0:0:
448,192,88156,128,8,88390:0:0:0:0:
192,192,88390,128,0,88625:0:0:0:0:
64,192,88507,1,0,0:0:0:0:
320,192,88625,1,0,3:0:0:0:
448,192,88625,128,0,88976:0:0:0:0:
64,192,88859,128,0,89093:0:0:0:0:
192,192,88976,128,0,89093:0:0:0:0:
320,192,89093,1,0,0:0:0:0:
448,192,89093,1,8,0:0:0:0:
64,192,89328,128,0,89562:0:0:0:0:
192,192,89445,1,0,0:0:0:0:
448,192,89562,1,0,0:0:0:0:
320,192,89562,128,0,89796:3:0:0:0:
64,192,89796,128,2,90031:0:0:0:0:
448,192,89914,128,2,90265:0:0:0:0:
192,192,90031,1,2,0:0:0:0:
320,192,90031,1,8,0:0:0:0:
192,192,90265,128,2,90500:0:0:0:0:
64,192,90382,1,0,0:0:0:0:
448,192,90500,1,2,0:0:0:0:
320,192,90500,128,0,90734:3:0:0:0:
64,192,90734,128,0,90968:0:0:0:0:
448,192,90968,1,0,0:0:0:0:
320,192,90968,1,8,0:0:0:0:
64,192,91203,128,0,91437:0:0:0:0:
192,192,91320,1,0,0:0:0:0:
320,192,91437,1,2,0:0:0:0:
448,192,91437,128,0,91671:3:0:0:0:
64,192,91671,1,0,0:0:0:0:
192,192,91671,1,8,0:0:0:0:
64,192,91906,1,8,0:0:0:0:
448,192,91906,1,0,0:0:0:0:
192,192,92140,1,0,0:0:0:0:
320,192,92257,1,0,0:0:0:0:
64,192,92375,1,4,0:2:0:0:
448,192,92375,128,0,92609:3:0:0:0:
192,192,92609,128,0,92843:0:0:0:0:
320,192,92843,1,0,0:0:0:0:
64,192,92843,1,8,0:0:0:0:
192,192,93078,128,0,93312:0:0:0:0:
448,192,93195,1,0,0:0:0:0:
320,192,93312,1,0,0:0:0:0:
64,192,93312,128,0,93546:3:0:0:0:
192,192,93546,128,0,93781:0:0:0:0:
320,192,93781,1,0,0:0:0:0:
448,192,93781,128,8,94015:0:0:0:0:
192,192,94015,128,0,94250:0:0:0:0:
64,192,94132,1,0,0:0:0:0:
448,192,94250,1,0,0:0:0:0:
320,192,94250,128,0,94601:3:0:0:0:
64,192,94484,128,0,94718:0:0:0:0:
192,192,94601,128,0,94718:0:0:0:0:
320,192,94718,1,0,0:0:0:0:
448,192,94718,1,8,0:0:0:0:
192,192,94953,128,0,95187:0:0:0:0:
320,192,95070,1,0,0:0:0:0:
64,192,95187,1,0,0:0:0:0:
448,192,95187,1,0,3:0:0:0:
192,192,95421,128,0,95656:0:0:0:0:
320,192,95656,1,0,0:0:0:0:
64,192,95656,1,8,0:0:0:0:
192,192,95890,128,0,96125:0:0:0:0:
448,192,96007,1,0,0:0:0:0:
64,192,96125,128,0,96476:0:0:0:0:
320,192,96125,1,0,3:0:0:0:
448,192,96359,128,0,96593:0:0:0:0:
320,192,96476,128,0,96593:0:0:0:0:
192,192,96593,1,0,0:0:0:0:
64,192,96593,1,8,0:0:0:0:
448,192,96828,128,0,97062:0:0:0:0:
64,192,96945,1,0,0:0:0:0:
192,192,97062,1,0,0:0:0:0:
320,192,97062,128,0,97296:3:0:0:0:
64,192,97296,128,0,97531:0:0:0:0:
192,192,97414,128,0,97531:0:0:0:0:
320,192,97531,1,0,0:0:0:0:
448,192,97531,1,8,0:0:0:0:
320,192,97765,128,0,98000:0:0:0:0:
448,192,97882,1,0,0:0:0:0:
64,192,98000,1,0,0:0:0:0:
192,192,98000,128,0,98234:3:0:0:0:
448,192,98234,128,0,98468:0:0:0:0:
192,192,98468,1,8,0:0:0:0:
64,192,98468,1,0,0:0:0:0:
448,192,98703,128,0,98937:0:0:0:0:
320,192,98820,1,0,0:0:0:0:
192,192,98937,1,0,0:0:0:0:
64,192,98937,128,0,99171:3:0:0:0:
320,192,99171,1,0,0:0:0:0:
448,192,99171,1,8,0:0:0:0:
64,192,99406,1,0,0:0:0:0:
448,192,99406,128,8,99757:0:0:0:0:
320,192,99640,1,0,0:0:0:0:
192,192,99757,1,0,0:0:0:0:
64,192,99875,1,0,0:0:0:0:
448,192,99875,1,0,3:0:0:0:
320,192,99875,128,4,100226:0:0:0:0:
192,192,100109,128,0,100343:0:0:0:0:
448,192,100343,1,8,0:0:0:0:
320,192,100343,1,0,0:0:0:0:
192,192,100578,128,0,100812:0:0:0:0:
320,192,100695,1,0,0:0:0:0:
448,192,100812,1,0,0:0:0:0:
64,192,100812,1,0,3:0:0:0:
192,192,101046,128,0,101281:0:0:0:0:
64,192,101281,1,0,0:0:0:0:
448,192,101281,1,8,0:0:0:0:
192,192,101515,128,0,101750:0:0:0:0:
64,192,101632,1,0,0:0:0:0:
448,192,101750,1,0,0:0:0:0:
320,192,101750,1,0,3:0:0:0:
192,192,101984,128,0,102218:0:0:0:0:
64,192,102218,1,0,0:0:0:0:
448,192,102218,1,8,0:0:0:0:
192,192,102453,128,0,102687:0:0:0:0:
320,192,102570,1,0,0:0:0:0:
64,192,102687,1,0,0:0:0:0:
448,192,102687,1,0,3:0:0:0:
192,192,102921,128,0,103156:0:0:0:0:
448,192,103156,1,0,0:0:0:0:
320,192,103156,1,8,0:0:0:0:
320,192,103390,128,0,103625:0:0:0:0:
448,192,103507,1,0,0:0:0:0:
64,192,103625,128,0,103976:0:0:0:0:
192,192,103625,1,0,3:0:0:0:
448,192,103859,128,0,104093:0:0:0:0:
192,192,104093,1,0,0:0:0:0:
64,192,104093,1,8,0:0:0:0:
448,192,104328,128,0,104562:0:0:0:0:
192,192,104445,1,0,0:0:0:0:
64,192,104562,1,0,0:0:0:0:
320,192,104562,1,0,3:0:0:0:
448,192,104796,128,2,105031:0:0:0:0:
64,192,104914,128,2,105265:0:0:0:0:
320,192,105031,1,2,0:0:0:0:
192,192,105031,1,8,0:0:0:0:
320,192,105265,128,2,105500:0:0:0:0:
448,192,105382,1,0,0:0:0:0:
64,192,105500,1,2,0:0:0:0:
192,192,105500,128,0,105734:3:0:0:0:
448,192,105734,128,0,105968:0:0:0:0:
192,192,105968,1,0,0:0:0:0:
64,192,105968,1,8,0:0:0:0:
448,192,106203,128,0,106437:0:0:0:0:
320,192,106320,1,0,0:0:0:0:
64,192,106437,128,2,106671:0:0:0:0:
192,192,106437,1,0,3:0:0:0:
320,192,106671,1,0,0:0:0:0:
448,192,106671,1,8,0:0:0:0:
64,192,106906,1,0,0:0:0:0:
192,192,106906,1,8,0:0:0:0:
320,192,107140,1,0,0:0:0:0:
192,192,107257,1,0,0:0:0:0:
320,192,107375,1,4,0:0:0:0:
448,192,107375,1,0,0:0:0:0:
64,192,107375,128,0,107726:3:0:0:0:
320,192,107609,128,0,107843:0:0:0:0:
64,192,107843,1,0,0:0:0:0:
192,192,107843,1,8,0:0:0:0:
320,192,108078,128,0,108312:0:0:0:0:
192,192,108195,1,0,0:0:0:0:
448,192,108312,1,0,3:0:0:0:
64,192,108312,1,0,0:0:0:0:
320,192,108546,128,0,108781:0:0:0:0:
448,192,108781,1,0,0:0:0:0:
64,192,108781,1,8,0:0:0:0:
320,192,109015,128,0,109250:0:0:0:0:
448,192,109132,1,0,0:0:0:0:
64,192,109250,1,0,0:0:0:0:
192,192,109250,1,0,3:0:0:0:
320,192,109484,128,0,109718:0:0:0:0:
448,192,109718,1,0,0:0:0:0:
64,192,109718,1,8,0:0:0:0:
320,192,109953,128,0,110187:0:0:0:0:
192,192,110070,1,0,0:0:0:0:
448,192,110187,1,0,0:0:0:0:
64,192,110187,1,0,3:0:0:0:
320,192,110421,128,0,110656:0:0:0:0:
64,192,110656,1,0,0:0:0:0:
192,192,110656,1,8,0:0:0:0:
192,192,110890,128,0,111125:0:0:0:0:
64,192,111007,1,0,0:0:0:0:
448,192,111125,128,0,111476:0:0:0:0:
320,192,111125,1,0,3:0:0:0:
64,192,111359,128,0,111476:0:0:0:0:
320,192,111593,1,0,0:0:0:0:
448,192,111593,1,8,0:0:0:0:
64,192,111828,128,0,112062:0:0:0:0:
320,192,111945,1,0,0:0:0:0:
448,192,112062,1,0,0:0:0:0:
192,192,112062,1,0,3:0:0:0:
64,192,112296,128,2,112531:0:0:0:0:
448,192,112414,128,2,112765:0:0:0:0:
192,192,112531,1,2,0:0:0:0:
320,192,112531,1,8,0:0:0:0:
192,192,112765,128,2,113000:0:0:0:0:
64,192,112882,1,0,0:0:0:0:
448,192,113000,1,0,3:0:0:0:
320,192,113000,128,2,113234:0:0:0:0:
64,192,113234,128,0,113468:0:0:0:0:
320,192,113468,1,0,0:0:0:0:
448,192,113468,1,8,0:0:0:0:
64,192,113703,128,0,113937:0:0:0:0:
192,192,113820,1,0,0:0:0:0:
320,192,113937,1,0,3:0:0:0:
448,192,113937,128,2,114171:0:0:0:0:
192,192,114171,1,0,0:0:0:0:
64,192,114406,1,8,0:0:0:0:
448,192,114406,1,0,0:0:0:0:
192,192,114640,1,0,0:0:0:0:
320,192,114757,1,0,0:0:0:0:
192,192,114875,1,0,0:0:0:0:
448,192,114875,1,0,3:0:0:0:
64,192,114875,128,4,115226:0:0:0:0:
320,192,115109,1,0,0:0:0:0:
192,192,115226,1,0,0:0:0:0:
64,192,115343,1,0,0:0:0:0:
448,192,115343,1,0,0:0:0:0:
192,192,115578,1,0,0:0:0:0:
320,192,115695,1,0,0:0:0:0:
448,192,115812,1,0,0:0:0:0:
64,192,115812,1,0,0:0:0:0:
320,192,116046,128,0,116281:0:0:0:0:
64,192,116281,1,0,0:0:0:0:
448,192,116281,1,0,0:0:0:0:
192,192,116398,128,0,116750:0:0:0:0:
448,192,116515,1,0,0:0:0:0:
320,192,116632,1,0,0:0:0:0:
64,192,116750,128,0,117101:0:0:0:0:
448,192,116750,1,0,0:0:0:0:
320,192,116984,1,0,0:0:0:0:
192,192,117101,1,0,0:0:0:0:
448,192,117218,1,0,0:0:0:0:
64,192,117218,1,0,0:0:0:0:
320,192,117453,128,2,117570:0:0:0:0:
64,192,117570,1,0,0:0:0:0:
192,192,117687,128,0,117804:0:0:0:0:
320,192,117687,1,2,0:0:0:0:
448,192,117921,128,0,118156:0:0:0:0:
320,192,118156,1,0,0:0:0:0:
64,192,118156,1,2,0:0:0:0:
192,192,118273,128,0,118625:0:0:0:0:
448,192,118390,1,0,0:0:0:0:
64,192,118507,1,0,0:0:0:0:
320,192,118625,1,0,0:0:0:0:
448,192,118625,128,2,118976:0:0:0:0:
64,192,118859,1,0,0:0:0:0:
192,192,118976,1,0,0:0:0:0:
448,192,119093,1,0,0:0:0:0:
320,192,119093,1,0,0:0:0:0:
192,192,119328,1,0,0:0:0:0:
448,192,119445,1,0,0:0:0:0:
64,192,119562,128,2,119679:0:0:0:0:
320,192,119562,1,0,0:0:0:0:
448,192,119796,1,0,0:0:0:0:
192,192,119914,1,0,0:0:0:0:
64,192,120031,1,0,0:0:0:0:
320,192,120031,1,0,0:0:0:0:
320,192,120265,128,0,120617:0:0:0:0:
448,192,120265,128,2,120617:0:0:0:0:
320,192,120734,1,0,0:0:0:0:
192,192,120734,1,2,0:0:0:0:
192,192,120968,128,0,121671:0:0:0:0:
64,192,120968,128,0,121789:0:0:0:0:
448,192,120968,128,2,121554:0:0:0:0:
448,192,121671,1,0,0:0:0:0:
192,192,121789,1,0,0:0:0:0:
64,192,121906,1,0,0:0:0:0:
448,192,121906,128,0,122257:0:0:0:0:
