osu file format v14

[General]
AudioFilename: audio.ogg
AudioLeadIn: 0
PreviewTime: 84875
Countdown: 0
SampleSet: Soft
StackLeniency: 0.7
Mode: 3
LetterboxInBreaks: 0
SpecialStyle: 0
WidescreenStoryboard: 1

[Editor]
DistanceSpacing: 1
BeatDivisor: 4
GridSize: 32
TimelineZoom: 1.1

[Metadata]
Title:Sunshine City
TitleUnicode:Sunshine City
Artist:Desired
ArtistUnicode:Desired
Creator:dopaminos
Version:Normal
Source:Sailor Moon SuperS the Movie: Black Dream Hole
Tags:美少女戦士セーラームーンSuperS セーラー9戦士集結!ブラック・ドリーム・ホールの奇跡 Sailor Moon SuperS the Movie: Black Dream Hole Pretty Cast Morning Moonで会いましょう de Aimashou Let's Meet at Timeless Neoncity Records Team SRT002 Future Funk Electronic Pop J-Pop Japanese Jesuren JesusMD24 で会いましょう Instrumental PokeSky
BeatmapID:3003124
BeatmapSetID:1461767

[Difficulty]
HPDrainRate:7
CircleSize:4
OverallDifficulty:7
ApproachRate:5
SliderMultiplier:1.4
SliderTickRate:1

[Events]
//Background and Video events
0,0,"Konachan.com - 308943 sample.jpg",0,0
//Break Periods
//Storyboard Layer 0 (Background)
//Storyboard Layer 1 (Fail)
//Storyboard Layer 2 (Pass)
//Storyboard Layer 3 (Foreground)
//Storyboard Layer 4 (Overlay)
//Storyboard Sound Samples

[TimingPoints]
500,468.75,4,2,1,35,1,0
2375,-100,4,2,1,55,0,1
17375,-100,4,2,1,35,0,0
24875,-100,4,2,1,42,0,0
43625,-100,4,2,1,55,0,1
58625,-100,4,2,1,30,0,0
66125,-100,4,2,1,42,0,0
84875,-100,4,2,1,57,0,1
92375,-100,4,2,1,52,0,0
99875,-100,4,2,1,57,0,1
114875,-100,4,2,1,30,0,0

[HitObjects]
320,192,500,5,0,3:0:0:0:
64,192,500,1,0,0:0:0:0:
192,192,734,1,0,0:0:0:0:
448,192,968,1,0,0:0:0:0:
64,192,968,1,0,0:0:0:0:
320,192,1203,1,0,0:0:0:0:
64,192,1437,1,0,3:0:0:0:
448,192,1437,1,0,0:0:0:0:
192,192,1554,1,0,0:0:0:0:
320,192,1671,1,0,0:0:0:0:
448,192,1789,1,0,0:0:0:0:
64,192,1906,1,0,3:0:0:0:
192,192,2023,1,0,0:0:0:0:
320,192,2140,1,0,0:0:0:0:
64,192,2257,1,0,0:0:0:0:
192,192,2375,1,0,3:0:0:0:
448,192,2375,128,4,2843:0:2:0:0:
320,192,2843,1,8,0:0:0:0:
64,192,2843,1,0,0:0:0:0:
64,192,3078,1,0,0:0:0:0:
192,192,3195,1,0,0:0:0:0:
320,192,3312,128,0,3781:3:0:0:0:
448,192,3312,1,0,0:0:0:0:
448,192,3781,1,0,0:0:0:0:
64,192,3781,1,8,0:0:0:0:
192,192,4015,1,0,0:0:0:0:
448,192,4250,128,0,4718:3:0:0:0:
320,192,4250,1,0,0:0:0:0:
64,192,4718,1,0,0:0:0:0:
320,192,4718,1,8,0:0:0:0:
192,192,4953,1,0,0:0:0:0:
448,192,5187,1,0,3:0:0:0:
320,192,5187,1,0,0:0:0:0:
192,192,5421,1,0,0:0:0:0:
320,192,5539,1,0,0:0:0:0:
448,192,5656,1,0,0:0:0:0:
64,192,5656,1,8,0:0:0:0:
192,192,5890,128,0,6125:0:0:0:0:
448,192,6125,1,0,0:0:0:0:
320,192,6125,128,0,6359:3:0:0:0:
64,192,6359,1,0,0:0:0:0:
448,192,6476,1,0,0:0:0:0:
320,192,6593,1,0,0:0:0:0:
64,192,6593,1,8,0:0:0:0:
448,192,6828,1,0,0:0:0:0:
64,192,7062,1,0,3:0:0:0:
192,192,7062,1,0,0:0:0:0:
320,192,7296,1,2,0:0:0:0:
192,192,7414,1,2,0:0:0:0:
64,192,7531,1,2,0:0:0:0:
448,192,7531,128,8,7765:0:0:0:0:
192,192,7765,128,2,8000:0:0:0:0:
448,192,8000,1,0,3:0:0:0:
320,192,8000,128,2,8937:0:0:0:0:
192,192,8234,1,0,0:0:0:0:
448,192,8468,1,8,0:0:0:0:
192,192,8937,128,2,9875:0:0:0:0:
64,192,8937,1,0,3:0:0:0:
320,192,9171,1,8,0:0:0:0:
448,192,9171,1,0,0:0:0:0:
320,192,9406,1,8,0:0:0:0:
448,192,9406,1,0,0:0:0:0:
448,192,9875,128,4,10343:0:2:0:0:
64,192,9875,1,0,3:0:0:0:
320,192,10343,1,0,0:0:0:0:
64,192,10343,1,8,0:0:0:0:
192,192,10578,1,0,0:0:0:0:
64,192,10695,1,0,0:0:0:0:
448,192,10812,128,0,11281:3:0:0:0:
320,192,10812,1,0,0:0:0:0:
64,192,11281,1,0,0:0:0:0:
320,192,11281,1,8,0:0:0:0:
192,192,11515,1,0,0:0:0:0:
448,192,11750,1,0,0:0:0:0:
320,192,11750,128,0,12218:3:0:0:0:
64,192,12218,1,0,0:0:0:0:
448,192,12218,1,8,0:0:0:0:
192,192,12453,1,0,0:0:0:0:
320,192,12687,1,0,3:0:0:0:
448,192,12687,1,0,0:0:0:0:
64,192,12921,1,0,0:0:0:0:
192,192,13039,1,0,0:0:0:0:
448,192,13156,1,0,0:0:0:0:
320,192,13156,1,8,0:0:0:0:
192,192,13390,128,0,13625:0:0:0:0:
448,192,13625,1,0,0:0:0:0:
320,192,13625,128,0,13859:3:0:0:0:
64,192,13859,1,0,0:0:0:0:
192,192,14093,1,0,0:0:0:0:
448,192,14093,1,8,0:0:0:0:
320,192,14328,1,0,0:0:0:0:
192,192,14445,1,0,0:0:0:0:
64,192,14562,1,0,3:0:0:0:
192,192,14796,1,2,0:0:0:0:
448,192,15031,1,8,0:0:0:0:
64,192,15031,128,2,15265:0:0:0:0:
192,192,15265,128,2,15500:0:0:0:0:
320,192,15500,128,2,16437:0:0:0:0:
448,192,15500,1,0,3:0:0:0:
448,192,15734,1,0,0:0:0:0:
192,192,15968,1,8,0:0:0:0:
64,192,15968,1,0,0:0:0:0:
192,192,16437,1,2,0:0:0:0:
64,192,16437,128,0,17375:3:0:0:0:
192,192,16671,1,0,0:0:0:0:
448,192,16906,1,0,0:0:0:0:
320,192,16906,1,8,0:0:0:0:
192,192,17375,1,0,3:0:0:0:
448,192,17375,128,4,19250:3:2:0:0:
320,192,17726,1,0,0:0:0:0:
64,192,17843,1,8,0:0:0:0:
192,192,17843,1,0,0:0:0:0:
320,192,18312,1,0,3:0:0:0:
192,192,18546,1,0,0:0:0:0:
192,192,18781,1,0,0:0:0:0:
64,192,18781,1,8,0:0:0:0:
320,192,18898,1,0,0:0:0:0:
192,192,19250,128,0,21125:3:0:0:0:
64,192,19250,1,0,0:0:0:0:
320,192,19718,1,8,0:0:0:0:
448,192,19718,1,0,0:0:0:0:
64,192,20187,1,0,3:0:0:0:
448,192,20421,1,0,0:0:0:0:
320,192,20656,1,8,0:0:0:0:
448,192,20656,1,0,0:0:0:0:
64,192,20773,1,0,0:0:0:0:
448,192,21125,128,0,22062:3:0:0:0:
64,192,21593,1,0,0:0:0:0:
192,192,21593,1,8,0:0:0:0:
64,192,22062,128,0,22765:3:0:0:0:
320,192,22531,1,8,0:0:0:0:
448,192,22531,1,0,0:0:0:0:
192,192,22765,1,0,0:0:0:0:
448,192,22765,1,0,0:0:0:0:
320,192,23234,1,0,0:0:0:0:
320,192,23468,128,0,24406:0:0:0:0:
64,192,24406,128,0,24875:0:0:0:0:
448,192,24875,128,0,25343:3:0:0:0:
192,192,24875,1,4,3:2:0:0:
320,192,25226,1,0,0:0:0:0:
192,192,25343,1,0,0:0:0:0:
64,192,25343,1,8,0:0:0:0:
320,192,25578,1,0,0:0:0:0:
320,192,25812,128,0,26281:3:0:0:0:
448,192,25812,1,0,0:0:0:0:
64,192,26164,1,0,0:0:0:0:
192,192,26281,1,0,0:0:0:0:
448,192,26281,1,8,0:0:0:0:
64,192,26515,1,0,0:0:0:0:
192,192,26750,1,0,0:0:0:0:
64,192,26750,128,0,27218:3:0:0:0:
320,192,27101,1,0,0:0:0:0:
192,192,27218,1,0,0:0:0:0:
448,192,27218,1,8,0:0:0:0:
320,192,27453,1,0,0:0:0:0:
320,192,27687,1,0,3:0:0:0:
64,192,27921,1,0,0:0:0:0:
192,192,28039,1,0,0:0:0:0:
320,192,28156,1,0,0:0:0:0:
448,192,28156,1,8,0:0:0:0:
64,192,28390,1,0,0:0:0:0:
192,192,28625,128,0,29093:3:0:0:0:
320,192,28625,1,0,0:0:0:0:
448,192,28976,1,0,0:0:0:0:
320,192,29093,1,0,0:0:0:0:
64,192,29093,1,8,0:0:0:0:
192,192,29328,1,0,0:0:0:0:
320,192,29562,128,0,30031:3:0:0:0:
192,192,29562,1,0,0:0:0:0:
192,192,29914,1,0,0:0:0:0:
64,192,30031,1,8,0:0:0:0:
448,192,30031,1,0,0:0:0:0:
320,192,30265,1,0,0:0:0:0:
448,192,30500,128,0,30968:3:0:0:0:
320,192,30500,1,0,0:0:0:0:
192,192,30851,1,0,0:0:0:0:
64,192,30968,1,0,0:0:0:0:
320,192,30968,1,8,0:0:0:0:
192,192,31203,1,0,0:0:0:0:
320,192,31437,1,0,0:0:0:0:
192,192,31437,128,0,31906:3:0:0:0:
448,192,31671,1,0,0:0:0:0:
64,192,31906,1,0,0:0:0:0:
448,192,31906,1,8,0:0:0:0:
320,192,32375,128,0,32843:3:0:0:0:
192,192,32375,1,0,0:0:0:0:
64,192,32726,1,0,0:0:0:0:
448,192,32843,1,8,0:0:0:0:
192,192,32843,1,0,0:0:0:0:
320,192,33078,1,0,0:0:0:0:
64,192,33312,1,0,0:0:0:0:
192,192,33312,128,0,33781:3:0:0:0:
320,192,33664,1,0,0:0:0:0:
64,192,33781,1,0,0:0:0:0:
448,192,33781,1,8,0:0:0:0:
320,192,34015,1,0,0:0:0:0:
192,192,34250,128,0,34718:3:0:0:0:
64,192,34250,1,0,0:0:0:0:
64,192,34718,1,0,0:0:0:0:
448,192,34718,1,8,0:0:0:0:
320,192,34953,1,0,0:0:0:0:
448,192,35187,1,0,0:0:0:0:
320,192,35187,128,0,35656:3:0:0:0:
64,192,35421,1,2,0:0:0:0:
192,192,35539,1,2,0:0:0:0:
448,192,35656,1,2,0:0:0:0:
64,192,35656,1,8,0:0:0:0:
192,192,35890,1,2,0:0:0:0:
448,192,36125,128,0,36593:3:0:0:0:
320,192,36125,1,2,0:0:0:0:
192,192,36476,1,0,0:0:0:0:
320,192,36593,1,0,0:0:0:0:
64,192,36593,1,8,0:0:0:0:
192,192,36828,1,0,0:0:0:0:
192,192,37062,128,0,37531:3:0:0:0:
320,192,37062,1,0,0:0:0:0:
448,192,37414,1,0,0:0:0:0:
64,192,37531,1,0,0:0:0:0:
320,192,37531,1,8,0:0:0:0:
448,192,37765,1,0,0:0:0:0:
448,192,38000,128,0,38468:3:0:0:0:
320,192,38000,1,0,0:0:0:0:
320,192,38468,1,8,0:0:0:0:
64,192,38468,1,0,0:0:0:0:
192,192,38703,1,0,0:0:0:0:
448,192,38937,1,0,3:0:0:0:
320,192,38937,1,2,0:0:0:0:
64,192,39171,1,0,0:0:0:0:
320,192,39171,1,8,0:0:0:0:
64,192,39406,1,0,0:0:0:0:
320,192,39406,1,8,0:0:0:0:
448,192,39640,1,2,0:0:0:0:
64,192,39875,128,0,41750:0:0:0:0:
192,192,39875,1,0,3:0:0:0:
448,192,40343,1,0,0:0:0:0:
320,192,40343,1,8,0:0:0:0:
192,192,40578,1,0,0:0:0:0:
192,192,40812,128,0,41750:3:0:0:0:
320,192,41281,1,8,0:0:0:0:
448,192,41281,1,0,0:0:0:0:
448,192,41750,128,0,42687:3:0:0:0:
320,192,41750,1,0,0:0:0:0:
320,192,42218,128,8,42687:0:0:0:0:
192,192,42218,1,0,0:0:0:0:
64,192,42687,128,0,43625:3:0:0:0:
192,192,42843,1,0,0:0:0:0:
448,192,43000,1,0,0:0:0:0:
320,192,43156,1,8,0:0:0:0:
192,192,43156,1,0,0:0:0:0:
320,192,43390,1,0,0:0:0:0:
448,192,43625,128,0,44093:3:0:0:0:
320,192,43625,1,4,3:2:0:0:
64,192,44093,1,0,0:0:0:0:
320,192,44093,1,8,0:0:0:0:
192,192,44328,1,0,0:0:0:0:
320,192,44445,1,0,0:0:0:0:
192,192,44562,1,0,0:0:0:0:
64,192,44562,128,0,45031:3:0:0:0:
192,192,45031,1,0,0:0:0:0:
448,192,45031,1,8,0:0:0:0:
320,192,45265,1,0,0:0:0:0:
448,192,45500,128,0,45968:3:0:0:0:
320,192,45500,1,0,0:0:0:0:
192,192,45968,1,0,0:0:0:0:
64,192,45968,1,8,0:0:0:0:
320,192,46203,1,0,0:0:0:0:
320,192,46437,1,0,0:0:0:0:
448,192,46437,1,0,3:0:0:0:
192,192,46671,1,0,0:0:0:0:
64,192,46789,1,0,0:0:0:0:
448,192,46906,1,0,0:0:0:0:
192,192,46906,1,8,0:0:0:0:
320,192,47140,128,0,47375:0:0:0:0:
448,192,47375,1,0,0:0:0:0:
192,192,47375,128,0,47609:3:0:0:0:
64,192,47609,1,0,0:0:0:0:
320,192,47726,1,0,0:0:0:0:
64,192,47843,1,8,0:0:0:0:
448,192,47843,1,0,0:0:0:0:
192,192,48078,1,0,0:0:0:0:
320,192,48312,1,0,3:0:0:0:
448,192,48312,1,0,0:0:0:0:
192,192,48546,1,2,0:0:0:0:
448,192,48664,1,2,0:0:0:0:
64,192,48781,1,2,0:0:0:0:
320,192,48781,128,8,49015:0:0:0:0:
64,192,49015,128,2,49250:0:0:0:0:
320,192,49250,128,0,50187:3:0:0:0:
192,192,49250,1,2,0:0:0:0:
448,192,49484,1,0,0:0:0:0:
64,192,49718,1,8,0:0:0:0:
192,192,49718,1,0,0:0:0:0:
64,192,50187,1,2,0:0:0:0:
448,192,50187,128,0,51125:3:0:0:0:
192,192,50421,1,0,0:0:0:0:
320,192,50656,1,8,0:0:0:0:
64,192,51125,128,4,51593:0:0:0:0:
320,192,51125,1,0,3:0:0:0:
192,192,51593,1,8,0:0:0:0:
320,192,51593,1,0,0:0:0:0:
448,192,51828,1,0,0:0:0:0:
64,192,51945,1,0,0:0:0:0:
320,192,52062,128,0,52531:3:0:0:0:
192,192,52062,1,0,0:0:0:0:
448,192,52531,1,0,0:0:0:0:
64,192,52531,1,8,0:0:0:0:
192,192,52765,1,0,0:0:0:0:
448,192,53000,128,0,53468:3:0:0:0:
320,192,53000,1,0,0:0:0:0:
64,192,53468,1,8,0:0:0:0:
320,192,53468,1,0,0:0:0:0:
192,192,53703,1,0,0:0:0:0:
448,192,53937,1,0,3:0:0:0:
320,192,54171,1,0,0:0:0:0:
64,192,54289,1,0,0:0:0:0:
448,192,54406,1,0,0:0:0:0:
192,192,54406,1,8,0:0:0:0:
320,192,54640,1,0,0:0:0:0:
448,192,54875,1,0,0:0:0:0:
320,192,54875,128,0,55109:3:0:0:0:
64,192,55343,1,8,0:0:0:0:
192,192,55343,128,0,55578:0:0:0:0:
448,192,55578,1,0,0:0:0:0:
320,192,55695,1,0,0:0:0:0:
64,192,55812,1,0,3:0:0:0:
320,192,56046,1,2,0:0:0:0:
192,192,56164,1,2,0:0:0:0:
64,192,56281,1,2,0:0:0:0:
448,192,56281,128,8,56515:0:0:0:0:
192,192,56515,128,2,56750:0:0:0:0:
320,192,56750,1,2,0:0:0:0:
64,192,56750,128,0,57687:3:0:0:0:
448,192,56984,1,0,0:0:0:0:
320,192,57218,1,8,0:0:0:0:
192,192,57218,1,0,0:0:0:0:
192,192,57687,128,2,58625:3:2:0:0:
448,192,57921,1,8,0:0:0:0:
320,192,57921,1,0,0:0:0:0:
448,192,58156,1,8,0:0:0:0:
320,192,58156,1,0,0:0:0:0:
64,192,58625,1,0,3:0:0:0:
320,192,58625,128,4,60500:3:2:0:0:
448,192,59328,1,0,0:0:0:0:
448,192,59562,128,0,60031:0:0:0:0:
64,192,60031,1,0,0:0:0:0:
192,192,60265,1,0,0:0:0:0:
64,192,60500,128,0,62375:0:0:0:0:
448,192,60734,1,0,0:0:0:0:
448,192,60968,1,0,0:0:0:0:
448,192,61437,128,0,61789:0:0:0:0:
320,192,61789,128,0,62140:0:0:0:0:
192,192,62140,128,0,62375:0:0:0:0:
448,192,62375,128,0,64250:0:0:0:0:
192,192,63078,1,0,0:0:0:0:
192,192,63312,128,0,63781:0:0:0:0:
320,192,64250,1,0,0:0:0:0:
64,192,64250,1,0,0:0:0:0:
192,192,64484,1,0,0:0:0:0:
64,192,64718,1,0,0:0:0:0:
448,192,64718,1,0,0:0:0:0:
192,192,64953,1,0,0:0:0:0:
448,192,65187,1,0,0:0:0:0:
320,192,65421,1,0,0:0:0:0:
64,192,65656,1,0,0:0:0:0:
192,192,65773,1,0,0:0:0:0:
320,192,65890,1,0,0:0:0:0:
320,192,66125,128,4,66593:0:0:0:0:
448,192,66125,1,0,3:0:0:0:
192,192,66476,1,0,0:0:0:0:
448,192,66593,1,0,0:0:0:0:
64,192,66593,128,8,66828:0:0:0:0:
320,192,66828,1,0,0:0:0:0:
320,192,67062,128,0,67531:3:0:0:0:
192,192,67062,1,0,0:0:0:0:
64,192,67414,1,0,0:0:0:0:
448,192,67531,1,8,0:0:0:0:
192,192,67531,1,0,0:0:0:0:
64,192,67765,1,0,0:0:0:0:
64,192,68000,128,0,68468:3:0:0:0:
192,192,68000,1,0,0:0:0:0:
320,192,68351,1,0,0:0:0:0:
192,192,68468,1,0,0:0:0:0:
448,192,68468,1,8,0:0:0:0:
320,192,68703,1,0,0:0:0:0:
320,192,68937,128,0,69406:3:0:0:0:
192,192,68937,1,0,0:0:0:0:
64,192,69406,1,8,0:0:0:0:
448,192,69406,1,0,0:0:0:0:
320,192,69875,128,0,70343:3:0:0:0:
192,192,69875,1,0,0:0:0:0:
448,192,70226,1,0,0:0:0:0:
64,192,70343,1,0,0:0:0:0:
192,192,70343,1,8,0:0:0:0:
448,192,70578,1,0,0:0:0:0:
448,192,70812,128,0,71281:3:0:0:0:
320,192,70812,1,0,0:0:0:0:
64,192,71164,1,0,0:0:0:0:
320,192,71281,1,8,0:0:0:0:
192,192,71281,1,0,0:0:0:0:
64,192,71515,1,0,0:0:0:0:
64,192,71750,128,0,72218:3:0:0:0:
192,192,71750,1,0,0:0:0:0:
448,192,72101,1,0,0:0:0:0:
320,192,72218,1,0,0:0:0:0:
192,192,72218,1,8,0:0:0:0:
448,192,72453,1,0,0:0:0:0:
448,192,72687,128,0,73156:3:0:0:0:
320,192,72687,1,0,0:0:0:0:
192,192,72921,1,0,0:0:0:0:
64,192,72921,1,8,0:0:0:0:
320,192,73156,1,0,0:0:0:0:
64,192,73156,1,8,0:0:0:0:
192,192,73625,128,4,74093:0:2:0:0:
320,192,73625,1,0,3:0:0:0:
448,192,73976,1,0,0:0:0:0:
320,192,74093,1,0,0:0:0:0:
64,192,74093,1,8,0:0:0:0:
192,192,74328,1,0,0:0:0:0:
320,192,74562,1,0,0:0:0:0:
192,192,74562,128,0,75031:3:0:0:0:
320,192,74914,1,0,0:0:0:0:
448,192,75031,1,0,0:0:0:0:
64,192,75031,1,8,0:0:0:0:
320,192,75265,1,0,0:0:0:0:
320,192,75500,128,0,75968:3:0:0:0:
192,192,75500,1,0,0:0:0:0:
448,192,75968,1,0,0:0:0:0:
64,192,75968,1,8,0:0:0:0:
192,192,76203,1,0,0:0:0:0:
192,192,76437,128,0,76906:3:0:0:0:
448,192,76789,1,0,0:0:0:0:
320,192,76906,1,0,0:0:0:0:
64,192,76906,1,8,0:0:0:0:
192,192,77140,1,0,0:0:0:0:
448,192,77375,128,0,77843:3:0:0:0:
320,192,77375,1,0,0:0:0:0:
192,192,77726,1,0,0:0:0:0:
320,192,77843,1,0,0:0:0:0:
64,192,77843,1,8,0:0:0:0:
192,192,78078,1,0,0:0:0:0:
64,192,78312,1,0,0:0:0:0:
192,192,78312,128,0,78781:3:0:0:0:
320,192,78664,1,0,0:0:0:0:
448,192,78781,1,0,0:0:0:0:
64,192,78781,1,8,0:0:0:0:
320,192,79015,1,0,0:0:0:0:
320,192,79250,128,0,79718:3:0:0:0:
192,192,79250,1,0,0:0:0:0:
448,192,79718,1,0,0:0:0:0:
64,192,79718,1,8,0:0:0:0:
320,192,79953,1,0,0:0:0:0:
64,192,80187,1,2,0:0:0:0:
192,192,80187,128,0,80656:3:0:0:0:
64,192,80539,1,2,0:0:0:0:
320,192,80656,1,2,0:0:0:0:
448,192,80656,1,8,0:0:0:0:
448,192,80890,128,2,81007:0:0:0:0:
448,192,81125,128,0,83000:3:0:0:0:
64,192,81593,5,8,0:0:0:0:
320,192,81828,1,0,0:0:0:0:
320,192,82062,128,0,83000:3:0:0:0:
64,192,82531,1,0,0:0:0:0:
192,192,82531,1,8,0:0:0:0:
64,192,83000,1,0,3:0:0:0:
192,192,83117,1,0,0:0:0:0:
320,192,83234,1,0,0:0:0:0:
448,192,83351,1,0,0:0:0:0:
64,192,83468,1,0,0:0:0:0:
192,192,83468,1,8,0:0:0:0:
448,192,83703,1,0,0:0:0:0:
192,192,83937,1,0,0:0:0:0:
320,192,83937,1,0,3:0:0:0:
64,192,84054,1,0,0:0:0:0:
448,192,84171,1,0,0:0:0:0:
192,192,84289,1,0,0:0:0:0:
320,192,84406,128,8,84875:0:0:0:0:
448,192,84406,1,0,0:0:0:0:
192,192,84875,1,4,0:2:0:0:
64,192,84875,128,0,85343:3:0:0:0:
320,192,85343,1,0,0:0:0:0:
192,192,85343,1,8,0:0:0:0:
448,192,85578,1,0,0:0:0:0:
320,192,85695,1,0,0:0:0:0:
64,192,85812,1,0,0:0:0:0:
192,192,85812,128,0,86281:3:0:0:0:
64,192,86281,1,0,0:0:0:0:
448,192,86281,1,8,0:0:0:0:
320,192,86515,1,0,0:0:0:0:
448,192,86750,128,0,87218:3:0:0:0:
320,192,86750,1,0,0:0:0:0:
64,192,87218,1,0,0:0:0:0:
320,192,87218,1,8,0:0:0:0:
192,192,87453,1,0,0:0:0:0:
320,192,87687,1,0,0:0:0:0:
448,192,87687,128,0,88156:3:0:0:0:
192,192,87921,1,0,0:0:0:0:
64,192,88156,128,0,88625:0:0:0:0:
320,192,88156,1,8,0:0:0:0:
192,192,88390,1,0,0:0:0:0:
448,192,88625,1,0,0:0:0:0:
320,192,88625,1,0,3:0:0:0:
192,192,88859,1,0,0:0:0:0:
448,192,88976,1,0,0:0:0:0:
64,192,89093,1,8,0:0:0:0:
320,192,89093,1,0,0:0:0:0:
192,192,89328,1,0,0:0:0:0:
448,192,89562,1,0,3:0:0:0:
320,192,89562,1,0,0:0:0:0:
64,192,89796,1,2,0:0:0:0:
320,192,89914,1,2,0:0:0:0:
192,192,90031,1,2,0:0:0:0:
448,192,90031,128,8,90265:0:0:0:0:
64,192,90265,128,2,90500:0:0:0:0:
448,192,90500,1,0,3:0:0:0:
320,192,90500,128,2,91437:0:0:0:0:
192,192,90734,1,0,0:0:0:0:
192,192,90968,1,0,0:0:0:0:
64,192,90968,1,8,0:0:0:0:
192,192,91437,128,2,92375:0:0:0:0:
64,192,91437,1,0,3:0:0:0:
320,192,91671,1,8,0:0:0:0:
448,192,91671,1,0,0:0:0:0:
320,192,91906,1,8,0:0:0:0:
448,192,91906,1,0,0:0:0:0:
64,192,92375,1,4,0:2:0:0:
448,192,92375,128,0,92843:3:0:0:0:
192,192,92726,1,0,0:0:0:0:
64,192,92843,1,8,0:0:0:0:
320,192,92843,1,0,0:0:0:0:
192,192,93078,1,0,0:0:0:0:
320,192,93312,128,0,93781:3:0:0:0:
448,192,93312,1,0,0:0:0:0:
192,192,93781,1,0,0:0:0:0:
64,192,93781,1,8,0:0:0:0:
448,192,94015,1,0,0:0:0:0:
192,192,94250,128,0,94718:3:0:0:0:
64,192,94250,1,0,0:0:0:0:
320,192,94601,1,0,0:0:0:0:
448,192,94718,1,8,0:0:0:0:
64,192,94718,1,0,0:0:0:0:
192,192,94953,1,0,0:0:0:0:
320,192,95187,1,0,3:0:0:0:
448,192,95187,1,0,0:0:0:0:
192,192,95421,1,0,0:0:0:0:
64,192,95539,1,0,0:0:0:0:
448,192,95656,1,0,0:0:0:0:
192,192,95656,1,8,0:0:0:0:
320,192,95890,1,0,0:0:0:0:
320,192,96125,1,0,0:0:0:0:
448,192,96125,128,0,96593:3:0:0:0:
192,192,96476,1,0,0:0:0:0:
64,192,96593,1,0,0:0:0:0:
320,192,96593,1,8,0:0:0:0:
192,192,96828,128,0,96945:0:0:0:0:
192,192,97062,128,0,97531:3:0:0:0:
448,192,97414,1,0,0:0:0:0:
320,192,97531,1,0,0:0:0:0:
64,192,97531,1,8,0:0:0:0:
320,192,97765,128,0,97882:0:0:0:0:
320,192,98000,128,0,98937:3:0:0:0:
448,192,98000,1,0,0:0:0:0:
64,192,98234,1,0,0:0:0:0:
192,192,98468,1,8,0:0:0:0:
64,192,98468,1,0,0:0:0:0:
448,192,98703,1,0,0:0:0:0:
64,192,98937,128,0,99875:0:0:0:0:
192,192,98937,1,0,3:0:0:0:
320,192,99171,1,8,0:0:0:0:
448,192,99171,1,0,0:0:0:0:
448,192,99406,1,0,0:0:0:0:
320,192,99406,1,8,0:0:0:0:
192,192,99875,1,4,0:0:0:0:
448,192,99875,1,0,0:0:0:0:
320,192,100109,1,0,0:0:0:0:
192,192,100343,1,0,0:0:0:0:
64,192,100343,1,8,0:0:0:0:
320,192,100578,1,0,0:0:0:0:
448,192,100695,1,0,0:0:0:0:
192,192,100812,128,0,101281:3:0:0:0:
64,192,100812,1,0,0:0:0:0:
64,192,101281,1,8,0:0:0:0:
448,192,101281,1,0,0:0:0:0:
320,192,101515,1,0,0:0:0:0:
192,192,101750,128,0,102218:3:0:0:0:
64,192,101750,1,0,0:0:0:0:
64,192,102218,1,0,0:0:0:0:
448,192,102218,1,8,0:0:0:0:
192,192,102453,1,0,0:0:0:0:
448,192,102687,128,0,103156:3:0:0:0:
320,192,102687,1,0,0:0:0:0:
64,192,103156,1,8,0:0:0:0:
320,192,103156,1,0,0:0:0:0:
192,192,103390,128,0,103625:0:0:0:0:
320,192,103625,128,0,103859:0:0:0:0:
64,192,103625,1,0,3:0:0:0:
448,192,103859,1,0,0:0:0:0:
64,192,103976,1,0,0:0:0:0:
320,192,104093,1,0,0:0:0:0:
192,192,104093,1,8,0:0:0:0:
448,192,104328,1,0,0:0:0:0:
64,192,104562,1,0,3:0:0:0:
192,192,104796,1,2,0:0:0:0:
320,192,105031,1,8,0:0:0:0:
448,192,105031,128,2,105265:0:0:0:0:
64,192,105265,128,2,105500:0:0:0:0:
448,192,105500,1,2,0:0:0:0:
320,192,105500,128,0,106437:3:0:0:0:
192,192,105734,1,0,0:0:0:0:
64,192,105968,1,8,0:0:0:0:
192,192,105968,1,0,0:0:0:0:
64,192,106437,1,0,3:0:0:0:
448,192,106437,128,2,107375:0:0:0:0:
192,192,106671,1,8,0:0:0:0:
64,192,106671,1,0,0:0:0:0:
64,192,106906,1,0,0:0:0:0:
192,192,106906,1,8,0:0:0:0:
320,192,107375,1,4,0:0:0:0:
64,192,107375,128,0,107843:3:0:0:0:
448,192,107843,1,0,0:0:0:0:
192,192,107843,1,8,0:0:0:0:
320,192,108078,1,0,0:0:0:0:
448,192,108195,1,0,0:0:0:0:
192,192,108312,128,0,108781:3:0:0:0:
64,192,108312,1,0,0:0:0:0:
448,192,108781,1,8,0:0:0:0:
64,192,108781,1,0,0:0:0:0:
320,192,109015,1,0,0:0:0:0:
448,192,109250,128,0,109718:3:0:0:0:
320,192,109250,1,0,0:0:0:0:
320,192,109718,1,0,0:0:0:0:
64,192,109718,1,8,0:0:0:0:
192,192,109953,1,0,0:0:0:0:
320,192,110187,1,0,3:0:0:0:
448,192,110187,1,0,0:0:0:0:
448,192,110421,1,0,0:0:0:0:
320,192,110539,1,0,0:0:0:0:
64,192,110656,1,0,0:0:0:0:
192,192,110656,1,8,0:0:0:0:
320,192,110890,1,0,0:0:0:0:
64,192,111125,1,0,0:0:0:0:
320,192,111125,128,0,111359:3:0:0:0:
192,192,111593,128,0,111828:0:0:0:0:
448,192,111593,1,8,0:0:0:0:
64,192,111828,1,0,0:0:0:0:
448,192,111945,1,0,0:0:0:0:
192,192,112062,1,0,0:0:0:0:
320,192,112062,1,0,3:0:0:0:
320,192,112296,1,2,0:0:0:0:
64,192,112531,1,2,0:0:0:0:
192,192,112531,128,8,112765:0:0:0:0:
320,192,112765,128,2,113000:0:0:0:0:
192,192,113000,128,0,113937:3:0:0:0:
64,192,113000,1,2,0:0:0:0:
448,192,113234,1,0,0:0:0:0:
320,192,113468,1,8,0:0:0:0:
448,192,113468,1,0,0:0:0:0:
64,192,113937,1,2,0:0:0:0:
448,192,113937,128,0,114875:3:0:0:0:
320,192,114171,1,0,0:0:0:0:
320,192,114406,1,8,0:0:0:0:
192,192,114406,1,0,0:0:0:0:
320,192,114875,1,0,3:0:0:0:
64,192,114875,128,4,116750:0:0:0:0:
192,192,115109,1,0,0:0:0:0:
320,192,115226,1,0,0:0:0:0:
448,192,115343,1,0,0:0:0:0:
320,192,115578,1,0,3:0:0:0:
320,192,115812,1,0,3:0:0:0:
192,192,116046,1,2,0:0:0:0:
448,192,116398,1,2,0:0:0:0:
448,192,116750,1,0,0:0:0:0:
320,192,116750,128,0,118625:3:0:0:0:
192,192,116984,1,0,0:0:0:0:
64,192,117101,1,0,0:0:0:0:
448,192,117218,1,0,0:0:0:0:
192,192,117453,1,2,3:2:0:0:
448,192,117687,1,2,3:2:0:0:
64,192,117921,1,2,0:0:0:0:
192,192,118156,1,0,0:0:0:0:
448,192,118273,1,2,0:0:0:0:
64,192,118625,128,2,119562:0:0:0:0:
320,192,119093,1,0,0:0:0:0:
448,192,119562,128,2,120265:0:0:0:0:
192,192,120031,1,0,0:0:0:0:
320,192,120265,1,0,0:0:0:0:
64,192,120265,1,2,0:0:0:0:
192,192,120734,1,2,0:0:0:0:
192,192,120968,128,2,121906:0:0:0:0:
448,192,121906,128,0,122140:0:0:0:0:
320,192,122140,1,0,0:0:0:0:
