osu file format v14

[General]
AudioFilename: audio.ogg
AudioLeadIn: 0
PreviewTime: 84875
Countdown: 0
SampleSet: Soft
StackLeniency: 0.7
Mode: 3
LetterboxInBreaks: 0
SpecialStyle: 0
WidescreenStoryboard: 1

[Editor]
DistanceSpacing: 1
BeatDivisor: 8
GridSize: 32
TimelineZoom: 1.6

[Metadata]
Title:Sunshine City
TitleUnicode:Sunshine City
Artist:Desired
ArtistUnicode:Desired
Creator:dopaminos
Version:Jesuren's Let's Meet at Morning Moon
Source:Sailor Moon SuperS the Movie: Black Dream Hole
Tags:美少女戦士セーラームーンSuperS セーラー9戦士集結!ブラック・ドリーム・ホールの奇跡 Sailor Moon SuperS the Movie: Black Dream Hole Pretty Cast Morning Moonで会いましょう de Aimashou Let's Meet at Timeless Neoncity Records Team SRT002 Future Funk Electronic Pop J-Pop Japanese Jesuren JesusMD24 で会いましょう Instrumental PokeSky
BeatmapID:4483488
BeatmapSetID:1461767

[Difficulty]
HPDrainRate:8
CircleSize:4
OverallDifficulty:7
ApproachRate:5
SliderMultiplier:1.4
SliderTickRate:1

[Events]
//Background and Video events
0,0,"Konachan.com - 308943 sample.jpg",0,0
//Break Periods
//Storyboard Layer 0 (Background)
//Storyboard Layer 1 (Fail)
//Storyboard Layer 2 (Pass)
//Storyboard Layer 3 (Foreground)
//Storyboard Layer 4 (Overlay)
//Storyboard Sound Samples

[TimingPoints]
500,468.75,4,2,1,35,1,0
2375,-100,4,2,1,55,0,1
17375,-100,4,2,1,35,0,0
22765,-101.010101010101,4,2,1,35,0,0
22843,-102.040816326531,4,2,1,35,0,0
22921,-103.092783505155,4,2,1,35,0,0
23000,-105.263157894737,4,2,1,35,0,0
23078,-106.382978723404,4,2,1,35,0,0
23156,-107.52688172043,4,2,1,35,0,0
23234,-108.695652173913,4,2,1,35,0,0
23312,-109.89010989011,4,2,1,35,0,0
23390,-111.111111111111,4,2,1,35,0,0
23468,-112.359550561798,4,2,1,35,0,0
23585,-113.636363636364,4,2,1,35,0,0
23703,-114.942528735632,4,2,1,35,0,0
23820,-116.279069767442,4,2,1,35,0,0
23937,-117.647058823529,4,2,1,35,0,0
24406,-86.9565217391304,4,2,1,35,0,0
24562,-93.4579439252336,4,2,1,35,0,0
24718,-97.0873786407767,4,2,1,35,0,0
24875,-100,4,2,1,42,0,0
42687,-66.6666666666667,4,2,1,42,0,0
42726,-200,4,2,1,42,0,0
42765,-100,4,2,1,42,0,0
42843,-66.6666666666667,4,2,1,42,0,0
42882,-200,4,2,1,42,0,0
42921,-100,4,2,1,42,0,0
43000,-66.6666666666667,4,2,1,42,0,0
43039,-200,4,2,1,42,0,0
43078,-100,4,2,1,42,0,0
43156,-55.5555555555556,4,2,1,42,0,0
43195,-500,4,2,1,42,0,0
43312,-55.5555555555556,4,2,1,42,0,0
43429,-500,4,2,1,42,0,0
43468,-142.857142857143,4,2,1,42,0,0
43546,-76.9230769230769,4,2,1,42,0,0
43625,-100,4,2,1,55,0,1
55109,-200,4,2,1,55,0,0
55226,-66.6666666666667,4,2,1,55,0,0
55343,-100,4,2,1,55,0,1
58625,-105.263157894737,4,2,1,30,0,0
58859,-106.382978723404,4,2,1,30,0,0
59093,-107.52688172043,4,2,1,30,0,0
59328,-108.695652173913,4,2,1,30,0,0
59562,-109.89010989011,4,2,1,30,0,0
59796,-111.111111111111,4,2,1,30,0,0
60031,-112.359550561798,4,2,1,30,0,0
60265,-113.636363636364,4,2,1,30,0,0
60500,-114.942528735632,4,2,1,30,0,0
60734,-116.279069767442,4,2,1,30,0,0
60968,-117.647058823529,4,2,1,30,0,0
62375,-116.279069767442,4,2,1,30,0,0
64250,-114.942528735632,4,2,1,30,0,0
64367,-113.636363636364,4,2,1,30,0,0
64484,-112.359550561798,4,2,1,30,0,0
64601,-111.111111111111,4,2,1,30,0,0
64718,-109.89010989011,4,2,1,30,0,0
64835,-108.695652173913,4,2,1,30,0,0
64953,-107.52688172043,4,2,1,30,0,0
65070,-106.382978723404,4,2,1,30,0,0
65187,-105.263157894737,4,2,1,30,0,0
65304,-104.166666666667,4,2,1,30,0,0
65421,-103.092783505155,4,2,1,30,0,0
65539,-102.040816326531,4,2,1,30,0,0
65656,-101.010101010101,4,2,1,30,0,0
65773,-100,4,2,1,30,0,0
66125,-100,4,2,1,42,0,0
84875,-100,4,2,1,57,0,1
92375,-100,4,2,1,52,0,0
99875,-100,4,2,1,57,0,1
111359,-200,4,2,1,57,0,0
111476,-66.6666666666667,4,2,1,57,0,0
111593,-100,4,2,1,57,0,1
114875,-104.166666666667,4,2,1,30,0,0
115109,-105.263157894737,4,2,1,30,0,0
115343,-106.382978723404,4,2,1,30,0,0
115578,-107.52688172043,4,2,1,30,0,0
115812,-108.695652173913,4,2,1,30,0,0
116046,-109.89010989011,4,2,1,30,0,0
116281,-111.111111111111,4,2,1,30,0,0
116515,-112.359550561798,4,2,1,30,0,0
116750,-113.636363636364,4,2,1,30,0,0
116984,-114.942528735632,4,2,1,30,0,0
117218,-116.279069767442,4,2,1,30,0,0
117453,-117.647058823529,4,2,1,30,0,0
117687,-119.047619047619,4,2,1,30,0,0
117921,-120.481927710843,4,2,1,30,0,0
118156,-121.951219512195,4,2,1,30,0,0
118390,-123.456790123457,4,2,1,30,0,0
118625,-125,4,2,1,30,0,0

[HitObjects]
320,192,500,5,0,3:0:0:0:
448,192,617,1,0,0:0:0:0:
192,192,734,128,0,851:0:0:0:0:
64,192,734,128,0,851:0:0:0:0:
448,192,851,1,0,0:0:0:0:
64,192,968,128,0,1085:0:0:0:0:
320,192,968,128,0,1085:0:0:0:0:
192,192,1085,1,0,0:0:0:0:
64,192,1203,128,0,1320:0:0:0:0:
448,192,1203,128,0,1320:0:0:0:0:
192,192,1320,1,0,0:0:0:0:
320,192,1437,128,0,1789:0:0:0:0:
448,192,1437,128,0,1789:3:0:0:0:
64,192,1554,1,0,0:0:0:0:
192,192,1671,1,0,0:0:0:0:
64,192,1789,1,0,0:0:0:0:
320,192,1906,128,0,2023:0:0:0:0:
192,192,1906,128,0,2023:3:0:0:0:
64,192,2023,1,0,0:0:0:0:
448,192,2140,1,0,0:0:0:0:
320,192,2199,1,0,0:0:0:0:
192,192,2257,1,0,0:0:0:0:
64,192,2316,1,0,0:0:0:0:
448,192,2375,128,0,2726:0:0:0:0:
320,192,2375,1,0,3:0:0:0:
192,192,2375,1,4,0:2:0:0:
64,192,2492,128,0,2687:0:0:0:0:
192,192,2609,128,0,2765:0:0:0:0:
320,192,2726,128,0,2843:0:0:0:0:
192,192,2843,1,0,0:0:0:0:
64,192,2843,1,8,0:0:0:0:
192,192,3078,1,0,0:0:0:0:
192,192,3195,1,0,0:0:0:0:
64,192,3312,128,0,3605:0:0:0:0:
320,192,3312,1,0,3:0:0:0:
192,192,3429,1,0,0:0:0:0:
448,192,3546,128,0,3693:0:0:0:0:
320,192,3605,128,0,3722:0:0:0:0:
192,192,3664,128,0,3751:0:0:0:0:
64,192,3722,128,0,3781:0:0:0:0:
448,192,3781,1,0,0:0:0:0:
320,192,3781,1,8,0:0:0:0:
64,192,4015,1,0,0:0:0:0:
192,192,4132,1,0,0:0:0:0:
320,192,4250,1,0,0:0:0:0:
64,192,4250,1,0,3:0:0:0:
192,192,4484,128,0,4630:0:0:0:0:
64,192,4601,128,0,4679:0:0:0:0:
448,192,4718,1,0,0:0:0:0:
320,192,4718,1,8,0:0:0:0:
64,192,4953,1,0,0:0:0:0:
192,192,5070,1,0,0:0:0:0:
320,192,5187,1,0,0:0:0:0:
64,192,5187,1,0,3:0:0:0:
192,192,5421,128,0,5500:0:0:0:0:
64,192,5539,128,0,5597:0:0:0:0:
320,192,5656,1,0,0:0:0:0:
448,192,5656,1,8,0:0:0:0:
192,192,5890,128,0,6066:0:0:0:0:
448,192,6007,1,0,0:0:0:0:
320,192,6125,128,0,6417:0:0:0:0:
64,192,6125,1,0,3:0:0:0:
448,192,6242,1,0,0:0:0:0:
64,192,6359,128,0,6476:0:0:0:0:
192,192,6417,128,0,6476:0:0:0:0:
448,192,6476,128,0,6593:0:0:0:0:
320,192,6535,128,0,6593:0:0:0:0:
192,192,6593,1,0,0:0:0:0:
64,192,6593,1,8,0:0:0:0:
64,192,6828,1,0,0:0:0:0:
320,192,6945,1,0,0:0:0:0:
448,192,7062,1,0,0:0:0:0:
192,192,7062,1,0,3:0:0:0:
320,192,7296,1,2,0:0:0:0:
448,192,7414,128,2,7531:0:0:0:0:
192,192,7531,1,2,0:0:0:0:
64,192,7531,1,8,0:0:0:0:
64,192,7765,128,2,7843:0:0:0:0:
320,192,7882,1,0,0:0:0:0:
448,192,8000,1,2,0:0:0:0:
192,192,8000,1,0,3:0:0:0:
448,192,8234,1,0,0:0:0:0:
320,192,8351,1,0,0:0:0:0:
192,192,8468,1,0,0:0:0:0:
64,192,8468,1,8,0:0:0:0:
448,192,8703,1,0,0:0:0:0:
192,192,8820,1,0,0:0:0:0:
320,192,8937,1,2,0:0:0:0:
448,192,8937,1,0,3:0:0:0:
320,192,9171,128,0,9250:0:0:0:0:
64,192,9171,128,8,9250:0:0:0:0:
192,192,9289,1,0,0:0:0:0:
64,192,9406,128,0,9464:0:0:0:0:
320,192,9406,128,8,9464:0:0:0:0:
448,192,9640,1,0,0:0:0:0:
64,192,9757,1,0,0:0:0:0:
192,192,9757,1,0,0:0:0:0:
192,192,9875,1,0,3:0:0:0:
448,192,9875,128,4,10226:0:2:0:0:
320,192,9875,1,0,0:0:0:0:
64,192,9992,128,0,10187:0:0:0:0:
192,192,10109,128,0,10265:0:0:0:0:
320,192,10226,128,0,10343:0:0:0:0:
64,192,10343,1,0,0:0:0:0:
192,192,10343,1,8,0:0:0:0:
192,192,10578,1,0,0:0:0:0:
192,192,10695,1,0,0:0:0:0:
320,192,10812,1,0,0:0:0:0:
64,192,10812,128,0,11105:3:0:0:0:
192,192,10929,1,0,0:0:0:0:
448,192,11046,128,0,11193:0:0:0:0:
320,192,11105,128,0,11222:0:0:0:0:
192,192,11164,128,0,11251:0:0:0:0:
64,192,11222,128,0,11281:0:0:0:0:
320,192,11281,1,0,0:0:0:0:
448,192,11281,1,8,0:0:0:0:
64,192,11515,1,0,0:0:0:0:
192,192,11632,1,0,0:0:0:0:
64,192,11750,1,0,0:0:0:0:
320,192,11750,1,0,3:0:0:0:
192,192,11984,128,0,12130:0:0:0:0:
64,192,12101,128,0,12179:0:0:0:0:
320,192,12218,1,0,0:0:0:0:
448,192,12218,1,8,0:0:0:0:
64,192,12453,1,0,0:0:0:0:
192,192,12570,1,0,0:0:0:0:
64,192,12687,1,0,0:0:0:0:
320,192,12687,1,0,3:0:0:0:
192,192,12921,128,0,13000:0:0:0:0:
64,192,13039,128,0,13097:0:0:0:0:
320,192,13156,1,0,0:0:0:0:
448,192,13156,1,8,0:0:0:0:
192,192,13390,128,0,13566:0:0:0:0:
448,192,13507,1,0,0:0:0:0:
320,192,13625,128,0,13917:0:0:0:0:
64,192,13625,1,0,3:0:0:0:
448,192,13742,1,0,0:0:0:0:
64,192,13859,128,0,13976:0:0:0:0:
192,192,13917,128,0,13976:0:0:0:0:
448,192,13976,128,0,14093:0:0:0:0:
320,192,14035,128,0,14093:0:0:0:0:
64,192,14093,1,0,0:0:0:0:
192,192,14093,1,8,0:0:0:0:
64,192,14328,1,0,0:0:0:0:
320,192,14445,1,0,0:0:0:0:
448,192,14562,1,0,0:0:0:0:
192,192,14562,1,0,3:0:0:0:
320,192,14796,1,2,0:0:0:0:
448,192,14914,128,2,15031:0:0:0:0:
192,192,15031,1,2,0:0:0:0:
64,192,15031,1,8,0:0:0:0:
64,192,15265,128,2,15343:0:0:0:0:
320,192,15382,1,0,0:0:0:0:
448,192,15500,1,2,0:0:0:0:
192,192,15500,1,0,3:0:0:0:
192,192,15734,1,0,0:0:0:0:
320,192,15851,1,0,0:0:0:0:
448,192,15968,1,0,0:0:0:0:
64,192,15968,1,8,0:0:0:0:
192,192,16203,1,0,0:0:0:0:
64,192,16320,1,0,0:0:0:0:
192,192,16437,1,2,0:0:0:0:
448,192,16437,1,0,3:0:0:0:
448,192,16671,1,0,0:0:0:0:
64,192,16789,1,0,0:0:0:0:
320,192,16906,1,0,0:0:0:0:
192,192,16906,1,8,0:0:0:0:
64,192,17140,1,0,0:0:0:0:
448,192,17257,1,0,0:0:0:0:
320,192,17257,1,0,0:0:0:0:
448,192,17375,128,0,17843:0:0:0:0:
192,192,17375,1,0,3:0:0:0:
64,192,17375,1,4,3:2:0:0:
320,192,17609,1,0,0:0:0:0:
192,192,17726,1,0,0:0:0:0:
320,192,17843,1,0,0:0:0:0:
64,192,17843,1,8,0:0:0:0:
192,192,18078,1,0,0:0:0:0:
64,192,18195,1,0,0:0:0:0:
320,192,18312,1,0,0:0:0:0:
448,192,18312,1,0,3:0:0:0:
448,192,18546,128,0,18898:0:0:0:0:
192,192,18664,1,0,0:0:0:0:
64,192,18781,1,0,0:0:0:0:
320,192,18781,1,8,0:0:0:0:
192,192,18898,128,0,19250:0:0:0:0:
320,192,19015,1,0,0:0:0:0:
448,192,19132,1,0,0:0:0:0:
64,192,19250,1,0,0:0:0:0:
320,192,19250,128,0,19718:3:0:0:0:
192,192,19484,1,0,0:0:0:0:
448,192,19601,1,0,0:0:0:0:
64,192,19718,1,0,0:0:0:0:
192,192,19718,1,8,0:0:0:0:
448,192,19953,1,0,0:0:0:0:
320,192,20031,1,0,0:0:0:0:
64,192,20109,1,0,0:0:0:0:
192,192,20187,1,0,0:0:0:0:
448,192,20187,1,0,3:0:0:0:
448,192,20421,128,0,20773:0:0:0:0:
320,192,20539,1,0,0:0:0:0:
192,192,20656,1,0,0:0:0:0:
64,192,20656,1,8,0:0:0:0:
320,192,20773,128,0,21125:0:0:0:0:
64,192,20890,1,0,0:0:0:0:
192,192,21007,1,0,0:0:0:0:
64,192,21125,128,0,21593:0:0:0:0:
448,192,21125,1,0,3:0:0:0:
192,192,21359,1,0,0:0:0:0:
320,192,21476,1,0,0:0:0:0:
448,192,21593,1,0,0:0:0:0:
192,192,21593,1,8,0:0:0:0:
320,192,21828,1,0,0:0:0:0:
448,192,21945,1,0,0:0:0:0:
64,192,22062,1,0,0:0:0:0:
192,192,22062,1,0,3:0:0:0:
448,192,22296,1,0,0:0:0:0:
320,192,22414,1,0,0:0:0:0:
448,192,22531,1,0,0:0:0:0:
192,192,22531,1,8,0:0:0:0:
320,192,22765,128,0,23117:0:0:0:0:
448,192,22882,128,0,23000:0:0:0:0:
64,192,22882,1,0,0:0:0:0:
192,192,23000,1,0,0:0:0:0:
320,192,23234,128,0,23312:0:0:0:0:
64,192,23234,128,0,23312:0:0:0:0:
448,192,23234,128,0,23312:0:0:0:0:
320,192,23468,128,0,23820:0:0:0:0:
192,192,23468,128,0,24054:0:0:0:0:
64,192,23468,128,0,24406:0:0:0:0:
320,192,24406,1,0,0:0:0:0:
64,192,24875,1,0,0:0:0:0:
320,192,24875,1,0,0:0:0:0:
192,192,24875,1,0,3:0:0:0:
448,192,24875,1,4,3:2:0:0:
192,192,25109,1,0,0:0:0:0:
320,192,25187,1,0,0:0:0:0:
448,192,25265,1,0,0:0:0:0:
192,192,25343,1,0,0:0:0:0:
64,192,25343,1,8,0:0:0:0:
320,192,25578,1,0,0:0:0:0:
64,192,25695,1,0,0:0:0:0:
320,192,25812,1,0,0:0:0:0:
448,192,25812,1,0,3:0:0:0:
64,192,26046,1,0,0:0:0:0:
448,192,26164,1,0,0:0:0:0:
192,192,26164,1,0,0:0:0:0:
64,192,26281,1,0,0:0:0:0:
320,192,26281,1,8,0:0:0:0:
64,192,26515,1,0,0:0:0:0:
192,192,26632,1,0,0:0:0:0:
320,192,26750,1,0,0:0:0:0:
448,192,26750,1,0,3:0:0:0:
64,192,26984,1,0,0:0:0:0:
192,192,27101,1,0,0:0:0:0:
320,192,27101,1,0,0:0:0:0:
64,192,27218,1,0,0:0:0:0:
448,192,27218,1,8,0:0:0:0:
192,192,27453,1,0,0:0:0:0:
64,192,27570,1,0,0:0:0:0:
320,192,27687,1,0,0:0:0:0:
448,192,27687,1,0,3:0:0:0:
320,192,27921,1,0,0:0:0:0:
192,192,28039,1,0,0:0:0:0:
320,192,28078,1,0,0:0:0:0:
192,192,28156,1,0,0:0:0:0:
64,192,28156,1,8,0:0:0:0:
448,192,28273,1,0,0:0:0:0:
320,192,28390,1,0,0:0:0:0:
192,192,28507,1,0,0:0:0:0:
320,192,28546,1,0,0:0:0:0:
64,192,28625,1,0,0:0:0:0:
192,192,28625,1,0,3:0:0:0:
64,192,28859,1,0,0:0:0:0:
192,192,28976,1,0,0:0:0:0:
448,192,29035,1,0,0:0:0:0:
64,192,29093,1,0,0:0:0:0:
320,192,29093,1,8,0:0:0:0:
320,192,29328,1,0,0:0:0:0:
192,192,29445,1,0,0:0:0:0:
64,192,29562,1,0,0:0:0:0:
448,192,29562,1,0,3:0:0:0:
192,192,29796,1,0,0:0:0:0:
64,192,29914,1,0,0:0:0:0:
320,192,29914,1,0,0:0:0:0:
192,192,30031,1,0,0:0:0:0:
448,192,30031,1,8,0:0:0:0:
64,192,30265,1,0,0:0:0:0:
320,192,30382,1,0,0:0:0:0:
64,192,30500,1,0,0:0:0:0:
192,192,30500,1,0,3:0:0:0:
448,192,30734,1,0,0:0:0:0:
320,192,30792,1,0,0:0:0:0:
192,192,30851,1,0,0:0:0:0:
64,192,30910,1,0,0:0:0:0:
448,192,30968,1,0,0:0:0:0:
320,192,30968,1,8,0:0:0:0:
64,192,31203,1,0,0:0:0:0:
448,192,31320,1,0,0:0:0:0:
320,192,31437,1,0,0:0:0:0:
192,192,31437,1,0,3:0:0:0:
448,192,31554,1,0,0:0:0:0:
64,192,31671,128,0,31789:0:0:0:0:
192,192,31730,128,0,31847:0:0:0:0:
448,192,31789,128,0,31906:0:0:0:0:
192,192,31906,1,0,0:0:0:0:
64,192,31906,1,8,0:0:0:0:
448,192,32023,1,0,0:0:0:0:
64,192,32140,128,0,32257:0:0:0:0:
192,192,32199,128,0,32316:0:0:0:0:
448,192,32257,128,0,32375:0:0:0:0:
64,192,32375,1,0,0:0:0:0:
192,192,32375,1,0,3:0:0:0:
448,192,32609,1,0,0:0:0:0:
192,192,32726,1,0,0:0:0:0:
320,192,32785,1,0,0:0:0:0:
448,192,32843,1,0,0:0:0:0:
64,192,32843,1,8,0:0:0:0:
192,192,33078,1,0,0:0:0:0:
64,192,33195,1,0,0:0:0:0:
448,192,33312,1,0,0:0:0:0:
192,192,33312,1,0,3:0:0:0:
64,192,33546,1,0,0:0:0:0:
320,192,33664,1,0,0:0:0:0:
448,192,33664,1,0,0:0:0:0:
64,192,33781,1,0,0:0:0:0:
192,192,33781,1,8,0:0:0:0:
192,192,34015,1,0,0:0:0:0:
448,192,34132,1,0,0:0:0:0:
64,192,34250,1,0,0:0:0:0:
320,192,34250,1,0,3:0:0:0:
192,192,34484,1,0,0:0:0:0:
64,192,34601,1,0,0:0:0:0:
320,192,34718,1,0,0:0:0:0:
448,192,34718,1,8,0:0:0:0:
192,192,34953,1,0,0:0:0:0:
448,192,35070,1,0,0:0:0:0:
64,192,35187,1,0,0:0:0:0:
192,192,35187,1,0,3:0:0:0:
320,192,35265,1,0,0:0:0:0:
448,192,35343,1,0,0:0:0:0:
64,192,35421,1,2,0:0:0:0:
192,192,35539,1,0,0:0:0:0:
448,192,35539,128,2,35656:0:0:0:0:
64,192,35656,1,2,0:0:0:0:
320,192,35656,1,8,0:0:0:0:
64,192,35890,128,2,35968:0:0:0:0:
320,192,36007,1,0,0:0:0:0:
192,192,36125,1,2,0:0:0:0:
448,192,36125,1,0,3:0:0:0:
320,192,36359,1,0,0:0:0:0:
192,192,36476,1,0,0:0:0:0:
64,192,36476,1,0,0:0:0:0:
320,192,36593,1,0,0:0:0:0:
448,192,36593,1,8,0:0:0:0:
448,192,36828,1,0,0:0:0:0:
192,192,36945,1,0,0:0:0:0:
64,192,37062,1,0,0:0:0:0:
320,192,37062,1,0,3:0:0:0:
192,192,37296,1,0,0:0:0:0:
320,192,37414,1,0,0:0:0:0:
448,192,37414,1,0,0:0:0:0:
64,192,37531,1,0,0:0:0:0:
192,192,37531,1,8,0:0:0:0:
448,192,37765,1,0,0:0:0:0:
320,192,37882,1,0,0:0:0:0:
64,192,38000,1,0,0:0:0:0:
448,192,38000,1,0,3:0:0:0:
192,192,38234,1,0,0:0:0:0:
448,192,38351,1,0,0:0:0:0:
320,192,38468,1,0,0:0:0:0:
64,192,38468,1,8,0:0:0:0:
192,192,38703,1,0,0:0:0:0:
64,192,38820,1,0,0:0:0:0:
448,192,38937,1,2,0:0:0:0:
320,192,38937,1,0,3:0:0:0:
64,192,39171,128,2,39250:0:0:0:0:
320,192,39171,128,8,39250:0:0:0:0:
192,192,39289,1,2,0:0:0:0:
64,192,39406,128,0,39464:0:0:0:0:
320,192,39406,128,8,39464:0:0:0:0:
192,192,39640,1,2,0:0:0:0:
448,192,39875,1,0,0:0:0:0:
192,192,39875,128,0,40343:3:0:0:0:
64,192,40109,1,0,0:0:0:0:
448,192,40343,1,0,0:0:0:0:
320,192,40343,1,8,0:0:0:0:
192,192,40578,128,2,40695:0:0:0:0:
64,192,40812,128,0,41281:0:0:0:0:
320,192,40812,1,0,3:0:0:0:
192,192,41046,1,0,0:0:0:0:
320,192,41281,1,0,0:0:0:0:
448,192,41281,1,8,0:0:0:0:
64,192,41515,128,0,41593:0:0:0:0:
448,192,41632,1,0,0:0:0:0:
192,192,41750,1,0,0:0:0:0:
320,192,41750,1,0,3:0:0:0:
448,192,41867,1,0,0:0:0:0:
64,192,41984,1,0,0:0:0:0:
192,192,42042,1,0,0:0:0:0:
64,192,42101,1,0,0:0:0:0:
320,192,42218,1,0,0:0:0:0:
448,192,42218,1,8,0:0:0:0:
64,192,42335,1,0,0:0:0:0:
448,192,42453,5,0,0:0:0:0:
320,192,42511,1,0,0:0:0:0:
448,192,42570,1,0,0:0:0:0:
192,192,42687,128,0,42765:3:0:0:0:
192,192,42843,128,0,42921:0:0:0:0:
192,192,43000,128,0,43078:0:0:0:0:
320,192,43156,128,8,43234:0:0:0:0:
320,192,43390,128,0,43468:0:0:0:0:
64,192,43625,128,0,43976:0:0:0:0:
320,192,43625,1,0,3:0:0:0:
192,192,43625,1,4,3:2:0:0:
448,192,43742,128,0,43937:0:0:0:0:
320,192,43859,128,0,44015:0:0:0:0:
192,192,43976,128,0,44093:0:0:0:0:
320,192,44093,1,0,0:0:0:0:
448,192,44093,1,8,0:0:0:0:
320,192,44328,1,0,0:0:0:0:
320,192,44445,1,0,0:0:0:0:
448,192,44562,128,0,44855:0:0:0:0:
192,192,44562,1,0,3:0:0:0:
320,192,44679,1,0,0:0:0:0:
64,192,44796,128,0,44943:0:0:0:0:
192,192,44855,128,0,44972:0:0:0:0:
320,192,44914,128,0,45001:0:0:0:0:
448,192,44972,128,0,45031:0:0:0:0:
192,192,45031,1,0,0:0:0:0:
64,192,45031,1,8,0:0:0:0:
448,192,45265,1,0,0:0:0:0:
320,192,45382,1,0,0:0:0:0:
448,192,45500,1,0,0:0:0:0:
192,192,45500,1,0,3:0:0:0:
320,192,45734,128,0,45880:0:0:0:0:
448,192,45851,128,0,45929:0:0:0:0:
64,192,45968,1,0,0:0:0:0:
192,192,45968,1,8,0:0:0:0:
448,192,46203,1,0,0:0:0:0:
320,192,46320,1,0,0:0:0:0:
192,192,46437,1,0,0:0:0:0:
448,192,46437,1,0,3:0:0:0:
320,192,46671,128,0,46750:0:0:0:0:
448,192,46789,128,0,46847:0:0:0:0:
64,192,46906,1,0,0:0:0:0:
192,192,46906,1,8,0:0:0:0:
320,192,47140,128,0,47316:0:0:0:0:
64,192,47257,1,0,0:0:0:0:
192,192,47375,128,0,47667:0:0:0:0:
448,192,47375,1,0,3:0:0:0:
64,192,47492,1,0,0:0:0:0:
448,192,47609,128,0,47726:0:0:0:0:
320,192,47667,128,0,47726:0:0:0:0:
64,192,47726,128,0,47843:0:0:0:0:
192,192,47785,128,0,47843:0:0:0:0:
448,192,47843,1,0,0:0:0:0:
320,192,47843,1,8,0:0:0:0:
448,192,48078,1,0,0:0:0:0:
192,192,48195,1,0,0:0:0:0:
320,192,48312,1,0,0:0:0:0:
64,192,48312,1,0,3:0:0:0:
192,192,48546,1,2,0:0:0:0:
64,192,48664,128,2,48781:0:0:0:0:
448,192,48781,1,2,0:0:0:0:
320,192,48781,1,8,0:0:0:0:
448,192,49015,128,2,49093:0:0:0:0:
192,192,49132,1,0,0:0:0:0:
64,192,49250,1,2,0:0:0:0:
320,192,49250,1,0,3:0:0:0:
320,192,49484,1,0,0:0:0:0:
192,192,49601,1,0,0:0:0:0:
448,192,49718,1,0,0:0:0:0:
64,192,49718,1,8,0:0:0:0:
320,192,49953,1,0,0:0:0:0:
448,192,50070,1,0,0:0:0:0:
64,192,50187,1,2,0:0:0:0:
320,192,50187,1,0,3:0:0:0:
64,192,50421,1,0,0:0:0:0:
448,192,50539,1,0,0:0:0:0:
192,192,50656,1,0,0:0:0:0:
320,192,50656,1,8,0:0:0:0:
64,192,50890,1,0,0:0:0:0:
320,192,51007,1,0,0:0:0:0:
448,192,51007,1,0,0:0:0:0:
320,192,51125,1,4,0:0:0:0:
64,192,51125,128,0,51476:3:0:0:0:
192,192,51125,1,0,0:0:0:0:
448,192,51242,128,0,51437:0:0:0:0:
320,192,51359,128,0,51515:0:0:0:0:
192,192,51476,128,0,51593:0:0:0:0:
448,192,51593,1,0,0:0:0:0:
320,192,51593,1,8,0:0:0:0:
320,192,51828,1,0,0:0:0:0:
320,192,51945,1,0,0:0:0:0:
448,192,52062,128,0,52355:0:0:0:0:
192,192,52062,1,0,3:0:0:0:
320,192,52179,1,0,0:0:0:0:
64,192,52296,128,0,52443:0:0:0:0:
192,192,52355,128,0,52472:0:0:0:0:
320,192,52414,128,0,52501:0:0:0:0:
448,192,52472,128,0,52531:0:0:0:0:
64,192,52531,1,0,0:0:0:0:
192,192,52531,1,8,0:0:0:0:
448,192,52765,1,0,0:0:0:0:
320,192,52882,1,0,0:0:0:0:
448,192,53000,1,0,0:0:0:0:
192,192,53000,1,0,3:0:0:0:
320,192,53234,128,0,53380:0:0:0:0:
448,192,53351,128,0,53429:0:0:0:0:
192,192,53468,1,0,0:0:0:0:
64,192,53468,1,8,0:0:0:0:
448,192,53703,1,0,0:0:0:0:
320,192,53820,1,0,0:0:0:0:
448,192,53937,1,0,0:0:0:0:
192,192,53937,1,0,3:0:0:0:
320,192,54171,128,0,54250:0:0:0:0:
448,192,54289,128,0,54347:0:0:0:0:
64,192,54406,1,0,0:0:0:0:
192,192,54406,1,8,0:0:0:0:
320,192,54640,128,0,54816:0:0:0:0:
64,192,54757,1,0,0:0:0:0:
192,192,54875,128,0,55109:0:0:0:0:
448,192,54875,1,0,3:0:0:0:
64,192,54992,1,0,0:0:0:0:
448,192,55343,1,0,0:0:0:0:
320,192,55343,1,8,0:0:0:0:
192,192,55402,1,0,0:0:0:0:
64,192,55460,1,0,0:0:0:0:
448,192,55578,1,0,0:0:0:0:
192,192,55695,1,0,0:0:0:0:
64,192,55812,1,0,0:0:0:0:
320,192,55812,1,0,3:0:0:0:
192,192,56046,1,2,0:0:0:0:
64,192,56164,128,2,56281:0:0:0:0:
320,192,56281,1,2,0:0:0:0:
448,192,56281,1,8,0:0:0:0:
448,192,56515,128,2,56593:0:0:0:0:
192,192,56632,1,0,0:0:0:0:
64,192,56750,1,2,0:0:0:0:
320,192,56750,1,0,3:0:0:0:
64,192,56984,1,0,0:0:0:0:
320,192,57101,1,0,0:0:0:0:
448,192,57218,1,0,0:0:0:0:
192,192,57218,128,8,57570:0:0:0:0:
320,192,57453,1,0,0:0:0:0:
64,192,57570,1,0,0:0:0:0:
448,192,57687,1,2,0:0:0:0:
320,192,57687,1,0,3:0:0:0:
320,192,57921,128,0,58000:0:0:0:0:
64,192,57921,128,8,58000:0:0:0:0:
192,192,58039,1,0,0:0:0:0:
320,192,58156,128,0,58214:0:0:0:0:
64,192,58156,128,8,58214:0:0:0:0:
448,192,58390,1,0,0:0:0:0:
192,192,58507,1,0,0:0:0:0:
64,192,58507,1,0,0:0:0:0:
320,192,58625,1,0,0:0:0:0:
448,192,58625,1,0,3:0:0:0:
64,192,58625,128,4,59210:3:2:0:0:
448,192,59328,128,0,61437:0:0:0:0:
64,192,64250,1,0,0:0:0:0:
192,192,64367,5,0,0:0:0:0:
64,192,64484,1,0,0:0:0:0:
320,192,64601,1,0,0:0:0:0:
192,192,64718,1,0,0:0:0:0:
448,192,64835,1,0,0:0:0:0:
192,192,64953,1,0,0:0:0:0:
320,192,65070,1,0,0:0:0:0:
448,192,65187,1,0,0:0:0:0:
64,192,65187,1,0,0:0:0:0:
192,192,65304,1,0,0:0:0:0:
320,192,65421,1,0,0:0:0:0:
64,192,65421,1,0,0:0:0:0:
448,192,65539,1,0,0:0:0:0:
320,192,65656,1,0,0:0:0:0:
192,192,65656,1,0,0:0:0:0:
448,192,65773,1,0,0:0:0:0:
64,192,65832,1,0,0:0:0:0:
192,192,65890,1,0,0:0:0:0:
320,192,65949,1,0,0:0:0:0:
448,192,66007,1,0,0:0:0:0:
64,192,66125,1,0,0:0:0:0:
192,192,66125,1,0,0:0:0:0:
320,192,66125,1,4,0:0:0:0:
448,192,66125,1,0,3:0:0:0:
64,192,66359,1,0,0:0:0:0:
192,192,66476,1,0,0:0:0:0:
448,192,66476,1,0,0:0:0:0:
64,192,66593,1,0,0:0:0:0:
320,192,66593,1,8,0:0:0:0:
320,192,66828,1,0,0:0:0:0:
64,192,66945,1,0,0:0:0:0:
448,192,67062,1,0,0:0:0:0:
192,192,67062,1,0,3:0:0:0:
64,192,67296,1,0,0:0:0:0:
320,192,67414,1,0,0:0:0:0:
448,192,67414,1,0,0:0:0:0:
192,192,67531,1,0,0:0:0:0:
64,192,67531,1,8,0:0:0:0:
192,192,67765,1,0,0:0:0:0:
320,192,67882,1,0,0:0:0:0:
448,192,68000,1,0,0:0:0:0:
64,192,68000,1,0,3:0:0:0:
192,192,68234,1,0,0:0:0:0:
64,192,68351,1,0,0:0:0:0:
320,192,68351,1,0,0:0:0:0:
192,192,68468,1,0,0:0:0:0:
448,192,68468,1,8,0:0:0:0:
320,192,68703,1,0,0:0:0:0:
64,192,68820,1,0,0:0:0:0:
448,192,68937,1,0,0:0:0:0:
320,192,68937,1,0,3:0:0:0:
192,192,69171,1,0,0:0:0:0:
192,192,69289,1,0,0:0:0:0:
320,192,69406,1,0,0:0:0:0:
64,192,69406,1,8,0:0:0:0:
64,192,69640,1,0,0:0:0:0:
448,192,69757,1,0,0:0:0:0:
192,192,69875,1,0,0:0:0:0:
320,192,69875,1,0,3:0:0:0:
64,192,70109,1,0,0:0:0:0:
448,192,70226,1,0,0:0:0:0:
320,192,70226,1,0,0:0:0:0:
192,192,70343,1,0,0:0:0:0:
64,192,70343,1,8,0:0:0:0:
192,192,70578,1,0,0:0:0:0:
64,192,70695,1,0,0:0:0:0:
320,192,70812,1,0,0:0:0:0:
448,192,70812,1,0,3:0:0:0:
64,192,71046,1,0,0:0:0:0:
192,192,71164,1,0,0:0:0:0:
448,192,71164,1,0,0:0:0:0:
320,192,71281,1,0,0:0:0:0:
64,192,71281,1,8,0:0:0:0:
320,192,71515,1,0,0:0:0:0:
64,192,71632,1,0,0:0:0:0:
192,192,71750,1,0,0:0:0:0:
448,192,71750,1,0,3:0:0:0:
64,192,71984,1,0,0:0:0:0:
192,192,72042,1,0,0:0:0:0:
448,192,72101,1,0,0:0:0:0:
320,192,72160,1,0,0:0:0:0:
192,192,72218,1,0,0:0:0:0:
64,192,72218,1,8,0:0:0:0:
64,192,72453,1,0,0:0:0:0:
320,192,72570,1,0,0:0:0:0:
448,192,72687,1,0,0:0:0:0:
192,192,72687,1,0,3:0:0:0:
64,192,72921,128,0,73000:0:0:0:0:
320,192,72921,128,8,73000:0:0:0:0:
192,192,73039,1,0,0:0:0:0:
64,192,73156,128,0,73214:0:0:0:0:
320,192,73156,128,8,73214:0:0:0:0:
320,192,73390,1,0,0:0:0:0:
448,192,73507,1,0,0:0:0:0:
192,192,73625,1,0,0:0:0:0:
320,192,73625,1,0,3:0:0:0:
64,192,73625,1,4,0:2:0:0:
448,192,73859,1,0,0:0:0:0:
64,192,73937,1,0,0:0:0:0:
320,192,74015,1,0,0:0:0:0:
448,192,74093,1,0,0:0:0:0:
192,192,74093,1,8,0:0:0:0:
320,192,74328,1,0,0:0:0:0:
64,192,74445,1,0,0:0:0:0:
320,192,74562,1,0,0:0:0:0:
448,192,74562,1,0,3:0:0:0:
64,192,74796,1,0,0:0:0:0:
448,192,74914,1,0,0:0:0:0:
192,192,74914,1,0,0:0:0:0:
320,192,75031,1,0,0:0:0:0:
64,192,75031,1,8,0:0:0:0:
320,192,75265,1,0,0:0:0:0:
192,192,75382,1,0,0:0:0:0:
448,192,75500,1,0,0:0:0:0:
64,192,75500,1,0,3:0:0:0:
320,192,75734,1,0,0:0:0:0:
448,192,75851,1,0,0:0:0:0:
192,192,75968,1,0,0:0:0:0:
64,192,75968,1,8,0:0:0:0:
320,192,76203,1,0,0:0:0:0:
64,192,76320,1,0,0:0:0:0:
448,192,76437,1,0,0:0:0:0:
320,192,76437,1,0,3:0:0:0:
192,192,76515,1,0,0:0:0:0:
64,192,76593,1,0,0:0:0:0:
320,192,76671,1,2,0:0:0:0:
192,192,76789,1,0,0:0:0:0:
448,192,76789,128,2,76906:0:0:0:0:
320,192,76906,1,2,0:0:0:0:
64,192,76906,1,8,0:0:0:0:
64,192,77140,128,2,77218:0:0:0:0:
448,192,77257,1,0,0:0:0:0:
320,192,77375,1,2,0:0:0:0:
192,192,77375,1,0,3:0:0:0:
64,192,77609,1,0,0:0:0:0:
320,192,77726,1,0,0:0:0:0:
448,192,77726,1,0,0:0:0:0:
64,192,77843,1,0,0:0:0:0:
192,192,77843,1,8,0:0:0:0:
192,192,78078,1,0,0:0:0:0:
64,192,78195,1,0,0:0:0:0:
448,192,78312,1,0,0:0:0:0:
320,192,78312,1,0,3:0:0:0:
64,192,78546,1,0,0:0:0:0:
192,192,78664,1,0,0:0:0:0:
448,192,78664,1,0,0:0:0:0:
320,192,78781,1,0,0:0:0:0:
64,192,78781,1,8,0:0:0:0:
448,192,79015,1,0,0:0:0:0:
192,192,79132,1,0,0:0:0:0:
64,192,79250,1,0,0:0:0:0:
448,192,79250,1,0,3:0:0:0:
192,192,79484,1,0,0:0:0:0:
64,192,79601,1,0,0:0:0:0:
448,192,79718,1,0,0:0:0:0:
320,192,79718,1,8,0:0:0:0:
192,192,79953,1,0,0:0:0:0:
448,192,80070,1,0,0:0:0:0:
64,192,80187,1,0,0:0:0:0:
320,192,80187,1,0,3:0:0:0:
192,192,80421,1,0,0:0:0:0:
320,192,80539,1,0,0:0:0:0:
448,192,80539,1,0,0:0:0:0:
192,192,80656,1,0,0:0:0:0:
64,192,80656,1,8,0:0:0:0:
320,192,80890,1,0,0:0:0:0:
64,192,81125,1,0,0:0:0:0:
320,192,81125,128,0,81593:3:0:0:0:
448,192,81359,1,0,0:0:0:0:
192,192,81593,1,0,0:0:0:0:
64,192,81593,1,8,0:0:0:0:
320,192,81828,128,2,81945:0:0:0:0:
192,192,82062,1,0,3:0:0:0:
448,192,82062,128,0,83000:0:0:0:0:
320,192,82296,1,0,0:0:0:0:
192,192,82531,1,0,0:0:0:0:
64,192,82531,1,8,0:0:0:0:
320,192,82765,1,0,0:0:0:0:
320,192,83000,1,0,0:0:0:0:
64,192,83000,1,0,3:0:0:0:
192,192,83117,1,0,0:0:0:0:
448,192,83234,1,0,0:0:0:0:
192,192,83351,1,0,0:0:0:0:
448,192,83468,1,0,0:0:0:0:
320,192,83468,1,8,0:0:0:0:
64,192,83585,1,0,0:0:0:0:
192,192,83703,1,0,0:0:0:0:
320,192,83820,1,0,0:0:0:0:
64,192,83937,1,0,0:0:0:0:
448,192,83937,1,0,3:0:0:0:
192,192,84054,1,0,0:0:0:0:
320,192,84171,1,0,0:0:0:0:
64,192,84171,1,0,0:0:0:0:
192,192,84289,1,0,0:0:0:0:
320,192,84406,1,0,0:0:0:0:
448,192,84406,1,8,0:0:0:0:
192,192,84523,1,0,0:0:0:0:
64,192,84640,1,0,0:0:0:0:
192,192,84699,1,0,0:0:0:0:
448,192,84757,1,0,0:0:0:0:
320,192,84816,1,0,0:0:0:0:
448,192,84875,128,0,85109:0:0:0:0:
64,192,84875,128,4,85109:0:2:0:0:
192,192,84875,128,0,84992:3:0:0:0:
320,192,84992,128,0,85187:0:0:0:0:
192,192,85109,128,0,85265:0:0:0:0:
64,192,85226,128,0,85343:0:0:0:0:
448,192,85343,1,0,0:0:0:0:
320,192,85343,1,8,0:0:0:0:
448,192,85578,1,0,0:0:0:0:
448,192,85695,1,0,0:0:0:0:
320,192,85812,128,0,86046:0:0:0:0:
64,192,85812,1,0,3:0:0:0:
448,192,85929,128,0,86105:0:0:0:0:
64,192,86046,128,0,86193:0:0:0:0:
192,192,86105,128,0,86222:0:0:0:0:
320,192,86164,128,0,86251:0:0:0:0:
448,192,86222,128,0,86281:0:0:0:0:
64,192,86281,1,0,0:0:0:0:
192,192,86281,1,8,0:0:0:0:
64,192,86515,1,0,0:0:0:0:
320,192,86632,1,0,0:0:0:0:
192,192,86750,1,0,0:0:0:0:
448,192,86750,1,0,3:0:0:0:
320,192,86984,1,0,0:0:0:0:
448,192,87101,1,0,0:0:0:0:
64,192,87218,1,0,0:0:0:0:
192,192,87218,1,8,0:0:0:0:
448,192,87453,1,0,0:0:0:0:
64,192,87570,128,0,87804:0:0:0:0:
320,192,87628,1,0,0:0:0:0:
448,192,87687,1,0,0:0:0:0:
192,192,87687,128,0,88039:3:0:0:0:
64,192,87921,128,0,88039:0:0:0:0:
320,192,88039,1,0,0:0:0:0:
64,192,88156,128,0,88273:0:0:0:0:
192,192,88156,128,8,88273:0:0:0:0:
448,192,88273,1,0,0:0:0:0:
320,192,88332,1,0,0:0:0:0:
192,192,88390,1,0,0:0:0:0:
64,192,88449,1,0,0:0:0:0:
320,192,88507,1,0,0:0:0:0:
448,192,88625,128,0,88859:0:0:0:0:
192,192,88625,1,0,3:0:0:0:
192,192,88859,1,0,0:0:0:0:
320,192,88976,128,0,89210:0:0:0:0:
448,192,88976,128,0,89210:0:0:0:0:
64,192,89093,1,0,0:0:0:0:
192,192,89093,1,8,0:0:0:0:
192,192,89328,128,0,89445:0:0:0:0:
320,192,89328,128,0,89445:0:0:0:0:
448,192,89328,128,0,89445:0:0:0:0:
64,192,89562,128,0,89640:0:0:0:0:
320,192,89562,128,0,89640:0:0:0:0:
448,192,89562,128,0,89640:0:0:0:0:
192,192,89562,128,0,89640:3:0:0:0:
320,192,89796,1,2,0:0:0:0:
448,192,89914,128,2,90031:0:0:0:0:
192,192,90031,1,2,0:0:0:0:
64,192,90031,1,8,0:0:0:0:
64,192,90265,128,2,90343:0:0:0:0:
320,192,90382,1,0,0:0:0:0:
192,192,90500,1,2,0:0:0:0:
448,192,90500,1,0,3:0:0:0:
448,192,90734,1,0,0:0:0:0:
320,192,90851,1,0,0:0:0:0:
192,192,90968,1,0,0:0:0:0:
64,192,90968,1,8,0:0:0:0:
448,192,91203,1,0,0:0:0:0:
192,192,91320,1,0,0:0:0:0:
448,192,91437,1,2,0:0:0:0:
320,192,91437,1,0,3:0:0:0:
64,192,91671,128,0,91750:0:0:0:0:
320,192,91671,128,8,91750:0:0:0:0:
192,192,91789,1,0,0:0:0:0:
64,192,91906,128,0,91964:0:0:0:0:
320,192,91906,128,8,91964:0:0:0:0:
448,192,92140,1,0,0:0:0:0:
320,192,92257,1,0,0:0:0:0:
64,192,92375,1,0,0:2:0:0:
448,192,92375,1,0,3:0:0:0:
192,192,92609,1,0,0:0:0:0:
64,192,92726,1,0,0:0:0:0:
320,192,92726,1,0,0:0:0:0:
192,192,92843,1,0,0:0:0:0:
448,192,92843,1,8,0:0:0:0:
448,192,93078,1,0,0:0:0:0:
320,192,93195,1,0,0:0:0:0:
192,192,93312,1,0,0:0:0:0:
64,192,93312,1,0,3:0:0:0:
320,192,93546,1,0,0:0:0:0:
64,192,93664,1,0,0:0:0:0:
192,192,93781,1,0,0:0:0:0:
448,192,93781,1,8,0:0:0:0:
192,192,94015,1,0,0:0:0:0:
448,192,94132,1,0,0:0:0:0:
64,192,94250,1,0,0:0:0:0:
320,192,94250,1,0,3:0:0:0:
448,192,94484,1,0,0:0:0:0:
64,192,94601,1,0,0:0:0:0:
192,192,94601,1,0,0:0:0:0:
320,192,94718,1,0,0:0:0:0:
448,192,94718,1,8,0:0:0:0:
64,192,94953,128,0,95031:0:0:0:0:
320,192,95070,1,0,0:0:0:0:
192,192,95187,1,0,0:0:0:0:
448,192,95187,128,0,95246:3:0:0:0:
320,192,95304,1,0,0:0:0:0:
448,192,95421,1,0,0:0:0:0:
192,192,95539,1,0,0:0:0:0:
320,192,95656,1,0,0:0:0:0:
64,192,95656,1,8,0:0:0:0:
192,192,95890,1,0,0:0:0:0:
64,192,96007,1,0,0:0:0:0:
320,192,96125,1,0,0:0:0:0:
448,192,96125,1,0,3:0:0:0:
64,192,96359,1,0,0:0:0:0:
320,192,96476,1,0,0:0:0:0:
192,192,96476,1,0,0:0:0:0:
448,192,96593,1,0,0:0:0:0:
64,192,96593,1,8,0:0:0:0:
320,192,96769,1,0,0:0:0:0:
448,192,96828,1,0,0:0:0:0:
64,192,96886,1,0,0:0:0:0:
192,192,96945,1,0,0:0:0:0:
448,192,97062,1,0,0:0:0:0:
64,192,97062,1,0,3:0:0:0:
320,192,97296,1,0,0:0:0:0:
448,192,97414,1,0,0:0:0:0:
192,192,97414,1,0,0:0:0:0:
64,192,97531,1,0,0:0:0:0:
320,192,97531,1,8,0:0:0:0:
192,192,97765,1,0,0:0:0:0:
448,192,97882,1,0,0:0:0:0:
64,192,98000,1,0,0:0:0:0:
192,192,98000,1,0,3:0:0:0:
320,192,98078,1,0,0:0:0:0:
448,192,98156,1,0,0:0:0:0:
64,192,98234,1,0,0:0:0:0:
192,192,98351,1,0,0:0:0:0:
64,192,98468,1,0,0:0:0:0:
448,192,98468,1,8,0:0:0:0:
192,192,98585,1,0,0:0:0:0:
320,192,98703,5,0,0:0:0:0:
64,192,98820,1,0,0:0:0:0:
448,192,98937,1,0,0:0:0:0:
320,192,98937,1,0,3:0:0:0:
192,192,99054,1,0,0:0:0:0:
320,192,99171,128,0,99250:0:0:0:0:
64,192,99171,128,8,99250:0:0:0:0:
448,192,99289,1,0,0:0:0:0:
320,192,99406,128,0,99464:0:0:0:0:
64,192,99406,128,8,99464:0:0:0:0:
192,192,99523,1,0,0:0:0:0:
448,192,99640,1,0,0:0:0:0:
320,192,99699,1,0,0:0:0:0:
192,192,99757,1,0,0:0:0:0:
64,192,99816,1,0,0:0:0:0:
192,192,99875,5,0,0:0:0:0:
320,192,99875,1,0,3:0:0:0:
448,192,99875,128,4,100226:0:0:0:0:
64,192,99992,128,0,100187:0:0:0:0:
192,192,100109,128,0,100265:0:0:0:0:
320,192,100226,128,0,100343:0:0:0:0:
192,192,100343,1,0,0:0:0:0:
64,192,100343,1,8,0:0:0:0:
192,192,100578,1,0,0:0:0:0:
192,192,100695,1,0,0:0:0:0:
320,192,100812,1,0,0:0:0:0:
64,192,100812,128,0,101105:3:0:0:0:
192,192,100929,1,0,0:0:0:0:
448,192,101046,128,0,101193:0:0:0:0:
320,192,101105,128,0,101222:0:0:0:0:
192,192,101164,128,0,101251:0:0:0:0:
64,192,101222,128,0,101281:0:0:0:0:
448,192,101281,1,0,0:0:0:0:
320,192,101281,1,8,0:0:0:0:
64,192,101515,1,0,0:0:0:0:
192,192,101632,1,0,0:0:0:0:
320,192,101750,1,0,0:0:0:0:
64,192,101750,1,0,3:0:0:0:
192,192,101984,128,0,102130:0:0:0:0:
64,192,102101,128,0,102179:0:0:0:0:
320,192,102218,1,0,0:0:0:0:
448,192,102218,1,8,0:0:0:0:
64,192,102453,1,0,0:0:0:0:
192,192,102570,1,0,0:0:0:0:
320,192,102687,1,0,0:0:0:0:
64,192,102687,1,0,3:0:0:0:
192,192,102921,128,0,103000:0:0:0:0:
64,192,103039,128,0,103097:0:0:0:0:
448,192,103156,1,0,0:0:0:0:
320,192,103156,1,8,0:0:0:0:
192,192,103390,128,0,103566:0:0:0:0:
448,192,103507,1,0,0:0:0:0:
320,192,103625,128,0,103917:0:0:0:0:
64,192,103625,1,0,3:0:0:0:
448,192,103742,1,0,0:0:0:0:
64,192,103859,128,0,103976:0:0:0:0:
192,192,103917,128,0,103976:0:0:0:0:
448,192,103976,128,0,104093:0:0:0:0:
320,192,104035,128,0,104093:0:0:0:0:
192,192,104093,1,0,0:0:0:0:
64,192,104093,1,8,0:0:0:0:
64,192,104328,1,0,0:0:0:0:
320,192,104445,1,0,0:0:0:0:
192,192,104562,1,0,0:0:0:0:
448,192,104562,1,0,3:0:0:0:
320,192,104796,1,2,0:0:0:0:
448,192,104914,128,2,105031:0:0:0:0:
192,192,105031,1,2,0:0:0:0:
64,192,105031,1,8,0:0:0:0:
64,192,105265,128,2,105343:0:0:0:0:
320,192,105382,1,0,0:0:0:0:
448,192,105500,1,2,0:0:0:0:
192,192,105500,1,0,3:0:0:0:
448,192,105734,1,0,0:0:0:0:
320,192,105851,1,0,0:0:0:0:
64,192,105968,1,0,0:0:0:0:
192,192,105968,1,8,0:0:0:0:
448,192,106203,1,0,0:0:0:0:
192,192,106320,1,0,0:0:0:0:
448,192,106437,1,0,3:0:0:0:
320,192,106437,1,2,0:0:0:0:
320,192,106671,128,8,106750:0:0:0:0:
64,192,106671,128,0,106750:0:0:0:0:
192,192,106789,1,0,0:0:0:0:
64,192,106906,128,0,106964:0:0:0:0:
320,192,106906,128,8,106964:0:0:0:0:
448,192,107140,1,0,0:0:0:0:
192,192,107257,1,0,0:0:0:0:
64,192,107257,1,0,0:0:0:0:
192,192,107375,1,4,0:0:0:0:
448,192,107375,128,0,107726:3:0:0:0:
320,192,107375,1,0,0:0:0:0:
64,192,107492,128,0,107687:0:0:0:0:
192,192,107609,128,0,107765:0:0:0:0:
320,192,107726,128,0,107843:0:0:0:0:
64,192,107843,1,0,0:0:0:0:
192,192,107843,1,8,0:0:0:0:
192,192,108078,1,0,0:0:0:0:
192,192,108195,1,0,0:0:0:0:
320,192,108312,1,0,0:0:0:0:
64,192,108312,128,0,108605:3:0:0:0:
192,192,108429,1,0,0:0:0:0:
448,192,108546,128,0,108693:0:0:0:0:
320,192,108605,128,0,108722:0:0:0:0:
192,192,108664,128,0,108751:0:0:0:0:
64,192,108722,128,0,108781:0:0:0:0:
320,192,108781,1,0,0:0:0:0:
448,192,108781,1,8,0:0:0:0:
64,192,109015,1,0,0:0:0:0:
192,192,109132,1,0,0:0:0:0:
64,192,109250,1,0,0:0:0:0:
320,192,109250,1,0,3:0:0:0:
192,192,109484,128,0,109630:0:0:0:0:
64,192,109601,128,0,109679:0:0:0:0:
320,192,109718,1,0,0:0:0:0:
448,192,109718,1,8,0:0:0:0:
64,192,109953,1,0,0:0:0:0:
192,192,110070,1,0,0:0:0:0:
64,192,110187,1,0,0:0:0:0:
320,192,110187,1,0,3:0:0:0:
192,192,110421,128,0,110500:0:0:0:0:
64,192,110539,128,0,110597:0:0:0:0:
320,192,110656,1,0,0:0:0:0:
448,192,110656,1,8,0:0:0:0:
192,192,110890,128,0,111066:0:0:0:0:
448,192,111007,1,0,0:0:0:0:
64,192,111125,1,0,0:0:0:0:
320,192,111125,128,0,111359:3:0:0:0:
448,192,111242,1,0,0:0:0:0:
192,192,111593,1,0,0:0:0:0:
64,192,111593,1,8,0:0:0:0:
320,192,111652,1,0,0:0:0:0:
448,192,111710,1,0,0:0:0:0:
64,192,111828,1,0,0:0:0:0:
320,192,111945,1,0,0:0:0:0:
448,192,112062,1,0,0:0:0:0:
192,192,112062,1,0,3:0:0:0:
320,192,112296,1,2,0:0:0:0:
448,192,112414,128,2,112531:0:0:0:0:
192,192,112531,1,2,0:0:0:0:
64,192,112531,1,8,0:0:0:0:
64,192,112765,128,2,112843:0:0:0:0:
320,192,112882,1,0,0:0:0:0:
192,192,113000,1,0,3:0:0:0:
448,192,113000,1,2,0:0:0:0:
192,192,113234,1,0,0:0:0:0:
320,192,113351,1,0,0:0:0:0:
448,192,113468,1,0,0:0:0:0:
64,192,113468,1,8,0:0:0:0:
192,192,113703,1,0,0:0:0:0:
64,192,113820,1,0,0:0:0:0:
192,192,113937,1,0,3:0:0:0:
448,192,113937,1,2,0:0:0:0:
448,192,114171,1,0,0:0:0:0:
64,192,114289,1,0,0:0:0:0:
320,192,114406,1,0,0:0:0:0:
192,192,114406,1,8,0:0:0:0:
64,192,114640,1,0,0:0:0:0:
320,192,114757,1,0,0:0:0:0:
448,192,114757,1,0,0:0:0:0:
64,192,114875,1,0,0:0:0:0:
448,192,114875,128,0,115343:3:0:0:0:
192,192,114875,1,4,0:0:0:0:
64,192,115343,1,0,0:0:0:0:
320,192,115578,1,0,0:0:0:0:
320,192,115812,1,0,0:0:0:0:
448,192,116046,128,0,116398:0:0:0:0:
64,192,116281,1,0,0:0:0:0:
192,192,116398,128,0,116750:0:0:0:0:
320,192,116515,1,0,0:0:0:0:
320,192,116750,128,0,117218:0:0:0:0:
64,192,116750,1,0,0:0:0:0:
64,192,117218,1,0,0:0:0:0:
448,192,117453,1,2,0:0:0:0:
320,192,117511,1,0,0:0:0:0:
192,192,117570,1,0,0:0:0:0:
64,192,117628,1,0,0:0:0:0:
320,192,117687,1,0,0:0:0:0:
448,192,117687,1,2,0:0:0:0:
448,192,117921,128,0,118273:0:0:0:0:
64,192,118156,1,2,0:0:0:0:
320,192,118273,128,0,118625:0:0:0:0:
192,192,118390,1,0,0:0:0:0:
64,192,118625,128,0,119093:0:0:0:0:
448,192,118625,1,2,0:0:0:0:
448,192,119093,1,0,0:0:0:0:
192,192,119328,1,0,0:0:0:0:
64,192,119562,1,2,0:0:0:0:
192,192,119796,1,0,0:0:0:0:
448,192,120031,1,0,0:0:0:0:
320,192,120265,128,2,120617:0:0:0:0:
448,192,120382,128,0,120500:0:0:0:0:
192,192,120500,1,0,0:0:0:0:
448,192,120734,128,0,120812:0:0:0:0:
320,192,120734,128,2,120812:0:0:0:0:
192,192,120968,128,0,121906:0:0:0:0:
64,192,120968,128,2,121906:0:0:0:0:
448,192,121906,128,0,122023:0:0:0:0:
320,192,121964,128,0,122082:0:0:0:0:
192,192,122023,128,0,122140:0:0:0:0:
64,192,122082,128,0,122199:0:0:0:0:
