osu file format v14

[General]
AudioFilename: audio.mp3
AudioLeadIn: 0
PreviewTime: 91873
Countdown: 0
SampleSet: Soft
StackLeniency: 0.7
Mode: 0
LetterboxInBreaks: 0
WidescreenStoryboard: 0

[Editor]
DistanceSpacing: 1
BeatDivisor: 4
GridSize: 32
TimelineZoom: 1.6

[Metadata]
Title:Ruedu
TitleUnicode:ฤดู
Artist:Dept
ArtistUnicode:Dept
Creator:GalaxySkys
Version:Seasons
Source:
Tags:ไทย thai pop tpop t-pop indie alternative rudoo reuduu ruedoo reudoo เดป male vocal vocalist small room cycle of love ceramics runway
BeatmapID:4048251
BeatmapSetID:1954658

[Difficulty]
HPDrainRate:5
CircleSize:3.8
OverallDifficulty:8
ApproachRate:8.5
SliderMultiplier:1.8
SliderTickRate:1

[Events]
//Background and Video events
0,0,"bg.jpg",0,0
Video,0,"vid.mp4"
//Break Periods
//Storyboard Layer 0 (Background)
//Storyboard Layer 1 (Fail)
//Storyboard Layer 2 (Pass)
//Storyboard Layer 3 (Foreground)
//Storyboard Layer 4 (Overlay)
//Storyboard Sound Samples

[TimingPoints]
24,410.958904109589,4,2,1,30,1,0
24,-333.333333333333,4,2,1,30,0,0
12352,-181.818181818181,4,2,1,30,0,0
13174,402.684563758389,4,2,1,30,1,0
13174,-222.222222222221,4,2,1,30,0,0
14382,444.444444444444,4,2,1,30,1,0
14604,410.958904109589,4,2,1,30,1,0
14604,-222.222222222221,4,2,1,30,0,0
16447,410.958904109589,4,2,1,30,1,0
16447,-222.222222222221,4,2,1,30,0,0
17270,399.334442595674,4,2,1,30,1,0
17669,414.507772020726,4,2,1,30,1,0
17868,428.571428571429,4,2,1,30,1,0
17868,-222.222222222221,4,2,1,30,0,0
18724,377.358490566038,4,2,1,30,1,0
18912,413.793103448276,4,2,1,30,1,0
18912,-222.222222222221,4,2,1,30,0,0
19738,410.958904109589,4,2,1,30,1,0
19738,-222.222222222221,4,2,1,30,0,0
22922,-222.222222222221,4,2,1,5,0,0
23025,-222.222222222221,4,2,1,30,0,0
33104,421.792618629174,4,2,1,30,1,0
33104,-222.222222222221,4,2,1,30,0,0
35350,410.958904109589,4,2,1,30,1,0
35350,-222.222222222221,4,2,1,30,0,0
35760,429.338103756708,4,2,1,30,1,0
35760,-222.222222222221,4,2,1,30,0,0
36189,410.958904109589,4,2,1,30,1,0
36189,-222.222222222221,4,2,1,30,0,0
39476,410.958904109589,4,2,1,30,1,0
39476,-90.9090909090909,4,2,1,60,0,0
39783,-90.9090909090909,4,2,1,5,0,0
39886,-90.9090909090909,4,2,1,60,0,0
40605,-90.9090909090909,4,2,1,5,0,0
40708,-90.9090909090909,4,2,1,60,0,0
41221,-90.9090909090909,4,2,1,5,0,0
41324,-90.9090909090909,4,2,1,60,0,0
42249,-90.9090909090909,4,2,1,5,0,0
42352,-90.9090909090909,4,2,1,60,0,0
43892,-90.9090909090909,4,2,1,5,0,0
43995,-90.9090909090909,4,2,1,60,0,0
46358,-90.9090909090909,4,2,1,5,0,0
46461,-90.9090909090909,4,2,1,60,0,0
47180,-90.9090909090909,4,2,1,5,0,0
47283,-90.9090909090909,4,2,1,60,0,0
47796,-90.9090909090909,4,2,1,5,0,0
47899,-90.9090909090909,4,2,1,60,0,0
48824,-90.9090909090909,4,2,1,5,0,0
48927,-90.9090909090909,4,2,1,60,0,0
50468,-90.9090909090909,4,2,1,5,0,0
50571,-90.9090909090909,4,2,1,60,0,0
52933,-90.9090909090909,4,2,1,5,0,0
53036,-90.9090909090909,4,2,1,60,0,0
53755,-90.9090909090909,4,2,1,5,0,0
53858,-90.9090909090909,4,2,1,60,0,0
54372,-90.9090909090909,4,2,1,5,0,0
54475,-90.9090909090909,4,2,1,60,0,0
55399,-90.9090909090909,4,2,1,5,0,0
55502,-90.9090909090909,4,2,1,60,0,0
57043,-90.9090909090909,4,2,1,5,0,0
57146,-90.9090909090909,4,2,1,60,0,0
59509,-90.9090909090909,4,2,1,5,0,0
59612,-90.9090909090909,4,2,1,60,0,0
60331,-90.9090909090909,4,2,1,5,0,0
60434,-90.9090909090909,4,2,1,60,0,0
60947,-90.9090909090909,4,2,1,5,0,0
61050,-90.9090909090909,4,2,1,60,0,0
61975,-90.9090909090909,4,2,1,5,0,0
62078,-90.9090909090909,4,2,1,60,0,0
62796,-90.9090909090909,4,2,1,5,0,0
62899,-90.9090909090909,4,2,1,60,0,0
63618,-90.9090909090909,4,2,1,5,0,0
63721,-90.9090909090909,4,2,1,60,0,0
65262,-90.9090909090909,4,2,1,5,0,0
65365,-90.9090909090909,4,2,1,60,0,0
66084,-90.9090909090909,4,2,1,5,0,0
66187,-90.9090909090909,4,2,1,60,0,0
66906,-90.9090909090909,4,2,1,5,0,0
67009,-90.9090909090909,4,2,1,60,0,0
67523,-90.9090909090909,4,2,1,5,0,0
67626,-90.9090909090909,4,2,1,60,0,0
68550,-90.9090909090909,4,2,1,5,0,0
68653,-90.9090909090909,4,2,1,60,0,0
70194,-90.9090909090909,4,2,1,5,0,0
70297,-90.9090909090909,4,2,1,60,0,0
72659,-90.9090909090909,4,2,1,5,0,0
72762,-90.9090909090909,4,2,1,60,0,0
73481,-90.9090909090909,4,2,1,5,0,0
73584,-90.9090909090909,4,2,1,60,0,0
74098,-90.9090909090909,4,2,1,5,0,0
74201,-90.9090909090909,4,2,1,60,0,0
75125,-90.9090909090909,4,2,1,5,0,0
75228,-90.9090909090909,4,2,1,60,0,0
75639,-83.3333333333333,4,2,1,60,0,0
75947,-83.3333333333333,4,2,1,5,0,0
76050,-83.3333333333333,4,2,1,60,0,0
76461,-90.9090909090909,4,2,1,60,0,0
76769,-90.9090909090909,4,2,1,5,0,0
76872,-90.9090909090909,4,2,1,60,0,0
79235,-90.9090909090909,4,2,1,5,0,0
79338,-90.9090909090909,4,2,1,60,0,0
80057,-90.9090909090909,4,2,1,5,0,0
80160,-90.9090909090909,4,2,1,60,0,0
80673,-90.9090909090909,4,2,1,5,0,0
80776,-90.9090909090909,4,2,1,60,0,0
81701,-90.9090909090909,4,2,1,5,0,0
81804,-90.9090909090909,4,2,1,60,0,0
83344,-90.9090909090909,4,2,1,5,0,0
83447,-90.9090909090909,4,2,1,60,0,0
85810,-90.9090909090909,4,2,1,5,0,0
85913,-90.9090909090909,4,2,1,60,0,0
86632,-90.9090909090909,4,2,1,5,0,0
86735,-90.9090909090909,4,2,1,60,0,0
87249,-90.9090909090909,4,2,1,5,0,0
87352,-90.9090909090909,4,2,1,60,0,0
88276,-90.9090909090909,4,2,1,5,0,0
88379,-90.9090909090909,4,2,1,60,0,0
88790,-83.3333333333333,4,2,1,60,0,0
89098,-83.3333333333333,4,2,1,5,0,0
89201,-83.3333333333333,4,2,1,60,0,0
89303,-83.3333333333333,4,2,1,5,0,0
89406,-83.3333333333333,4,2,1,60,0,0
89817,-90.9090909090909,4,2,1,60,0,0
89920,-90.9090909090909,4,2,1,5,0,0
90023,-90.9090909090909,4,2,1,60,0,0
90331,-90.9090909090909,4,2,1,5,0,0
90433,-100,4,2,1,60,0,0
90536,-100,4,2,1,5,0,0
90639,-100,4,2,1,60,0,0
90947,-100,4,2,1,5,0,0
91050,-133.333333333333,4,2,1,60,0,0
91461,-133.333333333333,4,2,1,60,0,0
92078,-83.3333333333333,4,2,2,80,0,1
97009,-83.3333333333333,4,2,2,90,0,1
98653,-83.3333333333333,4,2,2,80,0,1
103584,-83.3333333333333,4,2,2,90,0,1
105228,-83.3333333333333,4,2,2,80,0,1
110159,-83.3333333333333,4,2,2,90,0,1
111803,-83.3333333333333,4,2,2,80,0,1
118380,-100,4,2,1,50,0,0
119714,-100,4,2,1,5,0,0
119817,-100,4,2,1,50,0,0
121153,-100,4,2,1,5,0,0
121256,-100,4,2,1,50,0,0
123413,-100,4,2,1,5,0,0
123516,-100,4,2,1,50,0,0
127728,-100,4,2,1,5,0,0
127831,-100,4,2,1,50,0,0
129372,-100,4,2,1,5,0,0
129475,-100,4,2,1,50,0,0
129988,-100,4,2,1,5,0,0
130091,-100,4,2,1,50,0,0
132659,-100,4,2,1,5,0,0
132762,-100,4,2,1,50,0,0
134303,-100,4,2,1,5,0,0
134406,-100,4,2,1,50,0,0
136564,-100,4,2,1,5,0,0
136667,-100,4,2,1,50,0,0
139235,-100,4,2,1,5,0,0
139338,-100,4,2,1,50,0,0
142523,-100,4,2,1,5,0,0
142626,-100,4,2,1,50,0,0
143139,-100,4,2,1,5,0,0
143242,-100,4,2,1,50,0,0
144166,-100,4,2,1,5,0,0
144269,-100,4,2,1,50,0,0
144680,-90.9090909090909,4,2,1,60,0,0
144988,-90.9090909090909,4,2,1,5,0,0
145091,-90.9090909090909,4,2,1,60,0,0
145810,-90.9090909090909,4,2,1,5,0,0
145913,-90.9090909090909,4,2,1,60,0,0
146427,-90.9090909090909,4,2,1,5,0,0
146530,-90.9090909090909,4,2,1,60,0,0
147454,-90.9090909090909,4,2,1,5,0,0
147557,-90.9090909090909,4,2,1,60,0,0
149098,-90.9090909090909,4,2,1,5,0,0
149201,-90.9090909090909,4,2,1,60,0,0
151564,-90.9090909090909,4,2,1,5,0,0
151667,-90.9090909090909,4,2,1,60,0,0
152386,-90.9090909090909,4,2,1,5,0,0
152489,-90.9090909090909,4,2,1,60,0,0
153002,-90.9090909090909,4,2,1,5,0,0
153105,-90.9090909090909,4,2,1,60,0,0
154029,-90.9090909090909,4,2,1,5,0,0
154132,-90.9090909090909,4,2,1,60,0,0
155673,-90.9090909090909,4,2,1,5,0,0
155776,-90.9090909090909,4,2,1,60,0,0
158139,-90.9090909090909,4,2,1,5,0,0
158242,-90.9090909090909,4,2,1,60,0,0
158961,-90.9090909090909,4,2,1,5,0,0
159064,-90.9090909090909,4,2,1,60,0,0
159577,-90.9090909090909,4,2,1,5,0,0
159680,-90.9090909090909,4,2,1,60,0,0
160605,-90.9090909090909,4,2,1,5,0,0
160708,-90.9090909090909,4,2,1,60,0,0
162249,-90.9090909090909,4,2,1,5,0,0
162352,-90.9090909090909,4,2,1,60,0,0
164714,-90.9090909090909,4,2,1,5,0,0
164817,-90.9090909090909,4,2,1,60,0,0
165536,-90.9090909090909,4,2,1,5,0,0
165639,-90.9090909090909,4,2,1,60,0,0
166153,-90.9090909090909,4,2,1,5,0,0
166256,-90.9090909090909,4,2,1,60,0,0
167180,-90.9090909090909,4,2,1,5,0,0
167283,-90.9090909090909,4,2,1,60,0,0
168002,-90.9090909090909,4,2,1,5,0,0
168105,-90.9090909090909,4,2,1,60,0,0
168824,-90.9090909090909,4,2,1,5,0,0
168927,-90.9090909090909,4,2,1,60,0,0
170468,-90.9090909090909,4,2,1,5,0,0
170571,-90.9090909090909,4,2,1,60,0,0
171290,-90.9090909090909,4,2,1,5,0,0
171393,-90.9090909090909,4,2,1,60,0,0
172112,-90.9090909090909,4,2,1,5,0,0
172215,-90.9090909090909,4,2,1,60,0,0
172728,-90.9090909090909,4,2,1,5,0,0
172831,-90.9090909090909,4,2,1,60,0,0
173755,-90.9090909090909,4,2,1,5,0,0
173858,-90.9090909090909,4,2,1,60,0,0
175399,-90.9090909090909,4,2,1,5,0,0
175502,-90.9090909090909,4,2,1,60,0,0
177865,-90.9090909090909,4,2,1,5,0,0
177968,-90.9090909090909,4,2,1,60,0,0
178687,-90.9090909090909,4,2,1,5,0,0
178790,-90.9090909090909,4,2,1,60,0,0
179303,-90.9090909090909,4,2,1,5,0,0
179406,-90.9090909090909,4,2,1,60,0,0
180331,-90.9090909090909,4,2,1,5,0,0
180434,-90.9090909090909,4,2,1,60,0,0
180844,-83.3333333333333,4,2,1,60,0,0
181153,-83.3333333333333,4,2,1,5,0,0
181256,-83.3333333333333,4,2,1,60,0,0
181666,-90.9090909090909,4,2,1,60,0,0
181975,-90.9090909090909,4,2,1,5,0,0
182078,-90.9090909090909,4,2,1,60,0,0
184440,-90.9090909090909,4,2,1,5,0,0
184543,-90.9090909090909,4,2,1,60,0,0
185262,-90.9090909090909,4,2,1,5,0,0
185365,-90.9090909090909,4,2,1,60,0,0
185879,-90.9090909090909,4,2,1,5,0,0
185982,-90.9090909090909,4,2,1,60,0,0
186906,-90.9090909090909,4,2,1,5,0,0
187009,-90.9090909090909,4,2,1,60,0,0
188550,-90.9090909090909,4,2,1,5,0,0
188653,-90.9090909090909,4,2,1,60,0,0
191016,-90.9090909090909,4,2,1,5,0,0
191119,-90.9090909090909,4,2,1,60,0,0
191838,-90.9090909090909,4,2,1,5,0,0
191941,-90.9090909090909,4,2,1,60,0,0
192454,-90.9090909090909,4,2,1,5,0,0
192557,-90.9090909090909,4,2,1,60,0,0
193481,-90.9090909090909,4,2,1,5,0,0
193584,-90.9090909090909,4,2,1,60,0,0
193995,-83.3333333333333,4,2,1,60,0,0
194303,-83.3333333333333,4,2,1,5,0,0
194406,-83.3333333333333,4,2,1,60,0,0
194509,-83.3333333333333,4,2,1,5,0,0
194612,-83.3333333333333,4,2,1,60,0,0
195022,-90.9090909090909,4,2,1,60,0,0
195125,-90.9090909090909,4,2,1,5,0,0
195228,-90.9090909090909,4,2,1,60,0,0
195536,-90.9090909090909,4,2,1,5,0,0
195638,-100,4,2,1,60,0,0
195742,-100,4,2,1,5,0,0
195844,-100,4,2,1,60,0,0
196153,-100,4,2,1,5,0,0
196255,-133.333333333333,4,2,1,60,0,0
197284,-83.3333333333333,4,2,2,80,0,1
202214,-83.3333333333333,4,2,2,90,0,1
203858,-83.3333333333333,4,2,2,80,0,1
208790,-83.3333333333333,4,2,2,90,0,1
210434,-83.3333333333333,4,2,2,80,0,1
215365,-83.3333333333333,4,2,2,90,0,1
217009,-83.3333333333333,4,2,2,80,0,1
223482,-83.3333333333333,4,2,2,80,0,0
223585,-83.3333333333333,4,2,2,80,0,1
229132,-83.3333333333333,4,2,2,90,0,1
230159,-83.3333333333333,4,2,2,80,0,1
235707,-83.3333333333333,4,2,2,90,0,1
236734,-83.3333333333333,4,2,2,80,0,1
242283,-83.3333333333333,4,2,2,90,0,1
243310,-83.3333333333333,4,2,2,80,0,1
248242,-100,4,2,1,60,0,1
248344,-100,4,2,1,5,0,1
248447,-100,4,2,1,60,0,1
248755,-100,4,2,1,5,0,1
248858,-133.333333333333,4,2,1,60,0,1
249886,-133.333333333333,4,2,1,30,0,0
256255,-333.333333333333,4,2,1,20,0,0
256358,-666.666666666658,4,2,1,5,0,0

[Colours]
Combo1 : 131,250,193
Combo2 : 255,81,81
Combo3 : 251,132,165
Combo4 : 255,94,226
Combo5 : 187,72,255

[HitObjects]
154,283,24,6,0,L|162:313,3,26.9999991760254,0|0|0|0,0:0|0:0|0:0|0:0,0:0:0:0:
235,263,845,2,0,L|243:293,3,26.9999991760254,0|0|0|0,0:0|0:0|0:0|0:0,0:0:0:0:
373,275,1667,6,0,L|407:280,3,26.9999991760254,0|0|0|0,0:0|0:0|0:0|0:0,0:0:0:0:
483,262,2489,1,0,0:0:0:0:
510,191,2695,1,0,0:0:0:0:
491,117,2900,1,0,0:0:0:0:
418,93,3106,1,0,0:0:0:0:
347,123,3311,6,0,L|339:87,3,26.9999991760254,0|0|0|0,0:0|0:0|0:0|0:0,0:0:0:0:
263,143,4133,2,0,L|257:116,3,26.9999991760254,0|0|0|0,0:0|0:0|0:0|0:0,0:0:0:0:
190,275,4955,6,0,L|194:248,1,26.9999991760254,0|0,0:0|0:0,0:0:0:0:
104,257,5366,2,0,L|109:228,1,26.9999991760254,0|0,0:0|0:0,0:0:0:0:
8,167,5777,6,0,L|98:146,1,80.9999975280763,2|0,0:0|0:0,0:0:0:0:
162,116,6599,6,0,P|171:136|172:148,3,26.9999991760254,2|0|0|0,0:0|0:0|0:0|0:0,0:0:0:0:
255,169,7421,2,0,P|254:187|247:204,3,26.9999991760254,0|0|0|0,0:0|0:0|0:0|0:0,0:0:0:0:
310,259,8243,6,0,P|294:274|279:281,3,26.9999991760254,0|0|0|0,0:0|0:0|0:0|0:0,0:0:0:0:
307,378,9065,2,0,P|288:374|275:368,1,26.9999991760254,0|0,0:0|0:0,0:0:0:0:
447,260,9476,6,0,P|441:240|442:224,1,26.9999991760254,2|2,0:0|0:0,0:0:0:0:
498,342,9887,6,0,L|493:379,3,26.9999991760254,2|0|0|0,0:0|0:0|0:0|0:0,0:0:0:0:
413,330,10708,2,0,L|409:361,3,26.9999991760254,0|0|0|0,0:0|0:0|0:0|0:0,0:0:0:0:
285,259,11530,6,0,L|290:289,1,26.9999991760254,0|0,0:0|0:0,0:0:0:0:
205,276,11941,2,0,L|211:307,1,26.9999991760254,0|0,0:0|0:0,0:0:0:0:
116,361,12352,6,0,P|104:335|106:296,1,49.5000015106202,2|0,0:2|0:2,0:0:0:0:
344,365,12763,6,0,L|448:342,1,99.0000030212403,2|0,0:2|0:2,0:0:0:0:
466,115,14180,5,2,0:2:0:0:
409,163,14382,1,2,0:2:0:0:
512,225,14604,2,0,L|477:21,1,202.499993820191,2|0,0:2|0:2,0:0:0:0:
414,192,16447,2,0,P|375:205|338:325,1,161.999995056153,0|0,0:2|0:2,0:0:0:0:
271,374,17469,5,2,0:2:0:0:
223,316,17669,1,2,0:2:0:0:
332,309,17868,2,0,B|232:295|265:382|175:372,1,161.999995056153,2|0,0:2|0:2,0:0:0:0:
111,331,18912,2,0,P|91:307|169:248,1,161.999995056153,0|0,0:2|0:2,0:0:0:0:
255,268,19943,5,2,0:2:0:0:
255,268,20148,1,0,0:2:0:0:
297,195,20354,2,0,L|287:151,1,40.4999987640381,2|0,0:2|0:2,0:0:0:0:
214,124,20765,1,2,0:2:0:0:
214,124,20970,1,2,0:2:0:0:
310,49,21176,6,0,L|435:27,1,121.499996292114,0|0,0:0|0:0,0:0:0:0:
429,27,22614,6,0,P|462:41|475:71,1,60.7499981460572,2|0,0:2|0:2,0:0:0:0:
500,85,23025,2,0,P|500:119|465:148,1,80.9999975280763,2|0,0:2|0:2,0:0:0:0:
360,286,23847,2,0,P|320:272|308:234,1,80.9999975280763,2|0,0:2|0:2,0:0:0:0:
307,238,24464,1,0,0:2:0:0:
367,174,24669,2,0,L|448:190,1,80.9999975280763,2|2,0:2|0:2,0:0:0:0:
217,270,25491,2,0,P|223:235|237:216,1,40.4999987640381,0|0,0:2|0:2,0:0:0:0:
307,238,25902,2,0,P|304:280|281:319,1,80.9999975280763,2|0,0:2|0:0,0:0:0:0:
162,171,27340,5,2,0:2:0:0:
210,235,27546,1,2,0:2:0:0:
311,108,27751,2,0,L|96:69,1,202.499993820191,2|0,0:2|0:2,0:0:0:0:
273,384,29601,2,0,P|317:337|417:344,1,161.999995056153,0|0,0:2|0:2,0:0:0:0:
474,261,30628,5,2,0:2:0:0:
509,187,30833,1,2,0:2:0:0:
460,121,31039,2,0,B|401:135|401:135|382:186|382:186|329:198,1,161.999995056153,2|0,0:2|0:2,0:0:0:0:
255,260,32066,2,0,P|216:231|99:233,1,161.999995056153,0|0,0:0|0:0,0:0:0:0:
57,310,33104,5,2,0:2:0:0:
57,310,33314,1,2,0:2:0:0:
9,230,33525,2,0,L|18:175,1,40.4999987640381,2|0,0:2|0:2,0:0:0:0:
106,229,33947,1,2,0:2:0:0:
106,229,34158,1,2,0:2:0:0:
154,363,34369,6,0,L|280:340,1,121.499996292114,0|0,0:0|0:0,0:0:0:0:
274,342,35350,2,0,P|297:326|317:319,1,40.4999987640381,2|0,0:2|0:2,0:0:0:0:
369,254,35760,2,0,P|404:254|422:260,1,40.4999987640381,2|0,0:2|0:2,0:0:0:0:
488,306,36189,1,2,0:2:0:0:
488,306,36599,1,2,0:2:0:0:
488,306,37010,2,0,B|464:322|452:358|452:358|426:329|391:326,1,121.499996292114,2|0,0:2|0:0,0:0:0:0:
381,231,37832,2,0,B|405:215|417:179|417:179|443:208|478:211,1,121.499996292114,2|0,0:2|0:0,0:0:0:0:
336,344,38654,1,2,0:2:0:0:
336,344,39065,5,8,0:2:0:0:
262,300,39271,1,8,0:2:0:0:
439,382,39476,6,0,B|463:294|463:294|408:258,1,148.50000453186,6|0,1:2|0:2,0:0:0:0:
341,243,39887,1,0,0:2:0:0:
262,384,40093,1,0,1:2:0:0:
73,219,40298,2,0,L|233:192,1,148.50000453186,8|0,0:2|0:2,0:0:0:0:
295,175,40709,1,2,0:2:0:0:
233,35,40915,6,0,B|146:32|179:103|80:99,1,148.50000453186,0|0,1:2|0:2,0:0:0:0:
43,145,41325,2,0,P|18:115|49:52,1,99.0000030212403,0|0,1:2|0:2,0:0:0:0:
196,153,41736,1,0,1:2:0:0:
0,350,41942,2,0,P|45:302|143:323,1,148.50000453186,8|0,0:2|0:2,0:0:0:0:
182,363,42353,1,0,0:2:0:0:
191,360,42558,1,0,0:2:0:0:
421,291,42764,5,0,1:2:0:0:
342,247,42969,1,0,0:2:0:0:
298,324,43175,1,0,0:2:0:0:
374,370,43380,1,0,1:2:0:0:
493,187,43586,2,0,B|474:100|424:156|403:47,1,148.50000453186,8|0,0:2|0:2,0:0:0:0:
461,0,43997,1,2,0:2:0:0:
218,118,44202,6,0,P|235:60|236:-2,1,99.0000030212403,0|2,1:2|0:2,0:0:0:0:
362,151,44613,2,0,P|345:209|344:271,1,99.0000030212403,0|2,1:2|0:2,0:0:0:0:
453,384,45024,1,0,1:2:0:0:
490,152,45230,1,10,0:2:0:0:
267,256,45435,5,0,0:2:0:0:
506,301,45641,1,2,0:2:0:0:
267,256,45846,1,0,0:2:0:0:
342,29,46052,6,0,P|405:41|395:132,1,148.50000453186,6|0,1:2|0:2,0:0:0:0:
373,187,46462,1,0,0:2:0:0:
274,126,46668,1,0,1:2:0:0:
156,348,46873,2,0,B|100:300|100:300|124:209,1,148.50000453186,8|0,0:2|0:2,0:0:0:0:
137,155,47284,1,2,0:2:0:0:
3,85,47490,6,0,L|168:51,1,148.50000453186,0|0,1:2|0:2,0:0:0:0:
214,107,47901,2,0,L|319:86,1,99.0000030212403,0|0,1:2|0:2,0:0:0:0:
247,284,48312,1,0,1:2:0:0:
482,209,48517,2,0,P|431:153|358:164,1,148.50000453186,8|0,0:2|0:2,0:0:0:0:
294,198,48928,1,0,0:2:0:0:
288,192,49134,1,0,0:2:0:0:
134,92,49339,5,0,1:2:0:0:
47,118,49545,1,0,0:2:0:0:
26,204,49750,1,0,0:2:0:0:
83,271,49956,1,0,1:2:0:0:
313,384,50161,2,0,B|334:297|391:348|413:256,1,148.50000453186,8|0,0:2|0:2,0:0:0:0:
334,249,50572,1,2,0:2:0:0:
108,360,50778,6,0,P|79:311|90:254,1,99.0000030212403,0|2,1:2|0:2,0:0:0:0:
211,89,51189,2,0,P|240:138|229:195,1,99.0000030212403,0|2,1:2|0:2,0:0:0:0:
189,384,51599,1,0,1:2:0:0:
140,170,51805,1,10,0:2:0:0:
11,337,52010,5,0,0:2:0:0:
229,303,52216,1,2,0:2:0:0:
11,337,52421,1,0,0:2:0:0:
205,104,52627,6,0,B|258:138|258:138|237:251,1,148.50000453186,6|0,1:2|0:2,0:0:0:0:
229,303,53038,1,0,0:2:0:0:
334,233,53243,1,0,1:2:0:0:
155,359,53449,2,0,P|95:346|110:260,1,148.50000453186,8|0,0:2|0:2,0:0:0:0:
162,224,53860,1,2,0:2:0:0:
358,370,54065,6,0,P|323:291|344:212,1,148.50000453186,0|0,1:2|0:2,0:0:0:0:
394,178,54476,2,0,P|405:116|370:66,1,99.0000030212403,0|0,1:2|0:2,0:0:0:0:
484,216,54887,1,0,1:2:0:0:
268,137,55093,2,0,B|182:126|210:206|107:184,1,148.50000453186,8|0,0:2|0:2,0:0:0:0:
55,142,55504,1,0,0:2:0:0:
60,136,55709,1,0,0:2:0:0:
275,54,55915,5,0,1:2:0:0:
353,96,56120,1,0,0:2:0:0:
369,183,56325,1,0,0:2:0:0:
325,260,56531,1,0,1:2:0:0:
63,360,56736,6,0,P|125:312|207:336,1,148.50000453186,8|0,0:2|0:2,0:0:0:0:
265,364,57147,1,0,0:2:0:0:
474,218,57353,6,0,P|457:160|456:98,1,99.0000030212403,0|2,1:2|0:2,0:0:0:0:
325,260,57764,2,0,P|342:318|343:380,1,99.0000030212403,0|2,1:2|0:2,0:0:0:0:
151,266,58175,1,0,1:2:0:0:
339,125,58380,1,10,0:2:0:0:
345,357,58586,5,0,0:2:0:0:
191,189,58791,1,2,0:2:0:0:
345,357,58997,1,0,0:2:0:0:
473,221,59202,6,0,B|390:203|408:274|321:255,1,148.50000453186,6|0,1:2|0:2,0:0:0:0:
262,227,59613,1,0,0:2:0:0:
338,125,59819,1,0,1:2:0:0:
78,65,60024,2,0,L|234:40,1,148.50000453186,8|0,0:2|0:2,0:0:0:0:
310,31,60435,1,2,0:2:0:0:
176,250,60641,6,0,B|149:204|149:204|160:152,1,99.0000030212403,0|2,1:2|0:2,0:0:0:0:
328,259,61052,2,0,P|313:313|312:367,1,99.0000030212403,0|0,1:2|0:2,0:0:0:0:
405,228,61462,1,0,1:2:0:0:
138,383,61668,2,0,P|87:361|83:272,1,148.50000453186,8|0,0:2|0:2,0:0:0:0:
145,228,62079,2,0,B|189:211|201:247|201:247|170:230|152:233,1,99.0000030212403,0|0,0:2|0:2,0:0:0:0:
311,355,62490,6,0,L|472:327,1,148.50000453186,0|0,1:2|0:2,0:0:0:0:
510,268,62901,1,0,0:0:0:0:
510,268,63106,1,0,0:0:0:0:
278,157,63312,2,0,B|328:132|328:132|304:257,1,148.50000453186,8|0,0:2|0:2,0:0:0:0:
292,305,63723,1,0,0:2:0:0:
95,384,63928,6,0,P|55:337|77:289,1,99.0000030212403,0|2,1:2|0:2,0:0:0:0:
292,305,64339,2,0,L|175:284,1,99.0000030212403,0|2,1:2|0:2,0:0:0:0:
115,183,64750,1,0,1:2:0:0:
368,43,64956,2,0,B|416:80|416:80|390:178,1,148.50000453186,10|0,0:2|0:2,0:0:0:0:
324,202,65367,1,2,0:2:0:0:
266,139,65572,1,0,0:2:0:0:
92,330,65778,6,0,P|31:327|41:233,1,148.50000453186,6|0,1:2|0:2,0:0:0:0:
75,197,66189,1,0,0:2:0:0:
175,272,66394,1,0,1:2:0:0:
310,58,66599,2,0,B|232:38|232:38|194:82|160:81,1,148.50000453186,8|0,0:2|0:2,0:0:0:0:
110,41,67010,1,2,0:2:0:0:
256,293,67216,6,0,B|282:211|329:262|352:168,1,148.50000453186,0|0,1:2|0:2,0:0:0:0:
408,118,67627,2,0,P|389:45|386:0,1,99.0000030212403,0|0,1:2|0:2,0:0:0:0:
489,114,68038,1,0,1:2:0:0:
176,109,68243,2,0,P|263:116|280:193,1,148.50000453186,8|0,0:2|0:2,0:0:0:0:
261,243,68654,1,0,0:2:0:0:
255,250,68860,1,0,0:2:0:0:
63,384,69065,5,0,1:2:0:0:
11,301,69271,1,0,0:2:0:0:
94,252,69476,1,0,0:2:0:0:
142,336,69682,1,0,1:2:0:0:
43,76,69887,2,0,B|136:99|136:99|149:184,1,148.50000453186,8|0,0:2|0:2,0:0:0:0:
66,174,70298,1,2,0:2:0:0:
317,384,70504,6,0,L|342:258,1,99.0000030212403,0|2,1:2|0:2,0:0:0:0:
232,115,70915,2,0,L|209:240,1,99.0000030212403,0|2,1:2|0:2,0:0:0:0:
172,384,71325,1,0,1:2:0:0:
120,172,71531,1,10,0:2:0:0:
0,366,71736,5,0,0:2:0:0:
228,314,71942,1,2,0:2:0:0:
0,367,72147,1,0,0:2:0:0:
31,91,72353,6,0,B|46:145|46:145|20:182|20:182|42:263,1,148.50000453186,6|0,1:2|0:2,0:0:0:0:
52,302,72764,1,0,0:2:0:0:
168,231,72969,1,0,1:2:0:0:
366,368,73175,2,0,L|518:321,1,148.50000453186,8|0,0:2|0:2,0:0:0:0:
512,239,73586,1,2,0:2:0:0:
426,106,73791,6,0,P|355:127|354:225,1,148.50000453186,0|0,1:2|0:2,0:0:0:0:
277,252,74202,2,0,P|245:205|264:153,1,99.0000030212403,0|0,1:2|0:2,0:0:0:0:
412,239,74613,1,0,1:2:0:0:
274,26,74819,2,0,B|175:21|214:97|101:71,1,148.50000453186,8|0,0:2|0:2,0:0:0:0:
65,39,75230,1,0,0:2:0:0:
166,349,75435,1,2,0:2:0:0:
166,349,75538,1,2,0:2:0:0:
166,349,75641,6,0,L|199:185,1,161.999995056153,2|0,1:2|0:2,0:0:0:0:
216,112,76052,1,0,0:2:0:0:
95,187,76257,1,0,1:2:0:0:
348,324,76462,2,0,B|443:350|443:350|454:322|497:282,1,148.50000453186,8|0,0:2|0:2,0:0:0:0:
512,240,76873,1,0,0:2:0:0:
309,170,77079,6,0,P|364:162|432:139,1,99.0000030212403,0|2,1:2|0:2,0:0:0:0:
253,319,77490,2,0,P|204:305|149:297,1,99.0000030212403,0|2,1:2|0:2,0:0:0:0:
0,288,77901,1,0,1:2:0:0:
177,384,78106,1,10,0:2:0:0:
44,124,78312,5,0,0:2:0:0:
77,350,78517,1,2,0:2:0:0:
44,124,78723,1,0,0:2:0:0:
214,155,78928,6,0,B|131:163|167:237|75:242,1,148.50000453186,6|0,1:2|0:2,0:0:0:0:
23,217,79339,1,0,0:2:0:0:
125,106,79545,1,0,1:2:0:0:
255,295,79750,2,0,B|286:277|321:306|321:306|325:370|394:381,1,148.50000453186,8|0,0:2|0:2,0:0:0:0:
435,331,80161,1,2,0:2:0:0:
372,109,80367,6,0,B|399:74|399:74|378:184,1,148.50000453186,0|0,1:2|0:2,0:0:0:0:
305,214,80778,2,0,B|277:171|277:171|294:113,1,99.0000030212403,0|0,1:2|0:2,0:0:0:0:
186,250,81189,1,0,1:2:0:0:
41,72,81394,2,0,L|225:40,1,148.50000453186,8|0,0:2|0:2,0:0:0:0:
276,33,81805,1,0,0:2:0:0:
276,33,82010,1,0,0:2:0:0:
186,250,82216,5,0,1:2:0:0:
94,215,82421,1,0,0:2:0:0:
121,122,82627,1,0,0:2:0:0:
214,150,82832,1,0,1:2:0:0:
109,368,83038,2,0,B|95:322|95:322|33:311|33:311|6:244,1,148.50000453186,8|0,0:2|0:2,0:0:0:0:
17,201,83449,1,0,0:2:0:0:
214,150,83654,6,0,P|195:215|189:282,1,99.0000030212403,0|0,1:2|0:2,0:0:0:0:
373,313,84065,2,0,P|380:259|394:211,1,99.0000030212403,0|0,1:2|0:2,0:0:0:0:
499,377,84476,1,0,1:2:0:0:
251,306,84682,1,10,0:2:0:0:
477,173,84887,5,0,0:2:0:0:
339,384,85093,1,0,0:2:0:0:
477,173,85298,1,0,0:2:0:0:
295,174,85504,6,0,B|358:151|358:151|416:168|385:226,1,148.50000453186,2|0,1:2|0:2,0:0:0:0:
344,274,85915,1,0,0:2:0:0:
217,160,86120,1,0,1:2:0:0:
498,26,86325,2,0,L|475:190,1,148.50000453186,8|0,0:2|0:2,0:0:0:0:
469,257,86736,1,0,0:2:0:0:
289,82,86942,6,0,B|401:57,1,99.0000030212403,0|2,1:2|0:2,0:0:0:0:
145,214,87353,2,0,P|108:178|140:123,1,99.0000030212403,0|0,1:2|0:2,0:0:0:0:
207,70,87764,1,0,1:2:0:0:
313,312,87969,2,0,B|325:231|392:277|401:168,1,148.50000453186,8|0,0:2|0:2,0:0:0:0:
346,142,88380,1,0,0:2:0:0:
346,142,88586,1,0,0:2:0:0:
111,306,88791,6,0,P|200:294|228:376,1,161.999995056153,2|0,1:2|0:2,0:0:0:0:
321,384,89202,6,0,L|407:359,1,53.9999983520508,8|0,0:3|0:2,0:0:0:0:
458,348,89408,1,0,1:2:0:0:
298,207,89613,1,8,0:2:0:0:
362,79,89819,6,0,P|378:112|383:145,1,49.5000015106202,8|0,0:3|0:2,0:0:0:0:
472,183,90024,2,0,B|391:184|428:268|339:265,1,148.50000453186,4|0,0:3|0:2,0:0:0:0:
269,282,90435,6,0,L|203:266,1,45,8|0,0:3|0:2,0:0:0:0:
99,252,90641,2,0,B|141:224|141:224|120:320,1,135,12|0,0:3|0:2,0:0:0:0:
119,329,91052,5,12,0:3:0:0:
15,254,91257,1,8,0:2:0:0:
238,169,91462,5,8,0:3:0:0:
236,150,91565,1,8,0:3:0:0:
233,131,91668,1,8,0:3:0:0:
231,112,91771,1,8,0:3:0:0:
228,94,91873,1,8,0:3:0:0:
225,75,91976,1,8,0:3:0:0:
247,48,92079,6,0,L|261:-6,1,53.9999983520508,6|0,1:2|0:2,0:0:0:0:
341,26,92284,2,0,L|317:101,1,53.9999983520508,2|0,0:2|0:2,0:0:0:0:
86,198,92490,2,0,L|72:134,1,53.9999983520508,2|0,0:2|0:2,0:0:0:0:
149,104,92695,2,0,L|169:192,1,53.9999983520508,2|0,1:2|0:2,0:0:0:0:
385,283,92901,6,0,L|402:222,1,53.9999983520508,10|0,0:2|0:2,0:0:0:0:
326,165,93106,2,0,L|305:249,1,53.9999983520508,2|0,0:2|0:2,0:0:0:0:
96,368,93312,2,0,L|83:312,1,53.9999983520508,2|0,0:2|0:2,0:0:0:0:
163,257,93517,2,0,L|183:342,1,53.9999983520508,2|0,1:2|0:2,0:0:0:0:
291,384,93723,6,0,L|361:361,5,53.9999983520508,2|0|2|0|2|0,0:2|0:2|1:2|0:2|0:2|0:2,0:0:0:0:
450,374,94339,1,2,1:2:0:0:
450,374,94442,1,0,0:2:0:0:
450,374,94545,6,0,P|460:342|442:297,1,53.9999983520508,10|0,0:2|0:2,0:0:0:0:
510,249,94750,2,0,P|486:216|448:210,1,53.9999983520508,2|0,0:2|0:2,0:0:0:0:
261,216,94956,2,0,L|190:206,3,53.9999983520508,2|0|2|0,0:2|0:2|0:0|0:0,0:0:0:0:
53,217,95367,5,2,1:2:0:0:
22,178,95469,1,0,0:2:0:0:
22,134,95572,1,2,0:2:0:0:
47,99,95675,1,0,0:2:0:0:
87,77,95778,2,0,L|149:95,3,53.9999983520508,2|0|2|0,0:2|0:2|1:2|0:2,0:0:0:0:
252,269,96189,6,0,L|263:201,1,53.9999983520508,10|0,0:2|0:2,0:0:0:0:
241,0,96394,2,0,L|234:66,1,53.9999983520508,2|0,0:2|0:2,0:0:0:0:
422,134,96599,2,0,L|334:111,1,53.9999983520508,2|0,0:2|0:2,0:0:0:0:
99,200,96805,2,0,L|186:214,1,53.9999983520508,2|0,1:2|0:2,0:0:0:0:
392,208,97010,5,2,0:2:0:0:
225,132,97216,1,2,1:2:0:0:
144,297,97421,1,2,0:2:0:0:
308,377,97627,1,2,1:2:0:0:
22,335,97832,5,10,0:2:0:0:
152,208,98038,1,2,0:2:0:0:
154,384,98243,5,2,0:2:0:0:
43,261,98449,1,2,0:2:0:0:
308,377,98654,5,2,1:2:0:0:
355,354,98757,1,0,0:2:0:0:
378,307,98860,1,2,0:2:0:0:
359,256,98962,1,0,0:2:0:0:
317,231,99065,1,2,0:2:0:0:
267,209,99168,1,0,0:2:0:0:
251,158,99271,1,2,1:2:0:0:
270,110,99373,1,0,0:2:0:0:
314,86,99476,6,0,L|332:161,3,53.9999983520508,10|0|2|0,0:2|0:2|0:2|0:2,0:0:0:0:
391,56,99887,2,0,L|415:137,3,53.9999983520508,2|0|2|0,0:2|0:2|1:2|0:2,0:0:0:0:
217,23,100298,6,0,P|184:74|186:109,1,53.9999983520508,2|0,0:2|0:2,0:0:0:0:
110,95,100504,2,0,P|115:148|127:169,1,53.9999983520508,2|0,1:2|0:2,0:0:0:0:
312,291,100709,2,0,L|377:265,1,53.9999983520508,2|0,0:2|0:2,0:0:0:0:
376,181,100915,2,0,L|290:212,1,53.9999983520508,2|0,1:2|0:2,0:0:0:0:
187,340,101120,6,0,L|101:315,1,53.9999983520508,10|0,0:2|0:2,0:0:0:0:
97,227,101325,2,0,L|182:253,1,53.9999983520508,2|0,0:2|0:2,0:0:0:0:
356,384,101531,2,0,P|387:345|385:306,1,53.9999983520508,2|0,0:2|0:2,0:0:0:0:
460,284,101736,2,0,P|462:240|430:207,1,53.9999983520508,2|0,0:2|0:2,0:0:0:0:
376,181,101942,5,2,1:2:0:0:
322,174,102045,1,0,0:0:0:0:
268,167,102147,1,2,0:0:0:0:
215,160,102250,1,0,0:0:0:0:
164,154,102353,2,0,L|153:225,3,53.9999983520508,2|0|2|0,0:2|0:2|1:2|0:2,0:0:0:0:
60,70,102764,6,0,L|141:50,1,53.9999983520508,10|0,0:2|0:2,0:0:0:0:
275,266,102969,2,0,L|339:248,1,53.9999983520508,2|0,0:2|0:2,0:0:0:0:
437,124,103175,2,0,L|373:110,1,53.9999983520508,2|0,0:2|0:2,0:0:0:0:
138,300,103380,2,0,L|65:287,1,53.9999983520508,2|0,1:2|0:2,0:0:0:0:
20,207,103586,5,2,0:2:0:0:
188,135,103791,1,2,1:2:0:0:
376,211,103997,1,2,0:2:0:0:
430,384,104202,1,2,1:2:0:0:
489,154,104408,5,10,0:2:0:0:
363,310,104613,1,2,0:2:0:0:
503,249,104819,5,2,0:2:0:0:
399,131,105024,1,2,0:2:0:0:
183,364,105230,5,2,1:2:0:0:
139,378,105332,1,0,0:2:0:0:
94,368,105435,1,2,0:2:0:0:
61,336,105538,1,0,0:2:0:0:
48,292,105641,1,2,0:2:0:0:
60,248,105743,1,0,0:2:0:0:
95,213,105846,1,2,1:2:0:0:
141,206,105949,1,0,0:2:0:0:
189,224,106052,6,0,L|177:288,3,53.9999983520508,10|0|2|0,0:2|0:2|0:2|0:2,0:0:0:0:
283,198,106462,1,2,0:2:0:0:
283,198,106565,1,0,0:2:0:0:
283,198,106668,2,0,L|270:277,1,53.9999983520508,2|0,1:2|0:2,0:0:0:0:
372,380,106873,6,0,P|419:363|428:330,1,53.9999983520508,2|0,0:2|0:2,0:0:0:0:
501,350,107079,2,0,P|510:312|492:277,1,53.9999983520508,2|0,1:2|0:2,0:0:0:0:
460,144,107284,2,0,L|442:211,1,53.9999983520508,2|0,0:2|0:2,0:0:0:0:
362,177,107490,2,0,L|374:114,1,53.9999983520508,2|0,1:2|0:2,0:0:0:0:
167,313,107695,6,0,L|183:390,1,53.9999983520508,10|0,0:2|0:2,0:0:0:0:
261,351,107901,2,0,L|247:272,1,53.9999983520508,2|0,0:2|0:2,0:0:0:0:
168,91,108106,2,0,P|199:124|193:159,1,53.9999983520508,2|0,0:2|0:2,0:0:0:0:
278,158,108312,2,0,P|265:195|241:220,1,53.9999983520508,2|0,0:2|0:2,0:0:0:0:
49,310,108517,5,2,1:2:0:0:
11,281,108620,1,0,0:2:0:0:
3,231,108723,1,2,0:2:0:0:
29,190,108825,1,0,0:2:0:0:
74,167,108928,2,0,L|154:191,3,53.9999983520508,2|0|2|0,0:2|0:2|1:2|0:2,0:0:0:0:
288,302,109339,6,0,L|369:282,1,53.9999983520508,10|0,0:2|0:2,0:0:0:0:
486,229,109545,2,0,L|472:306,1,53.9999983520508,2|0,0:2|0:2,0:0:0:0:
268,193,109750,2,0,P|252:155|277:102,1,53.9999983520508,2|0,0:2|0:2,0:0:0:0:
423,0,109956,2,0,P|439:38|414:91,1,53.9999983520508,2|0,1:2|0:2,0:0:0:0:
204,315,110161,5,2,0:2:0:0:
93,212,110367,1,2,1:2:0:0:
157,77,110572,1,2,0:2:0:0:
321,94,110778,1,2,1:2:0:0:
410,344,110983,5,10,0:2:0:0:
512,221,111189,1,2,0:2:0:0:
512,360,111394,5,2,0:2:0:0:
417,248,111599,1,2,0:2:0:0:
243,227,111805,5,2,1:2:0:0:
217,184,111908,1,0,0:2:0:0:
232,135,112010,1,2,0:2:0:0:
278,115,112113,1,0,0:2:0:0:
326,128,112216,1,2,0:2:0:0:
374,157,112319,1,0,0:2:0:0:
421,155,112421,1,2,1:2:0:0:
463,116,112524,1,0,0:2:0:0:
470,66,112627,6,0,L|445:-9,3,53.9999983520508,10|0|2|0,0:2|0:2|0:2|0:2,0:0:0:0:
370,35,113038,2,0,L|394:116,3,53.9999983520508,2|0|2|0,0:2|0:2|1:2|0:2,0:0:0:0:
232,137,113449,6,0,L|244:78,1,53.9999983520508,2|0,0:2|0:2,0:0:0:0:
172,18,113654,2,0,L|156:104,1,53.9999983520508,2|0,1:2|0:2,0:0:0:0:
34,246,113860,2,0,L|15:178,1,53.9999983520508,2|0,0:2|0:2,0:0:0:0:
88,140,114065,2,0,L|116:229,1,53.9999983520508,2|0,1:2|0:2,0:0:0:0:
264,381,114271,6,0,P|303:370|316:327,1,53.9999983520508,10|0,0:2|0:2,0:0:0:0:
389,326,114476,2,0,P|393:298|366:263,1,53.9999983520508,2|0,0:2|0:2,0:0:0:0:
228,155,114682,2,0,P|197:190|215:227,1,53.9999983520508,2|0,0:2|0:2,0:0:0:0:
148,255,114887,2,0,P|169:308|195:318,1,53.9999983520508,2|0,0:2|0:2,0:0:0:0:
477,373,115093,6,0,L|496:298,3,53.9999983520508,2|0|2|0,1:2|0:2|0:2|0:2,0:0:0:0:
448,242,115504,2,0,L|463:177,3,53.9999983520508,2|0|2|0,0:2|0:2|1:2|0:2,0:0:0:0:
331,210,115915,6,0,L|403:188,1,53.9999983520508,10|0,0:2|0:2,0:0:0:0:
270,343,116120,2,0,L|359:312,1,53.9999983520508,2|0,0:2|0:2,0:0:0:0:
156,211,116325,2,0,L|223:188,1,53.9999983520508,2|0,0:2|0:2,0:0:0:0:
90,331,116531,2,0,L|153:312,1,53.9999983520508,2|0,1:2|0:2,0:0:0:0:
296,156,116736,5,2,0:2:0:0:
321,116,116839,1,0,0:2:0:0:
307,67,116942,1,2,1:2:0:0:
270,44,117045,1,0,0:2:0:0:
226,35,117147,2,0,P|201:81|198:115,1,53.9999983520508,2|0,0:2|0:2,0:0:0:0:
242,342,117353,2,0,P|267:296|270:262,1,53.9999983520508,2|0,1:2|0:2,0:0:0:0:
103,131,117558,6,0,P|117:192|134:218,1,53.9999983520508,10|0,0:2|0:2,0:0:0:0:
381,275,117764,2,0,P|356:231|306:221,1,53.9999983520508,2|0,0:2|0:2,0:0:0:0:
60,302,117969,6,0,L|146:278,1,53.9999983520508,2|0,0:2|0:2,0:0:0:0:
447,127,118175,2,0,L|364:147,1,53.9999983520508,2|0,0:2|0:2,0:0:0:0:
254,194,118380,5,0,1:2:0:0:
421,384,118586,2,0,B|435:295|491:340|514:231,1,180,0|0,1:2|0:2,0:0:0:0:
305,96,119202,1,10,0:2:0:0:
396,56,119408,2,0,L|368:226,1,135,2|0,0:2|0:2,0:0:0:0:
449,216,119819,6,0,L|464:117,1,90,2|0,1:2|0:2,0:0:0:0:
279,262,120230,2,0,L|377:281,1,90,0|2,1:2|0:2,0:0:0:0:
295,176,120641,1,2,0:2:0:0:
123,362,120846,2,0,B|71:323|71:323|87:245,1,135,8|0,0:2|0:2,0:0:0:0:
154,214,121257,1,2,0:2:0:0:
154,214,121462,1,2,0:2:0:0:
298,384,121668,5,0,1:2:0:0:
215,317,121873,2,0,L|411:285,1,180,0|0,1:2|0:2,0:0:0:0:
421,126,122490,2,0,B|385:77|332:96|332:96|313:156|253:149,1,180,8|0,0:2|0:0,0:0:0:0:
75,255,123106,6,0,L|39:114,1,135,0|0,1:2|0:0,0:0:0:0:
117,105,123517,2,0,L|88:-3,1,90,0|0,1:2|0:2,0:0:0:0:
180,169,123928,1,0,0:2:0:0:
47,337,124134,2,0,B|119:334|145:374|145:374|137:320|176:268,1,180,8|0,0:2|0:2,0:0:0:0:
225,337,124750,1,0,0:2:0:0:
105,231,124956,5,0,1:2:0:0:
355,192,125161,2,0,B|251:169|280:263|164:232,1,180,0|0,1:2|0:2,0:0:0:0:
64,103,125778,1,10,0:2:0:0:
131,44,125983,2,0,L|150:152,1,90,2|0,0:2|0:0,0:0:0:0:
233,384,126394,6,0,B|260:345|260:345|247:276,1,90,2|0,1:2|0:2,0:0:0:0:
38,181,126805,2,0,B|11:220|11:220|24:289,1,90,0|2,1:2|0:2,0:0:0:0:
99,240,127216,1,2,0:2:0:0:
0,381,127421,2,0,P|86:334|127:346,1,135,8|0,0:2|0:2,0:0:0:0:
186,379,127832,1,2,0:2:0:0:
186,379,128038,1,2,0:2:0:0:
355,251,128243,5,0,1:2:0:0:
435,308,128449,2,0,B|399:323|385:383|385:383|350:336|309:327,1,180,0|0,1:2|0:2,0:0:0:0:
172,204,129065,2,0,B|201:170|244:180|244:180|266:227|299:232,1,135,10|0,0:2|0:0,0:0:0:0:
355,251,129476,1,0,0:0:0:0:
512,125,129682,6,0,P|511:54|445:40,1,135,0|0,1:2|0:0,0:0:0:0:
385,11,130093,2,0,P|346:56|366:108,1,90,0|2,1:2|0:2,0:0:0:0:
462,203,130504,1,0,0:2:0:0:
269,77,130709,2,0,B|160:67|197:155|86:131,1,180,8|2,0:2|0:2,0:0:0:0:
12,53,131325,1,0,0:2:0:0:
165,209,131531,5,0,1:2:0:0:
12,53,131736,2,0,L|30:246,1,180,0|0,1:2|0:2,0:0:0:0:
0,381,132353,2,0,P|29:339|130:346,1,135,10|0,0:2|0:0,0:0:0:0:
178,373,132764,1,2,0:2:0:0:
387,384,132969,6,0,P|415:327|373:285,1,90,2|0,1:2|0:2,0:0:0:0:
239,106,133380,2,0,P|211:162|254:205,1,90,0|2,1:2|0:2,0:0:0:0:
314,165,133791,1,2,0:2:0:0:
169,275,133997,2,0,L|308:250,1,135,8|0,0:2|0:2,0:0:0:0:
373,237,134408,1,2,0:2:0:0:
373,237,134613,1,2,0:2:0:0:
333,31,134819,5,0,1:2:0:0:
512,66,135024,2,0,P|428:52|385:125,1,180,0|2,1:2|0:0,0:0:0:0:
205,283,135641,2,0,L|16:247,1,180,8|2,0:2|0:2,0:0:0:0:
254,201,136257,6,0,B|276:157|325:167|325:167|341:205|388:207,1,135,2|0,1:2|0:0,0:0:0:0:
433,242,136668,2,0,P|456:204|426:137,1,90,0|2,1:2|0:2,0:0:0:0:
351,283,137079,1,2,0:2:0:0:
511,91,137284,6,0,P|481:19|383:24,1,180,8|2,0:2|0:2,0:0:0:0:
267,93,137901,1,2,0:2:0:0:
267,93,138004,1,2,0:0:0:0:
267,93,138106,5,2,1:2:0:0:
351,283,138312,2,0,B|419:238|419:238|386:125,1,180,0|0,1:2|0:0,0:0:0:0:
135,4,138928,2,0,B|168:75|105:84|146:173,1,135,10|0,0:2|0:0,0:0:0:0:
201,168,139339,1,0,0:0:0:0:
104,289,139545,6,0,L|202:271,1,90,0|0,1:2|0:2,0:0:0:0:
417,164,139956,2,0,L|298:141,1,90,0|2,1:2|0:2,0:0:0:0:
227,70,140367,1,0,0:2:0:0:
273,296,140572,1,10,0:2:0:0:
193,273,140778,5,0,0:0:0:0:
339,242,140983,1,2,0:2:0:0:
472,217,141189,1,0,0:2:0:0:
242,199,141394,5,0,1:2:0:0:
481,330,141599,2,0,B|381:309|392:382|288:360,1,180,0|0,1:2|0:0,0:0:0:0:
72,277,142216,2,0,P|37:226|66:132,1,135,10|0,0:2|0:0,0:0:0:0:
109,112,142627,1,2,0:2:0:0:
0,383,142832,6,0,L|142:350,1,135,0|0,1:2|0:0,0:0:0:0:
211,359,143243,2,0,B|239:361|259:373|259:373|247:342|215:346,1,90,0|0,1:2|0:2,0:0:0:0:
229,206,143654,1,0,0:2:0:0:
399,139,143860,2,0,B|451:176|451:176|421:281,1,135,8|0,0:2|0:2,0:0:0:0:
367,293,144271,1,8,0:2:0:0:
318,227,144476,1,0,0:0:0:0:
142,377,144682,6,0,P|85:351|100:268,1,148.50000453186,6|0,1:2|0:2,0:0:0:0:
150,221,145093,1,0,0:2:0:0:
239,294,145298,1,0,0:2:0:0:
381,121,145504,2,0,B|353:84|305:93|305:93|274:141|228:132,1,148.50000453186,8|0,0:2|0:2,0:0:0:0:
179,117,145915,1,2,0:2:0:0:
58,12,146120,6,0,L|87:159,1,148.50000453186,0|0,1:2|0:2,0:0:0:0:
21,202,146531,2,0,L|-3:96,1,99.0000030212403,0|0,1:2|0:2,0:0:0:0:
150,221,146942,1,0,1:2:0:0:
0,368,147147,2,0,P|46:310|144:331,1,148.50000453186,8|0,0:2|0:2,0:0:0:0:
176,360,147558,1,0,0:2:0:0:
190,364,147764,1,0,0:2:0:0:
373,384,147969,5,0,1:2:0:0:
459,362,148175,1,0,0:2:0:0:
503,284,148380,1,0,0:2:0:0:
478,197,148586,1,0,0:2:0:0:
310,68,148791,2,0,B|287:133|287:133|316:175|309:210,1,148.50000453186,8|0,0:2|0:2,0:0:0:0:
231,194,149202,1,2,0:2:0:0:
28,99,149408,6,0,L|47:-9,1,99.0000030212403,0|2,1:2|0:2,0:0:0:0:
155,128,149819,2,0,L|135:248,1,99.0000030212403,0|2,1:2|0:2,0:0:0:0:
112,384,150230,1,0,1:2:0:0:
32,199,150435,1,10,0:2:0:0:
267,329,150641,5,0,0:2:0:0:
0,376,150846,1,2,0:2:0:0:
267,329,151052,1,0,0:2:0:0:
227,132,151257,6,0,P|169:132|167:216,1,148.50000453186,6|0,1:2|0:2,0:0:0:0:
213,265,151668,1,0,0:2:0:0:
340,182,151873,1,0,1:2:0:0:
411,357,152079,2,0,L|440:195,1,148.50000453186,8|0,0:2|0:2,0:0:0:0:
484,147,152490,1,2,0:2:0:0:
282,17,152695,6,0,B|191:18|236:98|130:97,1,148.50000453186,0|0,1:2|0:2,0:0:0:0:
89,134,153106,2,0,L|72:19,1,99.0000030212403,0|0,1:2|0:2,0:0:0:0:
184,185,153517,1,0,1:2:0:0:
7,301,153723,2,0,L|179:267,1,148.50000453186,8|0,0:2|0:2,0:0:0:0:
229,256,154134,1,0,0:2:0:0:
242,249,154339,1,0,0:2:0:0:
393,92,154545,5,0,1:2:0:0:
311,56,154750,1,0,0:2:0:0:
272,136,154956,1,0,0:2:0:0:
350,179,155161,1,0,1:2:0:0:
511,47,155367,2,0,B|504:22|504:22|434:6|434:6|492:48|478:79,1,148.50000453186,8|0,0:2|0:2,0:0:0:0:
496,119,155778,1,2,0:2:0:0:
374,279,155983,1,0,1:2:0:0:
196,154,156189,6,0,L|307:124,1,99.0000030212403,2|0,0:2|1:2,0:0:0:0:
321,355,156599,2,0,P|283:310|307:240,1,99.0000030212403,2|0,0:2|1:2,0:0:0:0:
376,136,157010,1,10,0:2:0:0:
178,272,157216,5,0,0:2:0:0:
420,335,157421,1,2,0:2:0:0:
178,272,157627,1,0,0:2:0:0:
449,69,157832,6,0,L|480:243,1,148.50000453186,6|0,1:2|0:2,0:0:0:0:
490,292,158243,1,0,0:2:0:0:
365,211,158449,1,0,1:2:0:0:
197,358,158654,2,0,B|155:348|155:348|137:292|137:292|74:273,1,148.50000453186,8|0,0:2|0:2,0:0:0:0:
17,272,159065,1,2,0:2:0:0:
207,151,159271,6,0,P|241:143|281:232,1,148.50000453186,0|0,1:2|0:2,0:0:0:0:
308,300,159682,2,0,P|351:309|410:257,1,99.0000030212403,0|0,1:2|0:2,0:0:0:0:
208,256,160093,1,0,1:2:0:0:
510,132,160298,2,0,L|339:104,1,148.50000453186,8|0,0:2|0:2,0:0:0:0:
282,95,160709,1,0,0:2:0:0:
277,100,160915,1,0,0:2:0:0:
121,279,161120,5,0,1:2:0:0:
35,256,161325,1,0,0:2:0:0:
9,169,161531,1,0,0:2:0:0:
62,97,161736,1,0,1:2:0:0:
222,268,161942,2,0,B|242:179|303:240|324:134,1,148.50000453186,8|0,0:2|0:2,0:0:0:0:
277,92,162353,1,0,0:2:0:0:
352,263,162558,6,0,P|410:245|469:234,1,99.0000030212403,0|2,1:2|0:2,0:0:0:0:
512,63,162969,2,0,P|463:52|416:37,1,99.0000030212403,0|2,1:2|0:2,0:0:0:0:
159,114,163380,1,0,1:2:0:0:
360,169,163586,1,10,0:2:0:0:
302,0,163791,5,0,0:2:0:0:
255,226,163997,1,2,0:2:0:0:
302,0,164202,1,0,0:2:0:0:
45,160,164408,6,0,P|96:101|175:132,1,148.50000453186,6|0,1:2|0:2,0:0:0:0:
222,154,164819,1,0,0:2:0:0:
257,329,165024,1,0,1:2:0:0:
495,271,165230,2,0,L|328:245,1,148.50000453186,8|0,0:2|0:2,0:0:0:0:
273,232,165641,1,2,0:2:0:0:
435,27,165846,6,0,L|457:140,1,99.0000030212403,0|2,1:2|0:2,0:0:0:0:
273,232,166257,2,0,L|251:129,1,99.0000030212403,0|0,1:2|0:2,0:0:0:0:
487,203,166668,1,0,1:2:0:0:
217,299,166873,2,0,B|129:284|149:358|58:341,1,148.50000453186,8|0,0:2|0:2,0:0:0:0:
19,280,167284,2,0,B|9:243|48:232|48:232|30:262|36:279,1,99.0000030212403,0|0,0:2|0:2,0:0:0:0:
318,374,167695,6,0,L|282:189,1,148.50000453186,0|0,1:2|0:2,0:0:0:0:
276,151,168106,1,0,0:2:0:0:
276,151,168312,1,0,1:2:0:0:
140,25,168517,2,0,P|76:33|80:140,1,148.50000453186,8|0,0:2|0:2,0:0:0:0:
94,176,168928,1,0,0:2:0:0:
52,375,169134,6,0,P|12:328|34:280,1,99.0000030212403,0|2,1:2|0:2,0:0:0:0:
222,285,169545,2,0,L|105:264,1,99.0000030212403,0|2,1:2|0:2,0:0:0:0:
219,188,169956,1,0,1:2:0:0:
408,384,170161,2,0,B|473:348|473:348|453:238,1,148.50000453186,10|0,0:2|0:2,0:0:0:0:
409,217,170572,1,2,0:2:0:0:
368,286,170778,1,0,0:2:0:0:
510,98,170983,6,0,B|427:80|440:148|352:126,1,148.50000453186,6|0,1:2|0:2,0:0:0:0:
291,116,171394,1,0,0:2:0:0:
409,217,171599,1,0,1:2:0:0:
200,357,171805,2,0,L|170:194,1,148.50000453186,8|0,0:2|0:2,0:0:0:0:
163,134,172216,1,2,0:2:0:0:
0,54,172421,6,0,B|33:93|33:93|146:61,1,148.50000453186,0|0,1:2|0:2,0:0:0:0:
195,29,172832,2,0,B|234:17|248:50|248:50|220:34|193:36,1,99.0000030212403,0|0,1:2|0:2,0:0:0:0:
72,163,173243,1,0,1:2:0:0:
263,330,173449,2,0,P|329:257|293:191,1,148.50000453186,8|0,0:2|0:2,0:0:0:0:
244,182,173860,1,0,0:2:0:0:
234,184,174065,1,0,0:2:0:0:
37,238,174271,5,0,1:2:0:0:
1,318,174476,1,0,0:2:0:0:
79,361,174682,1,0,0:2:0:0:
120,281,174887,1,0,1:2:0:0:
98,41,175093,2,0,B|32:74|32:74|54:159,1,148.50000453186,8|0,0:2|0:2,0:0:0:0:
124,122,175504,1,2,0:2:0:0:
223,317,175709,1,0,1:2:0:0:
215,117,175915,6,0,L|192:230,1,99.0000030212403,2|0,0:2|1:2,0:0:0:0:
305,383,176325,2,0,P|326:337|293:281,1,99.0000030212403,2|0,0:2|1:2,0:0:0:0:
110,198,176736,1,10,0:2:0:0:
40,359,176942,5,0,0:2:0:0:
223,317,177147,1,2,0:2:0:0:
37,367,177353,1,0,0:2:0:0:
196,220,177558,6,0,B|250:211|250:211|286:245|286:245|349:235,1,148.50000453186,6|0,1:2|0:2,0:0:0:0:
411,225,177969,1,0,0:2:0:0:
310,147,178175,1,0,1:2:0:0:
512,47,178380,2,0,L|494:210,1,148.50000453186,8|0,0:2|0:2,0:0:0:0:
487,272,178791,1,2,0:2:0:0:
291,372,178997,6,0,P|205:344|225:280,1,148.50000453186,0|0,1:2|0:2,0:0:0:0:
250,229,179408,2,0,P|266:168|224:116,1,99.0000030212403,0|0,1:2|0:2,0:0:0:0:
103,260,179819,1,0,1:2:0:0:
370,384,180024,2,0,L|550:333,1,148.50000453186,8|0,0:2|0:2,0:0:0:0:
512,270,180435,1,0,0:2:0:0:
340,69,180641,1,2,0:2:0:0:
340,69,180743,1,2,0:2:0:0:
340,69,180846,6,0,B|294:48|255:81|255:81|243:137|187:137,1,161.999995056153,2|0,1:2|0:2,0:0:0:0:
129,135,181257,1,0,0:2:0:0:
196,12,181462,1,0,1:2:0:0:
46,228,181668,6,0,L|18:58,1,148.50000453186,8|0,0:2|0:2,0:0:0:0:
60,15,182079,1,0,0:2:0:0:
202,206,182284,1,0,1:2:0:0:
321,25,182490,6,0,L|223:52,1,99.0000030212403,2|0,0:2|1:2,0:0:0:0:
328,243,182901,2,0,L|426:267,1,99.0000030212403,2|0,0:2|1:2,0:0:0:0:
512,69,183312,1,10,0:2:0:0:
302,166,183517,5,0,0:2:0:0:
512,240,183723,1,2,0:2:0:0:
302,166,183928,1,0,0:2:0:0:
408,4,184134,6,0,P|488:95|462:135,1,148.50000453186,6|0,1:2|0:2,0:0:0:0:
435,157,184545,1,0,0:2:0:0:
311,91,184750,1,0,1:2:0:0:
217,345,184956,2,0,B|207:298|207:298|164:277|164:277|152:217,1,148.50000453186,8|0,0:2|0:2,0:0:0:0:
221,180,185367,1,2,0:2:0:0:
481,262,185572,6,0,B|403:256|425:324|331:317,1,148.50000453186,0|0,1:2|0:2,0:0:0:0:
291,255,185983,2,0,B|276:228|307:208|307:208|285:239|309:269,1,99.0000030212403,0|0,1:2|0:2,0:0:0:0:
267,351,186394,1,0,1:2:0:0:
65,142,186599,2,0,L|235:107,1,148.50000453186,8|0,0:2|0:2,0:0:0:0:
296,98,187010,1,0,0:2:0:0:
294,107,187216,1,0,0:2:0:0:
267,351,187421,5,0,1:2:0:0:
175,316,187627,1,0,0:2:0:0:
202,223,187832,1,0,0:2:0:0:
295,251,188038,1,0,1:2:0:0:
0,280,188243,2,0,P|12:197|90:207,1,148.50000453186,8|0,0:2|0:2,0:0:0:0:
113,246,188654,1,0,0:2:0:0:
338,72,188860,6,0,P|323:126|317:193,1,99.0000030212403,0|0,1:2|0:2,0:0:0:0:
209,384,189271,2,0,P|202:334|188:287,1,99.0000030212403,0|0,1:2|0:2,0:0:0:0:
483,384,189682,1,0,1:2:0:0:
281,299,189887,1,10,0:2:0:0:
478,214,190093,5,0,0:2:0:0:
329,384,190298,1,0,0:2:0:0:
478,214,190504,1,0,0:2:0:0:
411,316,190709,6,0,B|406:227|349:272|339:177,1,148.50000453186,2|0,1:2|0:2,0:0:0:0:
368,106,191120,1,0,0:2:0:0:
478,214,191325,1,0,1:2:0:0:
288,20,191531,2,0,P|212:37|227:123,1,148.50000453186,8|0,0:2|0:2,0:0:0:0:
271,141,191942,1,0,0:2:0:0:
0,266,192147,6,0,L|112:247,1,99.0000030212403,0|2,1:2|0:2,0:0:0:0:
226,303,192558,2,0,B|243:256|243:256|221:196,1,99.0000030212403,0|0,1:2|0:2,0:0:0:0:
114,167,192969,1,0,1:2:0:0:
288,20,193175,2,0,B|334:31|334:31|347:84|347:84|408:101,1,148.50000453186,8|0,0:2|0:2,0:0:0:0:
468,56,193586,1,0,0:2:0:0:
468,56,193791,1,0,0:2:0:0:
422,278,193997,6,0,B|373:276|341:305|341:305|345:258|306:235,1,161.999995056153,2|0,1:2|0:2,0:0:0:0:
226,179,194408,2,0,L|239:112,1,53.9999983520508,8|0,0:3|0:2,0:0:0:0:
319,159,194613,1,0,0:2:0:0:
244,384,194819,1,8,0:2:0:0:
102,233,195024,6,0,L|179:248,1,49.5000015106202,8|0,0:3|0:2,0:0:0:0:
261,296,195230,2,0,B|171:277|196:349|100:322,1,148.50000453186,4|0,0:3|0:2,0:0:0:0:
37,309,195641,2,0,L|24:240,1,45,8|0,0:3|0:2,0:0:0:0:
77,140,195846,6,0,P|124:125|183:200,1,135,12|0,0:3|0:2,0:0:0:0:
188,210,196257,1,12,0:3:0:0:
247,369,196462,1,8,0:2:0:0:
375,196,196668,5,8,0:3:0:0:
378,177,196771,1,8,0:3:0:0:
381,158,196873,1,8,0:3:0:0:
383,139,196976,1,8,0:3:0:0:
386,121,197079,1,8,0:3:0:0:
389,102,197182,1,8,0:3:0:0:
382,76,197284,6,0,L|368:22,1,53.9999983520508,6|0,1:2|0:2,0:0:0:0:
298,98,197490,2,0,L|283:38,1,53.9999983520508,2|0,0:2|0:2,0:0:0:0:
121,197,197695,2,0,L|135:143,1,53.9999983520508,2|0,0:2|0:2,0:0:0:0:
205,219,197901,2,0,L|220:159,1,53.9999983520508,2|0,1:2|0:2,0:0:0:0:
419,273,198106,6,0,L|405:219,1,53.9999983520508,10|0,0:2|0:2,0:0:0:0:
335,295,198312,2,0,L|320:235,1,53.9999983520508,2|0,0:2|0:2,0:0:0:0:
84,358,198517,2,0,L|98:304,1,53.9999983520508,2|0,0:2|0:2,0:0:0:0:
171,381,198723,2,0,L|186:321,1,53.9999983520508,2|0,1:2|0:2,0:0:0:0:
342,384,198928,6,0,L|412:361,5,53.9999983520508,2|0|2|0|2|0,0:2|0:2|1:2|0:2|0:2|0:2,0:0:0:0:
468,304,199545,1,2,1:2:0:0:
468,304,199647,1,0,0:2:0:0:
468,304,199750,6,0,P|484:275|477:227,1,53.9999983520508,10|0,0:2|0:2,0:0:0:0:
372,106,199956,2,0,P|355:134|362:182,1,53.9999983520508,2|0,0:2|0:2,0:0:0:0:
251,340,200161,2,0,L|185:328,1,53.9999983520508,2|0,0:2|0:2,0:0:0:0:
136,164,200367,2,0,L|204:178,1,53.9999983520508,2|0,0:2|0:2,0:0:0:0:
109,376,200572,5,2,1:2:0:0:
62,369,200675,1,0,0:2:0:0:
30,340,200778,1,2,0:2:0:0:
28,291,200880,1,0,0:2:0:0:
51,254,200983,2,0,L|35:163,3,53.9999983520508,2|0|2|0,0:2|0:2|1:2|0:2,0:0:0:0:
195,362,201394,6,0,P|239:360|260:329,1,53.9999983520508,10|0,0:2|0:2,0:0:0:0:
354,183,201599,2,0,P|310:185|289:216,1,53.9999983520508,2|0,0:2|0:2,0:0:0:0:
316,384,201805,2,0,P|342:358|337:319,1,53.9999983520508,2|0,0:2|0:2,0:0:0:0:
236,128,202010,2,0,P|218:163|223:192,1,53.9999983520508,2|0,1:2|0:2,0:0:0:0:
287,287,202216,5,2,0:2:0:0:
436,305,202421,1,2,1:2:0:0:
511,173,202627,1,2,0:2:0:0:
442,38,202832,1,2,1:2:0:0:
288,205,203038,5,10,0:2:0:0:
384,112,203243,1,2,0:2:0:0:
402,227,203449,5,2,0:2:0:0:
303,81,203654,1,2,0:2:0:0:
121,307,203860,5,2,1:2:0:0:
73,306,203962,1,0,0:2:0:0:
33,279,204065,1,2,0:2:0:0:
17,235,204168,1,0,0:2:0:0:
25,190,204271,1,2,0:0:0:0:
55,156,204373,1,0,0:2:0:0:
101,144,204476,1,2,1:2:0:0:
146,156,204579,1,0,0:2:0:0:
181,191,204682,6,0,L|255:172,3,53.9999983520508,10|0|2|0,0:2|0:2|0:2|0:2,0:0:0:0:
248,329,205093,2,0,L|310:311,3,53.9999983520508,2|0|2|0,0:2|0:2|1:2|0:2,0:0:0:0:
428,371,205504,6,0,P|448:342|448:300,1,53.9999983520508,2|0,0:2|0:2,0:0:0:0:
510,272,205709,2,0,P|505:243|486:213,1,53.9999983520508,2|0,1:2|0:2,0:0:0:0:
340,136,205915,2,0,L|323:230,1,53.9999983520508,2|0,0:2|0:2,0:0:0:0:
412,235,206120,2,0,L|423:166,1,53.9999983520508,2|0,1:2|0:2,0:0:0:0:
226,186,206325,6,0,P|252:231|268:238,1,53.9999983520508,10|0,0:2|0:2,0:0:0:0:
300,302,206531,2,0,P|336:301|363:280,1,53.9999983520508,2|0,0:2|0:2,0:0:0:0:
492,91,206736,2,0,L|477:4,1,53.9999983520508,2|0,0:2|0:2,0:0:0:0:
390,19,206942,2,0,L|405:93,1,53.9999983520508,2|0,0:2|0:2,0:0:0:0:
226,186,207147,5,2,1:2:0:0:
183,213,207250,1,0,0:0:0:0:
134,216,207353,1,2,0:0:0:0:
86,195,207456,1,0,0:0:0:0:
55,155,207558,2,0,L|69:78,3,53.9999983520508,2|0|2|0,0:2|0:2|1:2|0:2,0:0:0:0:
10,287,207969,6,0,L|71:274,1,53.9999983520508,10|0,0:2|0:2,0:0:0:0:
194,122,208175,2,0,L|134:136,1,53.9999983520508,2|0,0:2|0:2,0:0:0:0:
229,379,208380,2,0,L|307:360,1,53.9999983520508,2|0,0:2|0:2,0:0:0:0:
393,195,208586,2,0,L|304:215,1,53.9999983520508,2|0,1:2|0:2,0:0:0:0:
183,277,208791,5,2,0:2:0:0:
386,379,208997,1,2,1:2:0:0:
478,172,209202,1,2,0:2:0:0:
268,83,209408,1,2,1:2:0:0:
490,338,209613,5,10,0:2:0:0:
393,195,209819,1,2,0:2:0:0:
391,302,210024,5,2,0:2:0:0:
476,243,210230,1,2,0:2:0:0:
335,384,210435,5,2,1:2:0:0:
293,376,210538,1,0,0:2:0:0:
251,369,210641,1,2,0:2:0:0:
211,362,210743,1,0,0:2:0:0:
171,355,210846,1,2,0:2:0:0:
130,349,210949,1,0,0:2:0:0:
89,342,211052,1,2,1:2:0:0:
49,335,211154,1,0,0:2:0:0:
10,326,211257,6,0,L|-4:254,3,53.9999983520508,10|0|2|0,0:2|0:2|0:2|0:2,0:0:0:0:
80,256,211668,1,2,0:2:0:0:
80,256,211771,1,0,0:2:0:0:
80,256,211873,2,0,L|63:167,1,53.9999983520508,2|0,1:2|0:2,0:0:0:0:
177,298,212079,6,0,L|243:280,1,53.9999983520508,2|0,0:2|0:2,0:0:0:0:
331,248,212284,2,0,L|312:314,1,53.9999983520508,2|0,1:2|0:2,0:0:0:0:
430,369,212490,2,0,L|374:354,1,53.9999983520508,2|0,0:2|0:2,0:0:0:0:
247,200,212695,2,0,L|262:128,1,53.9999983520508,2|0,1:2|0:2,0:0:0:0:
110,188,212901,6,0,L|167:172,1,53.9999983520508,10|0,0:2|0:2,0:0:0:0:
364,89,213106,2,0,L|351:151,1,53.9999983520508,2|0,0:2|0:2,0:0:0:0:
490,162,213312,2,0,L|409:149,1,53.9999983520508,2|0,0:2|0:2,0:0:0:0:
261,67,213517,2,0,L|274:-5,1,53.9999983520508,2|0,0:2|0:2,0:0:0:0:
374,215,213723,5,2,1:2:0:0:
405,258,213825,1,0,0:2:0:0:
406,311,213928,1,2,0:2:0:0:
377,355,214031,1,0,0:2:0:0:
334,379,214134,2,0,L|348:300,3,53.9999983520508,2|0|2|0,0:2|0:2|1:2|0:2,0:0:0:0:
231,241,214545,6,0,L|294:227,1,53.9999983520508,10|0,0:2|0:2,0:0:0:0:
225,371,214750,2,0,P|178:355|155:355,1,53.9999983520508,2|0,0:2|0:2,0:0:0:0:
20,237,214956,2,0,L|40:321,1,53.9999983520508,2|0,0:2|0:2,0:0:0:0:
151,135,215161,2,0,L|133:52,1,53.9999983520508,2|0,1:2|0:2,0:0:0:0:
300,318,215367,5,2,0:2:0:0:
496,256,215572,1,2,1:2:0:0:
426,63,215778,1,2,0:2:0:0:
232,134,215983,1,2,1:2:0:0:
474,358,216189,5,10,0:2:0:0:
350,226,216394,1,2,0:2:0:0:
362,371,216599,5,2,0:2:0:0:
430,200,216805,1,2,0:2:0:0:
237,372,217010,5,2,1:2:0:0:
192,346,217113,1,0,0:2:0:0:
181,294,217216,1,2,0:2:0:0:
209,250,217319,1,0,0:2:0:0:
251,221,217421,1,2,0:2:0:0:
266,173,217524,1,0,0:2:0:0:
253,121,217627,1,2,1:2:0:0:
215,90,217730,1,0,0:2:0:0:
166,86,217832,6,0,L|141:11,3,53.9999983520508,10|0|2|0,0:2|0:2|0:2|0:2,0:0:0:0:
77,110,218243,2,0,L|61:58,3,53.9999983520508,2|0|2|0,0:2|0:2|1:2|0:2,0:0:0:0:
383,109,218654,6,0,P|398:81|394:40,1,53.9999983520508,2|0,0:2|0:2,0:0:0:0:
321,36,218860,2,0,P|306:64|310:105,1,53.9999983520508,2|0,1:2|0:2,0:0:0:0:
119,225,219065,2,0,P|104:197|108:156,1,53.9999983520508,2|0,0:2|0:2,0:0:0:0:
181,152,219271,2,0,P|196:180|192:221,1,53.9999983520508,2|0,1:2|0:2,0:0:0:0:
404,299,219476,6,0,L|413:237,1,53.9999983520508,10|0,0:2|0:2,0:0:0:0:
319,207,219682,2,0,L|307:290,1,53.9999983520508,2|0,0:2|0:2,0:0:0:0:
99,373,219887,2,0,L|85:304,1,53.9999983520508,2|0,0:2|0:2,0:0:0:0:
179,282,220093,2,0,L|190:344,1,53.9999983520508,2|0,0:2|0:2,0:0:0:0:
276,380,220298,6,0,L|356:357,3,53.9999983520508,2|0|2|0,1:2|0:2|0:2|0:2,0:0:0:0:
404,299,220709,2,0,L|468:278,3,53.9999983520508,2|0|2|0,0:2|0:2|1:2|0:2,0:0:0:0:
261,273,221120,6,0,P|234:233|243:203,1,53.9999983520508,10|0,0:2|0:2,0:0:0:0:
160,199,221325,2,0,P|163:162|193:132,1,53.9999983520508,2|0,0:2|0:2,0:0:0:0:
335,19,221531,2,0,P|362:46|359:84,1,53.9999983520508,2|0,0:2|0:2,0:0:0:0:
442,91,221736,2,0,P|429:134|399:150,1,53.9999983520508,2|0,1:2|0:2,0:0:0:0:
278,169,221942,5,2,0:2:0:0:
224,158,222045,1,0,0:0:0:0:
171,148,222147,1,2,1:2:0:0:
118,138,222250,1,0,0:2:0:0:
70,129,222353,2,0,L|-4:113,3,53.9999983520508,2|0|2|0,0:2|0:2|1:2|0:2,0:0:0:0:
225,83,222764,6,0,L|240:5,1,53.9999983520508,10|0,0:2|0:2,0:0:0:0:
297,250,222969,2,0,L|276:331,1,53.9999983520508,2|0,0:2|0:2,0:0:0:0:
416,53,223175,2,0,L|429:-33,1,53.9999983520508,2|0,0:2|0:2,0:0:0:0:
477,220,223380,2,0,L|458:311,1,53.9999983520508,2|0,0:2|0:2,0:0:0:0:
375,123,223586,5,6,1:2:0:0:
331,108,223689,1,0,0:2:0:0:
286,115,223791,1,2,0:2:0:0:
249,143,223894,1,0,0:2:0:0:
227,186,223997,1,2,0:2:0:0:
186,207,224099,1,0,0:2:0:0:
141,201,224202,1,2,1:2:0:0:
101,174,224305,1,0,0:2:0:0:
85,128,224408,6,0,L|106:55,3,53.9999983520508,10|0|2|0,0:2|0:2|0:2|0:2,0:0:0:0:
181,105,224819,2,0,L|201:31,3,53.9999983520508,2|0|2|0,0:2|0:2|1:2|0:2,0:0:0:0:
11,319,225230,6,0,L|-4:242,1,53.9999983520508,2|0,0:2|0:2,0:0:0:0:
83,246,225435,2,0,L|98:332,1,53.9999983520508,2|0,1:2|0:2,0:0:0:0:
254,366,225641,2,0,P|279:343|279:297,1,53.9999983520508,2|0,0:2|0:2,0:0:0:0:
350,262,225846,2,0,P|345:225|308:195,1,53.9999983520508,2|0,1:2|0:2,0:0:0:0:
210,72,226052,6,0,L|196:141,1,53.9999983520508,10|0,0:2|0:2,0:0:0:0:
282,143,226257,2,0,L|302:49,1,53.9999983520508,2|0,0:2|0:2,0:0:0:0:
372,10,226462,2,0,P|405:35|413:78,1,53.9999983520508,2|0,0:2|0:2,0:0:0:0:
492,78,226668,2,0,P|487:126|467:157,1,53.9999983520508,2|0,0:2|0:2,0:0:0:0:
249,248,226873,5,2,1:2:0:0:
195,235,226976,1,0,0:2:0:0:
143,224,227079,1,2,0:2:0:0:
91,211,227182,1,0,0:2:0:0:
39,199,227284,2,0,L|26:114,3,53.9999983520508,2|0|2|0,0:2|0:2|1:2|0:2,0:0:0:0:
173,369,227695,6,0,P|192:340|186:293,1,53.9999983520508,10|0,0:2|0:2,0:0:0:0:
150,101,227901,2,0,P|130:142|135:173,1,53.9999983520508,2|0,0:2|0:2,0:0:0:0:
296,294,228106,2,0,P|274:264|244:252,1,53.9999983520508,2|0,0:2|0:2,0:0:0:0:
0,265,228312,2,0,P|51:299|80:295,1,53.9999983520508,2|0,1:2|0:2,0:0:0:0:
336,190,228517,6,0,L|411:179,6,53.9999983520508,2|0|2|0|2|0|2,0:2|0:0|1:2|0:0|0:2|0:0|1:2,0:0:0:0:
241,200,229236,1,2,0:0:0:0:
241,200,229339,5,10,0:2:0:0:
512,141,229545,1,2,0:2:0:0:
275,40,229750,5,2,0:2:0:0:
332,313,229956,1,2,0:2:0:0:
443,95,230161,5,2,1:2:0:0:
399,69,230264,1,0,0:2:0:0:
351,73,230367,1,2,0:2:0:0:
316,106,230469,1,0,0:2:0:0:
306,153,230572,1,2,0:0:0:0:
324,197,230675,1,0,0:2:0:0:
358,224,230778,1,2,1:2:0:0:
400,232,230880,1,0,0:2:0:0:
445,220,230983,6,0,L|455:159,3,53.9999983520508,10|0|2|0,0:2|0:2|0:2|0:2,0:0:0:0:
357,361,231394,2,0,L|374:276,3,53.9999983520508,2|0|0|0,0:2|0:2|1:2|0:2,0:0:0:0:
191,384,231805,6,0,P|171:355|171:313,1,53.9999983520508,2|0,0:2|0:2,0:0:0:0:
79,310,232010,2,0,P|84:281|103:251,1,53.9999983520508,2|0,1:2|0:2,0:0:0:0:
279,149,232216,2,0,L|296:243,1,53.9999983520508,2|0,0:2|0:2,0:0:0:0:
207,248,232421,2,0,L|196:179,1,53.9999983520508,2|0,1:2|0:2,0:0:0:0:
393,199,232627,6,0,P|367:244|351:251,1,53.9999983520508,10|0,0:2|0:2,0:0:0:0:
319,315,232832,2,0,P|283:314|256:293,1,53.9999983520508,2|0,0:2|0:2,0:0:0:0:
127,104,233038,2,0,L|142:17,1,53.9999983520508,2|0,0:2|0:2,0:0:0:0:
229,32,233243,2,0,L|215:106,1,53.9999983520508,2|0,0:2|0:2,0:0:0:0:
292,220,233449,5,2,1:2:0:0:
348,208,233552,1,0,0:0:0:0:
393,199,233654,1,2,0:0:0:0:
445,190,233757,1,0,0:0:0:0:
496,178,233860,2,0,L|482:101,3,53.9999983520508,2|0|2|0,0:2|0:2|1:2|0:2,0:0:0:0:
503,302,234271,6,0,L|517:226,1,53.9999983520508,10|0,0:2|0:2,0:0:0:0:
377,48,234476,2,0,L|361:117,1,53.9999983520508,2|0,0:2|0:2,0:0:0:0:
403,335,234682,2,0,L|418:252,1,53.9999983520508,2|0,0:2|0:2,0:0:0:0:
280,65,234887,2,0,L|263:150,1,53.9999983520508,2|0,1:2|0:2,0:0:0:0:
129,266,235093,6,0,L|57:250,6,53.9999983520508,2|0|2|0|2|0|2,0:2|0:0|1:2|0:0|0:2|0:0|1:2,0:0:0:0:
217,249,235812,1,2,0:0:0:0:
217,249,235915,5,10,0:2:0:0:
0,376,236120,1,2,0:2:0:0:
18,131,236325,5,2,0:2:0:0:
92,384,236531,1,2,0:2:0:0:
333,278,236736,5,2,1:2:0:0:
370,241,236839,1,0,0:2:0:0:
368,188,236942,1,2,0:2:0:0:
338,145,237045,1,0,0:2:0:0:
287,129,237147,1,2,0:2:0:0:
246,97,237250,1,0,0:2:0:0:
235,49,237353,1,2,1:2:0:0:
265,8,237456,1,0,0:2:0:0:
319,0,237558,6,0,L|305:74,3,53.9999983520508,10|0|2|0,0:2|0:2|0:2|0:2,0:0:0:0:
412,30,237969,2,0,L|393:118,3,53.9999983520508,2|0|2|0,0:2|0:2|1:2|0:2,0:0:0:0:
492,192,238380,6,0,L|480:244,1,53.9999983520508,2|0,0:2|0:2,0:0:0:0:
414,171,238586,2,0,L|394:250,1,53.9999983520508,2|0,1:2|0:2,0:0:0:0:
333,337,238791,2,0,L|315:272,1,53.9999983520508,2|0,0:2|0:2,0:0:0:0:
257,359,238997,2,0,L|239:288,1,53.9999983520508,2|0,1:2|0:2,0:0:0:0:
290,128,239202,6,0,L|278:180,1,53.9999983520508,10|0,0:2|0:2,0:0:0:0:
212,107,239408,2,0,L|192:186,1,53.9999983520508,2|0,0:2|0:2,0:0:0:0:
137,357,239613,2,0,L|119:292,1,53.9999983520508,2|0,0:2|0:2,0:0:0:0:
61,379,239819,2,0,L|43:308,1,53.9999983520508,2|0,0:2|0:2,0:0:0:0:
78,73,240024,5,2,1:2:0:0:
111,114,240127,1,0,0:2:0:0:
117,167,240230,1,2,0:2:0:0:
94,215,240332,1,0,0:2:0:0:
61,252,240435,2,0,L|-11:235,3,53.9999983520508,2|0|2|0,0:2|0:2|1:2|0:2,0:0:0:0:
250,371,240846,6,0,P|299:357|315:329,1,53.9999983520508,10|0,0:2|0:2,0:0:0:0:
384,376,241052,2,0,P|408:337|405:298,1,53.9999983520508,2|0,0:2|0:2,0:0:0:0:
308,136,241257,2,0,P|286:176|298:223,1,53.9999983520508,2|0,0:2|0:2,0:0:0:0:
196,196,241462,2,0,P|218:241|251:254,1,53.9999983520508,2|0,1:2|0:2,0:0:0:0:
503,171,241668,6,0,L|479:73,6,53.9999983520508,2|0|2|0|2|0|2,0:2|0:0|1:2|0:0|0:2|0:0|1:2,0:0:0:0:
472,242,242387,1,2,0:0:0:0:
472,242,242490,5,10,0:2:0:0:
196,196,242695,1,2,0:2:0:0:
390,99,242901,5,2,0:2:0:0:
346,369,243106,1,2,0:2:0:0:
37,217,243312,5,2,1:2:0:0:
8,172,243415,1,0,0:2:0:0:
27,120,243517,1,2,0:2:0:0:
74,96,243620,1,0,0:2:0:0:
127,102,243723,1,2,0:2:0:0:
169,129,243825,1,0,0:2:0:0:
220,137,243928,1,2,1:2:0:0:
263,108,244031,1,0,0:2:0:0:
291,67,244134,6,0,L|273:-12,3,53.9999983520508,10|0|2|0,0:2|0:2|0:2|0:2,0:0:0:0:
380,69,244545,2,0,L|363:-4,3,53.9999983520508,2|0|2|0,0:2|0:2|1:2|0:2,0:0:0:0:
425,281,244956,6,0,P|457:255|451:215,1,53.9999983520508,2|0,0:2|0:2,0:0:0:0:
505,181,245161,2,0,P|499:148|469:122,1,53.9999983520508,2|0,1:2|0:2,0:0:0:0:
272,123,245367,2,0,L|290:189,1,53.9999983520508,2|0,0:2|0:2,0:0:0:0:
379,196,245572,2,0,L|359:110,1,53.9999983520508,2|0,1:2|0:2,0:0:0:0:
254,20,245778,6,0,P|216:56|216:85,1,53.9999983520508,10|0,0:2|0:2,0:0:0:0:
138,118,245983,2,0,P|160:172|183:188,1,53.9999983520508,2|0,0:2|0:2,0:0:0:0:
348,346,246189,2,0,L|366:275,1,53.9999983520508,2|0,0:2|0:2,0:0:0:0:
269,252,246394,2,0,L|254:323,1,53.9999983520508,2|0,0:2|0:2,0:0:0:0:
202,384,246599,6,0,L|122:361,3,53.9999983520508,2|0|2|0,1:2|0:2|0:2|0:2,0:0:0:0:
85,279,247010,2,0,L|21:258,3,53.9999983520508,2|0|2|0,0:2|0:2|1:2|0:2,0:0:0:0:
14,378,247421,6,0,P|41:357|79:351,1,53.9999983520508,10|0,0:2|0:2,0:0:0:0:
147,232,247627,2,0,P|198:244|230:284,1,53.9999983520508,2|0,0:2|0:2,0:0:0:0:
353,383,247832,2,0,L|371:320,1,53.9999983520508,2|0,0:2|0:2,0:0:0:0:
297,232,248038,2,0,L|276:320,1,53.9999983520508,2|0,1:2|0:2,0:0:0:0:
492,261,248243,6,0,P|503:237|499:197,1,45,8|0,0:3|0:0,0:0:0:0:
467,129,248449,2,0,B|387:111|403:182|305:151,1,135,12|0,0:3|0:0,0:0:0:0:
307,148,248860,1,12,0:3:0:0:
217,103,249065,1,8,0:0:0:0:
62,188,249271,5,8,0:3:0:0:
59,169,249373,1,8,0:3:0:0:
56,150,249476,1,8,0:3:0:0:
54,131,249579,1,8,0:3:0:0:
51,113,249682,1,8,0:3:0:0:
48,94,249784,1,8,0:3:0:0:
65,67,249887,6,0,L|77:-1,2,67.5000025749208,2|2|2,0:0|0:0|0:0,0:0:0:0:
144,123,250504,2,0,P|223:121|246:61,1,135.000005149842,2|2,0:0|0:0,0:0:0:0:
508,185,251325,6,0,L|351:161,1,135.000005149842,2|2,0:0|0:0,0:0:0:0:
288,204,251942,1,2,0:0:0:0:
361,370,252147,2,0,B|385:300|335:311|373:210,2,135.000005149842,2|2|2,0:0|0:0|0:0,0:0:0:0:
264,375,253175,5,2,0:0:0:0:
184,358,253380,1,2,0:0:0:0:
105,340,253586,1,2,0:0:0:0:
0,248,253791,2,0,P|80:240|109:197,2,135.000005149842,2|2|2,0:0|0:0|0:0,0:0:0:0:
225,44,255024,5,2,0:0:0:0:
290,91,255230,1,2,0:0:0:0:
302,170,255435,1,2,0:0:0:0:
255,236,255641,1,2,0:0:0:0:
116,190,255846,2,0,L|194:176,1,67.5000025749208,2|0,0:0|0:0,0:0:0:0:
397,264,256257,6,0,B|417:185|518:211|562:161|561:72|514:41|459:57|431:87|431:87|424:27|377:14|324:19|297:45|283:92|311:179|377:150|374:218,1,674.999979400635,2|0,0:0|0:0,0:0:0:0:
