osu file format v14

[General]
AudioFilename: audio.mp3
AudioLeadIn: 0
PreviewTime: 91873
Countdown: 0
SampleSet: Soft
StackLeniency: 0.7
Mode: 0
LetterboxInBreaks: 0
WidescreenStoryboard: 1

[Editor]
DistanceSpacing: 1
BeatDivisor: 4
GridSize: 32
TimelineZoom: 1.6

[Metadata]
Title:Ruedu
TitleUnicode:ฤดู
Artist:Dept
ArtistUnicode:Dept
Creator:GalaxySkys
Version:Insane
Source:
Tags:ไทย thai pop tpop t-pop indie alternative rudoo reuduu ruedoo reudoo เดป male vocal vocalist small room cycle of love ceramics runway
BeatmapID:4394379
BeatmapSetID:1954658

[Difficulty]
HPDrainRate:5
CircleSize:3.8
OverallDifficulty:7.5
ApproachRate:8
SliderMultiplier:1.4
SliderTickRate:1

[Events]
//Background and Video events
0,0,"bg.jpg",0,0
Video,0,"vid.mp4"
//Break Periods
//Storyboard Layer 0 (Background)
//Storyboard Layer 1 (Fail)
//Storyboard Layer 2 (Pass)
//Storyboard Layer 3 (Foreground)
//Storyboard Layer 4 (Overlay)
//Storyboard Sound Samples

[TimingPoints]
24,410.958904109589,4,2,1,30,1,0
24,-333.333333333333,4,2,1,30,0,0
12352,-181.818181818181,4,2,1,30,0,0
13174,402.684563758389,4,2,1,30,1,0
13174,-222.222222222221,4,2,1,30,0,0
14382,444.444444444444,4,2,1,30,1,0
14604,410.958904109589,4,2,1,30,1,0
14604,-222.222222222221,4,2,1,30,0,0
16447,410.958904109589,4,2,1,30,1,0
16447,-222.222222222221,4,2,1,30,0,0
17270,399.334442595674,4,2,1,30,1,0
17669,414.507772020726,4,2,1,30,1,0
17868,428.571428571429,4,2,1,30,1,0
17868,-222.222222222221,4,2,1,30,0,0
18724,377.358490566038,4,2,1,30,1,0
18912,413.793103448276,4,2,1,30,1,0
18912,-222.222222222221,4,2,1,30,0,0
19738,410.958904109589,4,2,1,30,1,0
19738,-222.222222222221,4,2,1,30,0,0
22922,-222.222222222221,4,2,1,5,0,0
23025,-222.222222222221,4,2,1,30,0,0
33104,421.792618629174,4,2,1,30,1,0
33104,-222.222222222221,4,2,1,30,0,0
35350,410.958904109589,4,2,1,30,1,0
35350,-222.222222222221,4,2,1,30,0,0
35760,429.338103756708,4,2,1,30,1,0
35760,-222.222222222221,4,2,1,30,0,0
36189,410.958904109589,4,2,1,30,1,0
36189,-222.222222222221,4,2,1,30,0,0
39476,410.958904109589,4,2,1,30,1,0
39476,-90.9090909090909,4,2,1,60,0,0
39783,-90.9090909090909,4,2,1,5,0,0
39886,-90.9090909090909,4,2,1,60,0,0
40605,-90.9090909090909,4,2,1,5,0,0
40708,-90.9090909090909,4,2,1,60,0,0
41221,-90.9090909090909,4,2,1,5,0,0
41324,-90.9090909090909,4,2,1,60,0,0
42249,-90.9090909090909,4,2,1,5,0,0
42352,-90.9090909090909,4,2,1,60,0,0
43892,-90.9090909090909,4,2,1,5,0,0
43995,-90.9090909090909,4,2,1,60,0,0
46358,-90.9090909090909,4,2,1,5,0,0
46461,-90.9090909090909,4,2,1,60,0,0
47180,-90.9090909090909,4,2,1,5,0,0
47283,-90.9090909090909,4,2,1,60,0,0
47796,-90.9090909090909,4,2,1,5,0,0
47899,-90.9090909090909,4,2,1,60,0,0
48824,-90.9090909090909,4,2,1,5,0,0
48927,-90.9090909090909,4,2,1,60,0,0
50468,-90.9090909090909,4,2,1,5,0,0
50571,-90.9090909090909,4,2,1,60,0,0
52933,-90.9090909090909,4,2,1,5,0,0
53036,-90.9090909090909,4,2,1,60,0,0
53755,-90.9090909090909,4,2,1,5,0,0
53858,-90.9090909090909,4,2,1,60,0,0
54372,-90.9090909090909,4,2,1,5,0,0
54475,-90.9090909090909,4,2,1,60,0,0
55399,-90.9090909090909,4,2,1,5,0,0
55502,-90.9090909090909,4,2,1,60,0,0
57043,-90.9090909090909,4,2,1,5,0,0
57146,-90.9090909090909,4,2,1,60,0,0
59509,-90.9090909090909,4,2,1,5,0,0
59612,-90.9090909090909,4,2,1,60,0,0
60331,-90.9090909090909,4,2,1,5,0,0
60434,-90.9090909090909,4,2,1,60,0,0
60947,-90.9090909090909,4,2,1,5,0,0
61050,-90.9090909090909,4,2,1,60,0,0
61975,-90.9090909090909,4,2,1,5,0,0
62078,-90.9090909090909,4,2,1,60,0,0
62796,-90.9090909090909,4,2,1,5,0,0
62899,-90.9090909090909,4,2,1,60,0,0
63618,-90.9090909090909,4,2,1,5,0,0
63721,-90.9090909090909,4,2,1,60,0,0
65262,-90.9090909090909,4,2,1,5,0,0
65365,-90.9090909090909,4,2,1,60,0,0
66084,-90.9090909090909,4,2,1,5,0,0
66187,-90.9090909090909,4,2,1,60,0,0
66906,-90.9090909090909,4,2,1,5,0,0
67009,-90.9090909090909,4,2,1,60,0,0
67523,-90.9090909090909,4,2,1,5,0,0
67626,-90.9090909090909,4,2,1,60,0,0
68550,-90.9090909090909,4,2,1,5,0,0
68653,-90.9090909090909,4,2,1,60,0,0
70194,-90.9090909090909,4,2,1,5,0,0
70297,-90.9090909090909,4,2,1,60,0,0
72659,-90.9090909090909,4,2,1,5,0,0
72762,-90.9090909090909,4,2,1,60,0,0
73481,-90.9090909090909,4,2,1,5,0,0
73584,-90.9090909090909,4,2,1,60,0,0
74098,-90.9090909090909,4,2,1,5,0,0
74201,-90.9090909090909,4,2,1,60,0,0
75125,-90.9090909090909,4,2,1,5,0,0
75228,-90.9090909090909,4,2,1,60,0,0
75639,-83.3333333333333,4,2,1,60,0,0
75947,-83.3333333333333,4,2,1,5,0,0
76050,-83.3333333333333,4,2,1,60,0,0
76461,-90.9090909090909,4,2,1,60,0,0
76769,-90.9090909090909,4,2,1,5,0,0
76872,-90.9090909090909,4,2,1,60,0,0
79235,-90.9090909090909,4,2,1,5,0,0
79338,-90.9090909090909,4,2,1,60,0,0
80057,-90.9090909090909,4,2,1,5,0,0
80160,-90.9090909090909,4,2,1,60,0,0
80673,-90.9090909090909,4,2,1,5,0,0
80776,-90.9090909090909,4,2,1,60,0,0
81701,-90.9090909090909,4,2,1,5,0,0
81804,-90.9090909090909,4,2,1,60,0,0
83344,-90.9090909090909,4,2,1,5,0,0
83447,-90.9090909090909,4,2,1,60,0,0
85810,-90.9090909090909,4,2,1,5,0,0
85913,-90.9090909090909,4,2,1,60,0,0
86632,-90.9090909090909,4,2,1,5,0,0
86735,-90.9090909090909,4,2,1,60,0,0
87249,-90.9090909090909,4,2,1,5,0,0
87352,-90.9090909090909,4,2,1,60,0,0
88276,-90.9090909090909,4,2,1,5,0,0
88379,-90.9090909090909,4,2,1,60,0,0
88790,-83.3333333333333,4,2,1,60,0,0
89098,-83.3333333333333,4,2,1,5,0,0
89201,-83.3333333333333,4,2,1,60,0,0
89303,-83.3333333333333,4,2,1,5,0,0
89406,-83.3333333333333,4,2,1,60,0,0
89817,-90.9090909090909,4,2,1,60,0,0
89920,-90.9090909090909,4,2,1,5,0,0
90023,-90.9090909090909,4,2,1,60,0,0
90331,-90.9090909090909,4,2,1,5,0,0
90433,-100,4,2,1,60,0,0
90536,-100,4,2,1,5,0,0
90639,-100,4,2,1,60,0,0
90947,-100,4,2,1,5,0,0
91050,-133.333333333333,4,2,1,60,0,0
91461,-133.333333333333,4,2,1,60,0,0
92078,-83.3333333333333,4,2,2,80,0,1
97009,-83.3333333333333,4,2,2,90,0,1
98653,-83.3333333333333,4,2,2,80,0,1
103584,-83.3333333333333,4,2,2,90,0,1
105228,-83.3333333333333,4,2,2,80,0,1
110159,-83.3333333333333,4,2,2,90,0,1
111803,-83.3333333333333,4,2,2,80,0,1
118380,-100,4,2,1,50,0,0
119714,-100,4,2,1,5,0,0
119817,-100,4,2,1,50,0,0
121153,-100,4,2,1,5,0,0
121256,-100,4,2,1,50,0,0
123413,-100,4,2,1,5,0,0
123516,-100,4,2,1,50,0,0
127728,-100,4,2,1,5,0,0
127831,-100,4,2,1,50,0,0
129372,-100,4,2,1,5,0,0
129475,-100,4,2,1,50,0,0
129988,-100,4,2,1,5,0,0
130091,-100,4,2,1,50,0,0
132659,-100,4,2,1,5,0,0
132762,-100,4,2,1,50,0,0
134303,-100,4,2,1,5,0,0
134406,-100,4,2,1,50,0,0
136564,-100,4,2,1,5,0,0
136667,-100,4,2,1,50,0,0
139235,-100,4,2,1,5,0,0
139338,-100,4,2,1,50,0,0
142523,-100,4,2,1,5,0,0
142626,-100,4,2,1,50,0,0
143139,-100,4,2,1,5,0,0
143242,-100,4,2,1,50,0,0
144166,-100,4,2,1,5,0,0
144269,-100,4,2,1,50,0,0
144680,-90.9090909090909,4,2,1,60,0,0
144988,-90.9090909090909,4,2,1,5,0,0
145091,-90.9090909090909,4,2,1,60,0,0
145810,-90.9090909090909,4,2,1,5,0,0
145913,-90.9090909090909,4,2,1,60,0,0
146427,-90.9090909090909,4,2,1,5,0,0
146530,-90.9090909090909,4,2,1,60,0,0
147454,-90.9090909090909,4,2,1,5,0,0
147557,-90.9090909090909,4,2,1,60,0,0
149098,-90.9090909090909,4,2,1,5,0,0
149201,-90.9090909090909,4,2,1,60,0,0
151564,-90.9090909090909,4,2,1,5,0,0
151667,-90.9090909090909,4,2,1,60,0,0
152386,-90.9090909090909,4,2,1,5,0,0
152489,-90.9090909090909,4,2,1,60,0,0
153002,-90.9090909090909,4,2,1,5,0,0
153105,-90.9090909090909,4,2,1,60,0,0
154029,-90.9090909090909,4,2,1,5,0,0
154132,-90.9090909090909,4,2,1,60,0,0
155673,-90.9090909090909,4,2,1,5,0,0
155776,-90.9090909090909,4,2,1,60,0,0
158139,-90.9090909090909,4,2,1,5,0,0
158242,-90.9090909090909,4,2,1,60,0,0
158961,-90.9090909090909,4,2,1,5,0,0
159064,-90.9090909090909,4,2,1,60,0,0
159577,-90.9090909090909,4,2,1,5,0,0
159680,-90.9090909090909,4,2,1,60,0,0
160605,-90.9090909090909,4,2,1,5,0,0
160708,-90.9090909090909,4,2,1,60,0,0
162249,-90.9090909090909,4,2,1,5,0,0
162352,-90.9090909090909,4,2,1,60,0,0
164714,-90.9090909090909,4,2,1,5,0,0
164817,-90.9090909090909,4,2,1,60,0,0
165536,-90.9090909090909,4,2,1,5,0,0
165639,-90.9090909090909,4,2,1,60,0,0
166153,-90.9090909090909,4,2,1,5,0,0
166256,-90.9090909090909,4,2,1,60,0,0
167180,-90.9090909090909,4,2,1,5,0,0
167283,-90.9090909090909,4,2,1,60,0,0
168002,-90.9090909090909,4,2,1,5,0,0
168105,-90.9090909090909,4,2,1,60,0,0
168824,-90.9090909090909,4,2,1,5,0,0
168927,-90.9090909090909,4,2,1,60,0,0
170468,-90.9090909090909,4,2,1,5,0,0
170571,-90.9090909090909,4,2,1,60,0,0
171290,-90.9090909090909,4,2,1,5,0,0
171393,-90.9090909090909,4,2,1,60,0,0
172112,-90.9090909090909,4,2,1,5,0,0
172215,-90.9090909090909,4,2,1,60,0,0
172728,-90.9090909090909,4,2,1,5,0,0
172831,-90.9090909090909,4,2,1,60,0,0
173755,-90.9090909090909,4,2,1,5,0,0
173858,-90.9090909090909,4,2,1,60,0,0
175399,-90.9090909090909,4,2,1,5,0,0
175502,-90.9090909090909,4,2,1,60,0,0
177865,-90.9090909090909,4,2,1,5,0,0
177968,-90.9090909090909,4,2,1,60,0,0
178687,-90.9090909090909,4,2,1,5,0,0
178790,-90.9090909090909,4,2,1,60,0,0
179303,-90.9090909090909,4,2,1,5,0,0
179406,-90.9090909090909,4,2,1,60,0,0
180331,-90.9090909090909,4,2,1,5,0,0
180434,-90.9090909090909,4,2,1,60,0,0
180844,-83.3333333333333,4,2,1,60,0,0
181153,-83.3333333333333,4,2,1,5,0,0
181256,-83.3333333333333,4,2,1,60,0,0
181666,-90.9090909090909,4,2,1,60,0,0
181975,-90.9090909090909,4,2,1,5,0,0
182078,-90.9090909090909,4,2,1,60,0,0
184440,-90.9090909090909,4,2,1,5,0,0
184543,-90.9090909090909,4,2,1,60,0,0
185262,-90.9090909090909,4,2,1,5,0,0
185365,-90.9090909090909,4,2,1,60,0,0
185879,-90.9090909090909,4,2,1,5,0,0
185982,-90.9090909090909,4,2,1,60,0,0
186906,-90.9090909090909,4,2,1,5,0,0
187009,-90.9090909090909,4,2,1,60,0,0
188550,-90.9090909090909,4,2,1,5,0,0
188653,-90.9090909090909,4,2,1,60,0,0
191016,-90.9090909090909,4,2,1,5,0,0
191119,-90.9090909090909,4,2,1,60,0,0
191838,-90.9090909090909,4,2,1,5,0,0
191941,-90.9090909090909,4,2,1,60,0,0
192454,-90.9090909090909,4,2,1,5,0,0
192557,-90.9090909090909,4,2,1,60,0,0
193481,-90.9090909090909,4,2,1,5,0,0
193584,-90.9090909090909,4,2,1,60,0,0
193995,-83.3333333333333,4,2,1,60,0,0
194303,-83.3333333333333,4,2,1,5,0,0
194406,-83.3333333333333,4,2,1,60,0,0
194509,-83.3333333333333,4,2,1,5,0,0
194612,-83.3333333333333,4,2,1,60,0,0
195022,-90.9090909090909,4,2,1,60,0,0
195125,-90.9090909090909,4,2,1,5,0,0
195228,-90.9090909090909,4,2,1,60,0,0
195536,-90.9090909090909,4,2,1,5,0,0
195638,-100,4,2,1,60,0,0
195742,-100,4,2,1,5,0,0
195844,-100,4,2,1,60,0,0
196153,-100,4,2,1,5,0,0
196255,-133.333333333333,4,2,1,60,0,0
197284,-83.3333333333333,4,2,2,80,0,1
202214,-83.3333333333333,4,2,2,90,0,1
203858,-83.3333333333333,4,2,2,80,0,1
208790,-83.3333333333333,4,2,2,90,0,1
210434,-83.3333333333333,4,2,2,80,0,1
215365,-83.3333333333333,4,2,2,90,0,1
217009,-83.3333333333333,4,2,2,80,0,1
223482,-83.3333333333333,4,2,2,80,0,0
223585,-83.3333333333333,4,2,2,80,0,1
229132,-83.3333333333333,4,2,2,90,0,1
230159,-83.3333333333333,4,2,2,80,0,1
235707,-83.3333333333333,4,2,2,90,0,1
236734,-83.3333333333333,4,2,2,80,0,1
242283,-83.3333333333333,4,2,2,90,0,1
243310,-83.3333333333333,4,2,2,80,0,1
248242,-100,4,2,1,60,0,1
248344,-100,4,2,1,5,0,1
248447,-100,4,2,1,60,0,1
248755,-100,4,2,1,5,0,1
248858,-133.333333333333,4,2,1,60,0,1
249886,-133.333333333333,4,2,1,30,0,0
256255,-333.333333333333,4,2,1,20,0,0
256358,-666.666666666658,4,2,1,5,0,0

[Colours]
Combo1 : 131,250,193
Combo2 : 255,81,81
Combo3 : 251,132,165
Combo4 : 255,94,226
Combo5 : 187,72,255

[HitObjects]
357,288,24,6,0,L|350:313,3,20.9999993591309,0|0|0|0,0:0|0:0|0:0|0:0,0:0:0:0:
276,264,845,2,0,L|270:289,3,20.9999993591309,0|0|0|0,0:0|0:0|0:0|0:0,0:0:0:0:
155,346,1667,2,0,P|140:353|128:357,3,20.9999993591309,0|0|0|0,0:0|0:0|0:0|0:0,0:0:0:0:
194,241,2489,2,0,L|186:215,1,20.9999993591309,0|0,0:0|0:0,0:0:0:0:
112,249,2900,2,0,L|120:275,1,20.9999993591309,0|0,0:0|0:0,0:0:0:0:
162,136,3311,6,0,L|169:111,3,20.9999993591309,0|0|0|0,0:0|0:0|0:0|0:0,0:0:0:0:
243,160,4133,2,0,L|249:135,3,20.9999993591309,0|0|0|0,0:0|0:0|0:0|0:0,0:0:0:0:
364,78,4955,2,0,P|379:71|391:67,3,20.9999993591309,0|0|0|0,0:0|0:0|0:0|0:0,0:0:0:0:
326,184,5777,2,0,L|343:251,1,62.9999980773926,2|0,0:0|0:0,0:0:0:0:
422,283,6599,6,0,P|429:267|429:261,3,20.9999993591309,2|0|0|0,0:0|0:0|0:0|0:0,0:0:0:0:
476,355,7421,2,0,P|492:348|500:342,3,20.9999993591309,0|0|0|0,0:0|0:0|0:0|0:0,0:0:0:0:
345,302,8243,2,0,L|340:275,3,20.9999993591309,0|0|0|0,0:0|0:0|0:0|0:0,0:0:0:0:
248,332,9065,2,0,L|242:307,1,20.9999993591309,0|0,0:0|0:0,0:0:0:0:
169,358,9476,2,0,L|163:333,1,20.9999993591309,2|2,0:0|0:0,0:0:0:0:
107,266,9887,6,0,L|113:238,3,20.9999993591309,2|0|0|0,0:0|0:0|0:0|0:0,0:0:0:0:
26,241,10708,2,0,L|32:213,3,20.9999993591309,0|0|0|0,0:0|0:0|0:0|0:0,0:0:0:0:
25,346,11530,2,0,L|52:337,1,20.9999993591309,0|0,0:0|0:0,0:0:0:0:
126,316,11941,2,0,L|153:306,1,20.9999993591309,0|0,0:0|0:0,0:0:0:0:
222,261,12352,6,0,P|239:293|241:309,1,38.5000011749268,2|0,0:2|0:2,0:0:0:0:
350,362,12763,2,0,L|444:377,1,77.0000023498536,2|0,0:2|0:2,0:0:0:0:
464,233,14180,5,2,0:2:0:0:
499,155,14382,1,2,0:2:0:0:
451,81,14604,2,0,B|352:64|383:149|298:124,1,157.499995193482,2|0,0:2|0:2,0:0:0:0:
173,327,16447,2,0,P|120:329|105:262,1,125.999996154785,0|0,0:2|0:2,0:0:0:0:
174,224,17469,5,2,0:2:0:0:
174,224,17669,1,2,0:2:0:0:
250,253,17868,2,0,L|379:227,1,125.999996154785,2|0,0:2|0:2,0:0:0:0:
416,146,18912,2,0,B|392:109|351:116|351:116|343:154|311:155,1,125.999996154785,0|0,0:2|0:2,0:0:0:0:
243,181,19943,5,2,0:2:0:0:
243,181,20148,1,0,0:2:0:0:
152,160,20354,2,0,L|143:121,1,31.4999990386963,2|0,0:2|0:2,0:0:0:0:
191,56,20765,1,2,0:2:0:0:
191,56,20970,1,2,0:2:0:0:
109,13,21176,2,0,P|53:17|26:115,1,157.499995193482,0|0,0:0|0:0,0:0:0:0:
192,190,22614,1,2,0:2:0:0:
192,190,23025,6,0,L|91:214,1,94.499997116089,2|0,0:2|0:0,0:0:0:0:
36,265,23847,2,0,P|11:237|13:204,1,62.9999980773926,2|0,0:2|0:2,0:0:0:0:
133,125,24669,1,2,0:2:0:0:
230,225,25080,1,2,0:2:0:0:
378,186,25491,2,0,L|388:149,1,31.4999990386963,0|0,0:2|0:2,0:0:0:0:
310,117,25902,2,0,L|294:190,1,62.9999980773926,2|0,0:2|0:2,0:0:0:0:
410,380,27340,5,2,0:2:0:0:
410,380,27546,1,2,0:2:0:0:
476,326,27751,2,0,P|454:274|356:265,1,157.499995193482,2|0,0:2|0:2,0:0:0:0:
152,336,29601,6,0,B|79:356|79:356|83:322|64:308,1,125.999996154785,0|0,0:2|0:2,0:0:0:0:
7,253,30628,5,2,0:2:0:0:
7,253,30833,1,2,0:2:0:0:
55,183,31039,2,0,B|96:174|96:174|131:209|131:209|177:198,1,125.999996154785,2|0,0:2|0:2,0:0:0:0:
235,163,32066,2,0,L|262:295,1,125.999996154785
339,342,33104,5,2,0:2:0:0:
339,342,33314,1,2,0:2:0:0:
367,264,33525,2,0,L|358:225,1,31.4999990386963,2|0,0:2|0:2,0:0:0:0:
417,172,33947,1,2,0:2:0:0:
417,172,34158,1,2,0:2:0:0:
483,224,34369,2,0,P|505:275|479:337,1,125.999996154785
458,360,35350,1,2,0:2:0:0:
297,253,35760,1,2,0:2:0:0:
203,372,36189,5,2,0:2:0:0:
385,289,36599,1,2,0:2:0:0:
170,176,37010,2,0,L|190:275,1,94.499997116089,2|0,0:2|0:0,0:0:0:0:
115,329,37832,2,0,L|93:227,1,94.499997116089,2|0,0:2|0:0,0:0:0:0:
24,282,38654,1,2,0:2:0:0:
24,282,39065,5,8,0:2:0:0:
88,160,39271,1,8,0:2:0:0:
193,223,39476,6,0,B|258:248|258:248|313:206|274:153,1,154.000004699707,6|0,1:2|0:2,0:0:0:0:
101,248,40093,1,0,1:2:0:0:
257,73,40298,2,0,B|181:54|203:99|116:80,1,115.50000352478,8|0,0:2|0:2,0:0:0:0:
106,78,40709,1,2,0:2:0:0:
8,195,40915,6,0,P|48:177|86:172,1,77.0000023498536,0|0,1:2|0:0,0:0:0:0:
38,19,41325,2,0,B|9:51|9:51|24:88,1,77.0000023498536,0|0,1:2|0:2,0:0:0:0:
106,78,41736,1,0,1:2:0:0:
207,208,41942,2,0,B|263:193|263:193|305:213|305:213|363:199,1,154.000004699707,8|0,0:2|0:2,0:0:0:0:
508,168,42558,1,0,0:2:0:0:
401,42,42764,6,0,L|382:139,2,77.0000023498536,0|0|0,1:2|0:2|0:2,0:0:0:0:
477,89,43380,1,0,0:2:0:0:
326,200,43586,2,0,L|458:234,1,115.50000352478,8|0,0:2|0:2,0:0:0:0:
475,237,43997,1,2,0:2:0:0:
417,382,44202,6,0,P|395:334|392:300,1,77.0000023498536,0|2,1:2|0:2,0:0:0:0:
220,327,44613,2,0,P|223:280|241:251,1,77.0000023498536,0|2,1:2|0:2,0:0:0:0:
305,317,45024,1,0,1:2:0:0:
78,266,45230,1,10,0:2:0:0:
235,227,45435,5,0,0:2:0:0:
118,181,45641,1,2,0:2:0:0:
152,315,45846,1,0,0:2:0:0:
44,381,46052,6,0,P|7:348|13:228,1,154.000004699707,6|0,1:2|0:2,0:0:0:0:
152,315,46668,1,0,1:2:0:0:
0,134,46873,2,0,P|53:182|95:172,1,115.50000352478,8|0,0:2|0:2,0:0:0:0:
124,160,47284,1,2,0:2:0:0:
170,44,47490,6,0,L|69:74,1,77.0000023498536,0|0,1:2|0:0,0:0:0:0:
202,222,47901,2,0,P|224:167|200:130,1,77.0000023498536,0|0,1:2|0:2,0:0:0:0:
124,160,48312,1,0,1:2:0:0:
284,27,48517,2,0,B|352:60|352:60|329:142,1,154.000004699707,8|0,0:2|0:2,0:0:0:0:
247,102,49134,1,0,0:2:0:0:
428,199,49339,6,0,L|514:171,2,77.0000023498536,0|0|0,1:2|0:2|0:2,0:0:0:0:
319,280,49956,1,0,1:2:0:0:
501,376,50161,2,0,P|427:332|383:344,1,115.50000352478,8|0,0:2|0:2,0:0:0:0:
366,350,50572,1,2,0:2:0:0:
189,247,50778,6,0,L|215:335,1,77.0000023498536,0|2,1:2|0:2,0:0:0:0:
360,213,51189,2,0,L|265:191,1,77.0000023498536,0|2,1:2|0:2,0:0:0:0:
98,152,51599,1,0,1:2:0:0:
189,247,51805,1,10,0:2:0:0:
24,312,52010,5,0,0:2:0:0:
112,237,52216,1,2,0:2:0:0:
4,188,52421,1,0,0:2:0:0:
86,36,52627,6,0,P|155:48|152:146,1,154.000004699707,6|0,1:2|0:2,0:0:0:0:
84,143,53243,1,0,1:2:0:0:
244,175,53449,2,0,B|291:162|291:162|325:177|325:177|379:162,1,115.50000352478,8|0,0:2|0:2,0:0:0:0:
390,158,53860,1,2,0:2:0:0:
337,5,54065,6,0,P|307:41|313:88,1,77.0000023498536,0|0,1:2|0:0,0:0:0:0:
153,97,54476,2,0,P|152:156|169:176,1,77.0000023498536,0|0,1:2|0:2,0:0:0:0:
234,117,54887,1,0,1:2:0:0:
127,268,55093,2,0,P|61:273|6:195,1,154.000004699707,8|0,0:2|0:2,0:0:0:0:
155,184,55709,1,0,0:2:0:0:
93,87,55915,6,0,L|74:184,2,77.0000023498536,0|0|0,1:2|0:2|0:2,0:0:0:0:
234,168,56531,1,0,1:2:0:0:
322,62,56736,2,0,B|253:46|264:102|177:75,1,115.50000352478,8|0,0:2|0:2,0:0:0:0:
178,61,57147,1,0,0:2:0:0:
59,226,57353,6,0,P|111:201|143:197,1,77.0000023498536,0|2,1:2|0:2,0:0:0:0:
83,45,57764,2,0,L|100:127,1,77.0000023498536,0|2,1:2|0:2,0:0:0:0:
198,258,58175,1,0,1:2:0:0:
333,199,58380,1,10,0:2:0:0:
358,278,58586,5,0,0:2:0:0:
243,170,58791,1,2,0:2:0:0:
326,120,58997,1,0,0:2:0:0:
198,258,59202,6,0,B|129:287|129:287|85:270|78:211,1,154.000004699707,6|0,1:2|0:2,0:0:0:0:
162,181,59819,1,0,1:2:0:0:
4,150,60024,2,0,B|27:90|67:133|82:58,1,115.50000352478,8|0,0:2|0:2,0:0:0:0:
82,30,60435,1,2,0:2:0:0:
218,110,60641,6,0,L|303:135,1,77.0000023498536,0|2,1:2|0:2,0:0:0:0:
202,241,61052,2,0,L|123:266,1,77.0000023498536,0|0,1:2|0:2,0:0:0:0:
13,232,61462,1,0,1:2:0:0:
92,126,61668,2,0,P|152:123|172:176,1,115.50000352478,8|0,0:2|0:2,0:0:0:0:
208,170,62079,2,0,P|207:235|183:253,1,77.0000023498536,0|0,0:2|0:2,0:0:0:0:
341,363,62490,6,0,B|418:381|418:381|427:324|450:310,1,154.000004699707,0|0,1:2|0:0,0:0:0:0:
512,369,63106,1,0,0:0:0:0:
470,238,63312,2,0,B|391:218|410:272|345:254,1,115.50000352478,8|0,0:2|0:2,0:0:0:0:
329,233,63723,1,0,0:2:0:0:
168,304,63928,6,0,P|201:335|255:326,1,77.0000023498536,0|2,1:2|0:2,0:0:0:0:
324,148,64339,2,0,P|286:153|253:198,1,77.0000023498536,0|2,1:2|0:2,0:0:0:0:
329,233,64750,1,0,1:2:0:0:
168,304,64956,2,0,P|115:306|80:239,1,115.50000352478,10|0,0:2|0:2,0:0:0:0:
84,221,65367,1,2,0:2:0:0:
6,278,65572,1,0,0:2:0:0:
75,124,65778,6,0,B|113:75|167:94|167:94|155:143|200:153,1,154.000004699707,6|0,1:2|0:2,0:0:0:0:
316,200,66394,1,0,1:2:0:0:
243,338,66599,2,0,B|208:369|208:369|227:277,1,115.50000352478,8|0,0:2|0:2,0:0:0:0:
229,263,67010,1,2,0:2:0:0:
33,269,67216,6,0,P|69:272|110:298,1,77.0000023498536,0|0,1:2|0:0,0:0:0:0:
222,114,67627,2,0,P|203:147|198:185,1,77.0000023498536,0|0,1:2|0:2,0:0:0:0:
289,175,68038,1,0,1:2:0:0:
102,205,68243,2,0,P|56:156|65:59,1,154.000004699707,8|0,0:2|0:2,0:0:0:0:
222,114,68860,1,0,0:2:0:0:
151,21,69065,6,0,L|132:118,2,77.0000023498536,0|0|0,1:2|0:2|0:2,0:0:0:0:
46,113,69682,1,0,1:2:0:0:
194,202,69887,2,0,B|262:219|262:219|268:194|291:173,1,115.50000352478,8|0,0:2|0:2,0:0:0:0:
313,156,70298,1,2,0:2:0:0:
358,355,70504,6,0,P|336:307|333:273,1,77.0000023498536,0|2,1:2|0:2,0:0:0:0:
501,182,70915,2,0,P|484:235|484:263,1,77.0000023498536,0|2,1:2|0:2,0:0:0:0:
512,346,71325,1,0,1:2:0:0:
399,266,71531,1,10,0:2:0:0:
287,384,71736,5,0,0:2:0:0:
406,340,71942,1,2,0:2:0:0:
304,257,72147,1,0,0:2:0:0:
194,348,72353,6,0,P|110:348|78:266,1,154.000004699707,6|0,1:2|0:2,0:0:0:0:
0,337,72969,1,0,1:2:0:0:
141,171,73175,2,0,B|198:199|198:199|180:266,1,115.50000352478,8|0,0:2|0:2,0:0:0:0:
159,278,73586,1,2,0:2:0:0:
0,155,73791,6,0,L|79:132,1,77.0000023498536,0|0,1:2|0:0,0:0:0:0:
225,19,74202,2,0,L|204:122,1,77.0000023498536,0|0,1:2|0:2,0:0:0:0:
296,98,74613,1,0,1:2:0:0:
165,175,74819,2,0,B|106:196|106:196|44:155|94:101,1,154.000004699707,8|0,0:2|0:2,0:0:0:0:
225,19,75435,1,2,0:2:0:0:
225,19,75538,1,2,0:2:0:0:
225,19,75641,6,0,B|280:29|280:29|299:80|299:80|379:92,1,167.999994873047,2|0,1:2|0:2,0:0:0:0:
268,150,76257,1,0,1:2:0:0:
472,184,76462,2,0,B|409:205|409:205|424:137,1,115.50000352478,8|0,0:2|0:2,0:0:0:0:
428,119,76873,1,0,0:2:0:0:
302,211,77079,6,0,L|330:298,1,77.0000023498536,0|2,1:2|0:2,0:0:0:0:
132,291,77490,2,0,L|235:259,1,77.0000023498536,0|2,1:2|0:2,0:0:0:0:
302,211,77901,1,0,1:2:0:0:
155,159,78106,1,10,0:2:0:0:
228,84,78312,5,0,0:2:0:0:
360,144,78517,1,2,0:2:0:0:
215,217,78723,1,0,0:2:0:0:
390,64,78928,6,0,B|463:92|463:92|443:175,1,154.000004699707,6|0,1:2|0:2,0:0:0:0:
360,144,79545,1,0,1:2:0:0:
274,305,79750,2,0,B|313:293|313:293|352:310|352:310|408:293,1,115.50000352478,8|0,0:2|0:2,0:0:0:0:
418,286,80161,1,2,0:2:0:0:
360,144,80367,6,0,L|348:237,1,77.0000023498536,0|0,1:2|0:0,0:0:0:0:
211,365,80778,2,0,P|182:323|196:282,1,77.0000023498536,0|0,1:2|0:2,0:0:0:0:
274,305,81189,1,0,1:2:0:0:
17,237,81394,2,0,L|171:205,1,154.000004699707,8|0,0:2|0:2,0:0:0:0:
264,161,82010,1,0,0:2:0:0:
162,51,82216,6,0,L|184:145,2,77.0000023498536,0|0|0,1:2|0:2|0:2,0:0:0:0:
98,113,82832,1,0,1:2:0:0:
262,34,83038,2,0,B|305:43|305:43|325:80|325:80|381:91,1,115.50000352478,8|0,0:2|0:2,0:0:0:0:
391,94,83449,1,0,0:2:0:0:
499,186,83654,6,0,P|467:221|435:218,1,77.0000023498536,0|0,1:2|0:2,0:0:0:0:
307,315,84065,2,0,P|345:351|380:351,1,77.0000023498536,0|0,1:2|0:2,0:0:0:0:
470,301,84476,1,0,1:2:0:0:
372,242,84682,1,10,0:2:0:0:
235,305,84887,5,0,0:2:0:0:
143,355,85093,1,0,0:2:0:0:
251,384,85298,1,0,0:2:0:0:
37,304,85504,6,0,P|127:238|193:259,1,154.000004699707,2|0,1:2|0:2,0:0:0:0:
320,294,86120,1,0,1:2:0:0:
276,128,86325,2,0,B|220:158|220:158|238:229,1,115.50000352478,8|0,0:2|0:2,0:0:0:0:
245,244,86736,1,0,0:2:0:0:
397,186,86942,6,0,L|313:209,1,77.0000023498536,0|2,1:2|0:2,0:0:0:0:
225,370,87353,2,0,P|173:341|143:340,1,77.0000023498536,0|0,1:2|0:2,0:0:0:0:
68,370,87764,1,0,1:2:0:0:
17,280,87969,2,0,B|63:265|63:265|104:279|104:279|139:265,1,115.50000352478,8|0,0:2|0:2,0:0:0:0:
164,268,88380,2,0,L|153:222,1,38.5000011749268,0|0,0:2|0:0,0:0:0:0:
194,19,88791,6,0,P|238:76|218:161,1,125.999996154785,2|0,1:2|0:2,0:0:0:0:
213,146,89202,6,0,B|157:141|178:185|106:177,1,83.9999974365235,8|0,0:3|1:2,0:0:0:0:
44,217,89613,1,8,0:2:0:0:
141,348,89819,6,0,B|199:363|199:363|260:339|232:267,1,154.000004699707,8|0,0:3|0:0,0:0:0:0:
156,265,90435,5,8,0:3:0:0:
304,159,90641,2,0,P|340:194|333:235,1,70,12|0,0:3|0:0,0:0:0:0:
258,228,91052,5,12,0:3:0:0:
422,339,91257,1,8,0:2:0:0:
500,301,91462,6,0,L|508:259,5,26.2500010013581,8|8|8|8|8|8,0:3|0:3|0:3|0:3|0:3|0:3,0:0:0:0:
422,339,92079,6,0,P|406:312|400:248,1,83.9999974365235,6|2,1:2|0:2,0:0:0:0:
402,232,92387,1,0,0:2:0:0:
412,220,92490,2,0,L|468:201,1,41.9999987182618,2|0,0:2|0:2,0:0:0:0:
512,124,92695,2,0,L|454:102,1,41.9999987182618,2|0,1:2|0:2,0:0:0:0:
426,40,92901,2,0,B|371:38|388:72|321:74,1,83.9999974365235,10|2,0:2|0:2,0:0:0:0:
312,177,93209,1,0,0:2:0:0:
296,178,93312,2,0,P|288:151|277:126,1,41.9999987182618,2|0,0:2|0:2,0:0:0:0:
225,9,93517,6,0,L|200:97,1,83.9999974365235,2|2,1:2|0:2,0:0:0:0:
38,209,93928,2,0,B|5:178|5:178|22:116,1,83.9999974365235,2|2,1:2|0:2,0:0:0:0:
166,175,94339,1,2,1:2:0:0:
36,334,94545,6,0,L|123:296,1,83.9999974365235,10|2,0:2|0:2,0:0:0:0:
133,290,94853,1,0,0:2:0:0:
147,283,94956,1,2,0:2:0:0:
330,365,95161,1,2,0:0:0:0:
310,152,95367,6,0,P|290:208|282:254,1,83.9999974365235,2|2,1:2|0:2,0:0:0:0:
244,375,95675,1,0,0:2:0:0:
233,384,95778,2,0,P|216:369|218:339,1,41.9999987182618,2|0,0:2|0:2,0:0:0:0:
123,327,95983,2,0,P|121:308|135:287,1,41.9999987182618,2|0,1:2|0:2,0:0:0:0:
203,211,96189,2,0,L|303:236,1,83.9999974365235,10|2,0:2|0:2,0:0:0:0:
318,241,96497,1,0,0:2:0:0:
318,241,96599,1,2,0:2:0:0:
264,42,96805,1,2,1:2:0:0:
440,113,97010,5,2,0:2:0:0:
364,156,97216,1,2,1:2:0:0:
264,42,97421,1,2,0:2:0:0:
339,71,97627,1,2,1:2:0:0:
220,184,97832,5,10,0:2:0:0:
137,222,98038,1,2,0:2:0:0:
53,185,98243,1,2,0:2:0:0:
60,95,98449,1,2,0:2:0:0:
222,98,98654,6,0,P|271:89|308:64,1,83.9999974365235,2|2,1:2|0:2,0:0:0:0:
385,89,98962,1,0,0:2:0:0:
395,100,99065,2,0,L|380:164,1,41.9999987182618,2|0,0:2|0:2,0:0:0:0:
398,309,99271,2,0,P|375:282|373:258,1,41.9999987182618,2|0,1:2|0:2,0:0:0:0:
512,242,99476,2,0,L|419:214,1,83.9999974365235,10|2,0:2|0:2,0:0:0:0:
312,206,99784,1,0,0:2:0:0:
296,206,99887,2,0,L|284:263,1,41.9999987182618,2|0,0:2|0:2,0:0:0:0:
232,356,100093,6,0,B|199:327|199:327|213:275,1,83.9999974365235,2|2,1:2|0:2,0:0:0:0:
73,167,100504,2,0,B|40:196|40:196|54:248,1,83.9999974365235,2|2,1:2|0:2,0:0:0:0:
151,207,100915,1,2,1:2:0:0:
16,344,101120,2,0,L|113:319,1,83.9999974365235,10|2,0:2|0:2,0:0:0:0:
129,326,101428,1,0,0:2:0:0:
147,335,101531,1,2,0:2:0:0:
313,270,101736,1,2,0:2:0:0:
243,370,101942,6,0,P|233:318|221:279,1,83.9999974365235,2|2,1:2|0:0,0:0:0:0:
201,186,102250,1,0,0:0:0:0:
192,175,102353,2,0,P|174:191|168:217,1,41.9999987182618,2|0,0:2|0:2,0:0:0:0:
86,272,102558,2,0,P|64:255|60:228,1,41.9999987182618,2|0,1:2|0:2,0:0:0:0:
0,149,102764,2,0,L|98:120,1,83.9999974365235,10|2,0:2|0:2,0:0:0:0:
117,114,103072,1,0,0:2:0:0:
132,118,103175,1,2,0:2:0:0:
242,52,103380,1,2,1:2:0:0:
397,172,103586,5,2,0:2:0:0:
477,211,103791,1,2,1:2:0:0:
496,62,103997,1,2,0:2:0:0:
418,88,104202,1,2,1:2:0:0:
312,220,104408,5,10,0:2:0:0:
231,250,104613,1,2,0:2:0:0:
164,169,104819,1,2,0:2:0:0:
91,201,105024,1,2,0:2:0:0:
28,108,105230,6,0,B|61:98|61:98|90:113|90:113|136:100,1,83.9999974365235,2|2,1:2|0:2,0:0:0:0:
241,126,105538,1,0,0:2:0:0:
256,135,105641,2,0,P|301:117|323:117,1,41.9999987182618,2|0,0:2|0:2,0:0:0:0:
365,53,105846,2,0,L|291:33,1,41.9999987182618,2|0,1:2|0:2,0:0:0:0:
221,0,106052,2,0,B|179:28|179:28|205:92,1,83.9999974365235,10|2,0:2|0:2,0:0:0:0:
164,174,106360,1,0,0:2:0:0:
178,176,106462,2,0,P|165:214|156:239,1,41.9999987182618,2|0,0:2|0:2,0:0:0:0:
135,351,106668,6,0,P|122:323|101:272,1,83.9999974365235,2|2,1:2|0:2,0:0:0:0:
273,259,107079,2,0,P|223:278|187:300,1,83.9999974365235,2|2,1:2|0:2,0:0:0:0:
278,351,107490,1,2,1:2:0:0:
6,256,107695,2,0,P|56:237|92:215,1,83.9999974365235,10|2,0:2|0:2,0:0:0:0:
109,201,108004,1,0,0:2:0:0:
120,190,108106,1,2,0:2:0:0:
54,115,108312,1,2,0:2:0:0:
150,26,108517,6,0,P|183:59|177:108,1,83.9999974365235,2|2,1:2|0:2,0:0:0:0:
274,186,108825,1,0,0:2:0:0:
284,194,108928,2,0,P|299:167|300:138,1,41.9999987182618,2|0,0:2|0:2,0:0:0:0:
394,148,109134,2,0,P|399:119|391:97,1,41.9999987182618,2|0,1:2|0:2,0:0:0:0:
362,25,109339,2,0,B|305:11|322:59|256:49,1,83.9999974365235,10|2,0:2|0:2,0:0:0:0:
258,49,109647,1,0,0:2:0:0:
246,42,109750,1,2,0:2:0:0:
71,172,109956,1,2,1:2:0:0:
0,115,110161,5,2,0:2:0:0:
78,83,110367,1,2,1:2:0:0:
170,191,110572,1,2,0:2:0:0:
245,158,110778,1,2,1:2:0:0:
448,176,110983,5,10,0:2:0:0:
387,248,111189,1,2,0:2:0:0:
307,214,111394,1,2,0:2:0:0:
362,149,111599,1,2,0:2:0:0:
463,367,111805,6,0,B|477:313|496:345|509:292,1,83.9999974365235,2|2,1:2|0:2,0:0:0:0:
465,191,112113,1,0,0:2:0:0:
462,177,112216,2,0,L|477:113,1,41.9999987182618,2|0,0:2|0:2,0:0:0:0:
375,39,112421,2,0,P|398:66|400:90,1,41.9999987182618,2|0,1:2|0:2,0:0:0:0:
290,137,112627,2,0,L|203:169,1,83.9999974365235,10|2,0:2|0:2,0:0:0:0:
100,147,112935,1,0,0:2:0:0:
89,140,113038,2,0,L|78:83,1,41.9999987182618,2|0,0:2|0:2,0:0:0:0:
147,34,113243,6,0,B|175:44|175:44|186:76|186:76|240:95,1,83.9999974365235,2|2,1:2|0:2,0:0:0:0:
158,270,113654,2,0,L|60:295,1,83.9999974365235,2|2,1:2|0:2,0:0:0:0:
0,227,114065,1,2,1:2:0:0:
88,93,114271,2,0,P|121:130|107:179,1,83.9999974365235,10|2,0:2|0:2,0:0:0:0:
114,179,114579,1,0,0:2:0:0:
105,194,114682,1,2,0:2:0:0:
25,150,114887,1,2,0:2:0:0:
213,201,115093,6,0,L|315:168,1,83.9999974365235,2|2,1:2|0:2,0:0:0:0:
373,212,115401,1,0,0:2:0:0:
384,218,115504,2,0,P|399:200|405:174,1,41.9999987182618,2|0,0:2|0:2,0:0:0:0:
340,51,115709,2,0,P|325:69|319:95,1,41.9999987182618,2|0,1:2|0:2,0:0:0:0:
504,178,115915,2,0,P|508:122|472:90,1,83.9999974365235,10|2,0:2|0:2,0:0:0:0:
469,85,116223,1,0,0:2:0:0:
454,81,116325,1,2,0:2:0:0:
362,148,116531,1,2,1:2:0:0:
229,28,116736,5,2,0:2:0:0:
305,80,116942,1,2,1:2:0:0:
198,201,117147,1,2,0:2:0:0:
116,232,117353,1,2,1:2:0:0:
13,50,117558,5,10,0:2:0:0:
92,101,117764,1,2,0:2:0:0:
9,141,117969,1,2,0:2:0:0:
140,29,118175,1,2,0:2:0:0:
140,29,118278,1,0,0:2:0:0:
140,29,118380,5,0,1:2:0:0:
237,123,118586,2,0,B|298:92|298:92|270:-3,1,140,0|0,1:2|0:2,0:0:0:0:
157,139,119202,1,10,0:2:0:0:
278,24,119408,2,0,B|239:12|239:12|205:27|205:27|161:14,1,105,2|0,0:2|0:2,0:0:0:0:
147,4,119819,6,0,P|114:28|110:60,1,70,2|0,1:2|0:2,0:0:0:0:
18,162,120230,2,0,P|20:203|52:231,1,70,0|2,1:2|0:2,0:0:0:0:
115,165,120641,1,2,0:2:0:0:
19,328,120846,2,0,P|77:284|121:290,1,105,8|0,0:2|0:2,0:0:0:0:
139,294,121257,1,2,0:2:0:0:
218,354,121462,1,2,0:2:0:0:
132,380,121668,5,0,1:2:0:0:
213,231,121873,2,0,P|275:288|353:280,1,140,0|0,1:2|0:2,0:0:0:0:
495,354,122490,2,0,P|511:330|503:261,1,70,8|0,0:2|0:0,0:0:0:0:
429,299,122901,1,0,0:0:0:0:
329,214,123106,6,0,L|418:191,1,70,0|0,1:2|0:0,0:0:0:0:
323,361,123517,2,0,L|178:319,1,140,0|0,1:2|0:2,0:0:0:0:
1,257,124134,2,0,B|50:242|50:242|92:270|92:270|146:256,1,140,8|0,0:2|0:2,0:0:0:0:
233,231,124750,1,0,0:2:0:0:
159,188,124956,5,0,1:2:0:0:
326,105,125161,2,0,B|353:143|353:143|243:115,1,140,0|0,1:2|0:2,0:0:0:0:
107,59,125778,1,10,0:2:0:0:
176,111,125983,2,0,P|191:75|191:32,1,70,2|0,0:2|0:0,0:0:0:0:
203,278,126394,6,0,P|176:227|180:200,1,70,2|0,1:2|0:2,0:0:0:0:
51,324,126805,2,0,B|41:326|26:344|26:344|17:313|61:306,1,70,0|2,1:2|0:2,0:0:0:0:
136,357,127216,1,2,0:2:0:0:
13,196,127421,2,0,P|45:232|129:234,1,105,8|0,0:2|0:2,0:0:0:0:
133,238,127832,1,2,0:2:0:0:
270,208,128038,1,2,0:2:0:0:
202,156,128243,5,0,1:2:0:0:
251,340,128449,2,0,P|299:328|339:229,1,140,0|0,1:2|0:2,0:0:0:0:
504,190,129065,2,0,B|438:182|457:157|383:156,1,105,10|0,0:2|0:0,0:0:0:0:
381,182,129476,1,0,0:0:0:0:
232,128,129682,6,0,L|212:41,1,70,0|0,1:2|0:0,0:0:0:0:
345,0,130093,2,0,L|365:87,1,70,0|2,1:2|0:2,0:0:0:0:
444,30,130504,1,0,0:2:0:0:
286,180,130709,2,0,P|224:153|167:179,1,105,8|0,0:2|0:0,0:0:0:0:
163,183,131120,2,0,L|65:200,1,70,2|0,0:2|0:2,0:0:0:0:
0,134,131531,5,0,1:2:0:0:
92,48,131736,2,0,B|137:12|137:12|117:100,1,140,0|0,1:2|0:2,0:0:0:0:
224,202,132353,2,0,P|270:176|261:115,1,105,10|0,0:2|0:0,0:0:0:0:
258,95,132764,1,2,0:2:0:0:
129,166,132969,6,0,L|152:260,1,70,2|0,1:2|0:2,0:0:0:0:
47,355,133380,2,0,B|17:333|17:333|21:300,1,70,0|2,1:2|0:2,0:0:0:0:
110,306,133791,1,2,0:2:0:0:
300,254,133997,2,0,B|264:242|264:242|224:258|224:258|176:244,1,105,8|0,0:2|0:2,0:0:0:0:
171,232,134408,1,2,0:2:0:0:
208,384,134613,1,2,0:2:0:0:
228,359,134819,5,0,1:2:0:0:
0,335,135024,2,0,L|151:298,1,140,0|2,1:2|0:0,0:0:0:0:
300,189,135641,2,0,P|263:149|163:144,1,140,8|2,0:2|0:2,0:0:0:0:
62,178,136257,6,0,P|53:146|62:110,1,70,2|0,1:2|0:0,0:0:0:0:
169,219,136668,2,0,L|154:316,1,70,0|2,1:2|0:2,0:0:0:0:
272,303,137079,1,2,0:2:0:0:
115,359,137284,2,0,B|65:378|65:378|31:355|28:325,1,105,8|0,0:2|0:0,0:0:0:0:
8,320,137695,2,0,P|3:282|29:258,1,70,2|2,0:2|0:2,0:0:0:0:
54,257,138004,1,2,0:0:0:0:
70,264,138106,5,2,1:2:0:0:
0,114,138312,2,0,P|47:166|129:156,1,140,0|0,1:2|0:0,0:0:0:0:
259,147,138928,2,0,B|270:108|270:108|250:74|250:74|264:23,1,105,10|0,0:2|0:0,0:0:0:0:
288,35,139339,1,0,0:0:0:0:
434,94,139545,6,0,L|342:123,1,70,0|0,1:2|0:2,0:0:0:0:
201,230,139956,2,0,L|285:252,1,70,0|2,1:2|0:2,0:0:0:0:
355,306,140367,1,0,0:2:0:0:
228,375,140572,1,10,0:2:0:0:
80,253,140778,5,0,0:0:0:0:
152,301,140983,1,2,0:2:0:0:
107,377,141189,1,0,0:2:0:0:
31,331,141394,5,0,1:2:0:0:
219,227,141599,2,0,B|146:228|168:165|90:174,1,140,0|0,1:2|0:0,0:0:0:0:
31,331,142216,2,0,B|67:362|67:362|126:344,1,105,10|0,0:2|0:0,0:0:0:0:
156,336,142627,1,2,0:2:0:0:
33,150,142832,2,0,P|5:203|14:236,1,70,0|0,1:2|0:0,0:0:0:0:
214,274,143243,2,0,P|180:250|137:250,1,70,0|0,1:2|0:2,0:0:0:0:
156,336,143654,1,0,0:2:0:0:
5,210,143860,2,0,L|111:182,1,105,8|0,0:2|0:2,0:0:0:0:
140,175,144271,5,8,0:2:0:0:
44,117,144476,1,0,0:0:0:0:
164,11,144682,6,0,B|232:40|232:40|212:147,1,154.000004699707,6|0,1:2|0:2,0:0:0:0:
126,85,145298,1,0,0:2:0:0:
273,184,145504,2,0,L|390:155,1,115.50000352478,8|0,0:2|0:2,0:0:0:0:
423,152,145915,1,2,0:2:0:0:
484,294,146120,6,0,P|444:276|406:271,1,77.0000023498536,0|0,1:2|0:0,0:0:0:0:
279,369,146531,2,0,L|260:284,1,77.0000023498536,0|0,1:2|0:2,0:0:0:0:
360,345,146942,1,0,1:2:0:0:
211,242,147147,2,0,B|118:218|139:287|66:275,1,154.000004699707,8|0,0:2|0:2,0:0:0:0:
0,206,147764,1,0,0:2:0:0:
66,108,147969,6,0,B|95:134|95:134|82:187,2,77.0000023498536,0|0|0,1:2|0:2|0:2,0:0:0:0:
0,206,148586,1,0,1:2:0:0:
205,230,148791,2,0,B|244:238|244:238|286:215|286:215|343:225,1,115.50000352478,8|0,0:2|0:2,0:0:0:0:
351,225,149202,1,2,0:2:0:0:
364,373,149408,6,0,P|332:334|320:293,1,77.0000023498536,0|2,1:2|0:2,0:0:0:0:
486,239,149819,2,0,P|485:187|498:164,1,77.0000023498536,0|2,1:2|0:2,0:0:0:0:
485,336,150230,1,0,1:2:0:0:
351,225,150435,1,10,0:2:0:0:
282,350,150641,5,0,0:2:0:0:
415,285,150846,1,2,0:2:0:0:
251,222,151052,1,0,0:2:0:0:
387,125,151257,6,0,B|446:92|446:92|416:198,1,154.000004699707,6|0,1:2|0:2,0:0:0:0:
305,161,151873,1,0,1:2:0:0:
504,239,152079,2,0,P|451:287|409:277,1,115.50000352478,8|0,0:2|0:2,0:0:0:0:
380,257,152490,1,2,0:2:0:0:
214,177,152695,6,0,L|312:151,1,77.0000023498536,0|0,1:2|0:0,0:0:0:0:
203,343,153106,2,0,P|171:300|174:266,1,77.0000023498536,0|0,1:2|0:2,0:0:0:0:
264,278,153517,1,0,1:2:0:0:
51,261,153723,2,0,P|49:188|107:125,1,154.000004699707,8|0,0:2|0:2,0:0:0:0:
254,135,154339,1,0,0:2:0:0:
157,21,154545,6,0,L|182:121,2,77.0000023498536,0|0|0,1:2|0:2|0:2,0:0:0:0:
254,53,155161,1,0,1:2:0:0:
360,150,155367,2,0,B|427:168|427:168|437:119|462:103,1,115.50000352478,8|0,0:2|0:2,0:0:0:0:
467,95,155778,1,2,0:2:0:0:
378,9,155983,6,0,P|343:48|340:87,1,77.0000023498536,0|2,1:2|0:2,0:0:0:0:
219,145,156394,2,0,P|227:195|258:235,1,77.0000023498536,0|2,1:2|0:2,0:0:0:0:
402,350,156805,1,0,1:2:0:0:
433,251,157010,1,10,0:2:0:0:
342,262,157216,5,0,0:2:0:0:
496,327,157421,1,2,0:2:0:0:
318,384,157627,1,0,0:2:0:0:
372,181,157832,6,0,B|278:158|303:232|207:211,1,154.000004699707,6|0,1:2|0:2,0:0:0:0:
59,138,158449,1,0,1:2:0:0:
170,36,158654,2,0,B|226:68|226:68|204:144,1,115.50000352478,8|0,0:2|0:2,0:0:0:0:
198,152,159065,1,2,0:2:0:0:
73,295,159271,6,0,L|58:197,1,77.0000023498536,0|0,1:2|0:0,0:0:0:0:
204,308,159682,2,0,L|218:209,1,77.0000023498536,0|0,1:2|0:2,0:0:0:0:
307,307,160093,1,0,1:2:0:0:
106,373,160298,2,0,P|36:378|-10:291,1,154.000004699707,8|0,0:2|0:2,0:0:0:0:
155,235,160915,1,0,0:2:0:0:
102,134,161120,6,0,P|83:174|82:221,2,77.0000023498536,0|0|0,1:2|0:2|0:2,0:0:0:0:
186,114,161736,1,0,1:2:0:0:
294,239,161942,2,0,L|416:205,1,115.50000352478,8|0,0:2|0:2,0:0:0:0:
443,201,162353,1,0,0:2:0:0:
507,118,162558,6,0,L|477:28,1,77.0000023498536,0|2,1:2|0:2,0:0:0:0:
319,13,162969,2,0,B|285:43|285:43|306:93,1,77.0000023498536,0|2,1:2|0:2,0:0:0:0:
381,75,163380,1,0,1:2:0:0:
232,163,163586,1,10,0:2:0:0:
178,65,163791,5,0,0:2:0:0:
312,150,163997,1,2,0:2:0:0:
193,242,164202,1,0,0:2:0:0:
9,166,164408,6,0,B|59:152|59:152|103:177|103:177|166:159,1,154.000004699707,6|0,1:2|0:2,0:0:0:0:
106,263,165024,1,0,1:2:0:0:
254,187,165230,2,0,P|277:140|228:74,1,115.50000352478,8|0,0:2|0:2,0:0:0:0:
217,69,165641,1,2,0:2:0:0:
41,44,165846,6,0,L|118:19,1,77.0000023498536,0|2,1:2|0:2,0:0:0:0:
41,211,166257,2,0,L|18:125,1,77.0000023498536,0|0,1:2|0:2,0:0:0:0:
121,147,166668,1,0,1:2:0:0:
18,363,166873,2,0,P|80:320|125:329,1,115.50000352478,8|0,0:2|0:2,0:0:0:0:
148,346,167284,2,0,L|236:330,1,77.0000023498536,0|0,0:2|0:2,0:0:0:0:
368,212,167695,6,0,B|271:185|298:268|202:243,1,154.000004699707,0|0,1:2|0:2,0:0:0:0:
91,168,168312,1,0,1:2:0:0:
186,64,168517,2,0,B|243:90|243:90|226:163,1,115.50000352478,8|0,0:2|0:2,0:0:0:0:
223,178,168928,1,0,0:2:0:0:
107,319,169134,6,0,P|82:273|86:239,1,77.0000023498536,0|2,1:2|0:2,0:0:0:0:
280,334,169545,2,0,P|249:363|197:363,1,77.0000023498536,0|2,1:2|0:2,0:0:0:0:
221,276,169956,1,0,1:2:0:0:
16,189,170161,2,0,P|85:231|139:216,1,115.50000352478,10|0,0:2|0:2,0:0:0:0:
150,209,170572,1,2,0:2:0:0:
107,319,170778,1,0,0:2:0:0:
245,191,170983,6,0,B|249:101|190:138|193:35,1,154.000004699707,6|0,1:2|0:2,0:0:0:0:
283,0,171599,1,0,1:2:0:0:
333,153,171805,2,0,L|451:125,1,115.50000352478,8|0,0:2|0:2,0:0:0:0:
483,121,172216,1,2,0:2:0:0:
483,297,172421,6,0,P|458:247|457:220,1,77.0000023498536,0|0,1:2|0:0,0:0:0:0:
276,279,172832,2,0,P|255:326|254:368,1,77.0000023498536,0|0,1:2|0:2,0:0:0:0:
345,342,173243,1,0,1:2:0:0:
167,350,173449,2,0,P|96:352|38:277,1,154.000004699707,8|0,0:2|0:2,0:0:0:0:
191,269,174065,1,0,0:2:0:0:
97,176,174271,6,0,L|117:266,2,77.0000023498536,0|0|0,1:2|0:2|0:2,0:0:0:0:
21,215,174887,1,0,1:2:0:0:
177,162,175093,2,0,B|213:131|248:148|248:148|254:183|298:192,1,115.50000352478,8|0,0:2|0:2,0:0:0:0:
304,189,175504,1,2,0:2:0:0:
453,255,175709,6,0,P|475:220|473:158,1,77.0000023498536,0|2,1:2|0:2,0:0:0:0:
349,37,176120,2,0,P|327:72|329:134,1,77.0000023498536,0|2,1:2|0:2,0:0:0:0:
364,283,176531,1,0,1:2:0:0:
418,123,176736,1,10,0:2:0:0:
453,255,176942,5,0,0:2:0:0:
289,215,177147,1,2,0:2:0:0:
464,265,177353,1,0,0:2:0:0:
311,136,177558,6,0,B|223:110|244:196|143:159,1,154.000004699707,6|0,1:2|0:2,0:0:0:0:
46,121,178175,1,0,1:2:0:0:
156,16,178380,2,0,B|233:35|233:35|196:49|183:76,1,115.50000352478,8|0,0:2|0:2,0:0:0:0:
180,84,178791,1,2,0:2:0:0:
108,262,178997,6,0,P|74:226|77:188,1,77.0000023498536,0|0,1:2|0:0,0:0:0:0:
259,188,179408,2,0,P|259:137|279:112,1,77.0000023498536,0|0,1:2|0:2,0:0:0:0:
349,172,179819,1,0,1:2:0:0:
158,181,180024,2,0,L|-6:134,1,154.000004699707,8|0,0:2|0:2,0:0:0:0:
188,44,180641,1,2,0:2:0:0:
188,44,180743,1,2,0:2:0:0:
188,44,180846,6,0,B|224:-1|289:14|289:14|279:63|333:78,1,167.999994873047,2|0,1:2|0:2,0:0:0:0:
419,29,181462,1,0,1:2:0:0:
312,192,181668,2,0,B|270:212|270:212|219:195|232:142,1,115.50000352478,8|0,0:2|0:2,0:0:0:0:
240,125,182079,1,0,0:2:0:0:
396,150,182284,6,0,L|487:115,1,77.0000023498536,0|2,1:2|0:2,0:0:0:0:
368,332,182695,2,0,P|332:308|286:298,1,77.0000023498536,0|2,1:2|0:2,0:0:0:0:
184,334,183106,1,0,1:2:0:0:
104,292,183312,1,10,0:2:0:0:
51,373,183517,5,0,0:2:0:0:
189,256,183723,1,2,0:2:0:0:
80,213,183928,1,0,0:2:0:0:
254,373,184134,6,0,B|317:334|317:334|296:247,1,154.000004699707,6|0,1:2|0:2,0:0:0:0:
189,256,184750,1,0,1:2:0:0:
328,182,184956,2,0,B|289:170|289:170|250:187|250:187|194:170,1,115.50000352478,8|0,0:2|0:2,0:0:0:0:
185,163,185367,1,2,0:2:0:0:
42,270,185572,6,0,L|123:247,1,77.0000023498536,0|0,1:2|0:0,0:0:0:0:
181,87,185983,2,0,P|163:37|170:-6,1,77.0000023498536,0|0,1:2|0:2,0:0:0:0:
256,34,186394,1,0,1:2:0:0:
105,167,186599,2,0,P|15:145|7:84,1,154.000004699707,8|0,0:2|0:2,0:0:0:0:
181,87,187216,1,0,0:2:0:0:
101,11,187421,6,0,L|79:105,2,77.0000023498536,0|0|0,1:2|0:2|0:2,0:0:0:0:
185,163,188038,1,0,1:2:0:0:
316,109,188243,2,0,B|357:100|357:100|398:121|398:121|449:110,1,115.50000352478,8|0,0:2|0:2,0:0:0:0:
459,99,188654,1,0,0:2:0:0:
376,273,188860,6,0,B|346:244|346:244|357:188,1,77.0000023498536,0|0,1:2|0:2,0:0:0:0:
512,169,189271,2,0,L|496:260,1,77.0000023498536,0|0,1:2|0:2,0:0:0:0:
482,355,189682,1,0,1:2:0:0:
376,273,189887,1,10,0:2:0:0:
227,384,190093,5,0,0:2:0:0:
326,331,190298,1,0,0:2:0:0:
210,268,190504,1,0,0:2:0:0:
70,342,190709,6,0,P|9:327|8:236,1,154.000004699707,2|0,1:2|0:2,0:0:0:0:
183,339,191325,1,0,1:2:0:0:
95,162,191531,2,0,B|147:187|147:187|129:258,1,115.50000352478,8|0,0:2|0:2,0:0:0:0:
101,265,191942,1,0,0:2:0:0:
267,331,192147,6,0,P|304:307|356:310,1,77.0000023498536,0|2,1:2|0:2,0:0:0:0:
426,241,192558,2,0,L|407:161,1,77.0000023498536,0|0,1:2|0:2,0:0:0:0:
504,187,192969,1,0,1:2:0:0:
326,137,193175,2,0,B|254:125|277:187|198:175,1,115.50000352478,8|0,0:2|0:2,0:0:0:0:
189,196,193586,2,0,P|178:176|179:144,1,38.5000011749268,0|0,0:2|0:0,0:0:0:0:
20,360,193997,6,0,P|74:323|147:331,1,125.999996154785,2|0,1:2|0:2,0:0:0:0:
165,348,194408,6,0,B|203:318|203:318|190:268,1,83.9999974365235,8|0,0:3|0:2,0:0:0:0:
45,229,194819,1,8,0:2:0:0:
126,164,195024,6,0,B|176:152|176:152|222:184|222:184|276:172,1,154.000004699707,8|0,0:3|0:0,0:0:0:0:
314,258,195641,5,8,0:3:0:0:
404,115,195846,2,0,B|434:142|434:142|421:192,1,70,12|0,0:3|0:0,0:0:0:0:
379,327,196257,5,12,0:3:0:0:
229,249,196462,1,8,0:2:0:0:
149,313,196668,6,0,L|141:271,5,26.2500010013581,8|8|8|8|8|8,0:3|0:3|0:3|0:3|0:3|0:3,0:0:0:0:
68,374,197284,6,0,P|34:334|45:292,1,83.9999974365235,6|2,1:2|0:2,0:0:0:0:
67,233,197593,1,0,0:2:0:0:
69,221,197695,2,0,L|54:169,1,41.9999987182618,2|0,0:2|0:2,0:0:0:0:
166,137,197901,2,0,L|153:191,1,41.9999987182618,2|0,1:2|0:2,0:0:0:0:
272,262,198106,2,0,B|325:260|309:298|377:296,1,83.9999974365235,10|2,0:2|0:2,0:0:0:0:
422,333,198415,1,0,0:0:0:0:
438,334,198517,2,0,P|446:307|457:282,1,41.9999987182618,2|0,0:2|0:2,0:0:0:0:
512,217,198723,6,0,L|434:185,1,83.9999974365235,2|2,1:2|0:2,0:0:0:0:
287,74,199134,2,0,L|310:171,1,83.9999974365235,2|2,1:2|0:2,0:0:0:0:
363,271,199545,1,2,1:2:0:0:
190,359,199750,2,0,B|150:335|150:335|170:263,1,83.9999974365235,10|2,0:2|0:2,0:0:0:0:
172,270,200058,1,0,0:2:0:0:
178,254,200161,1,2,0:2:0:0:
278,311,200367,1,2,0:2:0:0:
85,376,200572,6,0,L|-19:343,1,83.9999974365235,2|2,1:2|0:2,0:0:0:0:
3,263,200880,1,0,0:2:0:0:
14,253,200983,2,0,P|44:278|44:310,1,41.9999987182618,2|0,0:2|0:2,0:0:0:0:
105,173,201189,2,0,P|118:216|108:238,1,41.9999987182618,2|0,1:2|0:2,0:0:0:0:
278,311,201394,2,0,P|306:271|305:226,1,83.9999974365235,10|2,0:2|0:2,0:0:0:0:
301,211,201702,1,0,0:2:0:0:
297,195,201805,1,2,0:2:0:0:
213,245,202010,1,2,1:2:0:0:
105,173,202216,5,2,0:2:0:0:
180,315,202421,1,2,1:2:0:0:
39,282,202627,1,2,0:2:0:0:
199,168,202832,1,2,1:2:0:0:
108,53,203038,5,10,0:2:0:0:
28,106,203243,1,2,0:2:0:0:
30,195,203449,1,2,0:2:0:0:
118,236,203654,1,2,0:2:0:0:
275,118,203860,6,0,B|265:59|237:102|229:25,1,83.9999974365235,2|2,1:2|0:2,0:0:0:0:
144,17,204168,1,0,0:2:0:0:
129,18,204271,2,0,P|108:52|112:78,1,41.9999987182618,2|0,0:0|0:2,0:0:0:0:
28,106,204476,2,0,P|35:141|55:165,1,41.9999987182618,2|0,1:2|0:2,0:0:0:0:
199,218,204682,2,0,L|287:194,1,83.9999974365235,10|2,0:2|0:2,0:0:0:0:
395,180,204990,1,0,0:2:0:0:
409,189,205093,2,0,L|392:252,1,41.9999987182618,2|0,0:2|0:2,0:0:0:0:
468,374,205298,6,0,P|497:315|486:273,1,83.9999974365235,2|2,1:2|0:2,0:0:0:0:
295,358,205709,2,0,P|283:301|291:276,1,83.9999974365235,2|2,1:2|0:2,0:0:0:0:
372,320,206120,1,2,1:2:0:0:
226,229,206325,2,0,B|170:220|186:268|116:255,1,83.9999974365235,10|2,0:2|0:2,0:0:0:0:
117,257,206634,1,0,0:2:0:0:
99,249,206736,1,2,0:2:0:0:
239,136,206942,1,2,0:2:0:0:
76,55,207147,6,0,B|39:83|39:83|62:141,1,83.9999974365235,2|2,1:2|0:0,0:0:0:0:
147,182,207456,1,0,0:0:0:0:
160,172,207558,2,0,P|150:143|144:119,1,41.9999987182618,2|0,0:2|0:2,0:0:0:0:
15,227,207764,2,0,L|29:275,1,41.9999987182618,2|0,1:2|0:2,0:0:0:0:
186,353,207969,2,0,P|211:313|193:262,1,83.9999974365235,10|2,0:2|0:2,0:0:0:0:
201,260,208278,1,0,0:2:0:0:
191,242,208380,1,2,0:2:0:0:
107,314,208586,1,2,1:2:0:0:
42,138,208791,5,2,0:2:0:0:
137,185,208997,1,2,1:2:0:0:
12,314,209202,1,2,0:2:0:0:
49,231,209408,1,2,1:2:0:0:
188,350,209613,5,10,0:2:0:0:
274,331,209819,1,2,0:2:0:0:
305,248,210024,1,2,0:2:0:0:
260,168,210230,1,2,0:2:0:0:
512,332,210435,6,0,L|411:304,1,83.9999974365235,2|2,1:2|0:2,0:0:0:0:
428,216,210743,1,0,0:2:0:0:
415,209,210846,2,0,P|385:239|388:265,1,41.9999987182618,2|0,0:2|0:2,0:0:0:0:
369,384,211052,2,0,P|346:361|339:334,1,41.9999987182618,2|0,1:2|0:2,0:0:0:0:
157,281,211257,2,0,L|266:242,1,83.9999974365235,10|2,0:2|0:2,0:0:0:0:
321,190,211565,1,0,0:2:0:0:
333,177,211668,2,0,P|321:136|318:116,1,41.9999987182618,2|0,0:2|0:2,0:0:0:0:
234,33,211873,6,0,L|215:134,1,83.9999974365235,2|2,1:2|0:2,0:0:0:0:
157,281,212284,2,0,B|118:290|118:290|77:252,1,83.9999974365235,2|2,1:2|0:2,0:0:0:0:
227,197,212695,1,2,1:2:0:0:
10,277,212901,2,0,P|-19:238|-2:193,1,83.9999974365235,10|2,0:2|0:2,0:0:0:0:
2,190,213209,1,0,0:2:0:0:
18,176,213312,1,2,0:2:0:0:
148,202,213517,1,2,0:2:0:0:
254,36,213723,6,0,B|198:38|223:64|157:70,1,83.9999974365235,2|2,1:2|0:2,0:0:0:0:
92,48,214031,1,0,0:2:0:0:
75,50,214134,2,0,P|58:78|62:103,1,41.9999987182618,2|0,0:2|0:2,0:0:0:0:
18,176,214339,2,0,P|29:201|74:220,1,41.9999987182618,2|0,1:2|0:2,0:0:0:0:
219,243,214545,2,0,P|259:216|313:208,1,83.9999974365235,10|2,0:2|0:2,0:0:0:0:
323,204,214853,1,0,0:2:0:0:
343,201,214956,1,2,0:2:0:0:
504,236,215161,1,2,1:2:0:0:
369,124,215367,5,2,0:2:0:0:
474,312,215572,1,2,1:2:0:0:
297,284,215778,1,2,0:2:0:0:
451,170,215983,1,2,1:2:0:0:
430,384,216189,5,10,0:2:0:0:
353,337,216394,1,2,0:2:0:0:
395,260,216599,1,2,0:2:0:0:
474,312,216805,1,2,0:2:0:0:
262,363,217010,6,0,L|151:386,1,83.9999974365235,2|2,1:2|0:2,0:0:0:0:
95,365,217319,1,0,0:2:0:0:
77,366,217421,2,0,L|62:302,1,41.9999987182618,2|0,0:2|0:2,0:0:0:0:
164,249,217627,2,0,L|187:310,1,41.9999987182618,2|0,1:2|0:2,0:0:0:0:
20,250,217832,2,0,B|32:199|60:232|72:157,1,83.9999974365235,10|2,0:2|0:2,0:0:0:0:
127,96,218141,1,0,0:2:0:0:
142,95,218243,2,0,P|165:120|160:152,1,41.9999987182618,2|0,0:2|0:2,0:0:0:0:
241,215,218449,6,0,L|327:180,1,83.9999974365235,2|2,1:2|0:2,0:0:0:0:
440,116,218860,2,0,L|425:220,1,83.9999974365235,2|2,1:2|0:2,0:0:0:0:
512,235,219271,1,2,1:2:0:0:
398,374,219476,2,0,P|358:339|356:288,1,83.9999974365235,10|2,0:2|0:2,0:0:0:0:
359,281,219784,1,0,0:2:0:0:
370,266,219887,1,2,0:2:0:0:
482,348,220093,1,2,0:2:0:0:
228,232,220298,6,0,L|307:201,1,83.9999974365235,2|2,1:2|0:2,0:0:0:0:
375,151,220606,1,0,0:2:0:0:
387,144,220709,2,0,P|414:185|409:196,1,41.9999987182618,2|0,0:2|0:2,0:0:0:0:
490,187,220915,2,0,P|499:215|493:246,1,41.9999987182618,2|0,1:2|0:2,0:0:0:0:
374,354,221120,2,0,L|289:328,1,83.9999974365235,10|2,0:2|0:2,0:0:0:0:
263,322,221428,1,0,0:2:0:0:
241,316,221531,1,2,0:2:0:0:
324,247,221736,1,2,1:2:0:0:
229,139,221942,5,2,0:2:0:0:
152,206,222147,1,2,1:2:0:0:
316,147,222353,1,2,0:2:0:0:
196,65,222558,1,2,1:2:0:0:
254,221,222764,5,10,0:2:0:0:
115,119,222969,1,2,0:2:0:0:
63,262,223175,1,2,0:2:0:0:
152,206,223380,1,2,0:2:0:0:
55,63,223586,6,0,B|21:99|21:99|40:157,1,83.9999974365235,6|2,1:2|0:2,0:0:0:0:
152,206,223894,1,0,0:2:0:0:
163,216,223997,2,0,L|181:155,1,41.9999987182618,2|0,0:2|0:2,0:0:0:0:
252,130,224202,2,0,L|318:153,1,41.9999987182618,2|0,1:2|0:2,0:0:0:0:
333,284,224408,2,0,L|430:255,1,83.9999974365235,10|2,0:2|0:2,0:0:0:0:
492,242,224716,1,0,0:2:0:0:
506,237,224819,1,2,0:2:0:0:
359,165,225024,1,2,1:2:0:0:
488,53,225230,6,0,B|432:55|445:80|407:80,1,83.9999974365235,2|2,0:2|1:2,0:0:0:0:
306,39,225538,1,0,0:2:0:0:
291,40,225641,2,0,P|273:70|274:98,1,41.9999987182618,2|0,0:2|0:2,0:0:0:0:
359,165,225846,2,0,P|379:199|380:222,1,41.9999987182618,2|0,1:2|0:2,0:0:0:0:
289,317,226052,2,0,L|184:288,1,83.9999974365235,10|2,0:2|0:2,0:0:0:0:
127,305,226360,1,0,0:2:0:0:
113,307,226462,1,2,0:2:0:0:
266,222,226668,1,2,0:2:0:0:
132,107,226873,6,0,P|96:149|102:189,1,83.9999974365235,2|2,1:2|0:2,0:0:0:0:
47,259,227182,1,0,0:2:0:0:
36,269,227284,2,0,L|11:220,1,41.9999987182618,2|0,0:2|0:2,0:0:0:0:
189,190,227490,2,0,L|179:252,1,41.9999987182618,2|0,1:2|0:2,0:0:0:0:
291,353,227695,2,0,P|344:332|383:330,1,83.9999974365235,10|2,0:2|0:2,0:0:0:0:
454,329,228004,1,0,0:2:0:0:
473,335,228106,1,2,0:2:0:0:
353,256,228312,1,2,1:2:0:0:
459,157,228517,6,0,L|443:221,5,41.9999987182618,2|0|2|0|2|0,0:2|0:0|1:2|0:0|0:2|0:0,0:0:0:0:
512,261,229134,1,2,1:2:0:0:
284,205,229339,5,10,0:2:0:0:
369,170,229545,1,2,0:2:0:0:
303,343,229750,5,2,0:2:0:0:
203,285,229956,1,2,0:2:0:0:
61,373,230161,6,0,P|31:332|35:274,1,83.9999974365235,2|2,1:2|0:2,0:0:0:0:
88,224,230469,1,0,0:2:0:0:
99,217,230572,2,0,L|117:156,1,41.9999987182618,2|0,0:0|0:2,0:0:0:0:
188,131,230778,2,0,L|254:154,1,41.9999987182618,2|0,1:2|0:2,0:0:0:0:
329,279,230983,2,0,L|431:251,1,83.9999974365235,10|2,0:2|0:2,0:0:0:0:
486,240,231291,1,0,0:0:0:0:
499,236,231394,1,2,0:2:0:0:
393,179,231599,1,2,1:2:0:0:
464,52,231805,6,0,B|501:86|501:86|480:156,1,83.9999974365235,2|2,0:2|1:2,0:0:0:0:
393,179,232113,1,0,0:2:0:0:
381,176,232216,2,0,P|358:152|366:121,1,41.9999987182618,2|0,0:2|0:2,0:0:0:0:
256,153,232421,2,0,P|254:118|269:99,1,41.9999987182618,2|0,1:2|0:2,0:0:0:0:
356,3,232627,2,0,B|300:-2|315:38|249:27,1,83.9999974365235,10|2,0:2|0:2,0:0:0:0:
203,24,232935,1,0,0:2:0:0:
189,16,233038,1,2,0:2:0:0:
32,118,233243,1,2,0:2:0:0:
104,0,233449,6,0,L|127:108,1,83.9999974365235,2|2,1:2|0:0,0:0:0:0:
174,177,233757,1,0,0:0:0:0:
181,193,233860,2,0,L|166:254,1,41.9999987182618,2|0,0:2|0:2,0:0:0:0:
78,321,234065,2,0,L|59:261,1,41.9999987182618,2|0,1:2|0:2,0:0:0:0:
0,228,234271,2,0,B|35:201|35:201|94:205,1,83.9999974365235,10|2,0:2|0:2,0:0:0:0:
151,226,234579,1,0,0:2:0:0:
171,234,234682,1,2,0:2:0:0:
78,321,234887,1,2,1:2:0:0:
278,367,235093,6,0,L|287:310,5,41.9999987182618,2|0|2|0|2|0,0:2|0:0|1:2|0:0|0:2|0:0,0:0:0:0:
371,311,235709,1,2,1:2:0:0:
243,251,235915,5,10,0:2:0:0:
351,216,236120,1,2,0:2:0:0:
278,367,236325,5,2,0:2:0:0:
146,295,236531,1,2,0:2:0:0:
278,155,236736,6,0,B|275:104|243:132|237:68,1,83.9999974365235,2|2,1:2|0:2,0:0:0:0:
297,11,237045,1,0,0:2:0:0:
316,12,237147,2,0,L|367:-4,1,41.9999987182618,2|0,0:2|0:2,0:0:0:0:
430,90,237353,2,0,L|447:149,1,41.9999987182618,2|0,1:2|0:2,0:0:0:0:
293,248,237558,2,0,L|193:220,1,83.9999974365235,10|2,0:2|0:2,0:0:0:0:
131,207,237867,1,0,0:2:0:0:
119,203,237969,1,2,0:2:0:0:
249,158,238175,1,2,1:2:0:0:
67,31,238380,6,0,B|34:66|34:66|59:126,1,83.9999974365235,2|2,0:2|1:2,0:0:0:0:
131,107,238689,1,0,0:2:0:0:
139,120,238791,2,0,L|194:97,1,41.9999987182618,2|0,0:2|0:2,0:0:0:0:
273,18,238997,2,0,L|333:44,1,41.9999987182618,2|0,1:2|0:2,0:0:0:0:
345,214,239202,2,0,L|434:179,1,83.9999974365235,10|2,0:2|0:2,0:0:0:0:
497,162,239510,1,0,0:2:0:0:
512,157,239613,1,2,0:2:0:0:
385,92,239819,1,2,0:2:0:0:
433,4,240024,6,0,P|472:48|460:100,1,83.9999974365235,2|2,1:2|0:2,0:0:0:0:
423,183,240332,1,0,0:2:0:0:
408,185,240435,2,0,L|351:171,1,41.9999987182618,2|0,0:2|0:2,0:0:0:0:
274,121,240641,2,0,L|257:190,1,41.9999987182618,2|0,1:2|0:2,0:0:0:0:
145,286,240846,2,0,B|105:256|105:256|116:208,1,83.9999974365235,10|2,0:2|0:2,0:0:0:0:
167,156,241154,1,0,0:2:0:0:
173,147,241257,1,2,0:2:0:0:
11,258,241462,1,2,1:2:0:0:
77,108,241668,6,0,L|94:172,5,41.9999987182618,2|0|2|0|2|0,0:2|0:0|1:2|0:0|0:2|0:0,0:0:0:0:
4,162,242284,1,2,1:2:0:0:
157,251,242490,5,10,0:2:0:0:
299,187,242695,1,2,0:2:0:0:
193,141,242901,5,2,0:2:0:0:
258,284,243106,1,2,0:2:0:0:
400,68,243312,6,0,B|346:57|359:105|299:96,1,83.9999974365235,2|2,1:2|0:2,0:0:0:0:
251,43,243620,1,0,0:2:0:0:
237,35,243723,2,0,P|210:59|210:89,1,41.9999987182618,2|0,0:2|0:2,0:0:0:0:
131,99,243928,2,0,P|140:133|155:151,1,41.9999987182618,2|0,1:2|0:2,0:0:0:0:
271,227,244134,2,0,L|376:196,1,83.9999974365235,10|2,0:2|0:2,0:0:0:0:
426,185,244442,1,0,0:2:0:0:
439,181,244545,1,2,0:2:0:0:
327,293,244750,1,2,1:2:0:0:
453,378,244956,6,0,P|500:326|485:290,1,83.9999974365235,2|2,0:2|1:2,0:0:0:0:
431,261,245264,1,0,0:2:0:0:
416,259,245367,2,0,L|404:312,1,41.9999987182618,2|0,0:2|0:2,0:0:0:0:
280,384,245572,2,0,L|261:331,1,41.9999987182618,2|0,1:2|0:2,0:0:0:0:
137,259,245778,2,0,B|168:223|168:223|236:237,1,83.9999974365235,10|2,0:2|0:2,0:0:0:0:
287,245,246086,1,0,0:2:0:0:
304,249,246189,1,2,0:2:0:0:
192,343,246394,1,2,0:2:0:0:
460,361,246599,6,0,L|368:335,1,83.9999974365235,2|2,1:2|0:2,0:0:0:0:
301,359,246908,1,0,0:2:0:0:
295,368,247010,2,0,P|272:334|269:312,1,41.9999987182618,2|0,0:2|0:2,0:0:0:0:
410,255,247216,2,0,P|425:231|425:197,1,41.9999987182618,2|0,1:2|0:2,0:0:0:0:
313,121,247421,2,0,B|255:120|274:157|226:152,1,83.9999974365235,10|2,0:2|0:2,0:0:0:0:
161,166,247730,1,0,0:2:0:0:
147,161,247832,1,2,0:2:0:0:
242,232,248038,1,2,1:2:0:0:
130,284,248243,5,8,0:3:0:0:
305,361,248449,2,0,B|353:374|353:374|404:347|383:309,1,105,12|0,0:3|0:0,0:0:0:0:
392,300,248860,1,12,0:3:0:0:
323,213,249065,2,0,L|309:271,1,52.5000020027161,8|8,0:0|0:3,0:0:0:0:
283,280,249373,1,8,0:3:0:0:
265,288,249476,2,0,L|257:326,3,26.2500010013581,8|8|8|8,0:3|0:3|0:3|0:3,0:0:0:0:
248,268,249887,6,0,L|189:250,2,52.5000020027161,2|2|2,0:0|0:0|0:0,0:0:0:0:
323,213,250504,2,0,P|307:164|306:105,1,105.000004005432,2|2,0:0|0:0,0:0:0:0:
372,301,251325,6,0,L|485:326,1,105.000004005432,2|2,0:0|0:0,0:0:0:0:
512,250,251942,1,2,0:0:0:0:
459,180,252147,2,0,P|438:213|438:238,1,52.5000020027161,2|0,0:0|0:0,0:0:0:0:
372,301,252558,2,0,P|351:268|351:243,1,52.5000020027161,2|0,0:0|0:0,0:0:0:0:
436,225,252969,1,2,0:0:0:0:
375,157,253175,5,2,0:0:0:0:
294,140,253380,1,2,0:0:0:0:
224,181,253586,1,2,0:0:0:0:
158,238,253791,2,0,B|108:247|108:247|72:203,2,105.000004005432,2|2|2,0:0|0:0|0:0,0:0:0:0:
242,252,254819,6,0,L|231:317,1,52.5000020027161,0|2,0:0|0:0,0:0:0:0:
174,372,255230,1,2,0:0:0:0:
174,372,255435,1,2,0:0:0:0:
99,329,255641,1,2,0:0:0:0:
37,378,255846,2,0,P|15:351|19:317,1,52.5000020027161,2|0,0:0|0:0,0:0:0:0:
34,257,256257,1,2,0:0:0:0:
256,192,256360,12,0,261394,0:0:0:0:
