osu file format v14

[General]
AudioFilename: audio.mp3
AudioLeadIn: 0
PreviewTime: 48969
Countdown: 0
SampleSet: Soft
StackLeniency: 0.7
Mode: 0
LetterboxInBreaks: 0
WidescreenStoryboard: 1

[Editor]
Bookmarks: 969,7826,21540,35254,50683,78111,85611
DistanceSpacing: 1
BeatDivisor: 4
GridSize: 32
TimelineZoom: 1.4

[Metadata]
Title:Jin Ke La Yu Ni Tong Zai
TitleUnicode:金坷垃与你同在
Artist:DepXe
ArtistUnicode:DepXe
Creator:AJT
Version:Kirishima-'s Normal
Source:Laputa: Castle in the Sky
Tags:chinese novelty jieusieu kirishima- jinkela is always with you bilibili douga joe hisaishi 久石 譲 井上あずみ azumi inoue kimi wo nosete laputa castle in the sky 天空の城ラピュタ 君をのせて tenkuu no shiro: laputa rapyuta carrying you ending youtube poop
BeatmapID:3536578
BeatmapSetID:1729199

[Difficulty]
HPDrainRate:3
CircleSize:4
OverallDifficulty:4
ApproachRate:5.5
SliderMultiplier:1.1
SliderTickRate:1

[Events]
//Background and Video events
0,0,"bg.jpg",0,0
Video,0,"Untitled.mp4"
//Break Periods
//Storyboard Layer 0 (Background)
//Storyboard Layer 1 (Fail)
//Storyboard Layer 2 (Pass)
//Storyboard Layer 3 (Foreground)
//Storyboard Layer 4 (Overlay)
//Storyboard Sound Samples

[TimingPoints]
969,428.571428571429,4,2,0,80,1,0
969,-100,4,2,0,80,0,0
7826,-100,4,2,0,80,0,0
21540,-100,4,2,0,80,0,0
35254,-100,4,2,0,80,0,0
50683,-100,4,2,0,100,0,1
78111,-100,4,2,0,90,0,0
81540,-100,4,2,0,100,0,0
84111,-100,4,2,0,90,0,0
84540,-100,4,2,0,90,0,0
85611,-100,4,2,0,90,0,0

[Colours]
Combo1 : 0,128,0
Combo2 : 192,192,192
Combo3 : 255,255,0
Combo4 : 242,24,57

[HitObjects]
10,55,969,6,0,P|56:27|108:37,1,110,2|8,1:0|1:0,0:0:0:0:
202,95,1826,1,2,1:0:0:0:
149,191,2254,1,8,1:0:0:0:
222,272,2683,2,0,P|268:300|320:290,1,110,2|8,1:0|1:0,0:0:0:0:
402,362,3540,1,2,1:0:0:0:
503,319,3969,1,8,1:0:0:0:
486,210,4397,6,0,L|471:129,1,82.5,2|2,1:0|1:0,0:0:0:0:
424,67,5040,1,2,1:0:0:0:
424,67,5254,2,0,L|343:52,1,82.5,2|2,1:0|1:0,0:0:0:0:
286,112,5897,1,2,1:0:0:0:
286,112,6111,2,0,L|205:127,1,82.5,2|2,1:0|1:0,0:0:0:0:
140,83,6754,1,2,1:0:0:0:
140,83,6969,1,2,1:0:0:0:
54,151,7397,2,0,L|64:205,1,55,2|2,0:0|0:0,0:0:0:0:
76,258,7826,6,0,P|122:286|174:276,1,110,6|8,1:0|1:0,0:0:0:0:
229,258,8469,1,2,3:2:0:0:
229,258,8683,1,2,1:0:0:0:
307,181,9111,1,8,1:0:0:0:
242,91,9540,2,0,P|196:63|144:73,2,110,2|8|2,1:0|1:0|1:0,0:0:0:0:
324,17,10826,1,8,1:0:0:0:
424,62,11255,6,0,L|443:171,1,110,2|8,1:0|1:0,0:0:0:0:
455,228,11898,1,2,0:0:0:0:
455,228,12111,1,2,1:0:0:0:
393,319,12540,1,8,1:0:0:0:
309,246,12969,2,0,L|290:137,2,110,2|8|2,1:0|1:0|1:0,0:0:0:0:
237,329,14254,2,0,L|183:320,1,55,8|2,1:0|1:0,0:0:0:0:
128,309,14683,6,0,P|100:263|110:211,1,110,2|8,1:0|1:0,0:0:0:0:
169,119,15540,1,2,1:0:0:0:
169,119,15754,2,0,L|278:138,1,110,2|2,0:0|1:0,0:0:0:0:
331,147,16397,2,0,P|358:192|348:245,1,110,2|8,1:0|1:0,0:0:0:0:
282,334,17254,1,2,1:0:0:0:
282,334,17469,2,0,L|228:325,2,55,2|8|2,3:2|1:0|1:0,0:0:0:0:
307,382,18111,6,0,L|415:362,1,110,2|8,1:0|1:0,0:0:0:0:
473,355,18754,1,0,0:0:0:0:
473,355,18969,1,2,1:0:0:0:
506,250,19397,1,8,1:0:0:0:
411,194,19826,2,0,L|330:180,1,82.5,2|2,1:0|1:0,0:0:0:0:
285,116,20469,1,0,1:0:0:0:
285,116,20683,1,2,1:0:0:0:
217,29,21111,2,0,L|163:38,1,55,10|2,1:0|1:0,0:0:0:0:
109,51,21540,6,0,P|81:97|91:149,1,110,6|8,1:0|1:0,0:0:0:0:
197,195,22397,1,2,1:0:0:0:
197,195,22611,2,0,L|178:303,1,110,2|0,0:0|0:0,0:0:0:0:
167,357,23254,2,0,P|121:385|69:375,2,110,2|8|2,1:0|1:0|1:0,0:0:0:0:
273,383,24540,1,8,1:0:0:0:
360,315,24969,6,0,L|379:207,1,110,2|8,1:0|1:0,0:0:0:0:
394,156,25611,1,2,0:0:0:0:
394,156,25826,1,2,1:0:0:0:
451,62,26254,1,8,1:0:0:0:
359,1,26683,2,0,L|251:20,1,110,2|8,1:0|1:0,0:0:0:0:
141,35,27540,2,0,L|122:143,1,110,2|8,1:0|1:0,0:0:0:0:
115,201,28183,1,2,1:0:0:0:
115,201,28397,6,0,P|161:229|213:219,1,110,2|8,1:0|1:0,0:0:0:0:
262,191,29040,1,2,3:2:0:0:
317,96,29469,2,0,P|369:85|415:113,1,110,2|0,0:0|0:0,0:0:0:0:
448,157,30111,2,0,L|433:238,1,82.5,2|2,1:0|0:0,0:0:0:0:
417,322,30754,1,2,0:0:0:0:
417,322,30969,2,0,P|371:349|318:339,1,110,2|8,1:0|1:0,0:0:0:0:
236,266,31826,6,0,L|182:275,1,55,2|2,1:0|0:0,0:0:0:0:
157,324,32254,2,0,L|103:315,1,55,8|2,1:0|0:0,0:0:0:0:
49,299,32683,2,0,L|29:190,1,110,2|8,1:0|1:0,0:0:0:0:
24,140,33326,1,2,1:0:0:0:
24,140,33540,1,2,1:0:0:0:
82,47,33969,1,8,1:0:0:0:
182,93,34397,2,0,L|191:147,1,55,2|0,1:0|1:0,0:0:0:0:
240,171,34826,2,0,L|231:225,1,55,10|10,1:0|1:0,0:0:0:0:
220,279,35254,6,0,P|174:307|122:297,1,110,6|8,1:0|0:0,0:0:0:0:
76,274,35897,1,2,1:1:0:0:
76,274,36111,1,2,0:0:0:0:
12,184,36540,1,8,3:2:0:0:
84,101,36969,2,0,P|94:48|66:2,2,110,2|8|0,1:0|0:0|3:0,0:0:0:0:
187,137,38254,2,0,L|241:127,1,55,8|2,3:2|0:0,0:0:0:0:
259,74,38683,2,0,L|340:89,1,82.5,2|2,1:0|3:2,0:0:0:0:
425,106,39326,1,2,1:0:0:0:
425,106,39540,2,0,P|453:152|443:204,1,110,2|8,0:0|3:2,0:0:0:0:
395,306,40397,5,2,1:0:0:0:
395,306,40611,2,0,L|287:325,1,110,2|2,1:0|1:0,0:0:0:0:
204,260,41469,1,2,1:0:0:0:
204,260,41683,1,8,3:1:0:0:
290,192,42111,2,0,L|345:183,1,55,2|2,1:0|1:0,0:0:0:0:
399,176,42540,2,0,L|418:68,1,110,8|2,3:1|0:0,0:0:0:0:
430,16,43183,1,2,1:0:0:0:
430,16,43397,1,8,3:1:0:0:
322,40,43826,6,0,P|276:12|223:22,1,110,2|8,1:0|3:1,0:0:0:0:
184,61,44469,1,2,1:0:0:0:
184,61,44683,2,0,P|131:71|85:43,1,110,2|8,0:0|3:1,0:0:0:0:
15,128,45540,1,2,1:0:0:0:
90,208,45969,1,8,3:1:0:0:
23,295,46397,1,2,0:0:0:0:
92,380,46826,1,8,3:1:0:0:
196,346,47254,6,0,L|215:238,1,110,2|8,1:0|3:1,0:0:0:0:
237,129,48111,2,0,L|292:120,1,55,0|2,3:0|1:0,0:0:0:0:
316,71,48540,2,0,L|371:80,1,55,8|8,1:0|1:0,0:0:0:0:
424,91,48969,2,0,L|443:199,1,110,4|2,1:0|0:0,0:0:0:0:
293,360,50254,1,2,0:0:0:0:
211,285,50683,6,0,P|165:313|113:303,1,110,6|8,1:0|1:0,0:0:0:0:
64,288,51326,1,0,3:0:0:0:
64,288,51540,2,0,L|45:180,1,110,2|8,1:0|1:0,0:0:0:0:
2,153,52183,1,0,3:0:0:0:
2,153,52397,2,0,L|11:99,1,55,2|2,1:0|3:2,0:0:0:0:
27,46,52826,2,0,P|73:18|125:28,1,110,8|2,1:0|1:0,0:0:0:0:
179,55,53469,1,0,3:0:0:0:
179,55,53683,1,8,1:0:0:0:
249,138,54111,6,0,L|303:129,1,55,2|0,1:0|0:0,0:0:0:0:
324,77,54540,1,8,1:0:0:0:
324,77,54754,2,0,L|378:86,1,55,2|2,0:0|1:0,0:0:0:0:
432,94,55183,2,0,L|451:203,1,110,2|2,3:2|1:0,0:0:0:0:
501,223,55826,2,0,L|487:304,1,82.5,2|2,1:0|3:2,0:0:0:0:
429,363,56469,1,2,3:2:0:0:
429,363,56683,2,0,L|348:377,1,82.5,2|0,1:0|3:0,0:0:0:0:
282,335,57326,1,0,1:0:0:0:
282,335,57540,6,0,P|254:289|264:237,1,110,6|8,1:0|1:0,0:0:0:0:
297,193,58183,1,0,3:0:0:0:
297,193,58397,2,0,L|405:174,1,110,2|8,1:0|1:0,0:0:0:0:
463,167,59040,1,0,3:0:0:0:
463,167,59254,2,0,L|472:113,1,55,2|2,1:0|3:2,0:0:0:0:
479,58,59683,2,0,P|433:30|380:40,1,110,8|2,1:0|1:0,0:0:0:0:
338,74,60326,1,0,3:0:0:0:
338,74,60540,1,8,1:0:0:0:
240,22,60969,6,0,L|186:13,1,55,2|0,1:0|0:0,0:0:0:0:
152,57,61398,1,8,1:0:0:0:
152,57,61612,2,0,L|98:66,1,55,2|0,0:0|1:0,0:0:0:0:
43,77,62041,2,0,L|24:186,1,110,2|0,3:2|0:0,0:0:0:0:
66,219,62683,2,0,L|76:273,1,55,2|0,1:0|1:0,0:0:0:0:
87,326,63111,2,0,L|196:345,1,110,10|2,1:0|1:0,0:0:0:0:
274,267,63969,2,0,L|265:213,1,55,2|10,1:0|1:0,0:0:0:0:
256,159,64397,6,0,P|210:131|158:141,1,110,6|8,1:0|1:0,0:0:0:0:
109,164,65040,1,2,0:0:0:0:
109,164,65254,2,0,L|100:218,1,55,2|2,1:0|3:2,0:0:0:0:
49,239,65683,2,0,L|58:293,1,55,8|0,1:0|0:0,0:0:0:0:
68,347,66111,2,0,P|114:375|166:365,1,110,2|8,1:0|1:0,0:0:0:0:
219,342,66754,1,0,3:0:0:0:
219,342,66969,1,2,1:0:0:0:
326,363,67397,2,0,L|317:309,1,55,8|2,1:0|1:0,0:0:0:0:
310,253,67826,6,0,L|201:234,1,110,2|8,1:0|1:0,0:0:0:0:
151,225,68469,1,2,0:0:0:0:
151,225,68683,2,0,L|142:171,1,55,2|2,1:0|3:2,0:0:0:0:
92,147,69111,2,0,L|101:93,1,55,8|0,1:0|0:0,0:0:0:0:
114,39,69540,2,0,L|222:20,1,110,2|8,1:0|1:0,0:0:0:0:
281,18,70183,1,0,3:0:0:0:
281,18,70397,1,2,1:0:0:0:
364,89,70826,2,0,L|418:98,1,55,8|0,1:0|1:0,0:0:0:0:
472,105,71254,6,0,P|500:151|490:203,1,110,2|8,1:0|1:0,0:0:0:0:
472,256,71897,2,0,L|418:265,1,55,2|2,0:0|1:0,0:0:0:0:
392,313,72326,2,0,L|283:294,1,110,2|2,3:2|3:2,0:0:0:0:
229,283,72969,2,0,L|214:202,1,82.5,2|0,1:0|1:0,0:0:0:0:
206,124,73611,1,2,3:2:0:0:
206,124,73826,2,0,P|160:96|108:106,1,110,2|8,1:0|1:0,0:0:0:0:
17,170,74683,6,0,L|8:224,1,55,2|2,1:0|3:2,0:0:0:0:
52,255,75111,2,0,L|61:309,1,55,8|2,1:0|0:0,0:0:0:0:
70,363,75540,2,0,L|179:382,1,110,2|8,1:0|1:0,0:0:0:0:
217,343,76183,1,0,1:0:0:0:
217,343,76397,2,0,L|326:324,1,110,2|8,1:0|1:0,0:0:0:0:
406,250,77254,2,0,L|397:196,1,55,0|8,1:0|1:0,0:0:0:0:
347,171,77683,2,0,L|356:117,1,55,2|10,1:0|1:0,0:0:0:0:
369,63,78111,6,0,L|450:48,2,82.5,2|2|2,1:0|3:2|3:2,0:0:0:0:
333,20,78969,1,2,1:0:0:0:
224,2,79397,1,8,1:0:0:0:
170,98,79826,2,0,L|89:83,2,82.5,2|2|2,1:0|3:2|3:2,0:0:0:0:
203,142,80683,2,0,L|212:196,1,55,2|2,1:0|3:2,0:0:0:0:
221,250,81111,1,8,1:0:0:0:
241,358,81540,6,0,L|322:372,1,82.5,2|2,1:0|1:0,0:0:0:0:
390,323,82183,1,2,1:0:0:0:
390,323,82397,2,0,L|376:242,1,82.5,2|2,1:0|1:0,0:0:0:0:
444,194,83040,1,2,1:0:0:0:
444,194,83254,2,0,L|458:113,1,82.5,2|2,1:0|1:0,0:0:0:0:
419,45,83897,1,2,1:0:0:0:
419,45,84111,1,2,1:0:0:0:
314,80,84540,6,0,B|258:13|129:41|191:138|72:118,1,275,4|0,0:0|0:0,0:0:0:0:
