osu file format v14

[General]
AudioFilename: Deorro-Red Lips.mp3
AudioLeadIn: 0
PreviewTime: 34904
Countdown: 0
SampleSet: Soft
StackLeniency: 0.6
Mode: 0
LetterboxInBreaks: 1
WidescreenStoryboard: 1

[Editor]
DistanceSpacing: 3.5
BeatDivisor: 8
GridSize: 4
TimelineZoom: 3.199999

[Metadata]
Title:Red Lips
TitleUnicode:Red Lips
Artist:Deorro
ArtistUnicode:Deorro
Creator:BoostMine
Version:mmm..
Source:technical
Tags:electronic dubstep glitch hop
BeatmapID:1808962
BeatmapSetID:865082

[Difficulty]
HPDrainRate:5.5
CircleSize:4
OverallDifficulty:7
ApproachRate:9.7
SliderMultiplier:1.8
SliderTickRate:1

[Events]
//Background and Video events
0,0,"46863_anime_girls.jpg",0,0
//Break Periods
//Storyboard Layer 0 (Background)
//Storyboard Layer 1 (Fail)
//Storyboard Layer 2 (Pass)
//Storyboard Layer 3 (Foreground)
//Storyboard Sound Samples

[TimingPoints]
10910,272.727272727273,4,2,1,80,1,0
34904,-66.6666666666667,4,2,1,80,0,1
35175,-100,4,2,1,80,0,1
37017,-66.6666666666667,4,2,1,80,0,1
42540,-66.6666666666667,4,2,44,20,0,1
42949,-66.6666666666667,4,2,1,80,0,1
49358,-133.333333333333,4,2,1,80,0,1
50449,-83.3333333333333,4,2,1,80,0,1
54267,-133.333333333333,4,2,1,80,0,1
54608,-83.3333333333333,4,2,1,80,0,1
59994,-83.3333333333333,4,2,44,20,0,1
60335,-83.3333333333333,4,2,1,80,0,1
64358,-83.3333333333333,4,2,1,50,0,1
64904,-83.3333333333333,4,2,1,80,0,1
69949,-83.3333333333333,4,2,1,80,0,0
95994,-100,4,2,1,50,0,0
100358,-100,4,2,1,80,0,0
104722,-100,4,2,1,80,0,1
105949,-83.3333333333333,4,2,1,80,0,1
109085,-200,4,2,1,80,0,1
110176,-83.3333333333333,4,2,1,80,0,1
112358,-83.3333333333333,4,2,44,20,0,1
112699,-83.3333333333333,4,2,1,80,0,1
117267,-100,4,2,1,80,0,1
117813,-83.3333333333333,4,2,1,80,0,1
118084,-166.666666666667,4,2,1,80,0,1
118357,-83.3333333333333,4,2,1,80,0,1
119175,-166.666666666667,4,2,1,80,0,1
119448,-83.3333333333333,4,2,1,80,0,1
122176,-133.333333333333,4,2,1,80,0,1
122313,-133.333333333333,4,2,1,30,0,1
123404,-83.3333333333333,4,2,1,80,0,1
126540,-133.333333333333,4,2,1,80,0,1
127767,-83.3333333333333,4,2,1,80,0,1
129813,-83.3333333333333,4,2,44,20,0,1
130154,-83.3333333333333,4,2,1,80,0,1
139630,-83.3333333333333,4,2,1,80,0,0

[Colours]
Combo1 : 185,103,66
Combo2 : 254,237,209
Combo3 : 98,172,173
Combo4 : 88,59,77

[HitObjects]
256,192,10910,12,0,17182,0:0:0:0:
353,118,17455,6,0,P|319:51|221:44,1,180
95,112,18000,5,0,0:0:0:0:
111,149,18091,1,0,0:0:0:0:
130,186,18182,1,0,0:0:0:0:
158,216,18273,1,0,0:0:0:0:
195,235,18364,1,0,0:0:0:0:
236,232,18455,1,0,0:0:0:0:
277,222,18546,5,0,0:0:0:0:
317,230,18637,1,0,0:0:0:0:
349,256,18728,1,0,0:0:0:0:
382,282,18819,1,0,0:0:0:0:
423,281,18910,1,0,0:0:0:0:
449,248,19000,1,0,0:0:0:0:
459,206,19091,5,0,0:0:0:0:
446,166,19182,1,0,0:0:0:0:
423,130,19273,1,0,0:0:0:0:
396,96,19364,1,0,0:0:0:0:
368,65,19455,1,0,0:0:0:0:
330,45,19546,1,0,0:0:0:0:
277,58,19637,2,0,P|281:122|365:210,1,180
466,134,20182,5,0,0:0:0:0:
439,101,20273,1,0,0:0:0:0:
403,78,20364,1,0,0:0:0:0:
363,63,20455,1,0,0:0:0:0:
322,75,20546,1,0,0:0:0:0:
293,105,20637,1,0,0:0:0:0:
266,137,20728,5,0,0:0:0:0:
241,171,20819,1,0,0:0:0:0:
216,205,20910,1,0,0:0:0:0:
183,231,21000,1,0,0:0:0:0:
142,239,21091,1,0,0:0:0:0:
105,218,21182,1,0,0:0:0:0:
100,176,21273,5,0,0:0:0:0:
119,138,21364,1,0,0:0:0:0:
151,111,21455,1,0,0:0:0:0:
190,96,21546,1,0,0:0:0:0:
231,88,21637,1,0,0:0:0:0:
272,93,21728,1,0,0:0:0:0:
320,118,21819,2,0,P|316:182|232:270,1,180
125,266,22364,5,0,0:0:0:0:
113,226,22455,1,0,0:0:0:0:
116,184,22546,1,0,0:0:0:0:
131,144,22637,1,0,0:0:0:0:
151,107,22728,1,0,0:0:0:0:
185,83,22819,1,0,0:0:0:0:
225,69,22910,5,0,0:0:0:0:
265,72,23000,1,0,0:0:0:0:
297,99,23091,1,0,0:0:0:0:
308,140,23182,1,0,0:0:0:0:
295,179,23273,1,0,0:0:0:0:
272,214,23364,1,0,0:0:0:0:
232,229,23455,5,0,0:0:0:0:
194,210,23546,1,0,0:0:0:0:
177,171,23637,1,0,0:0:0:0:
168,129,23728,1,0,0:0:0:0:
182,90,23819,1,0,0:0:0:0:
209,57,23910,1,0,0:0:0:0:
252,34,24000,2,0,P|355:31|443:94,1,180
88,312,24546,5,0,0:0:0:0:
77,271,24637,1,0,0:0:0:0:
80,229,24728,1,0,0:0:0:0:
92,188,24819,1,0,0:0:0:0:
113,152,24910,1,0,0:0:0:0:
146,127,25000,1,0,0:0:0:0:
184,108,25091,5,0,0:0:0:0:
225,107,25182,1,0,0:0:0:0:
259,130,25273,1,0,0:0:0:0:
280,166,25364,1,0,0:0:0:0:
276,207,25455,1,0,0:0:0:0:
253,242,25546,1,0,0:0:0:0:
213,257,25637,5,0,0:0:0:0:
172,246,25728,1,0,0:0:0:0:
145,213,25819,1,0,0:0:0:0:
126,174,25910,1,0,0:0:0:0:
134,133,26000,1,0,0:0:0:0:
159,99,26091,1,0,0:0:0:0:
195,77,26182,1,0,0:0:0:0:
316,44,26455,1,0,0:0:0:0:
267,156,26728,5,0,0:0:0:0:
53,131,27000,1,0,0:0:0:0:
267,156,27273,2,0,P|302:269|460:310,1,270
455,91,27819,1,0,0:0:0:0:
267,156,28091,1,0,0:0:0:0:
56,205,28364,5,0,0:0:0:0:
140,298,28637,1,0,0:0:0:0:
267,156,28910,1,0,0:0:0:0:
56,205,29182,1,0,0:0:0:0:
210,54,29455,6,0,P|368:54|443:145,1,270
283,293,30000,1,0,0:0:0:0:
380,104,30273,1,0,0:0:0:0:
173,70,30546,5,8,0:0:0:0:
107,100,30682,1,0,0:0:0:0:
58,153,30819,2,0,P|32:217|33:279,1,90
180,214,31091,5,8,0:0:0:0:
211,149,31228,1,0,0:0:0:0:
262,98,31364,2,0,P|313:57|360:41,1,90
311,199,31637,5,8,0:0:0:0:
255,244,31773,1,0,0:0:0:0:
207,298,31910,2,0,P|169:358|163:393,1,90
310,328,32182,5,8,0:0:0:0:
352,269,32319,1,0,0:0:0:0:
397,213,32455,2,0,P|441:174|484:155,1,90
444,331,32728,1,8,0:0:0:0:
252,192,34364,5,8,0:0:0:0:
371,82,34910,6,0,L|323:82,4,33.7500012874604
195,88,35182,6,0,L|107:42,1,90
129,244,35455,1,8,0:0:0:0:
312,171,35591,1,0,0:0:0:0:
116,133,35728,1,0,0:0:0:0:
209,252,35864,1,0,0:0:0:0:
195,88,36000,1,0,0:0:0:0:
312,171,36137,1,0,0:0:0:0:
129,244,36273,6,0,L|23:268,1,90
306,260,36546,2,0,L|405:219,1,90,8|0,0:0|0:0,0:0:0:0:
347,70,36819,2,0,B|295:18|295:18|268:49|224:87,1,135.000005149842
253,62,37091,2,0,B|198:95|198:95|172:57|172:57|71:78,1,202.500007724762
115,172,37364,5,0,0:0:0:0:
300,91,37500,1,0,0:0:0:0:
152,61,37637,1,8,0:0:0:0:
299,200,37773,1,0,0:0:0:0:
115,172,37910,1,0,0:0:0:0:
263,323,38046,1,0,0:0:0:0:
200,176,38182,2,0,L|221:33,1,135.000005149842
428,108,38455,2,0,L|409:251,1,135.000005149842
299,200,38728,6,0,L|236:164,1,67.5000025749208,8|0,0:0|0:0,0:0:0:0:
103,314,39000,2,0,L|36:387,1,67.5000025749208,8|0,0:0|0:0,0:0:0:0:
114,153,39273,2,0,B|166:129|166:129|206:133|206:133|238:213|324:163,1,202.500007724762
328,102,39546,5,0,0:0:0:0:
112,70,39682,1,0,0:0:0:0:
221,241,39819,1,8,0:0:0:0:
198,40,39955,1,0,0:0:0:0:
348,220,40091,1,0,0:0:0:0:
132,192,40228,1,0,0:0:0:0:
320,84,40364,1,0,0:0:0:0:
401,223,40500,1,0,0:0:0:0:
289,341,40637,5,0,0:0:0:0:
136,287,40773,1,0,0:0:0:0:
88,148,40910,2,0,P|135:55|172:38,1,135.000005149842,8|0,0:0|0:0,0:0:0:0:
224,204,41182,6,0,B|268:248|260:312|260:312|308:304|308:304|344:343,1,202.500007724762
391,268,41455,2,0,B|356:244|356:244|339:181|314:159|244:130|244:130,1,202.500007724762
172,92,41728,5,0,0:0:0:0:
355,49,41864,1,0,0:0:0:0:
251,133,42000,1,8,0:0:0:0:
436,97,42137,1,0,0:0:0:0:
282,207,42273,1,0,0:0:0:0:
471,216,42410,1,0,0:0:0:0:
232,88,42546,5,2,0:0:0:0:
128,212,42682,1,2,0:0:0:0:
280,267,42819,1,2,0:0:0:0:
132,85,43091,5,8,0:0:0:0:
341,253,43228,1,8,0:0:0:0:
76,303,43364,1,0,0:0:0:0:
341,253,43637,6,0,B|332:217|332:217|370:215|370:215|353:177|353:177|401:182|401:182|398:133,1,202.500007724762
376,64,43910,5,0,0:0:0:0:
164,108,44046,1,0,0:0:0:0:
364,192,44182,1,8,0:0:0:0:
228,32,44319,1,0,0:0:0:0:
256,244,44455,1,0,0:0:0:0:
308,36,44591,1,0,0:0:0:0:
197,178,44728,1,0,0:0:0:0:
376,132,44864,1,0,0:0:0:0:
204,264,45000,6,0,L|136:254,1,67.5000025749208
197,178,45137,2,0,L|272:188,1,67.5000025749208
232,91,45273,2,0,B|153:83|153:83|80:115,1,135.000005149842,8|0,0:0|0:0,0:0:0:0:
107,201,45546,6,0,B|125:259|196:278|196:278|221:233|286:223,1,202.500007724762,0|0,0:0|0:0,0:3:0:0:
299,225,45819,2,0,P|361:205|480:293,1,202.500007724762
454,186,46091,5,0,0:0:0:0:
329,25,46228,1,0,0:0:0:0:
171,151,46364,1,8,0:0:0:0:
372,123,46500,1,0,0:0:0:0:
234,270,46637,1,0,0:0:0:0:
213,69,46773,1,0,0:0:0:0:
265,194,46910,1,0,0:0:0:0:
338,81,47046,1,0,0:0:0:0:
265,194,47182,1,0,0:0:0:0:
338,81,47319,1,0,0:0:0:0:
228,251,47455,6,0,L|179:310,1,67.5000025749208,8|0,0:0|0:0,0:0:0:0:
64,139,47728,6,0,L|14:94,1,67.5000025749208,8|0,0:0|0:0,0:0:0:0:
176,116,48000,2,0,B|236:56|272:32|208:28|276:104|276:104|338:93,1,202.500007724762
436,112,48273,5,0,0:0:0:0:
372,308,48410,1,0,0:0:0:0:
224,152,48546,1,8,0:0:0:0:
436,112,48682,1,0,0:0:0:0:
256,232,48819,1,0,0:0:0:0:
472,244,48955,1,0,0:0:0:0:
316,96,49091,1,0,0:0:0:0:
104,52,49228,1,0,0:0:0:0:
148,280,49364,2,0,L|72:272,1,67.5000025749208
364,104,49637,2,0,L|440:112,1,67.5000025749208,8|0,0:0|0:0,0:0:0:0:
256,280,49910,2,0,B|240:208|240:208|184:240|176:208,1,135.000005149842
280,96,50455,6,0,L|336:60,1,53.9999983520508
211,139,50591,2,0,L|150:177,1,53.9999983520508
109,252,50728,6,0,L|162:283,1,53.9999983520508,8|0,0:0|0:0,0:0:0:0:
204,237,50864,2,0,P|270:236|328:282,1,107.999996704102,8|0,0:0|0:0,0:0:0:0:
418,333,51137,6,0,L|471:312,1,53.9999983520508,8|0,0:0|0:0,0:0:0:0:
444,242,51273,2,0,P|485:207|499:146,1,107.999996704102,8|0,0:0|0:0,0:0:0:0:
405,89,51546,6,0,L|440:43,1,53.9999983520508,8|0,0:0|0:0,0:0:0:0:
257,61,51819,2,0,L|199:70,1,53.9999983520508,8|0,0:0|0:0,0:0:0:0:
82,115,52091,2,0,P|29:164|28:304,1,215.999993408203
316,196,52637,5,0,0:0:0:0:
136,76,52773,1,0,0:0:0:0:
352,80,52910,1,8,0:0:0:0:
164,188,53046,1,0,0:0:0:0:
256,12,53182,1,0,0:0:0:0:
316,196,53319,1,0,0:0:0:0:
116,280,53455,1,0,0:0:0:0:
260,120,53591,1,0,0:0:0:0:
373,144,53728,6,0,L|400:95,1,53.9999983520508,8|0,0:0|0:0,0:0:0:0:
387,224,53864,2,0,L|334:278,1,53.9999983520508,8|0,0:0|0:0,0:0:0:0:
311,195,54000,2,0,B|257:191|257:191|222:217|222:217|151:179,1,161.999995056153,8|0,0:0|0:0,0:0:0:0:
225,105,54273,2,0,B|241:87|249:58|249:58|255:110|327:95,1,135.000005149842
464,56,54819,5,0,0:0:0:0:
248,64,54955,1,0,0:0:0:0:
448,144,55091,1,8,0:0:0:0:
232,152,55228,1,0,0:0:0:0:
428,240,55364,1,0,0:0:0:0:
212,248,55500,1,0,0:0:0:0:
400,344,55637,2,0,L|432:224,1,107.999996704102
332,114,55910,2,0,L|300:234,1,107.999996704102
164,112,56182,6,0,P|144:172|184:208,1,107.999996704102,8|0,0:0|0:0,0:0:0:0:
235,148,56455,2,0,P|255:88|215:52,1,107.999996704102,8|0,0:0|0:0,0:0:0:0:
200,224,56728,2,0,P|272:268|344:236,1,161.999995056153
455,175,57000,5,0,0:0:0:0:
244,96,57137,1,0,0:0:0:0:
40,168,57273,1,8,0:0:0:0:
192,324,57410,1,0,0:0:0:0:
364,192,57546,1,0,0:0:0:0:
160,260,57682,1,0,0:0:0:0:
344,380,57819,1,0,0:0:0:0:
312,168,57955,1,0,0:0:0:0:
96,160,58091,2,0,L|172:76,1,107.999996704102
384,48,58364,2,0,L|308:132,1,107.999996704102,8|0,0:0|0:0,0:0:0:0:
160,260,58637,2,0,B|196:200|196:200|204:268|308:268,1,215.999993408203
204,52,59182,5,0,0:0:0:0:
60,212,59319,1,0,0:0:0:0:
264,144,59455,1,8,0:0:0:0:
64,68,59591,1,0,0:0:0:0:
184,248,59728,1,0,0:0:0:0:
204,52,59864,1,0,0:0:0:0:
107,268,60000,5,2,0:0:0:0:
225,343,60137,1,2,0:0:0:0:
286,217,60273,1,2,0:0:0:0:
184,248,60546,5,8,0:0:0:0:
389,129,60682,1,8,0:0:0:0:
496,348,60819,1,0,0:0:0:0:
496,348,61091,6,0,B|475:291|475:291|444:344|378:301,1,161.999995056153
322,310,61364,5,0,0:0:0:0:
232,140,61500,1,0,0:0:0:0:
68,280,61637,1,8,0:0:0:0:
276,220,61773,1,0,0:0:0:0:
68,160,61910,1,0,0:0:0:0:
260,60,62046,1,0,0:0:0:0:
164,252,62182,1,0,0:0:0:0:
336,116,62319,1,0,0:0:0:0:
124,88,62455,1,0,0:0:0:0:
208,288,62591,1,0,0:0:0:0:
400,192,62728,6,0,L|276:128,1,107.999996704102,8|0,0:0|0:0,0:0:0:0:
192,328,63000,2,0,B|256:288|240:356|356:344|364:236,1,215.999993408203
240,60,63546,5,0,0:0:0:0:
68,160,63682,1,0,0:0:0:0:
273,127,63819,1,8,0:0:0:0:
452,12,63955,1,0,0:0:0:0:
412,224,64091,1,0,0:0:0:0:
212,229,64228,1,0,0:0:0:0:
358,82,64364,6,0,L|414:58,1,53.9999983520508
344,179,64500,2,0,L|370:237,1,53.9999983520508
273,127,64637,2,0,L|257:67,1,53.9999983520508
262,209,64773,2,0,L|191:238,1,53.9999983520508
145,162,64910,6,0,L|179:45,1,107.999996704102,8|0,0:0|0:0,0:0:0:0:
208,279,65182,2,0,L|176:391,1,107.999996704102,8|0,0:0|0:0,0:0:0:0:
247,154,65455,2,0,L|203:155,3,35.9999989013672
340,332,65728,5,0,0:0:0:0:
446,176,65864,1,0,0:0:0:0:
324,28,66000,1,8,0:0:0:0:
120,96,66137,1,0,0:0:0:0:
124,312,66273,1,0,0:0:0:0:
340,332,66410,1,0,0:0:0:0:
456,148,66546,1,0,0:0:0:0:
260,56,66682,1,0,0:0:0:0:
136,236,66819,1,0,0:0:0:0:
328,136,66955,1,0,0:0:0:0:
248,336,67091,6,0,L|220:196,1,107.999996704102,8|0,0:0|0:0,0:0:0:0:
228,12,67364,2,0,L|160:220,1,215.999993408203
320,141,67910,2,0,L|406:57,1,107.999996704102
355,263,68182,6,0,L|284:247,1,53.9999983520508,8|0,0:0|0:0,0:0:0:0:
255,302,68319,2,0,P|204:255|191:196,1,107.999996704102,8|0,0:0|0:0,0:0:0:0:
233,106,68591,2,0,L|285:82,1,53.9999983520508,8|0,0:0|0:0,0:0:0:0:
333,35,68728,2,0,P|391:61|421:107,1,107.999996704102,8|0,0:0|0:0,0:0:0:0:
376,252,69000,2,0,L|451:265,1,53.9999983520508,8|0,0:0|0:0,0:0:0:0:
244,322,69273,2,0,L|188:316,1,53.9999983520508,8|0,0:0|0:0,0:0:0:0:
114,196,69546,2,0,P|74:116|89:64,1,107.999996704102
76,101,69819,5,0,0:0:0:0:
206,235,70364,1,0,0:0:0:0:
131,169,70910,1,0,0:0:0:0:
338,74,71455,1,0,0:0:0:0:
146,68,72000,1,0,0:0:0:0:
335,133,72546,1,0,0:0:0:0:
105,201,73091,1,0,0:0:0:0:
315,248,73364,5,0,0:0:0:0:
137,350,73500,1,0,0:0:0:0:
320,363,73637,1,0,0:0:0:0:
105,201,73910,1,0,0:0:0:0:
344,57,74182,1,0,0:0:0:0:
215,243,74728,5,0,0:0:0:0:
407,168,75273,1,0,0:0:0:0:
197,110,75819,1,0,0:0:0:0:
403,45,76364,1,0,0:0:0:0:
86,82,76910,1,0,0:0:0:0:
425,69,77455,5,0,0:0:0:0:
310,173,77591,1,0,0:0:0:0:
427,271,77728,1,0,0:0:0:0:
227,44,78000,5,8,0:0:0:0:
471,183,78137,1,8,0:0:0:0:
251,339,78273,1,0,0:0:0:0:
145,82,78546,5,0,0:0:0:0:
104,238,78819,2,0,L|257:152,1,161.999995056153
299,165,79091,1,8,0:0:0:0:
104,238,79364,1,0,0:0:0:0:
259,108,79637,5,0,0:0:0:0:
443,162,79773,1,0,0:0:0:0:
300,225,79910,1,0,0:0:0:0:
259,108,80046,1,0,0:0:0:0:
300,225,80182,6,0,P|246:234|188:197,1,107.999996704102,8|0,0:0|0:0,0:0:0:0:
259,108,80455,1,0,0:0:0:0:
96,147,80728,5,0,0:0:0:0:
138,246,81000,1,0,0:0:0:0:
208,164,81273,1,8,0:0:0:0:
265,255,81546,2,0,L|366:328,1,107.999996704102
411,167,81819,5,0,0:0:0:0:
352,102,81955,1,0,0:0:0:0:
276,62,82091,1,8,0:0:0:0:
120,111,82228,2,0,P|66:160|36:216,1,107.999996704102,8|8,0:0|0:0,0:0:0:0:
283,142,82637,1,0,0:0:0:0:
120,111,82910,1,0,0:0:0:0:
115,277,83182,5,0,0:0:0:0:
143,195,83319,1,0,0:0:0:0:
198,261,83455,2,0,L|285:349,1,107.999996704102,8|0,0:0|0:0,0:0:0:0:
291,231,83728,2,0,L|198:144,1,107.999996704102
320,146,84000,2,0,L|406:231,1,107.999996704102
361,62,84273,5,0,0:0:0:0:
212,157,84410,1,0,0:0:0:0:
82,58,84546,2,0,L|114:279,1,215.999993408203,8|0,0:0|0:0,0:0:0:0:
429,201,85091,2,0,L|409:83,1,107.999996704102
259,33,85364,5,0,0:0:0:0:
260,216,85500,1,0,0:0:0:0:
167,92,85637,5,8,0:0:0:0:
289,133,85773,1,8,0:0:0:0:
75,281,86046,5,8,0:0:0:0:
173,196,86182,1,8,0:0:0:0:
390,337,86455,5,8,0:0:0:0:
421,155,86728,2,0,P|370:52|263:68,1,215.999993408203,8|0,0:0|0:0,0:0:0:0:
229,118,87273,6,0,P|288:153|273:55,1,215.999993408203
179,87,87819,5,0,0:0:0:0:
151,129,87910,1,0,0:0:0:0:
137,176,88000,1,0,0:0:0:0:
140,226,88091,1,0,0:0:0:0:
170,265,88182,1,0,0:0:0:0:
218,280,88273,1,0,0:0:0:0:
268,282,88364,5,0,0:0:0:0:
316,271,88455,1,0,0:0:0:0:
359,245,88546,1,0,0:0:0:0:
395,209,88637,1,0,0:0:0:0:
403,159,88728,1,0,0:0:0:0:
390,110,88819,1,0,0:0:0:0:
349,78,88910,1,0,0:0:0:0:
300,66,89000,5,0,0:0:0:0:
250,77,89091,1,0,0:0:0:0:
209,107,89182,1,0,0:0:0:0:
192,154,89273,1,0,0:0:0:0:
204,202,89364,1,0,0:0:0:0:
252,219,89455,2,0,B|319:235|363:151|254:130|187:94,1,215.999993408203
109,146,90000,5,0,0:0:0:0:
82,187,90091,1,0,0:0:0:0:
78,237,90182,1,0,0:0:0:0:
102,281,90273,1,0,0:0:0:0:
146,302,90364,1,0,0:0:0:0:
194,315,90455,1,0,0:0:0:0:
244,318,90546,5,0,0:0:0:0:
289,297,90637,1,0,0:0:0:0:
324,261,90728,1,0,0:0:0:0:
350,217,90819,1,0,0:0:0:0:
340,168,90910,1,0,0:0:0:0:
313,125,91000,1,0,0:0:0:0:
271,94,91091,1,0,0:0:0:0:
222,87,91182,5,0,0:0:0:0:
172,98,91273,1,0,0:0:0:0:
133,131,91364,1,0,0:0:0:0:
122,181,91455,1,0,0:0:0:0:
140,227,91546,1,0,0:0:0:0:
184,251,91637,2,0,B|258:233|221:142|145:148|76:172,1,215.999993408203
176,60,92182,5,0,0:0:0:0:
225,64,92273,1,0,0:0:0:0:
272,81,92364,1,0,0:0:0:0:
311,112,92455,1,0,0:0:0:0:
322,160,92546,1,0,0:0:0:0:
309,208,92637,1,0,0:0:0:0:
277,248,92728,1,0,0:0:0:0:
229,262,92819,5,0,0:0:0:0:
178,257,92910,1,0,0:0:0:0:
134,230,93000,1,0,0:0:0:0:
122,181,93091,1,0,0:0:0:0:
159,147,93182,1,0,0:0:0:0:
209,143,93273,1,0,0:0:0:0:
241,180,93364,1,0,0:0:0:0:
227,228,93455,1,0,0:0:0:0:
185,257,93546,5,0,0:0:0:0:
137,272,93637,1,0,0:0:0:0:
86,267,93728,1,0,0:0:0:0:
75,217,93819,2,0,B|58:146|80:123|149:145|198:242,1,215.999993408203
299,181,94364,5,0,0:0:0:0:
303,132,94455,1,0,0:0:0:0:
276,92,94546,1,0,0:0:0:0:
236,62,94637,1,0,0:0:0:0:
190,37,94728,1,0,0:0:0:0:
140,42,94819,1,0,0:0:0:0:
100,73,94910,1,0,0:0:0:0:
85,120,95000,5,0,0:0:0:0:
80,170,95091,1,0,0:0:0:0:
80,221,95182,1,0,0:0:0:0:
93,268,95273,1,0,0:0:0:0:
122,308,95364,1,0,0:0:0:0:
171,321,95455,1,0,0:0:0:0:
220,329,95546,1,0,0:0:0:0:
270,335,95637,1,0,0:0:0:0:
319,338,95728,5,0,0:0:0:0:
369,337,95819,1,0,0:0:0:0:
411,309,95910,1,0,0:0:0:0:
424,262,96000,5,8,0:0:0:0:
391,131,96137,1,0,0:0:0:0:
282,51,96273,2,0,P|225:36|176:41,1,90,8|0,0:0|0:0,0:0:0:0:
231,119,96546,1,0,0:0:0:0:
176,254,96819,1,0,0:0:0:0:
58,232,97091,5,8,0:0:0:0:
107,296,97228,1,0,0:0:0:0:
174,341,97364,2,0,P|185:297|159:228,1,90,8|0,0:0|0:0,0:0:0:0:
120,194,97637,1,0,0:0:0:0:
344,140,97910,1,0,0:0:0:0:
238,122,98182,5,8,0:0:0:0:
296,66,98319,1,0,0:0:0:0:
377,63,98455,2,0,P|361:127|328:147,1,90,8|0,0:0|0:0,0:0:0:0:
288,198,98728,1,0,0:0:0:0:
493,22,99000,1,0,0:0:0:0:
347,93,99273,5,8,0:0:0:0:
273,127,99410,1,0,0:0:0:0:
281,46,99546,2,0,P|321:20|388:28,1,90,8|0,0:0|0:0,0:0:0:0:
427,65,99819,1,0,0:0:0:0:
173,70,100091,1,0,0:0:0:0:
432,237,100364,6,0,P|462:229|528:238,1,90,8|0,0:0|0:0,0:0:0:0:
244,258,100637,1,8,0:0:0:0:
355,106,100773,1,0,0:0:0:0:
130,136,100909,5,8,0:0:0:0:
305,208,101046,1,0,0:0:0:0:
155,239,101182,2,0,P|169:207|221:170,1,90,8|0,0:0|0:0,0:0:0:0:
291,327,101455,5,8,0:0:0:0:
122,312,101591,1,0,0:0:0:0:
305,208,101728,1,8,0:0:0:0:
358,360,101864,1,0,0:0:0:0:
433,130,102000,5,8,0:0:0:0:
190,219,102137,1,0,0:0:0:0:
412,278,102273,2,0,P|450:280|512:259,1,90,8|0,0:0|0:0,0:0:0:0:
328,81,102546,5,8,0:0:0:0:
116,124,104182,5,8,0:0:0:0:
308,288,104728,2,0,B|380:284|380:284|328:244|328:244|404:252|404:252|328:212|328:212|424:204|424:204|336:176|336:176|428:164|428:164|340:136|340:136|352:60,1,720
136,48,105955,1,0,0:0:0:0:
80,256,106091,2,0,L|28:360,1,107.999996704102
180,192,106364,2,0,L|232:88,1,107.999996704102,8|0,0:0|0:0,0:0:0:0:
384,248,106637,2,0,B|320:192|320:192|312:256|192:252,1,215.999993408203
312,68,107182,5,0,0:0:0:0:
96,96,107319,1,0,0:0:0:0:
284,204,107455,1,8,0:0:0:0:
157,31,107591,1,0,0:0:0:0:
348,168,107728,1,0,0:0:0:0:
132,168,107864,1,0,0:0:0:0:
348,168,108000,6,0,P|420:204|400:352,1,215.999993408203
204,280,108410,1,0,0:0:0:0:
40,140,108546,2,0,L|141:101,1,107.999996704102,8|0,0:0|0:0,0:0:0:0:
444,118,108819,2,0,L|312:186,1,107.999996704102
172,177,109091,5,0,0:0:0:0:
134,307,109228,1,0,0:0:0:0:
55,226,109364,2,0,L|23:189,1,45
88,71,109637,5,8,0:0:0:0:
172,177,109773,1,0,0:0:0:0:
298,272,109910,2,0,L|352:284,1,45
444,118,110182,5,0,0:0:0:0:
291,174,110319,1,0,0:0:0:0:
307,78,110455,5,0,0:0:0:0:
156,89,110591,1,0,0:0:0:0:
101,230,110728,1,8,0:0:0:0:
215,327,110864,1,0,0:0:0:0:
365,317,111000,2,0,P|409:281|395:153,1,161.999995056153
415,181,111273,2,0,P|359:225|255:238,1,161.999995056153
143,228,111546,5,0,0:0:0:0:
252,72,111682,1,0,0:0:0:0:
20,144,111819,1,8,0:0:0:0:
227,180,111955,1,0,0:0:0:0:
382,57,112091,1,0,0:0:0:0:
271,240,112228,1,0,0:0:0:0:
20,144,112364,5,2,0:0:0:0:
143,228,112500,1,2,0:0:0:0:
16,320,112637,1,2,0:0:0:0:
192,61,112910,5,8,0:0:0:0:
59,232,113046,1,8,0:0:0:0:
270,315,113182,2,0,P|323:341|411:340,1,107.999996704102
444,226,113455,2,0,B|480:162|480:162|384:218|384:218|423:128|423:128|263:124,1,431.999986816407,0|8,0:0|0:0,0:0:0:0:
170,129,114137,6,0,L|104:132,2,53.9999983520508
384,160,114410,1,0,0:0:0:0:
188,252,114546,1,0,0:0:0:0:
104,52,114682,1,0,0:0:0:0:
320,64,114819,1,0,0:0:0:0:
170,129,114955,1,0,0:0:0:0:
348,216,115091,2,0,L|480:216,1,107.999996704102,8|0,0:0|0:0,0:0:0:0:
276,96,115364,2,0,B|184:72|184:20|184:20|124:104|96:68,1,215.999993408203
276,268,115910,5,0,0:0:0:0:
404,96,116046,1,0,0:0:0:0:
188,104,116182,1,8,0:0:0:0:
368,224,116319,1,0,0:0:0:0:
280,28,116455,1,0,0:0:0:0:
120,78,116591,1,0,0:0:0:0:
33,276,116728,1,0,0:0:0:0:
246,197,116864,1,0,0:0:0:0:
16,180,117000,1,0,0:0:0:0:
188,104,117137,1,0,0:0:0:0:
309,143,117273,6,0,P|258:169|249:233,1,90,8|0,0:0|0:0,0:0:0:0:
309,143,117546,2,0,P|358:176|369:235,1,90,8|0,0:0|0:0,0:0:0:0:
382,221,117819,2,0,P|322:245|238:173,1,161.999995056153
270,70,118091,2,0,L|370:51,1,80.9999975280763
412,83,118364,5,8,0:0:0:0:
184,136,118500,1,0,0:0:0:0:
332,292,118637,1,0,0:0:0:0:
412,83,118773,1,0,0:0:0:0:
245,196,118910,1,0,0:0:0:0:
423,149,119046,1,0,0:0:0:0:
287,43,119182,2,0,P|231:70|209:132,1,107.999996704102,0|8,0:0|0:0,0:0:0:0:
280,304,119591,1,0,0:0:0:0:
423,149,119728,2,0,L|191:105,1,215.999993408203
140,280,120273,5,0,0:0:0:0:
277,194,120410,1,0,0:0:0:0:
146,109,120546,6,0,L|109:49,1,53.9999983520508,8|0,0:0|0:0,0:0:0:0:
212,135,120682,2,0,P|296:110|312:115,1,107.999996704102,8|0,0:0|0:0,0:0:0:0:
378,196,120955,2,0,L|410:260,1,53.9999983520508,8|0,0:0|0:0,0:0:0:0:
335,273,121091,2,0,P|327:324|264:354,1,107.999996704102,8|0,0:0|0:0,0:0:0:0:
184,266,121364,6,0,L|129:210,1,53.9999983520508,8|0,0:0|0:0,0:0:0:0:
212,135,121637,2,0,L|248:69,1,53.9999983520508,8|0,0:0|0:0,0:0:0:0:
392,127,121910,2,0,P|422:196|396:301,1,161.999995056153
322,331,122182,6,0,B|262:335|190:305|190:305|315:252|315:252|182:242|182:242|210:105,1,540.000020599366
376,56,123410,1,0,0:0:0:0:
160,72,123546,2,0,L|24:72,1,107.999996704102,8|0,0:0|0:0,0:0:0:0:
268,76,123819,2,8,L|388:76,1,107.999996704102,8|0,0:0|0:0,0:0:0:0:
480,264,124091,2,0,L|236:164,1,215.999993408203
96,280,124637,5,0,0:0:0:0:
260,140,124773,1,0,0:0:0:0:
44,136,124910,1,8,0:0:0:0:
224,252,125046,1,0,0:0:0:0:
408,140,125182,1,0,0:0:0:0:
204,64,125319,1,0,0:0:0:0:
36,200,125455,2,0,B|84:144|84:144|92:100|120:224|220:220,1,215.999993408203
244,360,125864,1,0,0:0:0:0:
476,200,126000,2,0,B|428:144|428:144|420:100|405:180|354:193,1,161.999995056153,8|0,0:0|0:0,0:0:0:0:
180,242,126273,2,0,B|115:233|115:233|72:128,1,161.999995056153
68,120,126546,6,0,B|132:64|132:64|156:128|156:128|212:80|212:80|228:156|228:156|288:108|288:108|312:184|312:184|336:160,1,472.500018024445
466,258,127637,5,0,0:0:0:0:
322,352,127773,1,0,0:0:0:0:
192,264,127910,2,0,L|48:240,1,107.999996704102
260,116,128182,2,0,L|404:140,1,107.999996704102,8|0,0:0|0:0,0:0:0:0:
160,200,128455,2,0,B|44:184|44:184|80:248|48:312,1,215.999993408203
472,256,129000,5,0,0:0:0:0:
324,100,129137,1,0,0:0:0:0:
160,200,129273,1,8,0:0:0:0:
289,346,129410,1,0,0:0:0:0:
395,164,129546,1,0,0:0:0:0:
200,100,129682,1,0,0:0:0:0:
72,248,129819,5,2,0:0:0:0:
289,346,129955,1,2,0:0:0:0:
200,100,130091,1,2,0:0:0:0:
72,248,130228,1,0,0:0:0:0:
284,172,130364,5,8,0:0:0:0:
172,350,130500,1,8,0:0:0:0:
116,172,130637,2,0,P|112:96|191:37,1,161.999995056153
248,56,130910,2,0,P|316:116|163:350,1,431.999986816407,0|8,0:0|0:0,0:0:0:0:
96,200,131591,6,0,L|32:200,2,53.9999983520508
312,208,131864,1,0,0:0:0:0:
132,88,132000,1,0,0:0:0:0:
188,296,132137,1,0,0:0:0:0:
268,168,132273,6,0,L|272:328,1,107.999996704102
203,163,132546,2,0,L|203:39,1,107.999996704102,8|0,0:0|0:0,0:0:0:0:
424,148,132819,2,0,P|432:216|344:280,1,161.999995056153
336,288,133091,2,0,P|272:280|216:177,1,161.999995056153
268,168,133364,5,0,0:0:0:0:
388,56,133500,1,0,0:0:0:0:
203,55,133637,1,8,0:0:0:0:
83,193,133773,1,0,0:0:0:0:
199,336,133910,1,0,0:0:0:0:
375,287,134046,1,0,0:0:0:0:
373,103,134182,5,0,0:0:0:0:
203,55,134319,1,0,0:0:0:0:
83,193,134455,1,0,0:0:0:0:
199,336,134591,1,0,0:0:0:0:
176,232,134728,2,0,P|188:172|224:118,1,107.999996704102,8|0,0:0|0:0,0:0:0:0:
212,131,135000,2,0,P|258:94|388:83,1,161.999995056153,8|0,0:0|0:0,0:0:0:0:
429,107,135273,2,0,P|460:141|467:259,1,161.999995056153
470,253,135546,2,0,L|250:326,1,215.999993408203,0|8,0:0|0:0,0:0:0:0:
100,184,135955,5,0,0:0:0:0:
260,40,136091,1,0,0:0:0:0:
200,248,136228,1,0,0:0:0:0:
148,40,136364,1,0,0:0:0:0:
324,164,136500,1,0,0:0:0:0:
128,236,136637,6,0,P|137:262|156:289,1,53.9999983520508
168,300,136773,2,0,L|226:325|226:325,1,53.9999983520508
240,328,136910,2,0,P|312:328|348:288,1,107.999996704102,8|0,0:0|0:0,0:0:0:0:
379,273,137182,2,0,P|415:225|343:85,1,215.999993408203
146,81,137728,5,0,0:0:0:0:
76,284,137864,1,0,0:0:0:0:
216,338,138000,6,0,L|261:305,1,53.9999983520508,8|0,0:0|0:0,0:0:0:0:
302,291,138182,1,0,0:0:0:0:
336,264,138273,1,0,0:0:0:0:
328,156,138410,6,0,L|312:98,1,53.9999983520508,8|0,0:0|0:0,0:0:0:0:
280,73,138546,1,0,0:0:0:0:
243,95,138637,1,0,0:0:0:0:
232,136,138728,1,0,0:0:0:0:
216,295,138819,6,0,L|199:354,1,53.9999983520508,8|0,0:0|0:0,0:0:0:0:
72,246,139091,6,0,L|94:185,1,53.9999983520508,8|0,0:0|0:0,0:0:0:0:
50,135,139273,1,0,0:0:0:0:
54,102,139364,2,0,P|113:72|290:62,1,215.999993408203,0|0,0:0|0:0,0:0:0:0:
