osu file format v14

[General]
AudioFilename: Deorro-Red Lips.mp3
AudioLeadIn: 0
PreviewTime: 34904
Countdown: 0
SampleSet: Soft
StackLeniency: 0.6
Mode: 0
LetterboxInBreaks: 1
WidescreenStoryboard: 1

[Editor]
Bookmarks: 133904
DistanceSpacing: 0.4
BeatDivisor: 4
GridSize: 4
TimelineZoom: 3.199999

[Metadata]
Title:Red Lips
TitleUnicode:Red Lips
Artist:Deorro
ArtistUnicode:Deorro
Creator:BoostMine
Version:Insane
Source:technical
Tags:electronic dubstep glitch hop
BeatmapID:1810219
BeatmapSetID:865082

[Difficulty]
HPDrainRate:6
CircleSize:3.7
OverallDifficulty:6
ApproachRate:8.5
SliderMultiplier:1.4
SliderTickRate:1

[Events]
//Background and Video events
0,0,"46863_anime_girls.jpg",0,0
//Break Periods
2,32922,33609
//Storyboard Layer 0 (Background)
//Storyboard Layer 1 (Fail)
//Storyboard Layer 2 (Pass)
//Storyboard Layer 3 (Foreground)
//Storyboard Sound Samples

[TimingPoints]
10904,272.727272727273,4,2,1,80,1,0
34904,-66.6666666666667,4,2,1,80,0,1
35175,-100,4,2,1,80,0,1
42540,-66.6666666666667,4,2,44,20,0,1
42949,-66.6666666666667,4,2,1,80,0,1
43631,-100,4,2,1,80,0,1
49358,-133.333333333333,4,2,1,80,0,1
50449,-83.3333333333333,4,2,1,80,0,1
54267,-133.333333333333,4,2,1,80,0,1
54608,-83.3333333333333,4,2,1,80,0,1
58631,-125,4,2,1,80,0,1
59176,-83.3333333333333,4,2,1,80,0,1
59994,-83.3333333333333,4,2,44,20,0,1
60335,-83.3333333333333,4,2,1,80,0,1
69949,-83.3333333333333,4,2,1,80,0,0
95994,-83.3333333333333,4,2,1,80,0,0
104722,-100,4,2,1,80,0,1
105949,-83.3333333333333,4,2,1,80,0,1
109085,-200,4,2,1,80,0,1
110176,-83.3333333333333,4,2,1,80,0,1
112358,-83.3333333333333,4,2,44,20,0,1
112699,-83.3333333333333,4,2,1,80,0,1
118084,-142.857142857143,4,2,1,80,0,1
118357,-83.3333333333333,4,2,1,80,0,1
119175,-166.666666666667,4,2,1,80,0,1
119448,-83.3333333333333,4,2,1,80,0,1
122176,-133.333333333333,4,2,1,80,0,1
122313,-83.3333333333333,4,2,1,30,0,1
123404,-83.3333333333333,4,2,1,80,0,1
126540,-100,4,2,1,80,0,1
127767,-83.3333333333333,4,2,1,80,0,1
129813,-83.3333333333333,4,2,44,20,0,1
130154,-83.3333333333333,4,2,1,80,0,1
134176,-100,4,2,1,80,0,1
134722,-83.3333333333333,4,2,1,80,0,1
139630,-83.3333333333333,4,2,1,80,0,0

[Colours]
Combo1 : 185,103,66
Combo2 : 254,237,209
Combo3 : 98,172,173
Combo4 : 88,59,77

[HitObjects]
256,192,10904,12,0,17176,0:0:0:0:
228,129,17449,6,0,P|194:62|118:40,1,140
97,97,17994,5,0,0:0:0:0:
108,117,18085,1,0,0:0:0:0:
114,139,18176,1,0,0:0:0:0:
115,162,18267,1,0,0:0:0:0:
112,185,18358,1,0,0:0:0:0:
105,207,18449,1,0,0:0:0:0:
99,229,18540,5,0,0:0:0:0:
105,251,18631,1,0,0:0:0:0:
123,264,18722,1,0,0:0:0:0:
145,268,18813,1,0,0:0:0:0:
167,263,18904,1,0,0:0:0:0:
163,240,18994,1,0,0:0:0:0:
140,235,19085,5,0,0:0:0:0:
120,247,19176,1,0,0:0:0:0:
120,270,19267,1,0,0:0:0:0:
128,291,19358,1,0,0:0:0:0:
146,305,19449,1,0,0:0:0:0:
167,313,19540,1,0,0:0:0:0:
198,315,19631,2,0,P|268:321|332:289,1,140
424,189,20176,5,0,0:0:0:0:
414,167,20267,1,0,0:0:0:0:
398,149,20358,1,0,0:0:0:0:
376,140,20449,1,0,0:0:0:0:
352,142,20540,1,0,0:0:0:0:
333,156,20631,1,0,0:0:0:0:
317,173,20722,5,0,0:0:0:0:
293,171,20813,1,0,0:0:0:0:
271,161,20904,1,0,0:0:0:0:
251,148,20994,1,0,0:0:0:0:
227,145,21085,1,0,0:0:0:0:
207,157,21176,1,0,0:0:0:0:
187,169,21267,5,0,0:0:0:0:
164,161,21358,1,0,0:0:0:0:
156,138,21449,1,0,0:0:0:0:
164,116,21540,1,0,0:0:0:0:
181,100,21631,1,0,0:0:0:0:
202,89,21722,1,0,0:0:0:0:
224,82,21813,2,0,P|268:135|264:211,1,140
158,261,22358,5,0,0:0:0:0:
136,252,22449,1,0,0:0:0:0:
120,234,22540,1,0,0:0:0:0:
113,211,22631,1,0,0:0:0:0:
118,188,22722,1,0,0:0:0:0:
129,167,22813,1,0,0:0:0:0:
146,151,22904,5,0,0:0:0:0:
166,141,22994,1,0,0:0:0:0:
189,138,23085,1,0,0:0:0:0:
212,139,23176,1,0,0:0:0:0:
230,153,23267,1,0,0:0:0:0:
248,167,23358,1,0,0:0:0:0:
263,184,23449,5,0,0:0:0:0:
276,203,23540,1,0,0:0:0:0:
277,226,23631,1,0,0:0:0:0:
270,248,23722,1,0,0:0:0:0:
255,266,23813,1,0,0:0:0:0:
245,287,23904,1,0,0:0:0:0:
228,303,23994,2,0,P|162:325|87:303,1,140
92,188,24540,5,0,0:0:0:0:
105,168,24631,1,0,0:0:0:0:
126,158,24722,1,0,0:0:0:0:
147,148,24813,1,0,0:0:0:0:
169,143,24904,1,0,0:0:0:0:
191,140,24994,1,0,0:0:0:0:
214,141,25085,5,0,0:0:0:0:
236,145,25176,1,0,0:0:0:0:
257,155,25267,1,0,0:0:0:0:
277,165,25358,1,0,0:0:0:0:
297,176,25449,1,0,0:0:0:0:
320,172,25540,1,0,0:0:0:0:
342,165,25631,5,0,0:0:0:0:
362,153,25722,1,0,0:0:0:0:
354,130,25813,1,0,0:0:0:0:
337,113,25904,1,0,0:0:0:0:
318,98,25994,1,0,0:0:0:0:
296,88,26085,1,0,0:0:0:0:
273,81,26176,2,0,P|228:82|114:199,1,210
185,196,26722,5,0,0:0:0:0:
50,232,26994,1,0,0:0:0:0:
185,196,27267,2,0,P|256:294|339:308,1,210
377,249,27813,1,0,0:0:0:0:
267,156,28085,1,0,0:0:0:0:
130,188,28358,6,0,P|188:311|253:320,1,210
259,250,28904,1,0,0:0:0:0:
130,188,29176,1,0,0:0:0:0:
203,68,29449,6,0,P|322:58|394:138,1,210
326,154,29994,1,0,0:0:0:0:
203,68,30267,1,0,0:0:0:0:
79,133,30540,5,8,0:0:0:0:
51,197,30676,1,0,0:0:0:0:
51,197,30813,2,0,L|62:290,1,70
123,294,31085,5,8,0:0:0:0:
124,223,31222,1,0,0:0:0:0:
124,223,31358,2,0,L|155:142,1,70
219,162,31631,5,8,0:0:0:0:
202,229,31767,1,0,0:0:0:0:
202,229,31904,2,0,L|201:306,1,70
270,305,32176,5,8,0:0:0:0:
281,235,32313,1,0,0:0:0:0:
281,235,32449,2,0,L|303:153,1,70
375,239,32722,1,8,0:0:0:0:
252,192,34358,5,8,0:0:0:0:
371,82,34904,6,0,L|323:82,3,33.7500012874604
249,95,35176,6,0,L|175:68,1,70
153,134,35449,2,0,L|237:167,1,70
203,229,35722,2,0,L|113:197,1,70
109,269,35994,2,0,L|204:300,1,70
245,291,36267,1,0,0:0:0:0:
273,355,36404,1,0,0:0:0:0:
318,302,36540,1,0,0:0:0:0:
348,364,36676,1,0,0:0:0:0:
410,322,36813,2,0,L|366:230,1,70
357,192,37085,2,0,B|274:174,1,70
254,109,37358,5,0,0:0:0:0:
180,121,37494,1,0,0:0:0:0:
164,189,37631,2,0,L|229:258,1,70
279,259,37904,1,0,0:0:0:0:
348,262,38040,1,0,0:0:0:0:
348,262,38176,2,0,L|370:171,1,70
432,212,38449,2,0,L|408:304,1,70
344,352,38722,2,0,L|294:347,2,35,8|0|0,0:0|0:0|0:0,0:0:0:0:
264,271,38994,2,0,L|214:266,2,35,8|0|0,0:0|0:0|0:0,0:0:0:0:
111,269,39267,6,0,B|160:332|160:332,1,70
192,254,39540,5,0,0:0:0:0:
175,180,39676,1,0,0:0:0:0:
235,136,39813,2,0,L|293:203,1,70
272,266,40085,5,0,0:0:0:0:
192,254,40222,1,0,0:0:0:0:
220,329,40358,1,0,0:0:0:0:
143,317,40494,1,0,0:0:0:0:
110,246,40631,6,0,L|46:193,1,70
68,164,40904,2,0,P|97:110|164:71,1,105.000004005432,8|0,0:0|0:0,0:0:0:0:
194,125,41176,6,0,B|206:162|206:162|238:180|238:180|250:216|250:216,1,105.000004005432
315,190,41449,2,0,B|288:161|288:161|288:134|288:134|255:102,1,105
236,55,41722,5,0,0:0:0:0:
313,38,41858,1,0,0:0:0:0:
357,98,41994,2,0,L|409:174,1,70
451,169,42267,2,0,L|492:238,1,70
484,313,42540,5,2,0:0:0:0:
401,299,42676,1,2,0:0:0:0:
366,221,42813,1,2,0:0:0:0:
302,290,43085,5,8,0:0:0:0:
249,223,43222,1,8,0:0:0:0:
268,141,43358,1,0,0:0:0:0:
376,148,43631,6,0,L|332:217,1,70
268,141,43904,5,0,0:0:0:0:
268,141,44040,1,0,0:0:0:0:
211,99,44176,2,0,L|270:143,1,70
266,84,44449,1,0,0:0:0:0:
325,71,44585,1,0,0:0:0:0:
336,152,44722,2,0,L|259:139,1,70
193,143,44994,6,0,L|222:178,2,35
187,217,45267,2,0,B|108:209|108:209|71:229,1,105.000004005432,8|0,0:0|0:0,0:0:0:0:
70,254,45540,6,0,B|116:288|191:266,1,105.000004005432,0|0,0:0|0:0,0:3:0:0:
207,235,45813,2,0,P|269:215|324:231,1,105
345,238,46085,5,0,0:0:0:0:
340,153,46222,1,0,0:0:0:0:
263,119,46358,2,0,L|197:90,1,70
340,153,46631,2,0,L|422:188,1,70
404,180,46904,1,0,0:0:0:0:
404,180,47040,1,0,0:0:0:0:
299,190,47176,1,0,0:0:0:0:
299,190,47313,1,0,0:0:0:0:
255,212,47449,6,0,L|214:278,1,70,8|0,0:0|0:0,0:0:0:0:
181,190,47722,6,0,L|128:137,1,70,8|0,0:0|0:0,0:0:0:0:
175,77,47994,2,0,B|258:64|258:64|299:58,1,105
331,62,48267,5,0,0:0:0:0:
309,108,48404,1,0,0:0:0:0:
351,143,48540,1,8,0:0:0:0:
320,190,48676,1,0,0:0:0:0:
369,217,48813,1,0,0:0:0:0:
343,266,48949,1,0,0:0:0:0:
396,283,49085,1,0,0:0:0:0:
361,327,49222,1,0,0:0:0:0:
321,341,49358,2,0,L|256:336,1,52.5000020027161
246,301,49631,2,0,L|189:296,1,52.5000020027161,8|0,0:0|0:0,0:0:0:0:
179,256,49904,2,0,B|158:194|158:194|107:186|107:186,1,105.000004005432
135,117,50449,6,0,L|209:76,1,83.9999974365235
296,123,50722,2,0,L|408:134,1,83.9999974365235,8|0,0:0|0:0,0:0:0:0:
427,273,51131,2,0,L|511:343,1,83.9999974365235
401,312,51540,6,0,L|305:312,1,83.9999974365235
288,347,51813,2,0,L|201:348,1,83.9999974365235,8|0,0:0|0:0,0:0:0:0:
168,319,52085,2,0,P|144:232|169:151,1,167.999994873047
316,196,52631,5,0,0:0:0:0:
233,138,52767,1,0,0:0:0:0:
328,103,52904,1,8,0:0:0:0:
228,216,53040,1,0,0:0:0:0:
233,138,53176,2,0,L|282:68,1,83.9999974365235
194,69,53449,2,0,L|129:-3,1,83.9999974365235
104,94,53722,5,8,0:0:0:0:
64,182,53858,5,8,0:0:0:0:
135,258,53994,6,0,L|221:331,1,83.9999974365235,8|0,0:0|0:0,0:0:0:0:
263,273,54267,2,0,B|279:255|287:226|287:226|314:262|344:248,1,105.000004005432
403,70,54813,5,0,0:0:0:0:
313,131,54949,1,0,0:0:0:0:
345,26,55085,1,8,0:0:0:0:
376,131,55222,1,0,0:0:0:0:
288,65,55358,1,0,0:0:0:0:
403,70,55494,1,0,0:0:0:0:
313,131,55631,2,0,L|285:238,1,83.9999974365235
349,305,55904,2,0,L|376:208,1,83.9999974365235
291,212,56176,6,0,P|271:272|299:311,1,83.9999974365235,8|0,0:0|0:0,0:0:0:0:
371,224,56449,2,0,P|374:177|341:126,1,83.9999974365235,8|0,0:0|0:0,0:0:0:0:
287,127,56722,2,0,P|234:147|206:209,1,125.999996154785
170,242,56994,6,0,L|99:314,1,83.9999974365235
118,200,57267,2,0,L|190:134,1,83.9999974365235
78,148,57540,2,0,L|5:209,1,83.9999974365235
53,69,57813,2,0,P|94:61|146:66,1,83.9999974365235
229,94,58085,2,0,L|188:179,1,83.9999974365235
287,133,58358,2,0,L|328:41,1,83.9999974365235,8|0,0:0|0:0,0:0:0:0:
367,146,58631,2,0,B|360:189|360:189|317:174|296:216,1,112
221,179,59176,5,0,0:0:0:0:
259,123,59313,1,0,0:0:0:0:
201,89,59449,2,0,L|104:70,1,83.9999974365235
69,123,59722,1,0,0:0:0:0:
139,148,59858,1,0,0:0:0:0:
151,235,59994,5,2,0:0:0:0:
192,313,60131,1,2,0:0:0:0:
253,255,60267,1,2,0:0:0:0:
351,285,60540,5,8,0:0:0:0:
426,248,60676,1,8,0:0:0:0:
361,194,60813,1,0,0:0:0:0:
192,52,61085,6,0,B|150:24|150:24|88:95,1,125.999996154785
77,110,61358,6,0,L|9:206,1,83.9999974365235
47,221,61631,2,0,L|133:199,1,83.9999974365235
186,261,61904,2,0,L|237:343,1,83.9999974365235
273,319,62176,2,0,L|371:292,1,83.9999974365235
344,212,62449,1,0,0:0:0:0:
262,231,62585,1,0,0:0:0:0:
194,169,62722,6,0,L|303:135,1,83.9999974365235,8|0,0:0|0:0,0:0:0:0:
214,84,62994,2,0,B|150:44|166:112|50:100|47:45,1,167.999994873047
278,38,63540,5,0,0:0:0:0:
248,116,63676,1,0,0:0:0:0:
331,101,63813,2,0,L|373:3,1,83.9999974365235
413,91,64085,1,0,0:0:0:0:
382,167,64222,1,0,0:0:0:0:
346,242,64358,6,0,L|319:304,2,55.9999982910157
272,287,64631,2,0,L|244:344,2,55.9999982910157
265,210,64904,6,0,L|325:143,1,83.9999974365235,8|0,0:0|0:0,0:0:0:0:
190,230,65176,2,0,L|114:307,1,83.9999974365235,8|0,0:0|0:0,0:0:0:0:
218,152,65449,2,0,L|174:149,2,41.9999987182618
265,210,65722,5,0,0:0:0:0:
321,147,65858,1,0,0:0:0:0:
307,81,65994,2,0,L|207:38,1,83.9999974365235
180,82,66267,1,0,0:0:0:0:
135,153,66404,1,0,0:0:0:0:
181,206,66540,6,0,L|91:270,1,83.9999974365235
224,206,66813,2,0,L|258:112,1,83.9999974365235
267,222,67085,2,0,L|315:316,1,83.9999974365235,8|0,0:0|0:0,0:0:0:0:
385,270,67358,2,0,L|442:100,1,167.999994873047
300,13,67904,2,0,L|204:85,1,83.9999974365235
290,123,68176,6,0,L|268:204,1,83.9999974365235,8|0,0:0|0:0,0:0:0:0:
390,319,68585,2,0,L|303:356,1,83.9999974365235,8|0,0:0|0:0,0:0:0:0:
331,184,68994,2,0,L|424:126,1,83.9999974365235,8|0,0:0|0:0,0:0:0:0:
296,258,69267,2,0,L|208:319,1,83.9999974365235,8|0,0:0|0:0,0:0:0:0:
153,263,69540,2,0,P|128:231|117:175,1,83.9999974365235
116,189,69813,5,0,0:0:0:0:
240,223,70358,1,0,0:0:0:0:
162,121,70904,1,0,0:0:0:0:
338,74,71449,1,0,0:0:0:0:
146,68,71994,1,0,0:0:0:0:
335,133,72540,1,0,0:0:0:0:
105,201,73085,1,0,0:0:0:0:
330,256,73631,1,0,0:0:0:0:
47,346,74176,1,0,0:0:0:0:
405,234,74722,5,0,0:0:0:0:
138,280,75267,1,0,0:0:0:0:
367,151,75813,1,0,0:0:0:0:
295,312,76358,1,0,0:0:0:0:
86,82,76904,1,0,0:0:0:0:
423,58,77449,5,0,0:0:0:0:
361,115,77585,1,0,0:0:0:0:
436,152,77722,1,0,0:0:0:0:
322,196,77994,5,8,0:0:0:0:
384,252,78131,1,8,0:0:0:0:
315,300,78267,1,0,0:0:0:0:
145,82,78540,5,0,0:0:0:0:
104,238,78813,2,0,L|213:173,1,125.999996154785
299,165,79085,1,8,0:0:0:0:
128,144,79358,1,0,0:0:0:0:
259,108,79631,5,0,0:0:0:0:
380,147,79767,1,0,0:0:0:0:
300,225,79904,1,0,0:0:0:0:
300,225,80040,1,0,0:0:0:0:
300,225,80176,2,0,P|251:226|199:206,1,83.9999974365235,8|0,0:0|0:0,0:0:0:0:
208,164,80449,1,0,0:0:0:0:
96,147,80722,5,0,0:0:0:0:
138,246,80994,1,0,0:0:0:0:
208,164,81267,1,8,0:0:0:0:
265,255,81540,2,0,L|366:328,1,107.999996704102
409,189,81813,5,0,0:0:0:0:
370,144,81949,1,0,0:0:0:0:
325,106,82085,1,8,0:0:0:0:
271,80,82222,2,0,P|210:62|185:59,1,83.9999974365235,8|8,0:0|0:0,0:0:0:0:
270,156,82631,1,0,0:0:0:0:
155,128,82904,1,0,0:0:0:0:
115,277,83176,5,0,0:0:0:0:
150,229,83313,1,0,0:0:0:0:
198,261,83449,2,0,L|280:336,1,83.9999974365235,8|0,0:0|0:0,0:0:0:0:
291,231,83722,2,0,L|224:171,1,83.9999974365235
320,146,83994,2,0,L|389:212,1,83.9999974365235
320,146,84267,5,0,0:0:0:0:
263,128,84404,1,0,0:0:0:0:
205,118,84540,2,0,L|233:308,1,167.999994873047,8|0,0:0|0:0,0:0:0:0:
338,239,85085,6,0,L|327:136,1,83.9999974365235
278,67,85358,5,0,0:0:0:0:
238,159,85494,1,0,0:0:0:0:
148,112,85631,2,0,P|134:159|152:220,1,83.9999974365235,8|8,0:0|0:0,0:0:0:0:
340,198,86040,6,0,P|355:246|347:281,1,83.9999974365235,8|8,0:0|0:0,0:0:0:0:
278,248,86449,2,0,P|260:201|266:166,1,83.9999974365235,8|0,0:0|0:0,0:0:0:0:
347,109,86722,2,0,P|288:75|193:96,1,167.999994873047,8|0,0:0|0:0,0:0:0:0:
130,131,87267,6,0,P|189:166|187:91,1,167.999994873047
115,60,87813,5,0,0:0:0:0:
104,85,87904,1,0,0:0:0:0:
97,111,87994,1,0,0:0:0:0:
95,139,88085,1,0,0:0:0:0:
104,165,88176,1,0,0:0:0:0:
118,189,88267,1,0,0:0:0:0:
136,210,88358,5,0,0:0:0:0:
157,228,88449,1,0,0:0:0:0:
179,244,88540,1,0,0:0:0:0:
204,255,88631,1,0,0:0:0:0:
230,264,88722,1,0,0:0:0:0:
257,267,88813,1,0,0:0:0:0:
284,261,88904,1,0,0:0:0:0:
305,243,88994,5,0,0:0:0:0:
313,216,89085,1,0,0:0:0:0:
299,191,89176,1,0,0:0:0:0:
281,168,89267,1,0,0:0:0:0:
256,154,89358,1,0,0:0:0:0:
230,142,89449,2,0,B|192:113|111:117|199:228,1,167.999994873047
111,238,89994,5,0,0:0:0:0:
100,212,90085,1,0,0:0:0:0:
93,184,90176,1,0,0:0:0:0:
89,156,90267,1,0,0:0:0:0:
92,128,90358,1,0,0:0:0:0:
102,101,90449,1,0,0:0:0:0:
120,79,90540,5,0,0:0:0:0:
144,64,90631,1,0,0:0:0:0:
170,54,90722,1,0,0:0:0:0:
197,48,90813,1,0,0:0:0:0:
224,54,90904,1,0,0:0:0:0:
248,66,90994,1,0,0:0:0:0:
270,82,91085,1,0,0:0:0:0:
290,100,91176,5,0,0:0:0:0:
307,121,91267,1,0,0:0:0:0:
316,147,91358,1,0,0:0:0:0:
318,174,91449,1,0,0:0:0:0:
313,201,91540,1,0,0:0:0:0:
285,208,91631,2,0,B|211:190|261:143|393:129,1,167.999994873047
320,58,92176,5,0,0:0:0:0:
296,43,92267,1,0,0:0:0:0:
269,34,92358,1,0,0:0:0:0:
242,42,92449,1,0,0:0:0:0:
222,61,92540,1,0,0:0:0:0:
221,89,92631,1,0,0:0:0:0:
239,110,92722,1,0,0:0:0:0:
262,125,92813,5,0,0:0:0:0:
284,142,92904,1,0,0:0:0:0:
299,165,92994,1,0,0:0:0:0:
301,192,93085,1,0,0:0:0:0:
289,217,93176,1,0,0:0:0:0:
275,241,93267,1,0,0:0:0:0:
259,264,93358,1,0,0:0:0:0:
232,271,93449,1,0,0:0:0:0:
206,259,93540,5,0,0:0:0:0:
187,237,93631,1,0,0:0:0:0:
182,209,93722,1,0,0:0:0:0:
175,181,93813,2,0,B|158:110|210:121|283:189,1,167.999994873047
366,192,94358,5,0,0:0:0:0:
357,165,94449,1,0,0:0:0:0:
339,143,94540,1,0,0:0:0:0:
316,125,94631,1,0,0:0:0:0:
291,110,94722,1,0,0:0:0:0:
265,98,94813,1,0,0:0:0:0:
236,96,94904,1,0,0:0:0:0:
208,102,94994,5,0,0:0:0:0:
181,111,95085,1,0,0:0:0:0:
159,129,95176,1,0,0:0:0:0:
147,154,95267,1,0,0:0:0:0:
141,181,95358,1,0,0:0:0:0:
146,208,95449,1,0,0:0:0:0:
162,230,95540,1,0,0:0:0:0:
183,248,95631,1,0,0:0:0:0:
207,262,95722,1,0,0:0:0:0:
231,275,95813,1,0,0:0:0:0:
257,283,95904,1,0,0:0:0:0:
303,284,95994,6,0,P|345:287|400:251,1,83.9999974365235
423,196,96267,2,0,P|369:189|325:215,1,83.9999974365235
303,284,96540,1,0,0:0:0:0:
224,174,96813,1,0,0:0:0:0:
117,213,97085,6,0,P|102:258|118:308,1,83.9999974365235
174,341,97358,2,0,P|185:297|176:254,1,83.9999974365235
117,213,97631,1,0,0:0:0:0:
243,167,97904,1,0,0:0:0:0:
280,72,98176,6,0,P|331:42|381:42,1,83.9999974365235
342,122,98449,2,0,P|306:147|255:146,1,83.9999974365235
201,95,98722,1,0,0:0:0:0:
354,38,98994,1,0,0:0:0:0:
354,38,99267,6,0,P|405:8|455:8,1,83.9999974365235
414,77,99540,2,0,P|378:102|327:101,1,83.9999974365235
273,51,99813,1,0,0:0:0:0:
141,77,100085,1,0,0:0:0:0:
22,196,100358,5,8,0:0:0:0:
61,250,100494,1,0,0:0:0:0:
61,250,100631,1,0,0:0:0:0:
61,250,100767,1,0,0:0:0:0:
119,216,100904,5,8,0:0:0:0:
173,176,101040,1,0,0:0:0:0:
173,176,101176,1,0,0:0:0:0:
173,176,101313,1,0,0:0:0:0:
237,195,101449,5,8,0:0:0:0:
247,261,101585,1,0,0:0:0:0:
247,261,101722,1,0,0:0:0:0:
247,261,101858,1,0,0:0:0:0:
292,310,101994,5,8,0:0:0:0:
347,271,102131,1,0,0:0:0:0:
347,271,102267,1,0,0:0:0:0:
347,271,102404,1,0,0:0:0:0:
399,312,102540,1,8,0:0:0:0:
116,124,104176,5,8,0:0:0:0:
308,288,104722,2,0,B|446:282|446:282|312:238|312:238|450:207|450:207,1,420
368,129,105813,5,0,0:0:0:0:
368,129,105949,1,0,0:0:0:0:
278,195,106085,2,0,L|229:289,1,83.9999974365235
218,162,106358,2,0,L|264:74,1,83.9999974365235,8|0,0:0|0:0,0:0:0:0:
173,227,106631,2,0,B|113:177|113:177|90:227|7:227,1,167.999994873047
178,53,107176,6,0,L|81:107,1,83.9999974365235
278,70,107449,2,0,L|195:122,1,83.9999974365235
162,218,107722,2,0,L|262:158,1,83.9999974365235
300,170,107994,6,0,P|372:206|383:300,1,167.999994873047
204,280,108404,1,0,0:0:0:0:
88,209,108540,2,0,L|200:164,1,83.9999974365235,8|0,0:0|0:0,0:0:0:0:
374,147,108813,2,0,L|293:183,1,83.9999974365235
186,239,109085,6,0,P|119:269|119:269,1,70
297,283,109631,2,0,L|373:247,1,70
439,104,110176,5,0,0:0:0:0:
334,188,110313,1,0,0:0:0:0:
271,69,110449,1,0,0:0:0:0:
222,194,110585,1,0,0:0:0:0:
93,235,110722,2,0,L|201:285,1,83.9999974365235
319,304,110994,2,0,P|363:268|392:188,1,125.999996154785
354,182,111267,2,0,P|330:202|226:229,1,125.999996154785
198,229,111540,5,0,0:0:0:0:
207,123,111676,1,0,0:0:0:0:
89,141,111813,1,8,0:0:0:0:
254,207,111949,1,0,0:0:0:0:
330,118,112085,1,0,0:0:0:0:
391,219,112222,1,0,0:0:0:0:
391,219,112358,6,2,L|438:293,2,83.9999974365235
330,118,112904,5,8,0:0:0:0:
219,157,113040,1,8,0:0:0:0:
235,273,113176,2,0,P|288:299|376:298,1,107.999996704102
422,173,113449,2,0,B|458:109|458:109|369:147|369:147|401:75|401:75|287:61,1,335.999989746094,0|8,0:0|0:0,0:0:0:0:
213,126,114131,6,0,L|157:124,2,41.9999987182618
306,166,114404,1,0,0:0:0:0:
260,80,114540,2,0,L|203:-12,1,83.9999974365235
306,166,114813,1,0,0:0:0:0:
422,173,114949,1,0,0:0:0:0:
363,251,115085,2,0,L|293:342,1,83.9999974365235,8|0,0:0|0:0,0:0:0:0:
276,268,115358,2,0,B|222:261|206:211|206:211|175:239|132:252,1,167.999994873047
342,194,115904,5,0,0:0:0:0:
367,285,116040,1,0,0:0:0:0:
264,147,116176,1,8,0:0:0:0:
408,130,116313,1,0,0:0:0:0:
348,70,116449,1,0,0:0:0:0:
265,53,116585,1,0,0:0:0:0:
186,85,116722,6,0,L|128:162,1,83.9999974365235
173,248,116994,6,0,L|228:160,1,83.9999974365235
324,136,117267,6,0,P|364:147|395:192,1,83.9999974365235,8|0,0:0|0:0,0:0:0:0:
324,136,117540,2,0,P|281:152|264:205,1,83.9999974365235,8|0,0:0|0:0,0:0:0:0:
325,195,117813,2,0,P|385:219|445:185,1,125.999996154785
412,92,118085,2,0,P|378:79|326:82,1,73.4999977569581
301,93,118358,6,0,L|213:132,1,83.9999974365235,8|0,0:0|0:0,0:0:0:0:
153,54,118631,1,0,0:0:0:0:
52,53,118767,1,0,0:0:0:0:
68,152,118904,2,0,L|79:237,1,83.9999974365235
128,225,119176,2,0,P|166:195|211:190,1,83.9999974365235,0|8,0:0|0:0,0:0:0:0:
258,271,119585,1,0,0:0:0:0:
346,226,119722,2,0,L|247:90,1,167.999994873047
258,271,120267,1,0,0:0:0:0:
200,189,120404,1,0,0:0:0:0:
156,111,120540,6,0,P|193:73|247:50,1,83.9999974365235,8|0,0:0|0:0,0:0:0:0:
373,128,120949,2,0,P|387:175|384:232,1,83.9999974365235,8|0,0:0|0:0,0:0:0:0:
295,349,121358,6,0,L|231:289,1,83.9999974365235,8|0,0:0|0:0,0:0:0:0:
173,231,121631,2,0,L|248:164,1,83.9999974365235,8|0,0:0|0:0,0:0:0:0:
388,209,121904,2,0,P|413:248|418:298,1,83.9999974365235
295,349,122176,6,0,B|204:296|204:296|279:223|279:223|191:152|191:152,1,315.000012016297
167,72,123267,5,0,0:0:0:0:
238,72,123404,1,0,0:0:0:0:
167,72,123540,2,0,L|80:73,1,83.9999974365235,8|0,0:0|0:0,0:0:0:0:
238,72,123813,2,8,L|324:72,1,83.9999974365235,8|0,0:0|0:0,0:0:0:0:
389,121,124085,2,0,L|254:226,1,167.999994873047
141,295,124631,5,0,0:0:0:0:
187,216,124767,1,0,0:0:0:0:
86,226,124904,2,0,L|13:306,1,83.9999974365235
46,165,125176,2,0,L|130:81,1,83.9999974365235
170,65,125449,2,0,B|218:9|218:9|254:89|311:77,1,167.999994873047
279,76,125858,1,0,0:0:0:0:
363,130,125994,2,0,B|295:189,1,83.9999974365235,8|0,0:0|0:0,0:0:0:0:
225,238,126267,2,0,B|160:229|160:229|103:163,1,125.999996154785
99,141,126540,6,0,B|186:32|186:32|261:151|261:151|356:45|356:45,1,420
426,198,127631,5,0,0:0:0:0:
350,264,127767,1,0,0:0:0:0:
266,217,127904,2,0,L|180:200,1,83.9999974365235
260,116,128176,2,0,L|344:135,1,83.9999974365235,8|0,0:0|0:0,0:0:0:0:
293,45,128449,2,0,B|206:51|206:51|180:133,1,167.999994873047
370,199,128994,6,0,L|302:122,1,83.9999974365235
250,177,129267,2,0,L|314:247,1,83.9999974365235
370,199,129540,1,0,0:0:0:0:
314,136,129676,1,0,0:0:0:0:
245,61,129813,5,2,0:0:0:0:
186,136,129949,1,2,0:0:0:0:
124,56,130085,2,0,P|98:117|107:167,1,83.9999974365235,2|0,0:0|0:0,0:0:0:0:
130,219,130358,5,8,0:0:0:0:
186,136,130494,1,8,0:0:0:0:
98,133,130631,2,0,P|120:58|131:47,1,83.9999974365235
248,56,130904,2,0,P|316:116|218:324,1,335.999989746094,0|8,0:0|0:0,0:0:0:0:
165,253,131585,6,0,L|106:254,2,41.9999987182618
183,153,131858,1,0,0:0:0:0:
228,52,131994,2,0,L|301:116,1,83.9999974365235
288,164,132267,6,0,L|292:324,1,107.999996704102
228,160,132540,2,0,L|228:36,1,107.999996704102,8|0,0:0|0:0,0:0:0:0:
297,72,132813,2,0,P|353:109|396:157,1,125.999996154785
392,202,133085,2,0,L|311:261,1,83.9999974365235
254,324,133358,5,0,0:0:0:0:
212,251,133494,1,0,0:0:0:0:
142,199,133631,2,0,L|121:295,1,83.9999974365235
64,221,133904,1,0,0:0:0:0:
86,135,134040,1,0,0:0:0:0:
115,56,134176,2,0,P|145:73|162:110,3,70
207,33,134722,2,0,P|268:30|335:83,1,125.999996154785,8|0,0:0|0:0,0:0:0:0:
321,63,134994,2,0,P|324:123|296:212,1,125.999996154785,8|0,0:0|0:0,0:0:0:0:
308,186,135267,2,0,P|365:153|400:65,1,125.999996154785
394,102,135540,2,0,L|363:251,1,125.999996154785
358,266,135813,5,8,0:0:0:0:
300,232,135949,1,0,0:0:0:0:
253,183,136085,1,0,0:0:0:0:
216,142,136222,1,0,0:0:0:0:
166,167,136358,5,0,0:0:0:0:
162,200,136494,1,0,0:0:0:0:
158,233,136631,5,0,0:0:0:0:
162,266,136767,1,0,0:0:0:0:
180,293,136904,2,0,L|274:333,1,83.9999974365235,8|0,0:0|0:0,0:0:0:0:
333,300,137176,2,0,P|369:252|336:132,1,167.999994873047
146,81,137722,5,0,0:0:0:0:
76,284,137858,1,0,0:0:0:0:
216,338,137994,6,0,L|287:281,1,83.9999974365235,8|0,0:0|0:0,0:0:0:0:
328,156,138404,6,0,L|285:69,1,83.9999974365235,8|0,0:0|0:0,0:0:0:0:
234,190,138813,6,0,L|219:239,1,41.9999987182618,8|0,0:0|0:0,0:0:0:0:
96,218,139085,6,0,L|95:158,1,41.9999987182618,8|0,0:0|0:0,0:0:0:0:
132,55,139358,2,0,P|215:37|305:47,1,167.999994873047
