osu file format v14

[General]
AudioFilename: victory.mp3
AudioLeadIn: 0
PreviewTime: 127
Countdown: 0
SampleSet: Normal
StackLeniency: 0.7
Mode: 1
LetterboxInBreaks: 0
WidescreenStoryboard: 0

[Editor]
DistanceSpacing: 1
BeatDivisor: 4
GridSize: 32
TimelineZoom: 1

[Metadata]
Title:We Meet at Last (Victory Sting)
TitleUnicode:We Meet at Last (Victory Sting)
Artist:Deon van Heerden
ArtistUnicode:Deon van Heerden
Creator:Surono
Version:Oni
Source:Broforce
Tags:metal soundtrack
BeatmapID:1743913
BeatmapSetID:832415

[Difficulty]
HPDrainRate:8
CircleSize:2
OverallDifficulty:6
ApproachRate:10
SliderMultiplier:1.4
SliderTickRate:1

[Events]
//Background and Video events
0,0,"HermanLi.jpg",0,0
//Break Periods
//Storyboard Layer 0 (Background)
//Storyboard Layer 1 (Fail)
//Storyboard Layer 2 (Pass)
//Storyboard Layer 3 (Foreground)
//Storyboard Sound Samples

[TimingPoints]
127,309.278350515464,4,1,0,80,1,0
1364,309.278350515464,4,1,0,80,1,0

[HitObjects]
256,192,127,5,0,0:0:0:0:
256,192,281,1,8,0:0:0:0:
256,192,436,1,0,0:0:0:0:
256,192,590,1,0,0:0:0:0:
256,192,668,1,0,0:0:0:0:
256,192,745,1,0,0:0:0:0:
256,192,900,1,0,0:0:0:0:
256,192,1054,1,8,0:0:0:0:
256,192,1132,1,8,0:0:0:0:
256,192,1209,1,8,0:0:0:0:
256,192,1364,1,4,0:0:0:0:
256,192,1673,1,8,0:0:0:0:
256,192,1982,1,0,0:0:0:0:
256,192,2137,1,0,0:0:0:0:
256,192,2291,1,8,0:0:0:0:
256,192,2446,1,0,0:0:0:0:
256,192,2523,1,0,0:0:0:0:
256,192,2601,1,8,0:0:0:0:
256,192,2755,1,0,0:0:0:0:
256,192,2910,1,8,0:0:0:0:
256,192,3219,1,8,0:0:0:0:
256,192,3374,1,0,0:0:0:0:
256,192,3528,1,12,0:0:0:0:
256,192,3838,1,4,0:0:0:0:
256,192,4147,1,8,0:0:0:0:
256,192,4456,1,0,0:0:0:0:
256,192,4611,1,0,0:0:0:0:
256,192,4766,1,8,0:0:0:0:
256,192,4920,1,0,0:0:0:0:
256,192,5075,1,8,0:0:0:0:
256,192,5152,1,8,0:0:0:0:
256,192,5229,1,0,0:0:0:0:
256,192,5384,1,8,0:0:0:0:
256,192,5693,1,0,0:0:0:0:
256,192,5848,1,0,0:0:0:0:
256,192,6003,1,12,0:0:0:0:
256,192,6312,1,4,0:0:0:0:
256,192,6621,1,8,0:0:0:0:
256,192,6931,1,8,0:0:0:0:
256,192,7085,1,0,0:0:0:0:
256,192,7240,1,8,0:0:0:0:
256,192,7394,1,0,0:0:0:0:
256,192,7472,1,8,0:0:0:0:
256,192,7549,1,0,0:0:0:0:
256,192,7704,1,0,0:0:0:0:
256,192,7858,1,8,0:0:0:0:
256,192,8168,1,0,0:0:0:0:
256,192,8322,1,0,0:0:0:0:
256,192,8477,1,12,0:0:0:0:
256,192,8786,1,4,0:0:0:0:
256,192,9095,1,8,0:0:0:0:
256,192,9405,1,8,0:0:0:0:
256,192,9559,1,0,0:0:0:0:
256,192,9714,1,8,0:0:0:0:
256,192,10023,1,8,0:0:0:0:
256,192,10101,1,8,0:0:0:0:
256,192,10178,1,8,0:0:0:0:
256,192,10333,1,8,0:0:0:0:
256,192,10487,1,0,0:0:0:0:
256,192,10565,1,0,0:0:0:0:
256,192,10642,1,0,0:0:0:0:
256,192,10796,1,0,0:0:0:0:
256,192,10951,1,4,0:0:0:0:
256,192,11260,1,12,0:0:0:0:
256,192,11570,1,8,0:0:0:0:
256,192,11724,1,0,0:0:0:0:
256,192,11879,1,8,0:0:0:0:
256,192,12188,1,8,0:0:0:0:
256,192,12343,1,0,0:0:0:0:
256,192,12498,1,8,0:0:0:0:
256,192,12575,1,8,0:0:0:0:
256,192,12652,1,0,0:0:0:0:
256,192,12807,1,8,0:0:0:0:
256,192,12961,1,0,0:0:0:0:
256,192,13039,1,0,0:0:0:0:
256,192,13116,1,8,0:0:0:0:
256,192,13271,1,0,0:0:0:0:
256,192,13425,1,12,0:0:0:0:
256,192,13735,1,12,0:0:0:0:
256,192,14044,1,8,0:0:0:0:
256,192,14353,1,8,0:0:0:0:
256,192,14508,1,0,0:0:0:0:
256,192,14585,1,0,0:0:0:0:
256,192,14662,1,8,0:0:0:0:
256,192,14817,1,0,0:0:0:0:
256,192,14972,1,8,0:0:0:0:
256,192,15049,1,8,0:0:0:0:
256,192,15126,1,0,0:0:0:0:
256,192,15281,1,8,0:0:0:0:
256,192,15436,1,0,0:0:0:0:
256,192,15590,1,8,0:0:0:0:
256,192,15900,1,8,0:0:0:0:
256,192,15977,1,0,0:0:0:0:
256,192,16054,1,8,0:0:0:0:
256,192,16209,1,12,0:0:0:0:
256,192,16518,1,8,0:0:0:0:
256,192,16827,1,8,0:0:0:0:
256,192,16982,1,0,0:0:0:0:
256,192,17137,1,8,0:0:0:0:
256,192,17291,1,0,0:0:0:0:
256,192,17446,1,8,0:0:0:0:
256,192,17755,1,8,0:0:0:0:
256,192,17910,1,0,0:0:0:0:
256,192,18065,1,8,0:0:0:0:
256,192,18142,1,8,0:0:0:0:
256,192,18219,1,0,0:0:0:0:
256,192,18374,1,12,0:0:0:0:
256,192,18528,1,0,0:0:0:0:
256,192,18683,1,12,0:0:0:0:
256,192,18992,1,8,0:0:0:0:
256,192,19070,1,8,0:0:0:0:
256,192,19147,1,0,0:0:0:0:
256,192,19302,1,8,0:0:0:0:
256,192,19456,1,0,0:0:0:0:
256,192,19534,1,0,0:0:0:0:
256,192,19611,1,8,0:0:0:0:
256,192,19920,1,0,0:0:0:0:
256,192,19998,1,0,0:0:0:0:
256,192,20075,1,0,0:0:0:0:
256,192,20229,1,0,0:0:0:0:
256,192,20384,1,8,0:0:0:0:
256,192,20461,1,8,0:0:0:0:
256,192,20539,1,8,0:0:0:0:
256,192,20693,1,8,0:0:0:0:
256,192,20848,1,4,0:0:0:0:
256,192,21003,1,0,0:0:0:0:
256,192,21157,1,12,0:0:0:0:
256,192,21467,1,8,0:0:0:0:
256,192,21621,1,0,0:0:0:0:
256,192,21699,1,0,0:0:0:0:
256,192,21776,1,8,0:0:0:0:
256,192,21931,1,0,0:0:0:0:
256,192,22085,1,8,0:0:0:0:
256,192,22162,1,0,0:0:0:0:
256,192,22240,1,0,0:0:0:0:
256,192,22394,1,8,0:0:0:0:
256,192,22549,1,0,0:0:0:0:
256,192,22626,1,8,0:0:0:0:
256,192,22704,1,8,0:0:0:0:
256,192,22858,1,0,0:0:0:0:
256,192,23013,1,8,0:0:0:0:
256,192,23090,1,8,0:0:0:0:
256,192,23168,1,0,0:0:0:0:
256,192,23322,1,12,0:0:0:0:
256,192,23632,1,12,0:0:0:0:
256,192,23941,1,8,0:0:0:0:
256,192,24095,1,0,0:0:0:0:
256,192,24173,1,0,0:0:0:0:
256,192,24250,1,8,0:0:0:0:
256,192,24405,1,0,0:0:0:0:
256,192,24559,1,8,0:0:0:0:
256,192,24637,1,0,0:0:0:0:
256,192,24714,1,0,0:0:0:0:
256,192,24869,1,8,0:0:0:0:
256,192,25023,1,0,0:0:0:0:
256,192,25101,1,8,0:0:0:0:
256,192,25178,1,8,0:0:0:0:
256,192,25333,1,0,0:0:0:0:
256,192,25487,1,8,0:0:0:0:
256,192,25565,1,8,0:0:0:0:
256,192,25642,1,0,0:0:0:0:
256,192,25796,1,4,0:0:0:0:
256,192,26106,1,12,0:0:0:0:
256,192,26415,1,0,0:0:0:0:
256,192,26570,1,12,0:0:0:0:
256,192,26879,1,0,0:0:0:0:
256,192,27034,1,12,0:0:0:0:
256,192,27343,1,8,0:0:0:0:
256,192,27498,1,12,0:0:0:0:
256,192,27807,1,8,0:0:0:0:
256,192,27961,1,12,0:0:0:0:
256,192,28271,1,12,0:0:0:0:
256,192,28425,1,0,0:0:0:0:
256,192,28580,1,12,0:0:0:0:
256,192,29199,12,0,30436,0:0:0:0:
256,192,31054,5,4,0:0:0:0:
256,192,31209,5,4,0:0:0:0:
256,192,31364,1,4,0:0:0:0:
256,192,31518,1,4,0:0:0:0:
256,192,31827,1,0,0:0:0:0:
256,192,32137,1,0,0:0:0:0:
256,192,32291,1,12,0:0:0:0:
256,192,32601,2,0,L|128:128,1,140
