osu file format v14

[General]
AudioFilename: audio.mp3
AudioLeadIn: 0
PreviewTime: 98815
Countdown: 1
SampleSet: Normal
StackLeniency: 0.7
Mode: 1
LetterboxInBreaks: 0
WidescreenStoryboard: 1

[Editor]
Bookmarks: 14160,28277,42395,56512,70630,84748,98865,112983,127101,134159,141218,155336,169454,183571
DistanceSpacing: 1
BeatDivisor: 8
GridSize: 4
TimelineZoom: 1.2

[Metadata]
Title:Song Of Storms
TitleUnicode:嵐の歌
Artist:Deon Custom
ArtistUnicode:Deon Custom
Creator:Monkey Sly
Version:Muzukashii
Source:ゼルダの伝説 時のオカリナ
Tags:The Legend Of Zelda - Ocarina Of Time 近藤浩治 Kouji Kondou
BeatmapID:1382589
BeatmapSetID:652012

[Difficulty]
HPDrainRate:3
CircleSize:2
OverallDifficulty:4
ApproachRate:0
SliderMultiplier:1.4
SliderTickRate:1

[Events]
//Background and Video events
0,0,"bg.jpg",0,0
//Break Periods
//Storyboard Layer 0 (Background)
//Storyboard Layer 1 (Fail)
//Storyboard Layer 2 (Pass)
//Storyboard Layer 3 (Foreground)
//Storyboard Sound Samples

[TimingPoints]
14160,441.176470588235,4,1,0,100,1,0
56512,-100,4,1,0,100,0,1
70630,-100,4,1,0,100,0,0
98865,-100,4,1,0,100,0,1
112983,-100,4,1,0,100,0,0
169454,-100,4,1,0,100,0,1
183571,-100,4,1,0,100,0,0

[HitObjects]
244,172,14160,5,4,0:0:0:0:
244,172,15042,1,0,0:0:0:0:
244,172,15924,1,0,0:0:0:0:
244,172,16807,1,0,0:0:0:0:
244,172,17689,1,0,0:0:0:0:
244,172,18571,1,0,0:0:0:0:
244,172,19454,1,0,0:0:0:0:
244,172,20336,1,0,0:0:0:0:
244,172,21218,1,4,0:0:0:0:
244,172,22101,1,0,0:0:0:0:
244,172,22983,1,0,0:0:0:0:
244,172,23865,1,0,0:0:0:0:
244,172,24748,1,0,0:0:0:0:
244,172,25630,1,0,0:0:0:0:
244,172,26512,1,0,0:0:0:0:
244,172,27395,1,0,0:0:0:0:
244,172,28277,5,4,0:0:0:0:
244,172,28718,1,0,0:0:0:0:
244,172,29160,1,0,0:0:0:0:
244,172,29601,1,0,0:0:0:0:
244,172,30042,1,8,0:0:0:0:
244,172,30483,1,0,0:0:0:0:
244,172,30924,1,0,0:0:0:0:
244,172,31365,1,0,0:0:0:0:
244,172,31807,5,4,0:0:0:0:
244,172,32248,1,0,0:0:0:0:
244,172,32690,1,0,0:0:0:0:
244,172,33131,1,0,0:0:0:0:
244,172,33572,1,8,0:0:0:0:
244,172,34013,1,0,0:0:0:0:
244,172,34454,1,0,0:0:0:0:
244,172,34895,1,0,0:0:0:0:
244,172,35336,5,4,0:0:0:0:
244,172,35557,1,0,0:0:0:0:
244,172,35777,1,0,0:0:0:0:
244,172,36219,1,0,0:0:0:0:
244,172,36660,1,0,0:0:0:0:
244,172,37101,1,12,0:0:0:0:
244,172,37321,1,8,0:0:0:0:
244,172,37542,1,8,0:0:0:0:
244,172,37983,1,0,0:0:0:0:
244,172,38424,1,0,0:0:0:0:
244,172,38865,5,4,0:0:0:0:
244,172,39306,1,0,0:0:0:0:
244,172,39748,1,4,0:0:0:0:
244,172,40189,1,0,0:0:0:0:
244,172,40630,1,4,0:0:0:0:
244,172,40851,1,0,0:0:0:0:
244,172,41071,1,4,0:0:0:0:
244,172,41292,1,0,0:0:0:0:
244,172,41512,1,12,0:0:0:0:
244,172,41953,1,12,0:0:0:0:
244,172,42395,5,0,0:0:0:0:
244,172,42836,1,0,0:0:0:0:
244,172,43277,1,0,0:0:0:0:
244,172,43387,1,0,0:0:0:0:
244,172,43498,1,8,0:0:0:0:
244,172,43718,1,0,0:0:0:0:
244,172,43829,1,0,0:0:0:0:
244,172,43939,1,8,0:0:0:0:
244,172,44160,1,4,0:0:0:0:
244,172,44601,5,0,0:0:0:0:
244,172,44711,1,0,0:0:0:0:
244,172,44821,1,0,0:0:0:0:
244,172,45042,1,8,0:0:0:0:
244,172,45262,1,8,0:0:0:0:
244,172,45483,1,0,0:0:0:0:
244,172,45593,1,0,0:0:0:0:
244,172,45704,1,8,0:0:0:0:
244,172,45924,1,4,0:0:0:0:
244,172,46365,1,0,0:0:0:0:
244,172,46476,1,0,0:0:0:0:
244,172,46696,1,0,0:0:0:0:
244,172,46807,1,8,0:0:0:0:
244,172,47248,1,0,0:0:0:0:
244,172,47358,1,8,0:0:0:0:
244,172,47579,1,0,0:0:0:0:
244,172,47690,1,0,0:0:0:0:
244,172,48130,1,0,0:0:0:0:
244,172,48240,1,0,0:0:0:0:
244,172,48351,1,8,0:0:0:0:
244,172,48571,1,0,0:0:0:0:
244,172,49012,1,0,0:0:0:0:
244,172,49123,1,0,0:0:0:0:
244,172,49233,1,0,0:0:0:0:
244,172,49454,5,4,0:0:0:0:
244,172,49895,1,0,0:0:0:0:
244,172,50005,1,0,0:0:0:0:
244,172,50115,1,0,0:0:0:0:
244,172,50226,1,0,0:0:0:0:
244,172,50336,1,8,0:0:0:0:
244,172,50777,1,0,0:0:0:0:
244,172,50998,1,8,0:0:0:0:
244,172,51218,1,0,0:0:0:0:
244,172,51660,1,0,0:0:0:0:
244,172,51770,1,0,0:0:0:0:
244,172,51880,1,0,0:0:0:0:
244,172,51990,1,0,0:0:0:0:
244,172,52101,1,8,0:0:0:0:
180,196,52321,1,0,0:0:0:0:
244,172,52542,1,0,0:0:0:0:
180,196,52762,1,0,0:0:0:0:
244,168,52983,1,4,0:0:0:0:
244,172,53424,1,8,0:0:0:0:
244,172,53535,1,0,0:0:0:0:
244,172,53645,1,0,0:0:0:0:
244,172,53755,1,0,0:0:0:0:
244,172,53865,1,0,0:0:0:0:
244,172,54307,1,0,0:0:0:0:
244,172,54527,1,0,0:0:0:0:
244,172,54748,1,4,0:0:0:0:
244,172,54968,1,8,0:0:0:0:
244,172,55189,1,4,0:0:0:0:
244,172,55410,1,8,0:0:0:0:
244,172,55630,1,4,0:0:0:0:
244,172,55851,1,8,0:0:0:0:
244,172,56071,1,4,0:0:0:0:
244,172,56512,5,0,0:0:0:0:
244,172,56953,1,0,0:0:0:0:
244,172,57394,1,8,0:0:0:0:
244,172,57504,1,0,0:0:0:0:
244,172,57615,1,0,0:0:0:0:
244,172,57835,1,8,0:0:0:0:
244,172,57946,1,0,0:0:0:0:
244,172,58056,1,0,0:0:0:0:
244,172,58277,1,4,0:0:0:0:
244,172,58718,5,0,0:0:0:0:
244,172,58828,1,0,0:0:0:0:
244,172,58938,1,8,0:0:0:0:
244,172,59159,1,8,0:0:0:0:
244,172,59379,1,8,0:0:0:0:
244,172,59600,1,0,0:0:0:0:
244,172,59710,1,0,0:0:0:0:
244,172,59821,1,0,0:0:0:0:
244,172,60041,1,4,0:0:0:0:
244,172,60482,1,0,0:0:0:0:
244,172,60593,1,8,0:0:0:0:
244,172,60813,1,0,0:0:0:0:
244,172,60924,1,0,0:0:0:0:
244,172,61365,1,0,0:0:0:0:
244,172,61475,1,0,0:0:0:0:
244,172,61696,1,0,0:0:0:0:
244,172,61807,1,8,0:0:0:0:
244,172,62247,1,0,0:0:0:0:
244,172,62357,1,0,0:0:0:0:
244,172,62468,1,8,0:0:0:0:
244,172,62688,1,0,0:0:0:0:
244,172,63129,1,0,0:0:0:0:
244,172,63240,1,0,0:0:0:0:
244,172,63350,1,8,0:0:0:0:
244,172,63571,5,4,0:0:0:0:
244,172,64012,1,0,0:0:0:0:
244,172,64122,1,0,0:0:0:0:
244,172,64232,1,0,0:0:0:0:
244,172,64343,1,0,0:0:0:0:
244,172,64453,1,8,0:0:0:0:
244,172,64894,1,0,0:0:0:0:
244,172,65115,1,8,0:0:0:0:
244,172,65335,1,0,0:0:0:0:
244,172,65777,1,0,0:0:0:0:
244,172,65887,1,0,0:0:0:0:
244,172,65997,1,0,0:0:0:0:
244,172,66107,1,0,0:0:0:0:
244,172,66218,1,8,0:0:0:0:
180,196,66438,1,0,0:0:0:0:
244,172,66659,1,0,0:0:0:0:
180,196,66879,1,0,0:0:0:0:
244,168,67100,1,4,0:0:0:0:
244,172,67541,1,8,0:0:0:0:
244,172,67652,1,0,0:0:0:0:
244,172,67762,1,0,0:0:0:0:
244,172,67872,1,0,0:0:0:0:
244,172,67982,1,0,0:0:0:0:
244,172,68424,1,0,0:0:0:0:
244,172,68644,1,0,0:0:0:0:
244,172,68865,5,4,0:0:0:0:
244,172,69085,1,8,0:0:0:0:
244,172,69306,1,4,0:0:0:0:
244,172,69527,1,8,0:0:0:0:
244,172,69747,1,4,0:0:0:0:
244,172,69968,1,8,0:0:0:0:
244,172,70188,1,4,0:0:0:0:
244,172,70630,5,4,0:0:0:0:
244,172,71071,1,0,0:0:0:0:
244,172,71512,1,0,0:0:0:0:
244,172,71623,1,0,0:0:0:0:
244,172,71733,1,8,0:0:0:0:
244,172,71954,1,0,0:0:0:0:
244,172,72064,1,0,0:0:0:0:
244,172,72174,1,8,0:0:0:0:
244,172,72394,1,0,0:0:0:0:
244,172,72836,1,0,0:0:0:0:
244,172,73277,1,8,0:0:0:0:
244,172,73387,1,0,0:0:0:0:
244,172,73498,1,0,0:0:0:0:
244,172,73718,1,8,0:0:0:0:
244,172,73829,1,0,0:0:0:0:
244,172,73939,1,0,0:0:0:0:
244,172,74159,5,0,0:0:0:0:
244,172,74601,1,0,0:0:0:0:
244,172,75041,1,0,0:0:0:0:
244,172,75152,1,0,0:0:0:0:
244,172,75262,1,8,0:0:0:0:
244,172,75483,1,0,0:0:0:0:
244,172,75593,1,0,0:0:0:0:
244,172,75704,1,8,0:0:0:0:
244,172,75924,1,0,0:0:0:0:
244,172,76365,1,0,0:0:0:0:
244,172,76806,1,8,0:0:0:0:
244,172,76917,1,0,0:0:0:0:
244,172,77027,1,0,0:0:0:0:
244,172,77248,1,8,0:0:0:0:
244,172,77358,1,0,0:0:0:0:
244,172,77468,1,0,0:0:0:0:
244,172,77688,5,4,0:0:0:0:
244,172,78130,1,0,0:0:0:0:
244,172,78571,1,0,0:0:0:0:
244,172,78682,1,0,0:0:0:0:
244,172,78792,1,0,0:0:0:0:
244,172,78902,1,8,0:0:0:0:
244,172,79012,1,0,0:0:0:0:
244,172,79123,1,0,0:0:0:0:
244,172,79233,1,0,0:0:0:0:
244,172,79343,1,8,0:0:0:0:
244,172,79453,1,0,0:0:0:0:
244,172,79895,1,0,0:0:0:0:
244,172,80335,1,0,0:0:0:0:
244,172,80446,1,0,0:0:0:0:
244,172,80557,1,0,0:0:0:0:
244,172,80667,1,8,0:0:0:0:
244,172,80777,1,0,0:0:0:0:
244,172,80887,1,0,0:0:0:0:
244,172,80998,1,0,0:0:0:0:
244,172,81108,1,8,0:0:0:0:
244,172,81218,1,0,0:0:0:0:
244,172,81660,1,0,0:0:0:0:
244,172,82100,1,4,0:0:0:0:
244,172,82542,1,0,0:0:0:0:
244,172,82983,1,4,0:0:0:0:
244,172,83204,1,0,0:0:0:0:
244,172,83424,1,4,0:0:0:0:
244,172,83645,1,0,0:0:0:0:
244,172,83865,1,12,0:0:0:0:
244,172,84307,1,12,0:0:0:0:
244,172,84748,5,0,0:0:0:0:
244,172,85189,1,0,0:0:0:0:
244,172,85630,1,0,0:0:0:0:
244,172,85740,1,0,0:0:0:0:
244,172,85851,1,8,0:0:0:0:
244,172,86071,1,0,0:0:0:0:
244,172,86182,1,0,0:0:0:0:
244,172,86292,1,8,0:0:0:0:
244,172,86513,1,4,0:0:0:0:
244,172,86954,5,0,0:0:0:0:
244,172,87064,1,0,0:0:0:0:
244,172,87174,1,0,0:0:0:0:
244,172,87395,1,8,0:0:0:0:
244,172,87615,1,8,0:0:0:0:
244,172,87836,1,0,0:0:0:0:
244,172,87946,1,0,0:0:0:0:
244,172,88057,1,8,0:0:0:0:
244,172,88277,1,4,0:0:0:0:
244,172,88718,1,0,0:0:0:0:
244,172,88829,1,0,0:0:0:0:
244,172,89049,1,0,0:0:0:0:
244,172,89160,1,8,0:0:0:0:
244,172,89601,1,0,0:0:0:0:
244,172,89711,1,8,0:0:0:0:
244,172,89932,1,0,0:0:0:0:
244,172,90043,1,0,0:0:0:0:
244,172,90483,1,0,0:0:0:0:
244,172,90593,1,0,0:0:0:0:
244,172,90704,1,8,0:0:0:0:
244,172,90924,1,0,0:0:0:0:
244,172,91365,1,0,0:0:0:0:
244,172,91476,1,0,0:0:0:0:
244,172,91586,1,0,0:0:0:0:
244,172,91807,5,4,0:0:0:0:
244,172,92248,1,0,0:0:0:0:
244,172,92358,1,0,0:0:0:0:
244,172,92468,1,0,0:0:0:0:
244,172,92579,1,0,0:0:0:0:
244,172,92689,1,8,0:0:0:0:
244,172,93130,1,0,0:0:0:0:
244,172,93351,1,8,0:0:0:0:
244,172,93571,1,0,0:0:0:0:
244,172,94013,1,0,0:0:0:0:
244,172,94123,1,0,0:0:0:0:
244,172,94233,1,0,0:0:0:0:
244,172,94343,1,0,0:0:0:0:
244,172,94454,1,8,0:0:0:0:
180,196,94674,1,0,0:0:0:0:
244,172,94895,1,0,0:0:0:0:
180,196,95115,1,0,0:0:0:0:
244,168,95336,1,4,0:0:0:0:
244,172,95777,1,8,0:0:0:0:
244,172,95888,1,0,0:0:0:0:
244,172,95998,1,0,0:0:0:0:
244,172,96108,1,0,0:0:0:0:
244,172,96218,1,0,0:0:0:0:
244,172,96660,1,0,0:0:0:0:
244,172,96880,1,0,0:0:0:0:
244,172,97101,1,4,0:0:0:0:
244,172,97321,1,8,0:0:0:0:
244,172,97542,1,4,0:0:0:0:
244,172,97763,1,8,0:0:0:0:
244,172,97983,1,4,0:0:0:0:
244,172,98204,1,8,0:0:0:0:
244,172,98424,1,4,0:0:0:0:
244,172,98865,5,0,0:0:0:0:
244,172,99306,1,0,0:0:0:0:
244,172,99747,1,8,0:0:0:0:
244,172,99857,1,0,0:0:0:0:
244,172,99968,1,0,0:0:0:0:
244,172,100188,1,8,0:0:0:0:
244,172,100299,1,0,0:0:0:0:
244,172,100409,1,0,0:0:0:0:
244,172,100630,1,4,0:0:0:0:
244,172,101071,5,0,0:0:0:0:
244,172,101181,1,0,0:0:0:0:
244,172,101291,1,8,0:0:0:0:
244,172,101512,1,8,0:0:0:0:
244,172,101732,1,8,0:0:0:0:
244,172,101953,1,0,0:0:0:0:
244,172,102063,1,0,0:0:0:0:
244,172,102174,1,0,0:0:0:0:
244,172,102394,1,4,0:0:0:0:
244,172,102835,1,0,0:0:0:0:
244,172,102946,1,8,0:0:0:0:
244,172,103166,1,0,0:0:0:0:
244,172,103277,1,0,0:0:0:0:
244,172,103718,1,0,0:0:0:0:
244,172,103828,1,0,0:0:0:0:
244,172,104049,1,0,0:0:0:0:
244,172,104160,1,8,0:0:0:0:
244,172,104600,1,0,0:0:0:0:
244,172,104710,1,0,0:0:0:0:
244,172,104821,1,8,0:0:0:0:
244,172,105041,1,0,0:0:0:0:
244,172,105482,1,0,0:0:0:0:
244,172,105593,1,0,0:0:0:0:
244,172,105703,1,8,0:0:0:0:
244,172,105924,5,4,0:0:0:0:
244,172,106365,1,0,0:0:0:0:
244,172,106475,1,0,0:0:0:0:
244,172,106585,1,0,0:0:0:0:
244,172,106696,1,0,0:0:0:0:
244,172,106806,1,8,0:0:0:0:
244,172,107247,1,0,0:0:0:0:
244,172,107468,1,8,0:0:0:0:
244,172,107688,1,0,0:0:0:0:
244,172,108130,1,0,0:0:0:0:
244,172,108240,1,0,0:0:0:0:
244,172,108350,1,0,0:0:0:0:
244,172,108460,1,0,0:0:0:0:
244,172,108571,1,8,0:0:0:0:
180,196,108791,1,0,0:0:0:0:
244,172,109012,1,0,0:0:0:0:
180,196,109232,1,0,0:0:0:0:
244,168,109453,1,4,0:0:0:0:
244,172,109894,1,8,0:0:0:0:
244,172,110005,1,0,0:0:0:0:
244,172,110115,1,0,0:0:0:0:
244,172,110225,1,0,0:0:0:0:
244,172,110335,1,0,0:0:0:0:
244,172,110777,1,0,0:0:0:0:
244,172,110997,1,0,0:0:0:0:
244,172,111218,5,4,0:0:0:0:
244,172,111438,1,8,0:0:0:0:
244,172,111659,1,4,0:0:0:0:
244,172,111880,1,8,0:0:0:0:
244,172,112100,1,4,0:0:0:0:
244,172,112321,1,8,0:0:0:0:
244,172,112541,1,4,0:0:0:0:
244,172,112983,5,8,0:0:0:0:
244,172,113424,1,8,0:0:0:0:
244,172,113865,1,8,0:0:0:0:
244,172,114307,1,8,0:0:0:0:
108,144,114748,2,8,B|384:72|384:72|288:288,1,503.999991416932
244,172,116512,1,8,0:0:0:0:
244,172,116953,1,8,0:0:0:0:
244,172,117394,1,8,0:0:0:0:
244,172,117836,1,8,0:0:0:0:
108,144,118277,2,8,B|384:72|384:72|272:284,1,503.999991416932
244,172,120042,5,8,0:0:0:0:
244,172,120483,1,8,0:0:0:0:
244,172,120924,1,8,0:0:0:0:
244,172,121366,1,8,0:0:0:0:
108,144,121807,2,8,B|384:72|384:72|296:272,1,503.999991416932
244,172,123571,5,8,0:0:0:0:
244,172,124012,1,8,0:0:0:0:
244,172,124453,1,8,0:0:0:0:
244,172,124895,1,8,0:0:0:0:
108,144,125336,2,8,B|384:72|384:72|300:280,1,503.999991416932
244,172,127101,5,4,0:0:0:0:
244,172,127542,1,0,0:0:0:0:
244,172,127983,1,0,0:0:0:0:
244,172,128425,1,0,0:0:0:0:
244,172,128865,1,0,0:0:0:0:
244,172,129307,1,0,0:0:0:0:
244,172,129748,1,0,0:0:0:0:
244,172,130189,1,0,0:0:0:0:
244,172,130630,1,0,0:0:0:0:
244,172,131072,1,0,0:0:0:0:
244,172,131512,1,0,0:0:0:0:
244,172,131954,1,0,0:0:0:0:
244,172,132395,1,0,0:0:0:0:
244,172,132836,1,0,0:0:0:0:
244,172,133277,1,0,0:0:0:0:
244,172,133719,1,0,0:0:0:0:
244,172,134159,1,4,0:0:0:0:
244,172,134601,1,0,0:0:0:0:
244,172,135042,1,0,0:0:0:0:
244,172,135483,1,0,0:0:0:0:
244,172,135924,1,0,0:0:0:0:
244,172,136366,1,0,0:0:0:0:
244,172,136806,1,0,0:0:0:0:
244,172,137248,1,0,0:0:0:0:
244,172,137689,1,0,0:0:0:0:
244,172,138131,1,0,0:0:0:0:
244,172,138571,1,0,0:0:0:0:
244,172,139013,1,0,0:0:0:0:
244,172,139453,1,0,0:0:0:0:
244,172,139895,1,0,0:0:0:0:
244,172,140336,1,0,0:0:0:0:
244,172,140778,1,0,0:0:0:0:
244,172,141218,5,4,0:0:0:0:
244,172,141439,1,0,0:0:0:0:
244,172,141660,1,8,0:0:0:0:
244,172,141880,1,0,0:0:0:0:
244,172,142101,1,0,0:0:0:0:
244,172,142542,1,8,0:0:0:0:
268,36,142983,1,0,0:0:0:0:
244,172,143204,1,0,0:0:0:0:
244,172,143424,1,8,0:0:0:0:
244,172,143645,1,8,0:0:0:0:
268,36,143865,1,0,0:0:0:0:
244,172,144307,1,8,0:0:0:0:
244,172,144748,5,4,0:0:0:0:
244,172,144969,1,0,0:0:0:0:
244,172,145190,1,8,0:0:0:0:
244,172,145410,1,0,0:0:0:0:
244,172,145631,1,0,0:0:0:0:
244,172,146072,1,8,0:0:0:0:
268,36,146513,1,0,0:0:0:0:
244,172,146734,1,0,0:0:0:0:
244,172,146954,1,8,0:0:0:0:
244,172,147175,1,8,0:0:0:0:
268,36,147395,1,0,0:0:0:0:
244,172,147837,1,8,0:0:0:0:
244,172,148277,5,4,0:0:0:0:
244,172,148498,1,0,0:0:0:0:
244,172,148718,1,4,0:0:0:0:
244,172,149160,1,8,0:0:0:0:
244,172,149601,1,8,0:0:0:0:
244,172,150042,5,4,0:0:0:0:
244,172,150263,1,0,0:0:0:0:
244,172,150483,1,4,0:0:0:0:
244,172,150925,1,8,0:0:0:0:
244,172,151366,1,8,0:0:0:0:
244,172,151807,5,4,0:0:0:0:
244,172,152137,1,0,0:0:0:0:
244,172,152248,1,0,0:0:0:0:
244,172,152358,1,0,0:0:0:0:
244,172,152468,1,0,0:0:0:0:
244,172,152689,5,4,0:0:0:0:
244,172,153019,1,0,0:0:0:0:
244,172,153130,1,0,0:0:0:0:
244,172,153240,1,0,0:0:0:0:
244,172,153350,1,0,0:0:0:0:
244,172,153571,1,4,0:0:0:0:
244,172,153792,1,8,0:0:0:0:
244,172,154012,1,4,0:0:0:0:
244,172,154233,1,0,0:0:0:0:
264,192,154454,1,12,0:0:0:0:
264,192,154895,1,12,0:0:0:0:
244,172,155336,5,0,0:0:0:0:
244,172,155777,1,0,0:0:0:0:
244,172,156218,1,0,0:0:0:0:
244,172,156328,1,0,0:0:0:0:
244,172,156439,1,8,0:0:0:0:
244,172,156659,1,0,0:0:0:0:
244,172,156770,1,0,0:0:0:0:
244,172,156880,1,8,0:0:0:0:
244,172,157101,1,4,0:0:0:0:
244,172,157542,5,0,0:0:0:0:
244,172,157652,1,0,0:0:0:0:
244,172,157762,1,0,0:0:0:0:
244,172,157983,1,8,0:0:0:0:
244,172,158203,1,8,0:0:0:0:
244,172,158424,1,0,0:0:0:0:
244,172,158534,1,0,0:0:0:0:
244,172,158645,1,8,0:0:0:0:
244,172,158865,1,4,0:0:0:0:
244,172,159306,1,0,0:0:0:0:
244,172,159417,1,0,0:0:0:0:
244,172,159637,1,0,0:0:0:0:
244,172,159748,1,8,0:0:0:0:
244,172,160189,1,0,0:0:0:0:
244,172,160299,1,8,0:0:0:0:
244,172,160520,1,0,0:0:0:0:
244,172,160631,1,0,0:0:0:0:
244,172,161071,1,0,0:0:0:0:
244,172,161181,1,0,0:0:0:0:
244,172,161292,1,8,0:0:0:0:
244,172,161512,1,0,0:0:0:0:
244,172,161953,1,0,0:0:0:0:
244,172,162064,1,0,0:0:0:0:
244,172,162174,1,0,0:0:0:0:
244,172,162395,5,4,0:0:0:0:
244,172,162836,1,0,0:0:0:0:
244,172,162946,1,0,0:0:0:0:
244,172,163056,1,0,0:0:0:0:
244,172,163167,1,0,0:0:0:0:
244,172,163277,1,8,0:0:0:0:
244,172,163718,1,0,0:0:0:0:
244,172,163939,1,8,0:0:0:0:
244,172,164159,1,0,0:0:0:0:
244,172,164601,1,0,0:0:0:0:
244,172,164711,1,0,0:0:0:0:
244,172,164821,1,0,0:0:0:0:
244,172,164931,1,0,0:0:0:0:
244,172,165042,1,8,0:0:0:0:
180,196,165262,1,0,0:0:0:0:
244,172,165483,1,0,0:0:0:0:
180,196,165703,1,0,0:0:0:0:
244,168,165924,1,4,0:0:0:0:
244,172,166365,1,8,0:0:0:0:
244,172,166476,1,0,0:0:0:0:
244,172,166586,1,0,0:0:0:0:
244,172,166696,1,0,0:0:0:0:
244,172,166806,1,0,0:0:0:0:
244,172,167248,1,0,0:0:0:0:
244,172,167468,1,0,0:0:0:0:
244,172,167689,1,4,0:0:0:0:
244,172,167909,1,8,0:0:0:0:
244,172,168130,1,4,0:0:0:0:
244,172,168351,1,8,0:0:0:0:
244,172,168571,1,4,0:0:0:0:
244,172,168792,1,8,0:0:0:0:
244,172,169012,1,4,0:0:0:0:
244,172,169453,5,0,0:0:0:0:
244,172,169894,1,0,0:0:0:0:
244,172,170335,1,8,0:0:0:0:
244,172,170445,1,0,0:0:0:0:
244,172,170556,1,0,0:0:0:0:
244,172,170776,1,8,0:0:0:0:
244,172,170887,1,0,0:0:0:0:
244,172,170997,1,0,0:0:0:0:
244,172,171218,1,4,0:0:0:0:
244,172,171659,5,0,0:0:0:0:
244,172,171769,1,0,0:0:0:0:
244,172,171879,1,8,0:0:0:0:
244,172,172100,1,8,0:0:0:0:
244,172,172320,1,8,0:0:0:0:
244,172,172541,1,0,0:0:0:0:
244,172,172651,1,0,0:0:0:0:
244,172,172762,1,0,0:0:0:0:
244,172,172982,1,4,0:0:0:0:
244,172,173423,1,0,0:0:0:0:
244,172,173534,1,8,0:0:0:0:
244,172,173754,1,0,0:0:0:0:
244,172,173865,1,0,0:0:0:0:
244,172,174306,1,0,0:0:0:0:
244,172,174416,1,0,0:0:0:0:
244,172,174637,1,0,0:0:0:0:
244,172,174748,1,8,0:0:0:0:
244,172,175188,1,0,0:0:0:0:
244,172,175298,1,0,0:0:0:0:
244,172,175409,1,8,0:0:0:0:
244,172,175629,1,0,0:0:0:0:
244,172,176070,1,0,0:0:0:0:
244,172,176181,1,0,0:0:0:0:
244,172,176291,1,8,0:0:0:0:
244,172,176512,5,4,0:0:0:0:
244,172,176953,1,0,0:0:0:0:
244,172,177063,1,0,0:0:0:0:
244,172,177173,1,0,0:0:0:0:
244,172,177284,1,0,0:0:0:0:
244,172,177394,1,8,0:0:0:0:
244,172,177835,1,0,0:0:0:0:
244,172,178056,1,8,0:0:0:0:
244,172,178276,1,0,0:0:0:0:
244,172,178718,1,0,0:0:0:0:
244,172,178828,1,0,0:0:0:0:
244,172,178938,1,0,0:0:0:0:
244,172,179048,1,0,0:0:0:0:
244,172,179159,1,8,0:0:0:0:
180,196,179379,1,0,0:0:0:0:
244,172,179600,1,0,0:0:0:0:
180,196,179820,1,0,0:0:0:0:
244,168,180041,1,4,0:0:0:0:
244,172,180482,1,8,0:0:0:0:
244,172,180593,1,0,0:0:0:0:
244,172,180703,1,0,0:0:0:0:
244,172,180813,1,0,0:0:0:0:
244,172,180923,1,0,0:0:0:0:
244,172,181365,1,0,0:0:0:0:
244,172,181585,1,0,0:0:0:0:
244,172,181806,5,4,0:0:0:0:
244,172,182026,1,8,0:0:0:0:
244,172,182247,1,4,0:0:0:0:
244,172,182468,1,8,0:0:0:0:
244,172,182688,1,4,0:0:0:0:
244,172,182909,1,8,0:0:0:0:
244,172,183129,1,4,0:0:0:0:
244,172,183571,5,8,0:0:0:0:
244,172,184012,1,8,0:0:0:0:
244,172,184453,1,8,0:0:0:0:
244,172,184895,1,8,0:0:0:0:
68,128,185336,2,8,B|344:56|344:56|276:240,1,472.5
244,172,187100,1,8,0:0:0:0:
244,172,187541,1,8,0:0:0:0:
244,172,187982,1,8,0:0:0:0:
244,172,188424,1,8,0:0:0:0:
348,272,188865,1,0,0:0:0:0:
244,172,188976,1,0,0:0:0:0:
308,232,189086,1,0,0:0:0:0:
284,212,189196,1,0,0:0:0:0:
256,180,189307,1,0,0:0:0:0:
244,172,189417,1,0,0:0:0:0:
256,180,189527,1,0,0:0:0:0:
256,180,189637,1,0,0:0:0:0:
256,180,189748,1,0,0:0:0:0:
256,180,189858,1,0,0:0:0:0:
244,172,189968,1,0,0:0:0:0:
256,180,190079,1,0,0:0:0:0:
256,180,190189,1,0,0:0:0:0:
256,180,190299,1,0,0:0:0:0:
256,180,190410,1,0,0:0:0:0:
244,172,190630,5,8,0:0:0:0:
244,172,191071,1,8,0:0:0:0:
244,172,191512,1,8,0:0:0:0:
244,172,191954,1,8,0:0:0:0:
108,144,192395,2,8,B|384:72|384:72|304:260,1,472.5
244,172,194159,5,8,0:0:0:0:
244,172,194600,1,8,0:0:0:0:
244,172,195041,1,8,0:0:0:0:
244,172,195483,1,8,0:0:0:0:
108,144,195924,2,8,B|384:72|384:72|308:260,1,472.5
