osu file format v14

[General]
AudioFilename: audio.mp3
AudioLeadIn: 0
PreviewTime: 62296
Countdown: 0
SampleSet: None
StackLeniency: 0.2
Mode: 0
LetterboxInBreaks: 0
WidescreenStoryboard: 0

[Editor]
DistanceSpacing: 0.1
BeatDivisor: 4
GridSize: 8
TimelineZoom: 1.4

[Metadata]
Title:RICKY
TitleUnicode:RICKY
Artist:Denzel Curry
ArtistUnicode:Denzel Curry
Creator:[Midnight]
Version:NEVER LEAVE YOUR DAY ONES IN THE GUTTER
Source:
Tags:
BeatmapID:2028209
BeatmapSetID:969417

[Difficulty]
HPDrainRate:6.5
CircleSize:4
OverallDifficulty:9.6
ApproachRate:9.5
SliderMultiplier:1.8
SliderTickRate:1

[Events]
//Background and Video events
0,0,"denzel.jpg",0,0
//Break Periods
//Storyboard Layer 0 (Background)
//Storyboard Layer 1 (Fail)
//Storyboard Layer 2 (Pass)
//Storyboard Layer 3 (Foreground)
//Storyboard Sound Samples

[TimingPoints]
5647,355.029585798817,4,1,0,40,1,0
5647,-133.333333333333,4,1,0,40,0,0
8753,-133.333333333333,4,1,0,10,0,0
8842,-133.333333333333,4,1,0,40,0,0
9463,-133.333333333333,4,1,0,10,0,0
9552,-133.333333333333,4,1,0,40,0,0
10173,-133.333333333333,4,1,0,10,0,0
10262,-133.333333333333,4,1,0,40,0,0
10528,-133.333333333333,4,1,0,10,0,0
10617,-133.333333333333,4,1,0,40,0,0
10972,-117.647058823529,4,1,0,40,0,0
14433,-117.647058823529,4,1,0,10,0,0
14522,-117.647058823529,4,1,0,40,0,0
15144,-117.647058823529,4,1,0,10,0,0
15232,-117.647058823529,4,1,0,40,0,0
15854,-117.647058823529,4,1,0,10,0,0
15942,-117.647058823529,4,1,0,40,0,0
16209,-117.647058823529,4,1,0,10,0,0
16297,-117.647058823529,4,1,0,40,0,0
16475,-117.647058823529,4,1,0,25,0,0
16652,-166.666666666667,4,1,0,40,0,0
16830,-166.666666666667,4,1,0,50,0,0
17030,355.029585798817,4,1,0,65,1,0
17030,-83.3333333333333,4,1,0,65,0,1
27680,-83.3333333333333,4,1,0,65,0,0
28035,-153.846153846154,4,1,0,65,0,0
28390,-100,4,1,0,65,0,0
30166,-125,4,1,0,65,0,0
30521,-100,4,1,0,65,0,0
33716,-153.846153846154,4,1,0,65,0,0
34071,-100,4,1,0,65,0,0
36911,-111.111111111111,4,1,0,50,0,0
39041,-105.263157894737,4,1,0,65,0,0
39396,-153.846153846154,4,1,0,65,0,0
39751,-83.3333333333333,4,1,0,65,0,0
45077,-153.846153846154,4,1,0,65,0,0
45432,-83.3333333333333,4,1,0,65,0,0
50757,-153.846153846154,4,1,0,65,0,0
51112,-133.333333333333,4,1,0,40,0,0
54219,-133.333333333333,4,1,0,10,0,0
54308,-133.333333333333,4,1,0,40,0,0
54929,-133.333333333333,4,1,0,10,0,0
55018,-133.333333333333,4,1,0,40,0,0
55639,-133.333333333333,4,1,0,10,0,0
55728,-133.333333333333,4,1,0,40,0,0
55994,-133.333333333333,4,1,0,10,0,0
56083,-133.333333333333,4,1,0,40,0,0
56438,-117.647058823529,4,1,0,40,0,0
59899,-117.647058823529,4,1,0,10,0,0
59988,-117.647058823529,4,1,0,40,0,0
60609,-117.647058823529,4,1,0,10,0,0
60698,-117.647058823529,4,1,0,40,0,0
61763,-117.647058823529,4,1,0,40,0,0
61941,-117.647058823529,4,1,0,25,0,0
62120,-166.666666666667,4,1,0,40,0,0
62298,-166.666666666667,4,1,0,50,0,0
62473,-83.3333333333334,4,1,0,65,0,1
73479,-153.846153846154,4,1,0,65,0,0
73834,-83.3333333333334,4,1,0,65,0,1
76319,-83.3333333333334,4,1,0,10,0,1
76497,-83.3333333333334,4,1,0,40,0,1
76674,-83.3333333333334,4,1,0,65,0,1
79160,-83.3333333333334,4,1,0,10,0,1
79337,-83.3333333333334,4,1,0,40,0,1
79515,-83.3333333333334,4,1,0,65,0,1
82000,-83.3333333333334,4,1,0,10,0,1
82177,-83.3333333333334,4,1,0,40,0,1
82355,-83.3333333333334,4,1,0,65,0,1
84840,-153.846153846154,4,1,0,65,0,0
85195,-100,4,1,0,65,0,0
89012,-100,4,1,0,20,0,0
89101,-100,4,1,0,65,0,0
93716,-100,4,1,0,50,0,0
96201,-153.846153846154,4,1,0,65,0,0
96556,-100,4,1,0,65,0,0
99041,-100,4,1,0,50,0,0
102237,-100,4,1,0,65,0,0
107562,-153.846153846154,4,1,0,65,0,0
107917,-133.333333333333,4,1,0,40,0,0
111024,-133.333333333333,4,1,0,10,0,0
111112,-133.333333333333,4,1,0,40,0,0
111734,-133.333333333333,4,1,0,10,0,0
111822,-133.333333333333,4,1,0,40,0,0
112444,-133.333333333333,4,1,0,10,0,0
112532,-133.333333333333,4,1,0,40,0,0
112799,-133.333333333333,4,1,0,10,0,0
112887,-133.333333333333,4,1,0,40,0,0
113243,-117.647058823529,4,1,0,40,0,0
116704,-117.647058823529,4,1,0,10,0,0
116793,-117.647058823529,4,1,0,40,0,0
117414,-117.647058823529,4,1,0,10,0,0
117503,-117.647058823529,4,1,0,40,0,0
118124,-117.647058823529,4,1,0,10,0,0
118213,-117.647058823529,4,1,0,40,0,0
118479,-117.647058823529,4,1,0,10,0,0
118568,-117.647058823529,4,1,0,40,0,0
118745,-117.647058823529,4,1,0,25,0,0
118923,-166.666666666667,4,1,0,40,0,0
119101,-166.666666666667,4,1,0,50,0,0
119278,-83.3333333333334,4,1,0,65,0,1
130284,-153.846153846154,4,1,0,65,0,0
130639,-83.3333333333333,4,1,0,65,0,1
141645,-153.846153846154,4,1,0,65,0,0

[Colours]
Combo1 : 0,0,0
Combo2 : 255,255,255

[HitObjects]
81,136,5646,5,0,0:0:0:0:
104,287,6002,1,0,0:0:0:0:
80,126,6357,2,0,L|93:9,1,101.250003862381,8|0,0:0|0:0,0:0:0:0:
246,209,7067,5,0,0:0:0:0:
223,360,7422,1,0,0:0:0:0:
247,199,7777,2,0,L|234:82,1,101.250003862381,8|0,0:0|0:0,0:0:0:0:
471,47,8487,6,0,L|359:55,1,101.250003862381
356,64,8842,1,0,0:0:0:0:
330,161,9019,1,0,0:0:0:0:
356,258,9197,2,0,B|362:294|362:294|347:373,1,101.250003862381,8|0,0:0|0:0,0:0:0:0:
336,369,9552,1,0,0:0:0:0:
239,339,9729,1,0,0:0:0:0:
142,309,9907,2,0,L|22:272,1,101.250003862381
23,199,10262,2,0,L|119:228,1,101.250003862381
186,191,10617,6,0,B|193:226|193:226|189:260,1,67.5000025749208,8|0,0:0|0:0,0:0:0:0:
243,132,10972,2,0,B|259:167|259:167|266:213,1,76.5000014591217
283,60,11327,1,0,0:0:0:0:
132,83,11682,1,0,0:0:0:0:
293,59,12037,2,0,L|422:73,1,114.750002188683,8|0,0:0|0:0,0:0:0:0:
356,195,12747,5,0,0:0:0:0:
507,218,13102,1,0,0:0:0:0:
346,194,13457,2,0,L|213:209,1,114.750002188683,8|0,0:0|0:0,0:0:0:0:
72,360,14167,6,0,B|64:298|64:298|76:226,1,114.750002188683
84,231,14522,1,0,0:0:0:0:
110,134,14700,1,0,0:0:0:0:
84,37,14877,2,0,B|123:21|123:21|205:34,1,114.750002188683,8|0,0:0|0:0,0:0:0:0:
211,42,15232,1,0,0:0:0:0:
310,60,15410,1,0,0:0:0:0:
409,78,15587,2,0,L|455:198,1,114.750002188683
403,262,15942,2,0,L|361:154,1,114.750002188683
266,155,16297,2,0,L|295:230,1,76.5000014591217
123,363,16652,6,0,L|131:299,1,53.9999983520508,2|0,0:0|0:0,0:0:0:0:
118,188,17030,5,4,0:0:0:0:
302,248,17207,1,0,0:0:0:0:
52,283,17385,2,0,B|39:245|39:245|45:173,1,107.999996704102
55,30,17740,1,8,0:0:0:0:
56,24,17828,1,0,0:0:0:0:
57,18,17917,1,4,0:0:0:0:
139,194,18095,1,0,0:0:0:0:
214,47,18272,1,4,0:0:0:0:
146,206,18450,2,0,P|138:262|147:329,1,107.999996704102,0|8,0:0|0:0,0:0:0:0:
156,330,18805,1,4,0:0:0:0:
20,240,18982,1,0,0:0:0:0:
273,201,19160,1,8,0:0:0:0:
39,246,19337,1,0,0:0:0:0:
170,341,19515,5,0,0:0:0:0:
206,117,19692,1,0,0:0:0:0:
283,259,19870,1,4,0:0:0:0:
115,185,20047,1,0,0:0:0:0:
336,135,20225,2,0,L|453:130,1,107.999996704102,4|0,0:0|0:0,0:0:0:0:
512,261,20580,2,0,L|395:256,1,107.999996704102,8|4,0:0|0:0,0:0:0:0:
113,234,20935,2,0,L|230:229,1,107.999996704102
335,279,21290,1,0,0:0:0:0:
264,129,21467,1,4,0:0:0:0:
218,366,21645,1,4,0:0:0:0:
351,274,21822,1,0,0:0:0:0:
104,239,22000,1,8,0:0:0:0:
380,193,22177,1,0,0:0:0:0:
84,153,22355,1,0,0:0:0:0:
339,269,22532,5,0,0:0:0:0:
84,246,22710,1,4,0:0:0:0:
78,246,22799,1,0,0:0:0:0:
72,246,22887,1,0,0:0:0:0:
144,104,23065,2,0,P|135:48|85:7,1,107.999996704102,0|4,0:0|0:0,0:0:0:0:
83,163,23420,1,8,0:0:0:0:
82,168,23509,1,0,0:0:0:0:
82,173,23598,1,0,0:0:0:0:
25,22,23775,1,0,0:0:0:0:
148,201,23953,1,4,0:0:0:0:
186,50,24130,2,0,B|225:34|225:34|299:47,1,107.999996704102,0|8,0:0|0:0,0:0:0:0:
439,72,24485,1,4,0:0:0:0:
351,182,24663,1,0,0:0:0:0:
319,0,24840,1,8,0:0:0:0:
367,197,25018,1,0,0:0:0:0:
262,141,25195,5,0,0:0:0:0:
375,105,25373,1,0,0:0:0:0:
318,324,25550,1,4,0:0:0:0:
269,157,25728,1,0,0:0:0:0:
481,257,25905,2,0,P|429:249|357:248,1,107.999996704102,4|0,0:0|0:0,0:0:0:0:
215,318,26260,1,8,0:0:0:0:
343,130,26438,1,4,0:0:0:0:
170,174,26615,2,0,L|53:165,1,107.999996704102
0,30,26970,2,0,L|117:39,1,107.999996704102,0|4,0:0|0:0,0:0:0:0:
236,35,27325,1,4,0:0:0:0:
164,186,27503,1,0,0:0:0:0:
113,49,27680,1,0,0:0:0:0:
107,38,27858,1,0,0:0:0:0:
63,164,28035,6,0,L|75:233,1,58.4999973220826,2|0,0:0|0:0,0:0:0:0:
185,355,28390,5,4,0:0:0:0:
164,186,28568,1,0,0:0:0:0:
300,249,28745,2,0,B|346:260|346:260|392:249,1,90
317,83,29101,1,8,0:0:0:0:
316,87,29189,1,0,0:0:0:0:
315,91,29278,1,4,0:0:0:0:
308,329,29456,2,0,L|294:240,1,90,0|4,0:0|0:0,0:0:0:0:
219,65,29811,2,0,L|205:153,1,90,0|8,0:0|0:0,0:0:0:0:
54,312,30166,2,0,P|90:301|147:301,1,72,4|0,0:0|0:0,0:0:0:0:
294,230,30521,5,0,0:0:0:0:
190,185,30698,1,0,0:0:0:0:
80,193,30876,1,0,0:0:0:0:
90,186,31231,5,4,0:0:0:0:
200,188,31409,1,0,0:0:0:0:
300,242,31586,2,0,P|316:296|313:340,1,90,4|0,0:0|0:0,0:0:0:0:
151,378,31941,2,0,P|177:328|211:299,1,90,8|4,0:0|0:0,0:0:0:0:
374,259,32296,1,0,0:0:0:0:
216,152,32473,1,0,0:0:0:0:
451,113,32651,2,0,B|477:87|477:87|496:18,1,90,0|4,0:0|0:0,0:0:0:0:
261,17,33006,2,0,B|261:53|261:53|296:115,1,90,4|0,0:0|0:0,0:0:0:0:
359,225,33361,1,0,0:0:0:0:
218,155,33538,1,0,0:0:0:0:
436,116,33716,6,0,L|373:126,1,58.4999973220826,2|0,0:0|0:0,0:0:0:0:
192,160,34071,5,4,0:0:0:0:
244,4,34248,1,4,0:0:0:0:
243,228,34426,5,0,0:0:0:0:
191,72,34603,1,4,0:0:0:0:
192,296,34781,5,8,0:0:0:0:
244,140,34958,1,0,0:0:0:0:
243,364,35136,5,4,0:0:0:0:
191,208,35313,1,0,0:0:0:0:
345,286,35491,1,0,0:0:0:0:
166,350,35669,1,8,0:0:0:0:
273,173,35846,2,0,P|281:120|274:60,1,90,4|0,0:0|0:0,0:0:0:0:
113,11,36201,2,0,P|111:55|118:100,1,90,8|0,0:0|0:0,0:0:0:0:
196,261,36556,5,0,0:0:0:0:
302,242,36734,1,0,0:0:0:0:
408,223,36911,2,0,P|455:227|496:241,1,80.9999975280763,4|0,0:0|0:0,0:0:0:0:
320,153,37266,2,0,P|273:157|232:171,1,80.9999975280763,0|4,0:0|0:0,0:0:0:0:
408,83,37621,1,0,0:0:0:0:
368,293,37976,5,4,0:0:0:0:
293,229,38154,1,0,0:0:0:0:
219,166,38331,2,0,L|157:113,1,80.9999975280763
0,195,38686,6,0,P|46:201|78:216,1,80.9999975280763,4|0,0:0|0:0,0:0:0:0:
200,337,39041,2,0,P|162:359|97:363,1,85.4999977169037
157,113,39396,6,0,L|151:180,1,58.4999973220826,2|0,0:0|0:0,0:0:0:0:
27,300,39751,6,0,P|78:282|140:293,1,107.999996704102,4|0,0:0|0:0,0:0:0:0:
341,357,40106,2,0,P|290:375|228:364,1,107.999996704102
120,211,40461,1,8,0:0:0:0:
117,206,40550,1,0,0:0:0:0:
114,201,40639,1,4,0:0:0:0:
304,164,40816,1,0,0:0:0:0:
209,308,40994,1,4,0:0:0:0:
141,102,41172,2,0,B|136:60|136:60|150:-5,1,107.999996704102,0|8,0:0|0:0,0:0:0:0:
318,91,41527,1,4,0:0:0:0:
311,127,41615,1,0,0:0:0:0:
304,164,41704,2,0,B|294:205|294:205|258:261,1,107.999996704102,0|8,0:0|0:0,0:0:0:0:
203,146,42059,1,0,0:0:0:0:
390,122,42237,1,0,0:0:0:0:
348,275,42414,2,0,P|357:342|376:383,2,107.999996704102,0|4|0,0:0|0:0|0:0,0:0:0:0:
446,98,42947,6,0,B|391:86|391:86|324:98,1,107.999996704102,4|0,0:0|0:0,0:0:0:0:
149,243,43302,1,8,0:0:0:0:
184,234,43390,1,0,0:0:0:0:
221,224,43479,2,0,B|275:211|275:211|331:172,1,107.999996704102,4|0,0:0|0:3,0:0:0:0:
197,109,43834,1,0,0:0:0:0:
222,302,44012,1,0,0:0:0:0:
223,312,44189,1,4,0:0:0:0:
107,213,44367,1,4,0:0:0:0:
307,235,44544,1,0,0:0:0:0:
122,327,44722,1,4,0:0:0:0:
180,119,44899,1,4,0:0:0:0:
262,296,45077,6,0,B|270:327|270:327|266:357,1,58.4999973220826,2|0,0:0|0:0,0:0:0:0:
320,214,45432,5,4,0:0:0:0:
322,209,45521,1,0,0:0:0:0:
324,204,45609,1,0,0:0:0:0:
212,245,45787,1,0,0:0:0:0:
366,291,45964,1,0,0:0:0:0:
275,76,46142,1,8,0:0:0:0:
220,228,46319,1,4,0:0:0:0:
286,56,46497,2,0,L|398:45,1,107.999996704102,0|4,0:0|0:0,0:0:0:0:
464,162,46852,5,0,0:0:0:0:
367,152,47030,1,8,0:0:0:0:
270,143,47207,1,4,0:0:0:0:
129,227,47385,1,0,0:0:0:0:
225,217,47563,1,8,0:0:0:0:
314,208,47740,1,0,0:0:0:0:
459,292,47917,2,0,L|318:277,1,107.999996704102
190,264,48272,5,4,0:0:0:0:
87,230,48450,1,0,0:0:0:0:
87,122,48627,1,4,0:0:0:0:
190,89,48805,1,0,0:0:0:0:
253,176,48982,1,8,0:0:0:0:
316,263,49160,1,4,0:0:0:0:
379,350,49337,2,0,B|419:359|419:359|486:342,1,107.999996704102
416,80,49692,5,0,0:0:0:0:
407,177,49870,1,4,0:0:0:0:
398,274,50047,1,4,0:0:0:0:
312,384,50225,1,0,0:0:0:0:
303,287,50403,1,0,0:0:0:0:
294,190,50580,1,0,0:0:0:0:
208,80,50757,6,0,L|213:147,1,58.4999973220826
169,352,51112,5,0,0:0:0:0:
146,201,51467,1,0,0:0:0:0:
181,369,51822,2,0,B|215:378|215:378|288:371,1,101.250003862381,8|0,0:0|0:0,0:0:0:0:
220,97,52532,5,0,0:0:0:0:
243,248,52887,1,0,0:0:0:0:
208,80,53242,2,0,B|174:71|174:71|101:78,1,101.250003862381,8|0,0:0|0:0,0:0:0:0:
35,228,53953,6,0,L|139:219,1,101.250003862381
152,220,54308,1,0,0:0:0:0:
250,242,54485,1,0,0:0:0:0:
348,220,54663,2,0,P|360:172|350:119,1,101.250003862381,8|0,0:0|0:0,0:0:0:0:
337,112,55018,1,0,0:0:0:0:
279,195,55195,1,0,0:0:0:0:
314,291,55373,2,0,P|361:304|415:301,1,101.250003862381
456,215,55728,2,0,P|408:230|357:230,1,101.250003862381
307,133,56083,6,0,P|342:151|374:158,1,67.5000025749208,8|0,0:0|0:0,0:0:0:0:
329,15,56438,2,0,P|341:53|373:97,1,76.5000014591217
465,3,56793,5,0,0:0:0:0:
314,26,57148,1,0,0:0:0:0:
481,0,57503,2,0,L|462:114,1,114.750002188683,8|0,0:0|0:0,0:0:0:0:
140,116,58213,5,0,0:0:0:0:
291,139,58568,1,0,0:0:0:0:
124,113,58923,2,0,L|143:227,1,114.750002188683,8|0,0:0|0:0,0:0:0:0:
91,384,59633,6,0,L|72:270,1,114.750002188683
71,251,59988,1,0,0:0:0:0:
67,149,60166,1,0,0:0:0:0:
64,48,60343,2,0,B|101:33|101:33|190:46,1,114.750002188683,8|0,0:0|0:0,0:0:0:0:
189,55,60698,1,0,0:0:0:0:
286,82,60876,1,0,0:0:0:0:
383,55,61053,2,0,P|445:61|501:102,1,114.750002188683
490,208,61408,2,0,P|462:158|415:126,1,114.750002188683
318,216,61763,2,0,P|360:210|404:207,1,76.5000014591217
512,326,62118,6,0,L|433:320,1,76.5000014591217,2|0,0:0|0:0,0:0:0:0:
236,362,62473,5,4,0:0:0:0:
316,208,62651,1,0,0:0:0:0:
125,242,62828,2,0,P|69:245|16:230,1,107.999996704102
182,124,63183,1,8,0:0:0:0:
187,123,63272,1,0,0:0:0:0:
192,122,63361,1,4,0:0:0:0:
21,159,63538,1,0,0:0:0:0:
173,10,63716,1,4,0:0:0:0:
102,242,63893,2,0,B|92:282|92:282|103:357,1,107.999996704102,0|8,0:0|0:0,0:0:0:0:
17,192,64248,1,4,0:0:0:0:
201,250,64426,1,0,0:0:0:0:
4,313,64603,1,8,0:0:0:0:
224,241,64781,1,0,0:0:0:0:
114,153,64958,5,0,0:0:0:0:
136,378,65136,1,0,0:0:0:0:
212,259,65314,1,4,0:0:0:0:
52,233,65491,1,0,0:0:0:0:
241,333,65669,2,0,B|296:340|296:340|354:319,1,107.999996704102,4|0,0:0|0:0,0:0:0:0:
295,146,66024,2,0,P|285:208|290:260,1,107.999996704102,8|4,0:0|0:0,0:0:0:0:
462,105,66379,2,0,P|410:69|360:52,1,107.999996704102
184,72,66734,1,0,0:0:0:0:
361,36,66911,1,4,0:0:0:0:
314,238,67089,1,4,0:0:0:0:
279,103,67266,1,0,0:0:0:0:
463,217,67444,1,8,0:0:0:0:
206,187,67621,1,0,0:0:0:0:
449,128,67799,1,0,0:0:0:0:
232,269,67976,1,0,0:0:0:0:
310,55,68154,5,4,0:0:0:0:
312,49,68243,1,0,0:0:0:0:
314,44,68331,1,4,0:0:0:0:
309,250,68509,2,8,P|345:296|407:307,1,107.999996704102,0|4,0:0|0:0,0:0:0:0:
378,137,68864,5,8,0:0:0:0:
380,131,68953,1,0,0:0:0:0:
382,126,69041,1,4,0:0:0:0:
243,294,69219,1,0,0:0:0:0:
406,215,69396,1,4,0:0:0:0:
208,144,69574,2,0,B|151:140|151:140|94:157,1,107.999996704102,0|8,0:0|0:0,0:0:0:0:
18,268,69929,1,4,0:0:0:0:
1,85,70106,1,0,0:0:0:0:
115,303,70284,1,8,0:0:0:0:
132,120,70461,1,0,0:0:0:0:
39,211,70639,5,0,0:0:0:0:
229,245,70816,1,0,0:0:0:0:
115,99,70994,1,4,0:0:0:0:
149,323,71172,1,0,0:0:0:0:
256,153,71349,2,0,B|294:146|294:146|385:167,1,107.999996704102,4|0,0:0|0:0,0:0:0:0:
425,287,71704,1,8,0:0:0:0:
209,230,71882,1,4,0:0:0:0:
348,384,72059,2,0,P|341:318|351:274,1,107.999996704102
284,48,72414,2,0,P|293:100|285:154,1,107.999996704102,0|4,0:0|0:0,0:0:0:0:
208,284,72769,1,4,0:0:0:0:
395,229,72947,1,0,0:0:0:0:
184,147,73124,1,0,0:0:0:0:
173,143,73302,1,0,0:0:0:0:
350,89,73479,6,0,P|384:91|424:103,1,58.4999973220826,2|0,0:0|0:0,0:0:0:0:
503,242,73834,5,4,0:0:0:0:
512,79,74012,1,0,0:0:0:0:
373,167,74189,2,0,P|318:179|254:168,1,107.999996704102
150,59,74544,1,8,0:0:0:0:
145,56,74633,1,0,0:0:0:0:
140,53,74722,1,4,0:0:0:0:
199,250,74899,1,0,0:0:0:0:
50,100,75077,1,4,0:0:0:0:
265,106,75254,2,0,B|277:143|277:143|266:220,1,107.999996704102,0|8,0:0|0:0,0:0:0:0:
244,371,75609,1,4,0:0:0:0:
359,257,75787,1,0,0:0:0:0:
156,284,75964,2,0,L|44:275,1,107.999996704102
38,271,76319,5,0,0:0:0:0:
90,87,76497,5,0,0:0:0:0:
262,182,76674,1,4,0:0:0:0:
12,201,76852,1,0,0:0:0:0:
177,44,77030,2,0,L|166:172,1,107.999996704102,4|0,0:0|0:0,0:0:0:0:
253,360,77385,2,0,L|242:232,1,107.999996704102,8|4,0:0|0:0,0:0:0:0:
205,20,77740,2,0,L|194:148,1,107.999996704102
178,332,78095,1,0,0:0:0:0:
79,190,78272,1,4,0:0:0:0:
302,150,78450,1,4,0:0:0:0:
131,57,78627,1,0,0:0:0:0:
148,232,78805,2,0,P|146:293|127:357,1,107.999996704102,0|0,0:3|0:3,0:3:0:0:
127,346,79160,5,0,0:0:0:0:
269,254,79337,5,0,0:0:0:0:
44,209,79515,1,4,0:0:0:0:
38,207,79603,1,0,0:0:0:0:
32,205,79692,1,4,0:0:0:0:
202,100,79870,2,0,B|258:90|258:90|320:102,1,107.999996704102,0|4,0:0|0:0,0:0:0:0:
438,196,80225,1,8,0:0:0:0:
441,200,80314,1,0,0:0:0:0:
444,204,80402,1,4,0:0:0:0:
375,68,80580,1,0,0:0:0:0:
330,277,80757,1,4,0:0:0:0:
367,50,80935,2,0,P|321:25|262:28,1,107.999996704102,0|8,0:0|0:0,0:0:0:0:
133,99,81290,1,4,0:0:0:0:
319,153,81467,1,0,0:0:0:0:
174,6,81645,6,0,P|112:-3|59:14,1,107.999996704102
61,16,82000,5,0,0:0:0:0:
108,232,82177,5,0,0:0:0:0:
169,22,82355,1,4,0:0:0:0:
31,158,82532,1,0,0:0:0:0:
232,219,82710,2,0,B|272:226|272:226|347:213,1,107.999996704102,4|0,0:0|0:0,0:0:0:0:
410,71,83065,1,8,0:0:0:0:
446,283,83243,1,4,0:0:0:0:
284,153,83420,2,0,P|213:137|173:154,1,107.999996704102
143,301,83775,2,0,P|204:262|220:221,1,107.999996704102,0|4,0:0|0:0,0:0:0:0:
180,51,84130,1,4,0:0:0:0:
296,233,84308,1,0,0:0:0:0:
82,157,84485,1,0,0:0:0:0:
71,153,84663,1,0,0:0:0:0:
280,98,84840,6,0,L|348:92,1,58.4999973220826,2|0,0:0|0:0,0:0:0:0:
476,150,85195,5,4,0:0:0:0:
353,22,85373,1,0,0:0:0:0:
340,201,85550,2,0,L|330:303,1,90
210,384,85905,1,8,0:0:0:0:
209,379,85994,1,0,0:0:0:0:
208,374,86083,1,4,0:0:0:0:
47,140,86438,5,0,0:0:0:0:
170,12,86616,1,0,0:0:0:0:
32,154,86793,1,8,0:0:0:0:
225,119,86970,2,0,B|260:112|260:112|339:131,1,90,4|0,0:0|0:0,0:0:0:0:
384,257,87325,2,0,B|349:264|349:264|270:245,1,90,8|0,0:0|0:0,0:0:0:0:
76,323,87858,5,0,0:0:0:0:
139,259,88035,1,4,0:0:0:0:
202,195,88213,1,0,0:0:0:0:
265,131,88390,2,0,P|310:120|362:128,1,90,4|0,0:0|0:0,0:0:0:0:
486,236,88745,2,0,L|339:227,1,135,8|0,0:0|0:0,0:0:0:0:
338,233,89101,1,0,0:0:0:0:
247,272,89278,1,0,0:0:0:0:
156,233,89456,1,0,0:0:0:0:
140,135,89633,2,4,B|138:87|138:87|161:42,1,90
385,84,90166,5,4,0:0:0:0:
129,23,90343,1,4,0:0:0:0:
395,93,90521,2,0,P|405:143|396:194,1,90,2|0,0:0|0:0,0:0:0:0:
347,265,90876,5,4,0:0:0:0:
258,308,91053,1,4,0:0:0:0:
413,354,91231,1,0,0:0:0:0:
260,214,91408,1,4,0:0:0:0:
461,263,91586,1,8,0:0:0:0:
465,264,91674,1,0,0:0:0:0:
469,265,91763,1,0,0:0:0:0:
249,324,91941,1,4,0:0:0:0:
313,146,92118,1,0,0:0:0:0:
348,384,92296,2,0,L|334:284,1,90,0|8,0:0|0:0,0:0:0:0:
216,138,92651,2,0,L|207:240,1,90,4|0,0:0|0:0,0:0:0:0:
370,35,93006,1,8,0:0:0:0:
120,21,93361,5,0,0:0:0:0:
122,38,93538,1,0,0:0:0:0:
40,194,93716,2,0,P|83:177|126:174,1,90
193,328,94071,2,0,P|150:309|118:281,1,90
228,115,94426,1,0,0:0:0:0:
198,243,94603,1,0,0:0:0:0:
337,204,94781,1,0,0:0:0:0:
210,102,94958,1,0,0:0:0:0:
354,193,95136,1,0,0:0:0:0:
184,254,95314,1,0,0:0:0:0:
378,185,95491,1,0,0:0:0:0:
191,94,95669,1,0,0:0:0:0:
258,307,95846,1,0,0:0:0:0:
297,88,96201,6,0,P|299:48|296:24,1,58.4999973220826,2|0,0:0|0:0,0:0:0:0:
109,88,96556,6,0,L|121:187,1,90,4|0,0:0|0:0,0:0:0:0:
142,355,96911,1,0,0:0:0:0:
22,269,97089,1,0,0:0:0:0:
255,189,97266,1,8,0:0:0:0:
259,187,97355,1,0,0:0:0:0:
263,185,97444,1,4,0:0:0:0:
13,168,97621,6,0,P|9:218|19:267,1,90,0|4,0:0|0:0,0:0:0:0:
106,116,97976,1,0,0:0:0:0:
219,265,98154,1,8,0:0:0:0:
124,123,98331,1,4,0:0:0:0:
309,148,98509,1,0,0:0:0:0:
26,167,98686,1,8,0:0:0:0:
248,23,99041,5,0,0:0:0:0:
248,36,99130,1,0,0:0:0:0:
248,49,99219,1,0,0:0:0:0:
198,305,99396,5,4,0:0:0:0:
190,224,99574,1,0,0:0:0:0:
183,143,99751,2,0,L|173:38,1,90,4|0,0:0|0:0,0:0:0:0:
337,53,100106,2,0,L|329:143,1,90
265,309,100461,6,4,P|318:295|361:303,1,90,0|4,0:0|0:0,0:0:0:0:
444,363,100816,1,0,0:0:0:0:
444,363,100905,1,0,0:0:0:0:
444,363,100994,1,0,0:0:0:0:
452,282,101173,1,4,0:0:0:0:
459,201,101350,1,4,0:0:0:0:
466,120,101527,2,0,B|454:73|454:73|426:39,1,90
282,92,101882,2,0,B|323:116|323:116|367:120,1,90
192,24,102237,5,4,0:0:0:0:
191,32,102325,1,0,0:0:0:0:
190,41,102414,1,0,0:0:0:0:
139,235,102592,2,0,L|126:130,1,90
280,224,102947,1,8,0:0:0:0:
283,226,103035,1,0,0:0:0:0:
286,228,103124,1,4,0:0:0:0:
80,296,103302,1,0,0:0:0:0:
137,131,103479,1,4,0:0:0:0:
171,335,103657,2,0,P|218:354|274:355,1,90,0|8,0:0|0:0,0:0:0:0:
363,221,104012,2,0,P|328:258|278:282,1,90,4|0,0:0|0:0,0:0:0:0:
197,186,104367,1,8,0:0:0:0:
408,147,104544,6,0,L|514:161,2,90
300,133,105077,1,4,0:0:0:0:
193,119,105254,1,0,0:0:0:0:
86,105,105432,2,0,L|60:206,1,90,4|0,0:0|0:0,0:0:0:0:
179,339,105787,2,0,L|153:238,1,90,8|4,0:0|0:0,0:0:0:0:
72,353,106142,1,0,0:0:0:0:
179,339,106319,1,0,0:0:0:0:
286,325,106497,1,0,0:0:0:0:
365,252,106674,1,4,0:0:0:0:
387,146,106852,2,0,L|366:45,1,90,4|0,0:0|0:0,0:0:0:0:
212,4,107207,2,0,L|233:105,1,90
206,289,107562,6,0,L|192:218,1,58.4999973220826
330,146,107917,5,0,0:0:0:0:
307,297,108272,1,0,0:0:0:0:
331,136,108627,2,0,P|331:83|318:19,1,101.250003862381
20,219,109337,5,0,0:0:0:0:
43,68,109692,1,0,0:0:0:0:
19,229,110047,2,0,P|21:282|32:346,1,101.250003862381
41,337,110757,6,0,B|94:345|94:345|153:329,1,101.250003862381
153,322,111112,1,0,0:0:0:0:
179,225,111290,1,0,0:0:0:0:
153,128,111467,2,0,B|162:13,1,101.250003862381,8|0,0:0|0:0,0:0:0:0:
166,11,111822,1,0,0:0:0:0:
263,41,112000,1,0,0:0:0:0:
360,71,112177,2,0,L|480:108,1,101.250003862381
479,181,112532,2,0,L|383:152,1,101.250003862381
308,142,112887,6,0,B|284:115|270:83,1,67.5000025749208,8|0,0:0|0:0,0:0:0:0:
288,221,113243,2,0,B|256:198|227:162,1,76.5000014591217
287,306,113598,1,0,0:0:0:0:
448,233,113953,1,0,0:0:0:0:
281,309,114308,2,0,B|246:324|246:324|143:312,1,114.750002188683,8|0,0:0|0:0,0:0:0:0:
156,189,115018,5,0,0:0:0:0:
5,166,115373,1,0,0:0:0:0:
166,190,115728,2,0,B|203:195|203:195|300:157,1,114.750002188683,8|0,0:0|0:0,0:0:0:0:
440,24,116438,6,0,B|463:83|429:152,1,114.750002188683
425,151,116793,1,0,0:0:0:0:
399,248,116970,1,0,0:0:0:0:
430,358,117148,2,0,B|311:345,1,114.750002188683,8|0,0:0|0:0,0:0:0:0:
298,354,117503,1,0,0:0:0:0:
199,336,117680,1,0,0:0:0:0:
100,318,117858,2,0,B|66:271|66:271|54:198,1,114.750002188683
96,138,118213,2,0,B|127:185|127:185|139:247,1,114.750002188683
225,290,118568,2,0,L|207:205,1,76.5000014591217
299,52,118923,6,0,L|291:116,1,53.9999983520508
303,320,119278,5,4,0:0:0:0:
218,153,119455,1,0,0:0:0:0:
224,384,119633,2,0,B|241:347|241:347|296:301,1,107.999996704102
425,191,119988,1,8,0:0:0:0:
429,187,120077,1,0,0:0:0:0:
433,183,120166,1,4,0:0:0:0:
229,223,120343,1,0,0:0:0:0:
427,294,120520,1,4,0:0:0:0:
305,48,120698,2,0,B|292:102|292:102|304:169,1,107.999996704102,0|8,0:0|0:0,0:0:0:0:
370,353,121053,1,4,0:0:0:0:
384,123,121230,1,0,0:0:0:0:
340,368,121408,1,8,0:0:0:0:
407,117,121585,1,0,0:0:0:0:
229,220,121763,5,0,0:0:0:0:
431,194,121940,1,0,0:0:0:0:
294,129,122118,1,4,0:0:0:0:
344,380,122295,1,0,0:0:0:0:
205,288,122473,2,0,P|151:274|96:282,1,107.999996704102,4|0,0:0|0:0,0:0:0:0:
7,145,122828,2,0,P|61:159|116:151,1,107.999996704102,8|4,0:0|0:0,0:0:0:0:
179,20,123183,2,0,P|123:20|72:42,1,107.999996704102
5,216,123538,1,0,0:0:0:0:
135,163,123716,1,4,0:0:0:0:
92,330,123893,1,4,0:0:0:0:
18,126,124071,1,0,0:0:0:0:
226,278,124248,1,8,0:0:0:0:
188,20,124426,1,0,0:0:0:0:
133,272,124603,1,0,0:0:0:0:
265,48,124781,1,0,0:0:0:0:
305,303,124958,5,4,0:0:0:0:
306,313,125047,1,0,0:0:0:0:
307,323,125136,1,4,0:0:0:0:
127,120,125314,2,0,P|185:127|246:125,1,107.999996704102,0|4,0:0|0:0,0:0:0:0:
405,89,125669,1,8,0:0:0:0:
410,87,125757,1,0,0:0:0:0:
415,85,125846,1,4,0:0:0:0:
271,0,126024,1,0,0:0:0:0:
294,232,126201,1,4,0:0:0:0:
133,10,126378,2,0,B|149:48|149:48|136:122,1,107.999996704102,0|8,0:0|0:0,0:0:0:0:
109,263,126734,1,4,0:0:0:0:
46,125,126911,1,0,0:0:0:0:
227,204,127089,1,8,0:0:0:0:
19,137,127266,1,0,0:0:0:0:
234,67,127444,5,0,0:0:0:0:
199,217,127621,1,0,0:0:0:0:
113,103,127799,1,4,0:0:0:0:
341,120,127976,1,0,0:0:0:0:
111,222,128154,2,0,P|98:284|112:335,1,107.999996704102,4|0,0:0|0:0,0:0:0:0:
40,174,128509,1,8,0:0:0:0:
231,328,128686,1,4,0:0:0:0:
171,142,128864,2,0,L|191:30,1,107.999996704102
344,118,129219,2,0,L|324:230,1,107.999996704102,0|4,0:0|0:0,0:0:0:0:
269,58,129573,1,4,0:0:0:0:
418,192,129751,1,0,0:0:0:0:
200,242,129928,1,0,0:0:0:0:
183,248,130106,1,0,0:0:0:0:
414,42,130284,6,0,L|405:117,1,58.4999973220826,2|0,0:0|0:0,0:0:0:0:
236,362,130639,5,4,0:0:0:0:
316,208,130817,1,0,0:0:0:0:
125,242,130994,2,0,B|89:250|89:250|16:230,1,107.999996704102
182,124,131349,1,8,0:0:0:0:
187,123,131438,1,0,0:0:0:0:
192,122,131527,1,4,0:0:0:0:
22,109,131704,1,0,0:0:0:0:
242,46,131882,1,4,0:0:0:0:
13,126,132059,2,0,P|-1:179|15:238,1,107.999996704102,0|8,0:0|0:0,0:0:0:0:
100,355,132414,1,4,0:0:0:0:
82,175,132592,1,0,0:0:0:0:
233,288,132769,1,8,0:0:0:0:
9,315,132947,1,0,0:0:0:0:
165,197,133124,5,0,0:0:0:0:
28,314,133302,1,0,0:0:0:0:
238,362,133480,1,4,0:0:0:0:
74,164,133657,1,0,0:0:0:0:
236,247,133834,2,0,B|293:264|349:233,1,107.999996704102,4|0,0:0|0:0,0:0:0:0:
305,31,134189,2,0,B|273:81|289:143,1,107.999996704102,8|4,0:0|0:0,0:0:0:0:
478,180,134544,2,0,B|464:122|409:89,1,107.999996704102
172,104,134900,1,0,0:0:0:0:
317,25,135077,1,4,0:0:0:0:
294,234,135255,1,4,0:0:0:0:
249,97,135432,1,0,0:0:0:0:
461,176,135609,1,8,0:0:0:0:
260,317,135787,1,0,0:0:0:0:
394,99,135965,1,0,0:0:0:0:
348,355,136142,1,0,0:0:0:0:
274,118,136319,5,4,0:0:0:0:
272,112,136408,1,0,0:0:0:0:
270,106,136497,1,4,0:0:0:0:
392,289,136674,2,0,P|456:296|504:288,1,107.999996704102,0|4,0:0|0:0,0:0:0:0:
373,140,137030,1,8,0:0:0:0:
371,134,137119,1,0,0:0:0:0:
369,128,137208,1,4,0:0:0:0:
400,368,137385,1,0,0:0:0:0:
273,215,137562,1,4,0:0:0:0:
512,196,137740,2,0,L|401:183,1,107.999996704102,0|8,0:0|0:0,0:0:0:0:
247,226,138095,1,4,0:0:0:0:
339,62,138272,1,0,0:0:0:0:
340,288,138450,1,8,0:0:0:0:
224,83,138627,1,0,0:0:0:0:
116,201,138805,5,0,0:0:0:0:
262,238,138982,1,0,0:0:0:0:
198,71,139160,1,4,0:0:0:0:
132,277,139338,1,0,0:0:0:0:
267,142,139515,2,0,B|328:125|372:168,1,107.999996704102,4|0,0:0|0:0,0:0:0:0:
424,306,139870,1,8,0:0:0:0:
206,187,140047,1,4,0:0:0:0:
332,381,140225,2,0,L|345:271,1,107.999996704102
267,42,140580,2,0,L|280:152,1,107.999996704102,0|4,0:0|0:0,0:0:0:0:
324,362,140935,1,4,0:0:0:0:
420,179,141113,1,0,0:0:0:0:
197,263,141290,1,0,0:0:0:0:
185,270,141468,1,0,0:0:0:0:
404,103,141645,6,0,P|438:105|478:117,1,58.4999973220826,2|0,0:0|0:0,0:0:0:0:
