osu file format v14

[General]
AudioFilename: audio.mp3
AudioLeadIn: 0
PreviewTime: 14841
Countdown: 0
SampleSet: Normal
StackLeniency: 0.7
Mode: 1
LetterboxInBreaks: 0
WidescreenStoryboard: 0

[Editor]
Bookmarks: 16803,29726,37111,53726
DistanceSpacing: 0.5
BeatDivisor: 4
GridSize: 32
TimelineZoom: 1

[Metadata]
Title:TA OK
TitleUnicode:TÁ OK
Artist:Dennis e Kevin O Chris
ArtistUnicode:Dennis e Kevin O Chris
Creator:-Flashlight-
Version:Toma
Source:
Tags:funk carioca brazilian brasileiro brazil brasil portuguese português mc dj
BeatmapID:4218526
BeatmapSetID:2024915

[Difficulty]
HPDrainRate:7.5
CircleSize:5
OverallDifficulty:5.5
ApproachRate:5
SliderMultiplier:1.4
SliderTickRate:1

[Events]
//Background and Video events
0,0,"file.jpg",0,0
//Break Periods
//Storyboard Layer 0 (Background)
//Storyboard Layer 1 (Fail)
//Storyboard Layer 2 (Pass)
//Storyboard Layer 3 (Foreground)
//Storyboard Layer 4 (Overlay)
//Storyboard Sound Samples

[TimingPoints]
188,461.538461538462,4,1,0,90,1,0
188,-125,4,1,0,90,0,0
14836,-125,4,1,0,80,0,0
14952,-111.111111111111,4,1,0,80,0,0
15067,-113.043527410229,4,1,0,80,0,0
15413,-119.265989394868,4,1,0,80,0,0
15529,-121.495315748101,4,1,0,80,0,0
15875,-128.712884030979,4,1,0,80,0,0
15990,-131.313210896895,4,1,0,80,0,0
16336,-139.784871083403,4,1,0,80,0,0
16452,-142.857142857143,4,1,0,80,0,0
16803,-90.9090909090909,4,1,0,100,0,1
17144,-94.594581811543,4,1,0,100,0,1
17259,-95.8904240945786,4,1,0,100,0,1
17490,-98.5915215235151,4,1,0,100,0,1
17721,-101.449304767914,4,1,0,100,0,1
17952,-104.477596346627,4,1,0,100,0,1
18183,-107.692357396473,4,1,0,100,0,1
18413,-111.111111111111,4,1,0,100,0,1
18644,-90.9090909090909,4,1,0,100,0,1
18990,-94.594581811543,4,1,0,100,0,1
19106,-95.8904240945786,4,1,0,100,0,1
19336,-98.5915215235151,4,1,0,100,0,1
19567,-101.449304767914,4,1,0,100,0,1
19798,-104.477596346627,4,1,0,100,0,1
20029,-107.692357396473,4,1,0,100,0,1
20259,-111.111111111111,4,1,0,100,0,1
20490,-90.9090909090909,4,1,0,100,0,1
20836,-97.0873786407767,4,1,0,100,0,1
20952,-90.9090909090909,4,1,0,100,0,1
21298,-97.0873786407767,4,1,0,100,0,1
21418,-90.9090909090909,4,1,0,100,0,0
21759,-111.111111111111,4,1,0,80,0,0
22221,-100,4,1,0,100,0,0
22341,-90.9090909090909,4,1,0,100,0,1
22683,-94.5719484469395,4,1,0,100,0,1
22798,-95.8593551541179,4,1,0,100,0,1
23029,-98.5422642844403,4,1,0,100,0,1
23144,-99.9408350256648,4,1,0,100,0,1
23259,-101.379676010831,4,1,0,100,0,1
23490,-104.385441153751,4,1,0,100,0,1
23721,-107.57476984378,4,1,0,100,0,1
23952,-110.965253450187,4,1,0,100,0,1
24183,-90.9090909090909,4,1,0,100,0,1
24529,-94.594581811543,4,1,0,100,0,1
24644,-95.8904240945786,4,1,0,100,0,1
24875,-98.5915215235151,4,1,0,100,0,1
25106,-101.449304767914,4,1,0,100,0,1
25336,-104.477596346627,4,1,0,100,0,1
25452,-106.060622130397,4,1,0,100,0,1
25567,-107.692357396473,4,1,0,100,0,1
25798,-111.111111111111,4,1,0,100,0,1
26029,-90.9090909090909,4,1,0,100,0,1
26375,-94.594581811543,4,1,0,100,0,1
26490,-95.8904240945786,4,1,0,100,0,1
26721,-98.5915215235151,4,1,0,100,0,1
26836,-100,4,1,0,100,0,1
26952,-101.449304767914,4,1,0,100,0,1
27183,-104.477596346627,4,1,0,100,0,1
27413,-107.692357396473,4,1,0,100,0,1
27644,-111.111111111111,4,1,0,100,0,1
27875,-90.9090909090909,4,1,0,100,0,1
28221,-94.594581811543,4,1,0,100,0,1
28336,-95.8904240945786,4,1,0,100,0,1
28567,-98.5915215235151,4,1,0,100,0,1
28798,-101.449304767914,4,1,0,100,0,1
29029,-104.477596346627,4,1,0,100,0,1
29144,-106.060622130397,4,1,0,100,0,1
29259,-107.692357396473,4,1,0,100,0,1
29490,-111.111111111111,4,1,0,100,0,1
29721,-80,4,1,0,100,0,1
30067,-85.1063829787234,4,1,0,100,0,1
30183,-86.9565217391304,4,1,0,100,0,1
30413,-90.9090909090909,4,1,0,100,0,1
30529,-93.0232558139535,4,1,0,100,0,1
30644,-95.2380952380952,4,1,0,100,0,1
30875,-100,4,1,0,100,0,1
30990,-102.564102564103,4,1,0,100,0,1
31106,-105.263157894737,4,1,0,100,0,1
31336,-111.111111111111,4,1,0,100,0,1
31567,-80,4,1,0,100,0,1
31913,-85.07423577814,4,1,0,100,0,1
32029,-86.911781065747,4,1,0,100,0,1
32259,-90.8357616760288,4,1,0,100,0,1
32375,-92.9336936682416,4,1,0,100,0,1
32490,-95.1309144078624,4,1,0,100,0,1
32721,-99.8523184210553,4,1,0,100,0,1
32836,-102.393237131474,4,1,0,100,0,1
32952,-105.066848782538,4,1,0,100,0,1
33183,-110.856019093841,4,1,0,100,0,1
33413,-80,4,1,0,100,0,1
33759,-85.07423577814,4,1,0,100,0,1
33875,-86.911781065747,4,1,0,100,0,1
34106,-90.8357616760288,4,1,0,100,0,1
34221,-92.9336936682416,4,1,0,100,0,1
34336,-95.1309144078624,4,1,0,100,0,1
34567,-99.8523184210553,4,1,0,100,0,1
34683,-102.393237131474,4,1,0,100,0,1
34798,-105.066848782538,4,1,0,100,0,1
35029,-110.856019093841,4,1,0,100,0,1
35259,-80,4,1,0,100,0,1
35606,-86.9565217391304,4,1,0,100,0,1
35721,-80,4,1,0,100,0,1
36067,-86.9565217391304,4,1,0,100,0,1
36183,-80,4,1,0,100,0,1
36529,-100,4,1,0,100,0,1
36644,-96.2145353222802,4,1,0,100,0,1
36875,-89.4427982000531,4,1,0,100,0,1
37111,-83.3333333333333,4,1,0,100,0,0
37452,-88.8888888888889,4,1,0,90,0,0
37567,-90.9090909090909,4,1,0,90,0,0
37798,-95.2380952380952,4,1,0,90,0,0
38029,-100,4,1,0,90,0,0
51759,-100,4,1,0,80,0,0
51875,-100,4,1,0,80,0,0
51990,-102.346812408528,4,1,0,80,0,0
52336,-110.09820760118,4,1,0,80,0,0
52452,-112.949680917151,4,1,0,80,0,0
52798,-122.464825040628,4,1,0,80,0,0
52913,-126.003142518374,4,1,0,80,0,0
53259,-137.961290821021,4,1,0,80,0,0
53375,-142.468204658425,4,1,0,80,0,0
53606,-100,4,1,0,100,0,0
53726,-90.9090909090909,4,1,0,100,0,1
54067,-94.594581811543,4,1,0,100,0,1
54183,-95.8904240945786,4,1,0,100,0,1
54413,-98.5915215235151,4,1,0,100,0,1
54644,-101.449304767914,4,1,0,100,0,1
54875,-104.477596346627,4,1,0,100,0,1
55106,-107.692357396473,4,1,0,100,0,1
55336,-111.111111111111,4,1,0,100,0,1
55567,-90.9090909090909,4,1,0,100,0,1
55913,-94.5719484469395,4,1,0,100,0,1
56029,-95.8593551541179,4,1,0,100,0,1
56259,-98.5422642844403,4,1,0,100,0,1
56490,-101.379676010831,4,1,0,100,0,1
56721,-104.385441153751,4,1,0,100,0,1
56952,-107.57476984378,4,1,0,100,0,1
57183,-110.965253450187,4,1,0,100,0,1
57413,-90.9090909090909,4,1,0,100,0,1
57759,-100,4,1,0,100,0,1
57875,-90.9090909090909,4,1,0,100,0,1
58221,-100,4,1,0,100,0,1
58341,-90.9090909090909,4,1,0,100,0,0
58683,-111.111111111111,4,1,0,80,0,0
59144,-100,4,1,0,100,0,0
59264,-90.9090909090909,4,1,0,100,0,1
59606,-94.5719484469395,4,1,0,100,0,1
59721,-95.8593551541179,4,1,0,100,0,1
59952,-98.5422642844403,4,1,0,100,0,1
60067,-99.9408350256648,4,1,0,100,0,1
60183,-101.379676010831,4,1,0,100,0,1
60413,-104.385441153751,4,1,0,100,0,1
60644,-107.57476984378,4,1,0,100,0,1
60875,-110.965253450187,4,1,0,100,0,1
61106,-90.9090909090909,4,1,0,100,0,1
61452,-94.594581811543,4,1,0,100,0,1
61567,-95.8904240945786,4,1,0,100,0,1
61798,-98.5915215235151,4,1,0,100,0,1
62029,-101.449304767914,4,1,0,100,0,1
62259,-104.477596346627,4,1,0,100,0,1
62375,-106.060622130397,4,1,0,100,0,1
62490,-107.692357396473,4,1,0,100,0,1
62721,-111.111111111111,4,1,0,100,0,1
62952,-90.9090909090909,4,1,0,100,0,1
63298,-94.594581811543,4,1,0,100,0,1
63413,-95.8904240945786,4,1,0,100,0,1
63644,-98.5915215235151,4,1,0,100,0,1
63759,-100,4,1,0,100,0,1
63875,-101.449304767914,4,1,0,100,0,1
64106,-104.477596346627,4,1,0,100,0,1
64336,-107.692357396473,4,1,0,100,0,1
64567,-111.111111111111,4,1,0,100,0,1
64798,-90.9090909090909,4,1,0,100,0,1
65144,-94.594581811543,4,1,0,100,0,1
65259,-95.8904240945786,4,1,0,100,0,1
65490,-98.5915215235151,4,1,0,100,0,1
65721,-101.449304767914,4,1,0,100,0,1
65952,-104.477596346627,4,1,0,100,0,1
66067,-106.060622130397,4,1,0,100,0,1
66183,-107.692357396473,4,1,0,100,0,1
66413,-111.111111111111,4,1,0,100,0,1
66644,-90.9090909090909,4,1,0,100,0,1
66990,-94.594581811543,4,1,0,100,0,1
67106,-95.8904240945786,4,1,0,100,0,1
67336,-98.5915215235151,4,1,0,100,0,1
67452,-100,4,1,0,100,0,1
67567,-101.449304767914,4,1,0,100,0,1
67798,-104.477596346627,4,1,0,100,0,1
68029,-107.692357396473,4,1,0,100,0,1
68259,-111.111111111111,4,1,0,100,0,1
68490,-90.9090909090909,4,1,0,100,0,1
68836,-94.5719484469395,4,1,0,100,0,1
68952,-95.8593551541179,4,1,0,100,0,1
69183,-98.5422642844403,4,1,0,100,0,1
69413,-101.379676010831,4,1,0,100,0,1
69644,-104.385441153751,4,1,0,100,0,1
69759,-105.95611085976,4,1,0,100,0,1
69875,-107.57476984378,4,1,0,100,0,1
70106,-110.965253450187,4,1,0,100,0,1
70336,-90.9090909090909,4,1,0,100,0,1
70683,-94.5719484469395,4,1,0,100,0,1
70798,-95.8593551541179,4,1,0,100,0,1
71029,-98.5422642844403,4,1,0,100,0,1
71144,-99.9408350256648,4,1,0,100,0,1
71259,-101.379676010831,4,1,0,100,0,1
71490,-104.385441153751,4,1,0,100,0,1
71721,-107.57476984378,4,1,0,100,0,1
71952,-110.965253450187,4,1,0,100,0,1
72183,-90.9090909090909,4,1,0,100,0,1
72529,-97.0873786407767,4,1,0,100,0,1
72644,-90.9090909090909,4,1,0,100,0,1
72990,-97.0873786407767,4,1,0,100,0,1
73106,-90.9090909090909,4,1,0,100,0,1
73457,-100,4,1,0,100,0,0
73567,-95.3125297851656,4,1,0,100,0,0
73683,-91.0447475829896,4,1,0,100,0,0
74034,-80.2631346606715,4,1,0,100,0,1
74375,-85.1063829787234,4,1,0,100,0,1
74490,-86.9565217391304,4,1,0,100,0,1
74721,-90.9090909090909,4,1,0,100,0,1
74836,-93.0232558139535,4,1,0,100,0,1
74952,-95.2380952380952,4,1,0,100,0,1
75183,-100,4,1,0,100,0,1
75298,-102.564102564103,4,1,0,100,0,1
75413,-105.263157894737,4,1,0,100,0,1
75644,-111.111111111111,4,1,0,100,0,1
75875,-80,4,1,0,100,0,1
76221,-85.1063829787234,4,1,0,100,0,1
76336,-86.9565217391304,4,1,0,100,0,1
76567,-90.9090909090909,4,1,0,100,0,1
76683,-93.0232558139535,4,1,0,100,0,1
76798,-95.2380952380952,4,1,0,100,0,1
77029,-100,4,1,0,100,0,1
77144,-102.564102564103,4,1,0,100,0,1
77259,-105.263157894737,4,1,0,100,0,1
77490,-111.111111111111,4,1,0,100,0,1
77721,-80,4,1,0,100,0,1
78067,-85.1063829787234,4,1,0,100,0,1
78183,-86.9565217391304,4,1,0,100,0,1
78413,-90.9090909090909,4,1,0,100,0,1
78529,-93.0232558139535,4,1,0,100,0,1
78644,-95.2380952380952,4,1,0,100,0,1
78875,-100,4,1,0,100,0,1
78990,-102.564102564103,4,1,0,100,0,1
79106,-105.263157894737,4,1,0,100,0,1
79336,-111.111111111111,4,1,0,100,0,1
79572,-80,4,1,0,100,0,0
79683,-89.2857142857143,4,1,0,90,0,0
80259,-100,4,1,0,90,0,0
80490,-95.2755702957449,4,1,0,90,0,0
80721,-90.9774066708274,4,1,0,90,0,0
80952,-87.0503847627006,4,1,0,90,0,0
81298,-100,4,1,0,100,0,0
81418,-80,4,1,0,100,0,1
81759,-85.07423577814,4,1,0,100,0,1
81875,-86.911781065747,4,1,0,100,0,1
82106,-90.8357616760288,4,1,0,100,0,1
82221,-92.9336936682416,4,1,0,100,0,1
82336,-95.1309144078624,4,1,0,100,0,1
82567,-99.8523184210553,4,1,0,100,0,1
82683,-102.393237131474,4,1,0,100,0,1
82798,-105.066848782538,4,1,0,100,0,1
83029,-110.856019093841,4,1,0,100,0,1
83259,-80,4,1,0,100,0,1
83606,-85.07423577814,4,1,0,100,0,1
83721,-86.911781065747,4,1,0,100,0,1
83952,-90.8357616760288,4,1,0,100,0,1
84067,-92.9336936682416,4,1,0,100,0,1
84183,-95.1309144078624,4,1,0,100,0,1
84413,-99.8523184210553,4,1,0,100,0,1
84529,-102.393237131474,4,1,0,100,0,1
84644,-105.066848782538,4,1,0,100,0,1
84875,-110.856019093841,4,1,0,100,0,1
85106,-80,4,1,0,100,0,1
85452,-85.1063829787234,4,1,0,100,0,1
85567,-86.9565217391304,4,1,0,100,0,1
85798,-90.9090909090909,4,1,0,100,0,1
85913,-93.0232558139535,4,1,0,100,0,1
86029,-95.2380952380952,4,1,0,100,0,1
86259,-100,4,1,0,100,0,1
86375,-102.564102564103,4,1,0,100,0,1
86490,-105.263157894737,4,1,0,100,0,1
86721,-111.111111111111,4,1,0,100,0,1
86952,-80,4,1,0,100,0,1
87298,-85.1063829787234,4,1,0,100,0,1
87413,-86.9565217391304,4,1,0,100,0,1
87644,-90.9090909090909,4,1,0,100,0,1
87759,-93.0232558139535,4,1,0,100,0,1
87875,-95.2380952380952,4,1,0,100,0,1
88106,-100,4,1,0,100,0,1
88221,-102.564102564103,4,1,0,100,0,1
88336,-105.263157894737,4,1,0,100,0,1
88567,-111.111111111111,4,1,0,100,0,1
88803,-66.6666666666667,4,1,0,100,0,0

[HitObjects]
256,192,649,5,8,0:0:0:0:
256,192,880,1,0,0:0:0:0:
256,192,1111,1,8,0:0:0:0:
256,192,1572,1,8,0:0:0:0:
256,192,1803,1,0,0:0:0:0:
256,192,2034,1,8,0:0:0:0:
256,192,2264,1,8,0:0:0:0:
256,192,2495,1,0,0:0:0:0:
256,192,2726,1,0,0:0:0:0:
256,192,2957,1,8,0:0:0:0:
256,192,3188,1,0,0:0:0:0:
256,192,3418,1,8,0:0:0:0:
256,192,4341,1,8,0:0:0:0:
256,192,4572,1,0,0:0:0:0:
256,192,4803,1,8,0:0:0:0:
256,192,5264,1,0,0:0:0:0:
256,192,5495,1,0,0:0:0:0:
256,192,5726,1,8,0:0:0:0:
256,192,6188,1,8,0:0:0:0:
256,192,6418,1,0,0:0:0:0:
256,192,6649,1,8,0:0:0:0:
256,192,6880,1,8,0:0:0:0:
256,192,7111,1,0,0:0:0:0:
256,192,8034,1,8,0:0:0:0:
256,192,8264,1,0,0:0:0:0:
256,192,8495,1,8,0:0:0:0:
256,192,8726,1,0,0:0:0:0:
256,192,8957,1,8,0:0:0:0:
256,192,9188,1,8,0:0:0:0:
256,192,9418,1,0,0:0:0:0:
256,192,9649,1,0,0:0:0:0:
256,192,9880,1,8,0:0:0:0:
256,192,10111,1,0,0:0:0:0:
256,192,10341,1,8,0:0:0:0:
256,192,10572,1,8,0:0:0:0:
256,192,10803,1,0,0:0:0:0:
256,192,11726,1,0,0:0:0:0:
256,192,11957,1,0,0:0:0:0:
256,192,12188,1,8,0:0:0:0:
256,192,12418,1,8,0:0:0:0:
256,192,12649,1,0,0:0:0:0:
256,192,12880,1,0,0:0:0:0:
256,192,13111,1,8,0:0:0:0:
256,192,13572,1,8,0:0:0:0:
256,192,13803,1,8,0:0:0:0:
256,192,14034,1,0,0:0:0:0:
256,192,14264,1,8,0:0:0:0:
256,192,14495,1,0,0:0:0:0:
256,192,14957,1,8,0:0:0:0:
256,192,15072,1,0,0:0:0:0:
256,192,15418,1,8,0:0:0:0:
256,192,15534,1,0,0:0:0:0:
256,192,15880,1,8,0:0:0:0:
256,192,15995,1,0,0:0:0:0:
256,192,16341,1,8,0:0:0:0:
256,192,16457,1,0,0:0:0:0:
256,192,16803,1,4,0:0:0:0:
256,192,17149,1,8,0:0:0:0:
256,192,17264,1,0,0:0:0:0:
256,192,17495,1,8,0:0:0:0:
256,192,17726,1,0,0:0:0:0:
256,192,17957,1,0,0:0:0:0:
256,192,18188,1,8,0:0:0:0:
256,192,18418,1,0,0:0:0:0:
256,192,18649,1,4,0:0:0:0:
256,192,18995,1,8,0:0:0:0:
256,192,19111,1,0,0:0:0:0:
256,192,19341,1,8,0:0:0:0:
256,192,19572,1,8,0:0:0:0:
256,192,19803,1,0,0:0:0:0:
256,192,20034,1,8,0:0:0:0:
256,192,20264,1,0,0:0:0:0:
256,192,20495,1,4,0:0:0:0:
256,192,20841,1,8,0:0:0:0:
256,192,20957,1,4,0:0:0:0:
256,192,21303,1,0,0:0:0:0:
256,192,21418,1,12,0:0:0:0:
256,192,21880,1,8,0:0:0:0:
256,192,21995,1,0,0:0:0:0:
256,192,22341,1,4,0:0:0:0:
256,192,22688,1,8,0:0:0:0:
256,192,22803,1,0,0:0:0:0:
256,192,23034,1,8,0:0:0:0:
256,192,23149,1,8,0:0:0:0:
256,192,23264,1,0,0:0:0:0:
256,192,23495,1,8,0:0:0:0:
256,192,23726,1,8,0:0:0:0:
256,192,23957,1,0,0:0:0:0:
256,192,24188,1,4,0:0:0:0:
256,192,24534,1,8,0:0:0:0:
256,192,24649,1,0,0:0:0:0:
256,192,24880,1,8,0:0:0:0:
256,192,25111,1,0,0:0:0:0:
256,192,25341,1,8,0:0:0:0:
256,192,25457,1,0,0:0:0:0:
256,192,25572,1,8,0:0:0:0:
256,192,25803,1,0,0:0:0:0:
256,192,26034,1,4,0:0:0:0:
256,192,26380,1,8,0:0:0:0:
256,192,26495,1,0,0:0:0:0:
256,192,26726,1,8,0:0:0:0:
256,192,26841,1,8,0:0:0:0:
256,192,26957,1,0,0:0:0:0:
256,192,27188,1,8,0:0:0:0:
256,192,27418,1,8,0:0:0:0:
256,192,27649,1,0,0:0:0:0:
256,192,27880,1,4,0:0:0:0:
256,192,28226,1,8,0:0:0:0:
256,192,28341,1,0,0:0:0:0:
256,192,28572,1,8,0:0:0:0:
256,192,28803,1,8,0:0:0:0:
256,192,29034,1,0,0:0:0:0:
256,192,29149,1,0,0:0:0:0:
256,192,29264,1,8,0:0:0:0:
256,192,29495,1,0,0:0:0:0:
256,192,29726,1,4,0:0:0:0:
256,192,30072,1,0,0:0:0:0:
256,192,30188,1,8,0:0:0:0:
256,192,30418,1,8,0:0:0:0:
256,192,30534,1,8,0:0:0:0:
256,192,30649,1,0,0:0:0:0:
256,192,30880,1,8,0:0:0:0:
256,192,30995,1,0,0:0:0:0:
256,192,31111,1,8,0:0:0:0:
256,192,31341,1,8,0:0:0:0:
256,192,31572,1,4,0:0:0:0:
256,192,31918,1,0,0:0:0:0:
256,192,32034,1,8,0:0:0:0:
256,192,32264,1,0,0:0:0:0:
256,192,32380,1,8,0:0:0:0:
256,192,32495,1,0,0:0:0:0:
256,192,32726,1,8,0:0:0:0:
256,192,32841,1,8,0:0:0:0:
256,192,32957,1,0,0:0:0:0:
256,192,33188,1,8,0:0:0:0:
256,192,33418,1,4,0:0:0:0:
256,192,33764,1,0,0:0:0:0:
256,192,33880,1,8,0:0:0:0:
256,192,34111,1,0,0:0:0:0:
256,192,34226,1,0,0:0:0:0:
256,192,34341,1,8,0:0:0:0:
256,192,34572,1,0,0:0:0:0:
256,192,34688,1,8,0:0:0:0:
256,192,34803,1,0,0:0:0:0:
256,192,35034,1,0,0:0:0:0:
256,192,35264,1,4,0:0:0:0:
256,192,35611,1,8,0:0:0:0:
256,192,35726,1,4,0:0:0:0:
256,192,36072,1,8,0:0:0:0:
256,192,36188,1,4,0:0:0:0:
256,192,36534,1,0,0:0:0:0:
256,192,36649,1,8,0:0:0:0:
256,192,36880,1,8,0:0:0:0:
256,192,37111,1,4,0:0:0:0:
256,192,37457,1,0,0:0:0:0:
256,192,37572,1,8,0:0:0:0:
256,192,37803,1,8,0:0:0:0:
256,192,38034,1,0,0:0:0:0:
256,192,38495,1,8,0:0:0:0:
256,192,38726,1,0,0:0:0:0:
256,192,38957,1,8,0:0:0:0:
256,192,39188,1,8,0:0:0:0:
256,192,39303,1,8,0:0:0:0:
256,192,39418,1,0,0:0:0:0:
256,192,39649,1,0,0:0:0:0:
256,192,39880,1,8,0:0:0:0:
256,192,40341,1,0,0:0:0:0:
256,192,40572,1,0,0:0:0:0:
256,192,40803,1,8,0:0:0:0:
256,192,41034,1,8,0:0:0:0:
256,192,41149,1,8,0:0:0:0:
256,192,41264,1,0,0:0:0:0:
256,192,41495,1,8,0:0:0:0:
256,192,41726,1,8,0:0:0:0:
256,192,42188,1,0,0:0:0:0:
256,192,42418,1,8,0:0:0:0:
256,192,42649,1,8,0:0:0:0:
256,192,42880,1,0,0:0:0:0:
256,192,42995,1,8,0:0:0:0:
256,192,43111,1,0,0:0:0:0:
256,192,43341,1,8,0:0:0:0:
256,192,43572,1,8,0:0:0:0:
256,192,44034,1,0,0:0:0:0:
256,192,44264,1,8,0:0:0:0:
256,192,44495,1,0,0:0:0:0:
256,192,44841,1,0,0:0:0:0:
256,192,44957,1,8,0:0:0:0:
256,192,45188,1,8,0:0:0:0:
256,192,45418,1,0,0:0:0:0:
256,192,45880,1,0,0:0:0:0:
256,192,46111,1,8,0:0:0:0:
256,192,46341,1,0,0:0:0:0:
256,192,46572,1,8,0:0:0:0:
256,192,46688,1,8,0:0:0:0:
256,192,46803,1,0,0:0:0:0:
256,192,47034,1,8,0:0:0:0:
256,192,47264,1,0,0:0:0:0:
256,192,47726,1,8,0:0:0:0:
256,192,47957,1,8,0:0:0:0:
256,192,48188,1,0,0:0:0:0:
256,192,48418,1,0,0:0:0:0:
256,192,48534,1,8,0:0:0:0:
256,192,48649,1,0,0:0:0:0:
256,192,48880,1,8,0:0:0:0:
256,192,49111,1,8,0:0:0:0:
256,192,49572,1,0,0:0:0:0:
256,192,49803,1,8,0:0:0:0:
256,192,50034,1,0,0:0:0:0:
256,192,50264,1,8,0:0:0:0:
256,192,50380,1,8,0:0:0:0:
256,192,50495,1,0,0:0:0:0:
256,192,50726,1,8,0:0:0:0:
256,192,50957,1,8,0:0:0:0:
256,192,51188,1,8,0:0:0:0:
256,192,51418,1,0,0:0:0:0:
256,192,51880,1,8,0:0:0:0:
256,192,51995,1,0,0:0:0:0:
256,192,52341,1,8,0:0:0:0:
256,192,52457,1,0,0:0:0:0:
256,192,52803,1,8,0:0:0:0:
256,192,52918,1,0,0:0:0:0:
256,192,53264,1,8,0:0:0:0:
256,192,53380,1,0,0:0:0:0:
256,192,53726,1,4,0:0:0:0:
256,192,54072,1,8,0:0:0:0:
256,192,54188,1,0,0:0:0:0:
256,192,54418,1,8,0:0:0:0:
256,192,54649,1,0,0:0:0:0:
256,192,54880,1,0,0:0:0:0:
256,192,55111,1,8,0:0:0:0:
256,192,55341,1,0,0:0:0:0:
256,192,55572,1,4,0:0:0:0:
256,192,55918,1,8,0:0:0:0:
256,192,56034,1,0,0:0:0:0:
256,192,56264,1,8,0:0:0:0:
256,192,56495,1,8,0:0:0:0:
256,192,56726,1,0,0:0:0:0:
256,192,56957,1,8,0:0:0:0:
256,192,57188,1,0,0:0:0:0:
256,192,57418,1,4,0:0:0:0:
256,192,57764,1,8,0:0:0:0:
256,192,57880,1,4,0:0:0:0:
256,192,58226,1,0,0:0:0:0:
256,192,58341,1,12,0:0:0:0:
256,192,58803,1,8,0:0:0:0:
256,192,58918,1,0,0:0:0:0:
256,192,59264,1,4,0:0:0:0:
256,192,59611,1,8,0:0:0:0:
256,192,59726,1,0,0:0:0:0:
256,192,59957,1,8,0:0:0:0:
256,192,60072,1,8,0:0:0:0:
256,192,60188,1,0,0:0:0:0:
256,192,60418,1,8,0:0:0:0:
256,192,60649,1,8,0:0:0:0:
256,192,60880,1,0,0:0:0:0:
256,192,61111,1,4,0:0:0:0:
256,192,61457,1,8,0:0:0:0:
256,192,61572,1,0,0:0:0:0:
256,192,61803,1,8,0:0:0:0:
256,192,62034,1,0,0:0:0:0:
256,192,62264,1,8,0:0:0:0:
256,192,62380,1,0,0:0:0:0:
256,192,62495,1,8,0:0:0:0:
256,192,62726,1,0,0:0:0:0:
256,192,62957,1,4,0:0:0:0:
256,192,63303,1,8,0:0:0:0:
256,192,63418,1,0,0:0:0:0:
256,192,63649,1,8,0:0:0:0:
256,192,63764,1,8,0:0:0:0:
256,192,63880,1,0,0:0:0:0:
256,192,64111,1,8,0:0:0:0:
256,192,64341,1,8,0:0:0:0:
256,192,64572,1,0,0:0:0:0:
256,192,64803,1,4,0:0:0:0:
256,192,65149,1,8,0:0:0:0:
256,192,65264,1,0,0:0:0:0:
256,192,65495,1,8,0:0:0:0:
256,192,65726,1,8,0:0:0:0:
256,192,65957,1,0,0:0:0:0:
256,192,66072,1,0,0:0:0:0:
256,192,66188,1,8,0:0:0:0:
256,192,66418,1,0,0:0:0:0:
256,192,66649,1,4,0:0:0:0:
256,192,66995,1,8,0:0:0:0:
256,192,67111,1,0,0:0:0:0:
256,192,67341,1,8,0:0:0:0:
256,192,67457,1,0,0:0:0:0:
256,192,67572,1,8,0:0:0:0:
256,192,67803,1,0,0:0:0:0:
256,192,68034,1,8,0:0:0:0:
256,192,68264,1,0,0:0:0:0:
256,192,68495,1,4,0:0:0:0:
256,192,68841,1,8,0:0:0:0:
256,192,68957,1,0,0:0:0:0:
256,192,69188,1,8,0:0:0:0:
256,192,69418,1,0,0:0:0:0:
256,192,69649,1,8,0:0:0:0:
256,192,69764,1,0,0:0:0:0:
256,192,69880,1,8,0:0:0:0:
256,192,70111,1,0,0:0:0:0:
256,192,70341,1,4,0:0:0:0:
256,192,70688,1,8,0:0:0:0:
256,192,70803,1,0,0:0:0:0:
256,192,71034,1,8,0:0:0:0:
256,192,71149,1,8,0:0:0:0:
256,192,71264,1,0,0:0:0:0:
256,192,71495,1,8,0:0:0:0:
256,192,71726,1,8,0:0:0:0:
256,192,71957,1,0,0:0:0:0:
256,192,72188,1,4,0:0:0:0:
256,192,72534,1,8,0:0:0:0:
256,192,72649,1,4,0:0:0:0:
256,192,72995,1,8,0:0:0:0:
256,192,73111,1,4,0:0:0:0:
256,192,73457,1,0,0:0:0:0:
256,192,73572,1,8,0:0:0:0:
256,192,73688,1,0,0:0:0:0:
256,192,74034,1,4,0:0:0:0:
256,192,74380,1,0,0:0:0:0:
256,192,74495,1,8,0:0:0:0:
256,192,74726,1,8,0:0:0:0:
256,192,74841,1,8,0:0:0:0:
256,192,74957,1,0,0:0:0:0:
256,192,75188,1,8,0:0:0:0:
256,192,75303,1,0,0:0:0:0:
256,192,75418,1,8,0:0:0:0:
256,192,75649,1,8,0:0:0:0:
256,192,75880,1,4,0:0:0:0:
256,192,76226,1,0,0:0:0:0:
256,192,76341,1,8,0:0:0:0:
256,192,76572,1,0,0:0:0:0:
256,192,76688,1,8,0:0:0:0:
256,192,76803,1,0,0:0:0:0:
256,192,77034,1,8,0:0:0:0:
256,192,77149,1,8,0:0:0:0:
256,192,77264,1,0,0:0:0:0:
256,192,77495,1,8,0:0:0:0:
256,192,77726,1,4,0:0:0:0:
256,192,78072,1,0,0:0:0:0:
256,192,78188,1,8,0:0:0:0:
256,192,78418,1,0,0:0:0:0:
256,192,78534,1,8,0:0:0:0:
256,192,78649,1,0,0:0:0:0:
256,192,78880,1,0,0:0:0:0:
256,192,78995,1,0,0:0:0:0:
256,192,79111,1,8,0:0:0:0:
256,192,79341,1,0,0:0:0:0:
256,192,79572,1,4,0:0:0:0:
256,192,79918,1,8,0:0:0:0:
256,192,80264,1,0,0:0:0:0:
256,192,80495,1,8,0:0:0:0:
256,192,80726,1,8,0:0:0:0:
256,192,80957,1,0,0:0:0:0:
256,192,81418,1,4,0:0:0:0:
256,192,81764,1,0,0:0:0:0:
256,192,81880,1,8,0:0:0:0:
256,192,82111,1,8,0:0:0:0:
256,192,82226,1,8,0:0:0:0:
256,192,82341,1,0,0:0:0:0:
256,192,82572,1,8,0:0:0:0:
256,192,82688,1,0,0:0:0:0:
256,192,82803,1,8,0:0:0:0:
256,192,83034,1,8,0:0:0:0:
256,192,83264,1,4,0:0:0:0:
256,192,83611,1,0,0:0:0:0:
256,192,83726,1,8,0:0:0:0:
256,192,83957,1,0,0:0:0:0:
256,192,84072,1,8,0:0:0:0:
256,192,84188,1,0,0:0:0:0:
256,192,84418,1,8,0:0:0:0:
256,192,84534,1,8,0:0:0:0:
256,192,84649,1,0,0:0:0:0:
256,192,84880,1,8,0:0:0:0:
256,192,85111,1,4,0:0:0:0:
256,192,85457,1,0,0:0:0:0:
256,192,85572,1,8,0:0:0:0:
256,192,85803,1,0,0:0:0:0:
256,192,85918,1,0,0:0:0:0:
256,192,86034,1,8,0:0:0:0:
256,192,86264,1,0,0:0:0:0:
256,192,86380,1,8,0:0:0:0:
256,192,86495,1,0,0:0:0:0:
256,192,86726,1,0,0:0:0:0:
256,192,86957,1,4,0:0:0:0:
256,192,87303,1,0,0:0:0:0:
256,192,87418,1,8,0:0:0:0:
256,192,87649,1,8,0:0:0:0:
256,192,87764,1,8,0:0:0:0:
256,192,87880,1,0,0:0:0:0:
256,192,88111,1,8,0:0:0:0:
256,192,88226,1,0,0:0:0:0:
256,192,88341,1,8,0:0:0:0:
256,192,88572,1,0,0:0:0:0:
256,192,88803,1,12,0:0:0:0:
