osu file format v14

[General]
AudioFilename: Audio.mp3
AudioLeadIn: 0
PreviewTime: 53485
Countdown: 0
SampleSet: Soft
StackLeniency: 0.2
Mode: 0
LetterboxInBreaks: 0
WidescreenStoryboard: 1

[Editor]
DistanceSpacing: 1
BeatDivisor: 4
GridSize: 32
TimelineZoom: 2.1

[Metadata]
Title:Yakata Mawari
TitleUnicode:館廻り
Artist:Denkishiki Karen Ongaku Shuudan
ArtistUnicode:電気式華憐音楽集団
Creator:Dored
Version:lu^3's Reincarnation
Source:死に逝く君、館に芽吹く憎悪
Tags:Denkare Shini Yuku Kimi Yakata ni Mebuku Zouo Galgame Eroge Visual Novel Opening Short Version Bug System sahuang My Angel Azusa Affirmation Neoskylove yf_bmp Yugu Bossandy fuyuyu- Mamayu Kanau Silky Hey lululu
BeatmapID:1809374
BeatmapSetID:834127

[Difficulty]
HPDrainRate:6
CircleSize:4
OverallDifficulty:9
ApproachRate:9.6
SliderMultiplier:1.6
SliderTickRate:1

[Events]
//Background and Video events
0,0,"Second.jpg",0,0
//Break Periods
//Storyboard Layer 0 (Background)
//Storyboard Layer 1 (Fail)
//Storyboard Layer 2 (Pass)
//Storyboard Layer 3 (Foreground)
//Storyboard Sound Samples

[TimingPoints]
11616,260.869565217391,4,2,1,40,1,0
11616,-200,4,2,1,40,0,0
13050,-100,4,2,1,5,0,0
13181,-100,4,2,1,40,0,0
13572,-100,4,2,1,5,0,0
13702,-100,4,2,1,55,0,0
13768,-100,4,2,1,15,0,0
14094,-100,4,2,1,55,0,0
14159,-100,4,2,1,15,0,0
14355,-100,4,2,1,55,0,0
14811,-100,4,2,1,15,0,0
15137,-100,4,2,1,55,0,0
15202,-100,4,2,1,15,0,0
15659,-90.9090909090909,4,2,1,65,0,0
19181,-90.9090909090909,4,2,1,20,0,0
19311,-90.9090909090909,4,2,1,65,0,0
19442,-90.9090909090909,4,2,1,20,0,0
19572,-90.9090909090909,4,2,1,65,0,0
19702,-90.9090909090909,4,2,1,20,0,0
19833,-90.9090909090909,4,2,1,65,0,0
25050,-100,4,2,1,60,0,0
41876,-125,4,2,1,55,0,0
50224,-90.9090909090909,4,2,1,70,0,1
53224,-90.9090909090909,4,2,1,70,0,0
53615,-90.9090909090909,4,2,1,45,0,0
54398,-90.9090909090909,4,2,1,55,0,0
54920,-90.9090909090909,4,2,1,70,0,0
55442,-83.3333333333333,4,2,1,75,0,1
63789,-125,4,2,1,70,0,0
64833,-100,4,2,1,70,0,0
65876,-125,4,2,1,70,0,0
66920,-100,4,2,1,70,0,0
67963,-83.3333333333333,4,2,1,75,0,1
71746,-83.3333333333333,4,2,1,70,0,0
72137,-83.3333333333333,4,2,1,75,0,1
80485,-125,4,2,1,70,0,0
81528,-100,4,2,1,70,0,0
82571,-125,4,2,1,70,0,0
83615,-100,4,2,1,70,0,0
84659,-83.3333333333333,4,2,1,75,0,1
88702,-90.9090909090909,4,2,1,70,0,0
92224,-90.9090909090909,4,2,1,20,0,0
92355,-90.9090909090909,4,2,1,70,0,0
92485,-90.9090909090909,4,2,1,20,0,0
92615,-90.9090909090909,4,2,1,70,0,0
92746,-90.9090909090909,4,2,1,20,0,0
92876,-90.9090909090909,4,2,1,70,0,0
96137,-90.9090909090909,4,2,1,70,0,1
96268,-90.9090909090909,4,2,1,70,0,0
96529,-90.9090909090909,4,2,1,70,0,1
96659,-90.9090909090909,4,2,1,70,0,0
96920,-90.9090909090909,4,2,1,70,0,1
97050,-90.9090909090909,4,2,1,70,0,0
97311,-90.9090909090909,4,2,1,70,0,1
97442,-90.9090909090909,4,2,1,70,0,0
97702,-90.9090909090909,4,2,1,70,0,1
98094,-90.9090909090909,4,2,1,70,0,0

[Colours]
Combo1 : 80,0,160
Combo2 : 160,0,80
Combo3 : 128,128,255
Combo4 : 0,20,200

[HitObjects]
328,201,11615,5,0,0:0:0:0:
328,201,11876,2,0,P|368:195|415:213,2,80,2|2|2,0:0|0:0|0:0,0:0:0:0:
258,260,12659,6,0,B|249:206|249:206|252:186|252:186|241:118,1,140,2|0,0:0|0:0,0:0:0:0:
154,53,13181,6,0,B|176:182|176:182|174:215|174:215|195:330,1,280,2|0,0:0|0:0,0:0:0:0:
98,320,13702,5,2,3:2:0:0:
98,320,14094,1,2,3:0:0:0:
98,320,14355,5,8,1:2:0:0:
258,260,14485,1,8,1:2:0:0:
0,173,14615,1,0,3:0:0:0:
214,67,14746,5,2,3:2:0:0:
214,67,15137,1,2,1:3:0:0:
214,67,15659,6,0,B|308:51|266:110|394:86,1,176.000005371094,4|0,1:1|3:0,0:0:0:0:
511,16,16050,2,0,P|481:46|470:92,1,88.000002685547,8|0,1:0|0:0,0:0:0:0:
491,254,16311,1,0,3:0:0:0:
384,87,16442,1,2,3:1:0:0:
385,345,16572,2,0,L|244:329,1,132.00000402832,8|0,1:2|0:0,0:0:0:0:
218,325,16833,5,0,3:0:0:0:
114,128,16963,1,2,0:1:0:0:
277,242,17094,5,8,1:1:0:0:
72,357,17224,1,2,0:1:0:0:
255,162,17355,6,0,P|295:159|347:196,1,88.000002685547,0|0,3:0|3:0,0:0:0:0:
366,266,17615,1,8,1:2:0:0:
202,384,17746,6,0,P|192:303|153:204,1,176.000005371094,4|0,3:1|3:0,0:0:0:0:
22,107,18137,1,8,1:0:0:0:
22,107,18268,1,0,0:0:0:0:
139,0,18398,2,0,P|143:44|126:105,1,88.000002685547,0|2,3:0|3:1,0:0:0:0:
40,207,18659,1,8,1:2:0:0:
40,207,18920,5,8,1:2:0:0:
261,139,19050,1,0,3:0:0:0:
267,153,19311,1,0,3:0:0:0:
273,167,19572,1,0,3:0:0:0:
279,181,19833,6,0,L|259:362,1,176.000005371094,4|0,1:0|3:0,0:0:0:0:
429,279,20224,2,0,P|394:252|353:241,1,88.000002685547,8|0,1:2|0:0,0:0:0:0:
241,273,20485,1,0,3:0:0:0:
349,379,20615,1,2,3:1:0:0:
394,169,20746,2,0,L|418:37,1,132.00000402832,8|0,1:0|0:0,0:0:0:0:
428,5,21007,5,0,3:0:0:0:
510,226,21137,1,2,0:1:0:0:
288,113,21268,5,8,1:0:0:0:
508,19,21398,1,2,0:1:0:0:
304,207,21529,6,0,P|258:203|220:178,1,88.000002685547,0|0,3:0|3:0,0:0:0:0:
169,79,21789,1,8,1:2:0:0:
390,77,21920,6,0,B|354:171|424:150|387:263,1,176.000005371094,4|0,3:1|3:0,0:0:0:0:
348,354,22311,1,8,1:0:0:0:
348,354,22442,1,0,0:0:0:0:
220,205,22572,2,0,P|259:194|312:213,1,88.000002685547,0|2,3:0|3:1,0:0:0:0:
475,339,22833,1,8,1:2:0:0:
475,339,23094,5,8,1:2:0:0:
266,282,23224,1,2,3:1:0:0:
273,296,23485,5,8,1:2:0:0:
503,188,23615,1,2,3:1:0:0:
501,203,23876,5,8,1:2:0:0:
225,100,24007,1,2,3:1:0:0:
229,115,24268,5,8,1:2:0:0:
492,24,24399,1,2,3:1:0:0:
492,39,24659,5,8,1:0:0:0:
323,262,24789,1,8,1:0:0:0:
208,12,24919,1,8,1:0:0:0:
43,226,25050,6,0,B|106:209|106:209|140:217|140:217|215:201,1,160,4|0,3:1|3:0,0:0:0:0:
229,115,25442,1,8,1:2:0:0:
229,115,25572,1,0,0:0:0:0:
126,35,25702,2,0,P|114:78|110:115,1,80,0|0,3:0|3:0,0:0:0:0:
155,298,25963,1,8,1:2:0:0:
306,230,26094,6,0,B|243:213|243:213|209:221|209:221|134:205,1,160,0|0,3:0|3:0,0:0:0:0:
238,383,26485,2,0,L|250:301,1,80,8|0,1:2|0:0,0:0:0:0:
433,201,26746,1,0,3:0:0:0:
333,309,26876,1,0,3:0:0:0:
261,111,27007,1,8,1:0:0:0:
480,116,27137,6,0,P|526:175|506:264,1,160,4|0,3:2|0:0,0:0:0:0:
399,371,27529,1,8,1:2:0:0:
399,371,27659,1,0,3:0:0:0:
248,291,27789,1,0,3:0:0:0:
353,191,27920,2,0,L|465:205,1,80,0|8,3:0|1:0,0:0:0:0:
291,32,28181,6,0,B|199:8|223:75|111:48,1,160,0|0,3:0|3:0,0:0:0:0:
54,3,28572,2,0,P|40:48|46:88,1,80,8|0,1:2|0:0,0:0:0:0:
151,290,28833,5,0,3:0:0:0:
0,209,28963,1,0,3:0:0:0:
186,135,29094,1,0,3:0:0:0:
96,362,29224,6,0,P|69:324|97:218,1,160,4|0,3:1|0:0,0:0:0:0:
253,306,29615,1,8,1:2:0:0:
253,306,29876,1,0,3:0:0:0:
186,135,30007,1,0,3:0:0:0:
253,306,30137,1,8,1:0:0:0:
350,87,30268,6,0,B|405:49|405:49|530:64,1,160,0|0,0:0|3:0,0:0:0:0:
365,214,30659,2,0,P|332:221|278:204,1,80,8|0,1:2|0:0,0:0:0:0:
429,138,30920,1,0,3:0:0:0:
458,337,31050,1,0,3:0:0:0:
429,138,31181,1,8,1:2:0:0:
231,279,31311,6,0,P|199:230|237:129,1,160,4|0,3:2|3:0,0:0:0:0:
330,44,31702,1,8,1:0:0:0:
330,44,31963,1,0,3:0:0:0:
150,26,32094,2,0,L|46:16,1,80,0|8,3:0|1:0,0:0:0:0:
0,169,32355,6,0,P|56:145|117:221,1,160,0|0,0:0|3:0,0:0:0:0:
266,305,32746,2,0,P|283:269|282:214,1,80,8|0,1:2|3:0,0:0:0:0:
250,113,33007,5,8,1:2:0:0:
108,364,33137,1,8,0:2:0:0:
108,364,33398,6,0,B|85:276|141:300|113:188,1,160,4|0,3:1|0:0,0:0:0:0:
7,34,33789,2,0,P|44:56|97:46,1,80,8|0,1:2|0:0,0:0:0:0:
239,10,34050,1,0,3:0:0:0:
205,195,34181,1,0,3:0:0:0:
239,10,34311,1,8,1:2:0:0:
282,245,34442,6,0,P|225:287|137:254,1,160,0|0,3:0|3:0,0:0:0:0:
293,149,34833,1,8,1:2:0:0:
293,149,35094,1,0,3:0:0:0:
310,338,35224,1,0,3:0:0:0:
205,195,35355,1,12,1:2:0:0:
420,116,35485,6,0,P|486:130|524:208,1,160,0|0,3:0|0:0,0:0:0:0:
388,351,35876,2,0,L|291:334,1,80,12|0,1:2|0:0,0:0:0:0:
141,307,36137,1,0,3:0:0:0:
301,216,36268,1,0,3:0:0:0:
95,112,36398,1,8,1:1:0:0:
233,1,36529,6,0,B|221:71|221:71|230:105|230:105|217:184,1,160,4|0,3:1|0:0,0:0:0:0:
141,307,36920,1,8,1:0:0:0:
141,307,37181,5,0,0:0:0:0:
301,216,37311,1,8,3:3:0:0:
406,377,37442,1,4,3:3:0:0:
506,218,37572,6,0,P|435:221|369:292,1,160,4|0,1:1|0:0,0:0:0:0:
305,378,37963,1,8,1:0:0:0:
305,378,38224,1,0,3:0:0:0:
198,265,38355,1,0,3:0:0:0:
376,164,38485,1,8,1:2:0:0:
190,92,38615,6,0,L|19:113,1,160,0|0,3:0|3:0,0:0:0:0:
0,229,39007,1,8,1:0:0:0:
0,229,39268,1,0,3:0:0:0:
161,159,39398,1,0,3:0:0:0:
70,325,39529,1,8,1:0:0:0:
107,99,39659,6,0,P|169:76|241:144,1,160,4|0,3:2|0:0,0:0:0:0:
78,215,40050,2,0,L|-23:232,1,80,8|0,1:0|0:0,0:0:0:0:
161,159,40311,1,0,3:0:0:0:
217,344,40442,1,0,3:0:0:0:
317,148,40572,1,8,0:2:0:0:
419,313,40702,6,0,L|257:277,1,160,0|0,3:0|3:0,0:0:0:0:
125,352,41094,1,8,1:0:0:0:
125,352,41224,1,0,3:0:0:0:
303,378,41355,5,8,1:2:0:0:
229,94,41485,1,8,1:2:0:0:
229,94,41876,6,0,P|286:60|345:83,1,128,4|0,3:1|0:0,0:0:0:0:
415,169,42268,1,0,3:0:0:0:
415,169,42333,1,0,3:0:0:0:
415,169,42398,2,0,B|464:177|464:177|520:154,2,96,4|0|0,1:2|3:0|3:0,0:0:0:0:
315,164,42920,6,0,B|330:219|330:219|338:231|338:231|353:297,1,128,2|0,3:2|0:0,0:0:0:0:
415,362,43311,1,0,3:0:0:0:
415,362,43376,1,0,3:0:0:0:
415,362,43442,2,0,P|373:385|326:384,2,96,12|0|0,1:2|3:0|3:0,0:0:0:0:
350,286,43963,6,0,L|209:317,1,128,2|0,1:2|0:0,0:0:0:0:
136,283,44355,1,0,3:0:0:0:
136,283,44420,1,0,3:0:0:0:
136,283,44485,2,0,P|132:336|158:379,2,96,4|0|0,1:2|3:0|3:0,0:0:0:0:
85,145,45007,6,0,L|226:176,1,128,2|0,3:2|0:0,0:0:0:0:
284,230,45399,1,0,3:0:0:0:
284,230,45464,1,0,3:0:0:0:
284,230,45529,2,0,P|304:187|299:140,2,96,4|0|0,1:2|3:0|3:0,0:0:0:0:
272,67,46050,6,0,B|350:45|323:96|405:72,1,128,4|0,1:0|0:0,0:0:0:0:
492,14,46442,1,0,3:0:0:0:
492,14,46507,1,0,3:0:0:0:
492,14,46572,5,4,1:2:0:0:
473,114,46768,1,0,3:0:0:0:
453,214,46963,1,0,3:0:0:0:
432,314,47094,6,0,P|374:281|357:213,1,128,2|0,3:2|0:0,0:0:0:0:
473,114,47485,1,0,3:0:0:0:
473,114,47550,1,0,3:0:0:0:
473,114,47615,5,4,1:2:0:0:
372,91,47811,1,0,3:0:0:0:
271,72,48007,1,0,3:0:0:0:
195,2,48137,6,0,P|167:56|184:125,1,128,0|0,1:0|0:0,0:0:0:0:
271,72,48529,1,0,3:0:0:0:
271,72,48594,1,0,3:0:0:0:
271,72,48659,5,4,1:2:0:0:
253,172,48855,1,0,3:0:0:0:
237,273,49050,1,0,0:0:0:0:
125,336,49181,6,0,B|199:324|167:374|268:361,1,128,2|0,3:2|0:0,0:0:0:0:
353,300,49572,1,0,3:0:0:0:
353,300,49637,1,0,3:0:0:0:
353,300,49702,5,4,1:2:0:0:
162,188,49898,1,2,3:3:0:0:
246,362,50094,1,2,3:3:0:0:
395,167,50224,5,4,1:1:0:0:
492,369,50355,1,0,3:0:0:0:
504,177,50485,5,8,1:2:0:0:
288,236,50615,1,0,3:0:0:0:
512,95,50746,5,8,1:2:0:0:
383,312,50876,1,0,3:0:0:0:
287,33,51007,1,8,1:2:0:0:
109,185,51137,6,0,L|200:167,1,88.000002685547,0|8,3:0|1:0,0:0:0:0:
314,142,51398,1,0,3:0:0:0:
314,142,51463,1,0,3:0:0:0:
314,142,51529,1,8,1:0:0:0:
93,74,51659,5,0,3:0:0:0:
192,268,51789,1,8,1:0:0:0:
287,33,51920,5,0,3:0:0:0:
192,268,52050,1,8,1:0:0:0:
411,254,52181,6,0,B|420:210|420:210|389:150,1,88.000002685547,4|8,3:2|1:2,0:0:0:0:
192,268,52442,1,0,3:0:0:0:
341,350,52572,5,8,1:2:0:0:
235,78,52702,1,0,3:0:0:0:
77,319,52833,5,8,1:2:0:0:
400,171,52963,1,0,3:0:0:0:
89,46,53094,5,8,1:2:0:0:
217,375,53224,1,12,1:2:0:0:
88,213,53615,5,2,0:0:0:0:
105,209,53876,1,2,0:0:0:0:
122,211,54137,1,2,0:0:0:0:
136,221,54398,5,0,0:0:0:0:
151,228,54529,1,2,0:0:0:0:
168,228,54659,1,0,0:0:0:0:
184,220,54789,1,2,0:0:0:0:
198,210,54920,5,2,0:0:0:0:
159,111,55050,1,0,0:0:0:0:
58,146,55181,1,0,0:0:0:0:
92,245,55311,1,0,0:0:0:0:
186,337,55442,6,0,B|298:360|256:277|386:309,1,191.999994140625,4|0,3:1|3:0,0:0:0:0:
471,354,55768,1,0,3:0:0:0:
471,354,55833,1,10,1:2:0:0:
363,196,55963,1,0,3:0:0:0:
471,354,56094,1,8,1:2:0:0:
505,114,56224,1,2,3:1:0:0:
505,114,56289,1,0,3:0:0:0:
505,114,56355,1,8,1:2:0:0:
512,268,56485,6,0,L|403:245,1,95.9999970703126,2|8,3:2|1:2,0:0:0:0:
234,200,56746,1,0,3:0:0:0:
236,209,56811,1,0,3:0:0:0:
237,218,56876,1,10,1:1:0:0:
402,137,57007,1,0,3:0:0:0:
152,45,57137,1,8,1:2:0:0:
336,1,57268,1,2,3:2:0:0:
334,10,57333,1,0,3:0:0:0:
333,19,57398,1,8,1:2:0:0:
119,126,57529,6,0,P|80:97|64:49,1,95.9999970703126,6|8,3:1|1:2,0:0:0:0:
250,89,57789,1,0,3:0:0:0:
248,98,57854,1,0,3:0:0:0:
247,107,57919,1,8,1:2:0:0:
304,275,58050,2,0,P|343:246|359:198,1,95.9999970703126,0|8,3:0|1:2,0:0:0:0:
173,238,58310,1,2,3:2:0:0:
175,247,58375,1,0,3:0:0:0:
176,256,58442,1,8,1:2:0:0:
248,369,58572,6,0,L|367:351,1,95.9999970703126,2|8,3:1|1:2,0:0:0:0:
266,144,58833,2,0,L|276:198,2,47.9999985351563,0|0|8,3:0|3:0|1:2,0:0:0:0:
512,251,59094,2,0,L|393:233,1,95.9999970703126,2|8,3:1|1:2,0:0:0:0:
494,26,59355,2,0,L|484:80,2,47.9999985351563,2|0|8,3:1|3:0|1:0,0:0:0:0:
418,148,59615,6,0,B|315:144|370:59|241:52,1,191.999994140625,4|0,3:2|3:0,0:0:0:0:
170,88,59942,1,0,3:0:0:0:
170,88,60007,1,10,1:2:0:0:
347,0,60137,1,0,3:0:0:0:
268,207,60268,1,8,1:2:0:0:
139,10,60398,1,2,3:2:0:0:
139,10,60463,1,0,3:0:0:0:
139,10,60529,1,8,1:2:0:0:
5,213,60659,6,0,L|126:194,1,95.9999970703126,2|8,3:2|1:2,0:0:0:0:
241,168,60920,1,0,3:0:0:0:
242,159,60985,1,0,3:0:0:0:
244,150,61050,1,10,1:2:0:0:
204,297,61181,1,0,3:0:0:0:
377,196,61311,1,8,1:2:0:0:
159,89,61442,1,2,3:2:0:0:
161,98,61507,1,0,3:0:0:0:
162,107,61572,1,8,1:2:0:0:
348,5,61702,6,0,L|338:110,1,95.9999970703126,4|8,3:1|1:2,0:0:0:0:
470,252,61963,1,0,3:0:0:0:
479,254,62029,1,0,3:0:0:0:
488,251,62094,1,8,1:2:0:0:
508,113,62224,2,0,B|457:103|457:103|403:137,1,95.9999970703126,0|8,3:0|1:2,0:0:0:0:
275,227,62485,1,0,3:0:0:0:
267,221,62550,1,0,3:0:0:0:
267,211,62616,1,8,1:2:0:0:
338,78,62746,5,0,3:0:0:0:
87,209,62876,1,8,1:2:0:0:
356,334,63007,5,0,3:0:0:0:
236,48,63137,1,8,1:2:0:0:
184,313,63268,5,0,3:1:0:0:
368,243,63398,1,0,3:0:0:0:
184,313,63529,5,8,3:3:0:0:
368,243,63659,1,4,3:0:0:0:
180,228,63789,6,0,P|139:239|119:260,1,64,6|0,1:1|0:0,0:0:0:0:
79,337,64050,1,0,3:0:0:0:
79,337,64181,1,0,3:0:0:0:
2,179,64311,2,0,P|43:190|63:211,1,64,2|0,1:0|0:0,0:0:0:0:
79,337,64572,1,0,3:0:0:0:
79,337,64703,1,0,3:0:0:0:
184,313,64833,6,0,P|265:305|343:356,1,160,2|0,1:0|3:0,0:0:0:0:
439,292,65224,1,0,3:0:0:0:
439,292,65355,2,0,L|450:189,1,80,2|0,1:0|3:0,0:0:0:0:
300,80,65615,2,0,L|308:159,1,80,0|0,3:0|3:0,0:0:0:0:
312,243,65876,6,0,P|353:232|373:211,1,64,4|0,1:2|0:0,0:0:0:0:
413,134,66137,1,0,3:0:0:0:
413,134,66268,1,0,3:0:0:0:
490,292,66398,2,0,P|449:281|429:260,1,64,2|0,1:0|0:0,0:0:0:0:
413,134,66659,1,0,3:0:0:0:
413,134,66790,1,0,3:0:0:0:
319,0,66920,6,0,B|224:-9|256:54|141:34,1,160,4|0,1:2|3:0,0:0:0:0:
17,38,67311,1,0,3:0:0:0:
17,38,67442,2,0,P|50:80|62:119,1,80,2|0,1:0|3:0,0:0:0:0:
141,282,67702,2,0,P|156:245|183:215,1,80,0|0,1:0|3:0,0:0:0:0:
493,94,67963,5,4,1:1:0:0:
475,285,68094,1,0,3:0:0:0:
291,141,68224,5,8,1:2:0:0:
354,381,68355,1,0,3:0:0:0:
457,189,68485,5,8,1:2:0:0:
198,151,68615,1,0,3:0:0:0:
391,60,68746,5,6,1:2:0:0:
270,279,68876,1,0,3:0:0:0:
270,279,68942,1,0,3:0:0:0:
270,279,69007,5,6,1:0:0:0:
209,19,69137,1,0,3:0:0:0:
340,188,69268,5,8,1:2:0:0:
72,256,69398,1,0,3:0:0:0:
350,204,69529,5,10,1:2:0:0:
38,141,69659,1,0,3:0:0:0:
258,74,69789,5,10,1:2:0:0:
177,336,69920,1,0,3:0:0:0:
177,336,69985,1,0,3:0:0:0:
177,336,70050,5,4,1:2:0:0:
138,169,70181,1,0,3:0:0:0:
244,378,70311,5,8,1:2:0:0:
285,149,70442,1,2,3:1:0:0:
420,363,70572,5,8,1:2:0:0:
347,96,70702,1,0,3:0:0:0:
477,279,70833,5,10,1:2:0:0:
226,205,70963,1,0,3:0:0:0:
226,205,71029,1,0,3:0:0:0:
226,205,71094,5,12,1:1:0:0:
465,75,71224,1,0,3:0:0:0:
194,42,71355,5,8,1:2:0:0:
319,303,71485,1,0,3:0:0:0:
347,96,71615,5,10,1:1:0:0:
56,257,71746,1,2,1:1:0:0:
56,257,72137,6,0,P|156:225|223:300,1,191.999994140625,4|0,3:1|3:0,0:0:0:0:
224,372,72463,1,0,3:0:0:0:
224,372,72529,1,10,1:2:0:0:
249,157,72659,1,0,3:0:0:0:
416,287,72789,1,8,1:2:0:0:
298,289,72920,1,2,3:1:0:0:
298,289,72985,1,0,3:0:0:0:
298,289,73050,1,8,1:2:0:0:
453,68,73181,6,0,P|482:115|489:173,1,95.9999970703126,2|8,3:2|1:2,0:0:0:0:
356,371,73442,1,0,3:0:0:0:
355,362,73507,1,0,3:0:0:0:
353,353,73572,1,10,1:1:0:0:
316,188,73702,1,0,3:0:0:0:
498,231,73833,1,8,1:2:0:0:
340,92,73963,2,0,P|288:92|235:135,1,95.9999970703126,2|8,3:2|1:2,0:0:0:0:
82,226,74224,6,0,P|63:169|12:113,1,95.9999970703126,6|8,3:1|1:2,0:0:0:0:
148,32,74485,1,0,3:0:0:0:
146,41,74550,1,0,3:0:0:0:
145,50,74615,1,8,1:2:0:0:
209,276,74746,2,0,P|228:219|279:163,1,95.9999970703126,0|8,3:0|1:2,0:0:0:0:
138,124,75007,1,2,3:2:0:0:
140,133,75072,1,0,3:0:0:0:
141,142,75137,1,8,1:2:0:0:
328,284,75268,6,0,L|446:270,1,95.9999970703126,2|8,3:1|1:2,0:0:0:0:
477,162,75529,2,0,P|483:134|495:106,2,47.9999985351563,0|0|8,3:0|3:0|1:2,0:0:0:0:
423,265,75789,2,0,L|305:251,1,95.9999970703126,2|8,3:1|1:2,0:0:0:0:
274,143,76050,2,0,P|268:115|256:87,2,47.9999985351563,2|0|8,3:1|3:0|1:0,0:0:0:0:
362,3,76311,6,0,B|249:-7|292:65|172:56,1,191.999994140625,4|0,3:2|3:0,0:0:0:0:
91,31,76637,1,0,3:0:0:0:
91,31,76702,1,10,1:2:0:0:
194,148,76833,1,0,3:0:0:0:
33,182,76963,1,8,1:2:0:0:
184,56,77094,1,2,3:2:0:0:
184,56,77159,1,0,3:0:0:0:
184,56,77224,1,8,1:2:0:0:
284,198,77355,6,0,P|293:268|290:294,1,95.9999970703126,2|8,3:2|1:2,0:0:0:0:
106,345,77615,1,0,3:0:0:0:
97,342,77680,1,0,3:0:0:0:
88,339,77745,1,10,1:2:0:0:
33,182,77876,1,0,3:0:0:0:
189,235,78007,1,8,1:2:0:0:
144,76,78137,1,2,3:2:0:0:
135,79,78202,1,0,3:0:0:0:
126,82,78267,1,8,1:2:0:0:
287,112,78398,6,0,P|289:63|295:11,1,95.9999970703126,4|8,3:1|1:2,0:0:0:0:
441,91,78659,2,0,P|461:84|491:79,2,47.9999985351563,0|0|8,3:0|3:0|1:2,0:0:0:0:
298,126,78920,2,0,P|303:173|305:221,1,95.9999970703126,0|8,3:0|1:2,0:0:0:0:
206,331,79181,2,0,P|185:324|156:319,2,47.9999985351563,0|0|8,3:0|3:0|1:2,0:0:0:0:
330,380,79442,5,2,3:2:0:0:
194,200,79572,1,0,3:2:0:0:
406,196,79702,5,0,3:0:0:0:
206,331,79833,1,0,3:2:0:0:
298,126,79963,5,2,3:2:0:0:
411,277,80094,1,0,3:0:0:0:
298,126,80224,5,8,3:3:0:0:
411,277,80355,1,4,3:3:0:0:
509,83,80485,6,0,B|440:71|462:122|382:112,1,128,6|0,1:1|3:0,0:0:0:0:
229,65,80876,1,0,3:0:0:0:
229,65,81007,2,0,P|274:35|350:55,1,128,2|0,1:0|3:0,0:0:0:0:
391,197,81398,1,0,3:0:0:0:
391,197,81529,5,2,1:0:0:0:
167,144,81659,1,0,3:0:0:0:
167,144,81920,1,0,3:0:0:0:
277,171,82050,2,0,P|294:217|297:266,1,80,2|0,1:0|3:0,0:0:0:0:
233,378,82311,1,0,3:0:0:0:
233,378,82442,1,0,3:0:0:0:
127,310,82572,6,0,L|-7:331,1,128,4|0,1:2|3:0,0:0:0:0:
167,144,82963,1,0,3:0:0:0:
167,144,83094,2,0,B|205:160|205:160|187:275,1,128,2|0,1:0|3:0,0:0:0:0:
92,206,83485,1,0,3:0:0:0:
92,206,83615,5,4,1:2:0:0:
224,56,83746,1,0,3:0:0:0:
224,56,84007,1,0,3:0:0:0:
96,9,84137,2,0,P|54:15|19:51,1,80,2|0,1:0|3:0,0:0:0:0:
167,144,84398,2,0,L|262:133,1,80,0|0,1:0|3:0,0:0:0:0:
447,119,84659,5,4,1:1:0:0:
505,278,84789,1,0,3:0:0:0:
440,103,84920,5,8,1:2:0:0:
407,326,85050,1,0,3:0:0:0:
306,133,85181,5,8,1:2:0:0:
508,176,85311,1,0,3:0:0:0:
289,274,85442,5,6,1:2:0:0:
338,18,85572,1,0,3:0:0:0:
338,18,85637,1,0,3:0:0:0:
338,18,85702,5,6,1:0:0:0:
398,241,85833,1,0,3:0:0:0:
199,148,85963,5,8,1:2:0:0:
440,103,86094,1,0,3:0:0:0:
182,165,86224,5,10,1:2:0:0:
398,241,86355,1,0,3:0:0:0:
255,62,86485,5,10,1:2:0:0:
224,329,86615,1,0,3:0:0:0:
224,329,86681,1,0,3:0:0:0:
224,329,86746,5,4,1:2:0:0:
52,130,86876,1,0,3:0:0:0:
208,242,87007,5,8,1:2:0:0:
18,325,87137,1,2,3:1:0:0:
156,110,87268,5,8,1:2:0:0:
249,345,87398,1,0,3:0:0:0:
363,141,87529,5,10,1:2:0:0:
81,204,87659,1,0,3:0:0:0:
81,204,87724,1,0,3:0:0:0:
81,204,87789,5,12,1:1:0:0:
361,287,87920,1,0,3:0:0:0:
71,228,88050,5,8,1:2:0:0:
363,141,88181,1,0,3:0:0:0:
249,345,88311,5,10,1:1:0:0:
301,25,88442,1,2,1:1:0:0:
301,25,88702,6,0,B|398:10|368:72|478:53,1,176.000005371094,4|0,1:1|3:0,0:0:0:0:
294,165,89094,2,0,P|270:122|223:72,1,88.000002685547,8|0,1:0|0:0,0:0:0:0:
73,223,89355,1,0,3:0:0:0:
196,185,89485,1,2,3:1:0:0:
16,59,89615,2,0,L|135:81,1,88.000002685547,8|2,1:2|0:1,0:0:0:0:
130,319,89876,5,0,3:0:0:0:
14,154,90007,1,2,0:1:0:0:
196,185,90137,5,8,1:1:0:0:
26,329,90268,1,2,0:1:0:0:
210,368,90398,6,0,P|221:317|209:274,1,88.000002685547,0|0,3:0|3:0,0:0:0:0:
116,141,90659,1,8,1:2:0:0:
340,92,90789,6,0,P|300:160|286:266,1,176.000005371094,4|0,3:1|3:0,0:0:0:0:
383,366,91181,2,0,P|389:317|403:275,1,88.000002685547,8|0,1:0|0:0,0:0:0:0:
474,135,91442,1,0,3:0:0:0:
474,135,91572,1,2,3:1:0:0:
315,15,91702,2,0,P|269:10|222:19,1,88.000002685547,8|2,1:2|0:1,0:0:0:0:
25,170,91963,5,8,1:2:0:0:
191,268,92094,1,0,3:0:0:0:
185,254,92355,1,0,3:0:0:0:
179,240,92616,1,0,3:0:0:0:
174,226,92876,6,0,P|94:210|22:301,1,176.000005371094,4|0,1:0|3:0,0:0:0:0:
235,381,93268,2,0,P|234:321|242:293,1,88.000002685547,8|0,1:2|0:0,0:0:0:0:
338,161,93529,1,0,3:0:0:0:
171,98,93659,1,2,3:1:0:0:
342,249,93789,2,0,L|450:223,1,88.000002685547,8|2,1:0|0:1,0:0:0:0:
437,75,94050,5,0,3:0:0:0:
239,181,94181,1,2,0:1:0:0:
330,33,94311,5,8,1:0:0:0:
427,228,94442,1,2,0:1:0:0:
169,240,94572,6,0,P|148:197|153:150,1,88.000002685547,0|0,3:0|3:0,0:0:0:0:
230,66,94833,1,8,1:2:0:0:
188,330,94963,6,0,B|92:337|125:275|21:279,1,176.000005371094,4|0,3:1|3:0,0:0:0:0:
0,156,95355,1,8,1:0:0:0:
0,156,95485,1,0,0:0:0:0:
70,36,95615,2,0,P|114:50|156:84,1,88.000002685547,0|2,3:0|3:1,0:0:0:0:
238,213,95876,1,8,1:2:0:0:
238,213,96137,5,12,1:2:0:0:
466,147,96268,1,2,3:1:0:0:
466,147,96529,5,12,1:2:0:0:
266,330,96659,1,2,3:1:0:0:
266,330,96920,5,4,1:2:0:0:
187,52,97050,1,2,3:1:0:0:
187,52,97311,5,4,1:2:0:0:
449,257,97442,1,2,3:1:0:0:
449,257,97702,5,4,1:2:0:0:
127,155,97833,1,8,1:0:0:0:
409,50,97963,1,8,1:0:0:0:
324,384,98094,1,4,1:2:0:0:
