osu file format v14

[General]
AudioFilename: Audio.mp3
AudioLeadIn: 0
PreviewTime: 53485
Countdown: 0
SampleSet: Soft
StackLeniency: 0.3
Mode: 0
LetterboxInBreaks: 0
WidescreenStoryboard: 0

[Editor]
DistanceSpacing: 2
BeatDivisor: 4
GridSize: 16
TimelineZoom: 2.1

[Metadata]
Title:Yakata Mawari
TitleUnicode:館廻り
Artist:Denkishiki Karen Ongaku Shuudan
ArtistUnicode:電気式華憐音楽集団
Creator:Dored
Version:Rebirth
Source:死に逝く君、館に芽吹く憎悪
Tags:Denkare Shini Yuku Kimi Yakata ni Mebuku Zouo Galgame Eroge Visual Novel Opening Short Version Bug System sahuang My Angel Azusa Affirmation Neoskylove yf_bmp Yugu Bossandy fuyuyu- Mamayu Kanau Silky Hey lululu
BeatmapID:1754659
BeatmapSetID:834127

[Difficulty]
HPDrainRate:5.8
CircleSize:4
OverallDifficulty:9.3
ApproachRate:9.8
SliderMultiplier:1.9
SliderTickRate:1

[Events]
//Background and Video events
0,0,"Top.jpg",0,0
//Break Periods
//Storyboard Layer 0 (Background)
//Storyboard Layer 1 (Fail)
//Storyboard Layer 2 (Pass)
//Storyboard Layer 3 (Foreground)
//Storyboard Sound Samples

[TimingPoints]
11616,260.869565217391,4,2,1,40,1,0
11616,-142.857142857143,4,2,1,40,0,0
13050,-142.857142857143,4,2,1,5,0,0
13181,-142.857142857143,4,2,1,40,0,0
13572,-142.857142857143,4,2,1,5,0,0
13702,-111.111111111111,4,2,1,55,0,0
13768,-111.111111111111,4,2,1,15,0,0
14094,-111.111111111111,4,2,1,55,0,0
14159,-111.111111111111,4,2,1,15,0,0
14355,-111.111111111111,4,2,1,55,0,0
14811,-111.111111111111,4,2,1,15,0,0
15137,-111.111111111111,4,2,1,55,0,0
15202,-111.111111111111,4,2,1,15,0,0
15659,-100,4,2,1,65,0,0
19181,-100,4,2,1,20,0,0
19311,-100,4,2,1,65,0,0
19442,-100,4,2,1,20,0,0
19572,-100,4,2,1,65,0,0
19702,-100,4,2,1,20,0,0
19833,-100,4,2,1,65,0,0
23094,-95.2380952380952,4,2,1,65,0,0
23485,-90.9090909090909,4,2,1,65,0,0
23876,-86.9565217391304,4,2,1,65,0,0
24268,-83.3333333333333,4,2,1,65,0,0
24659,-80,4,2,1,65,0,0
25050,-111.111111111111,4,2,1,60,0,0
41876,-125,4,2,1,55,0,0
50224,-100,4,2,1,70,0,0
53615,-125,4,2,1,45,0,0
54398,-111.111111111111,4,2,1,55,0,0
54920,-99.9999999999999,4,2,1,70,0,0
55442,-90.9090909090909,4,2,1,75,0,1
63789,-100,4,2,1,70,0,0
67963,-83.3333333333333,4,2,1,75,0,1
71746,-83.3333333333333,4,2,1,70,0,0
72137,-90.9090909090909,4,2,1,75,0,1
80485,-99.9999999999999,4,2,1,70,0,0
84659,-83.3333333333333,4,2,1,75,0,1
88702,-99.9999999999999,4,2,1,70,0,0
92224,-99.9999999999999,4,2,1,20,0,0
92355,-99.9999999999999,4,2,1,70,0,0
92485,-99.9999999999999,4,2,1,20,0,0
92615,-99.9999999999999,4,2,1,70,0,0
92746,-99.9999999999999,4,2,1,20,0,0
92876,-99.9999999999999,4,2,1,70,0,0
96137,-95.2380952380952,4,2,1,70,0,0
96529,-90.9090909090909,4,2,1,70,0,0
96920,-86.9565217391304,4,2,1,70,0,0
97311,-83.3333333333333,4,2,1,70,0,0
97702,-80,4,2,1,70,0,0

[Colours]
Combo1 : 80,0,160
Combo2 : 160,0,80
Combo3 : 128,128,255
Combo4 : 0,20,200

[HitObjects]
65,290,11615,5,0,0:0:0:0:
65,290,11876,2,0,L|131:295,1,66.4999979705811,2|0,0:0|0:0,0:0:0:0:
223,348,12137,2,0,L|289:342,1,66.4999979705811,2|0,0:0|0:0,0:0:0:0:
381,290,12398,2,0,L|447:295,1,66.4999979705811,2|0,0:0|0:0,0:0:0:0:
289,341,12659,6,0,P|285:244|361:186,1,199.499993911743,2|0,0:0|0:0,0:0:0:0:
457,183,13181,2,0,P|360:186|302:110,1,199.499993911743,2|0,0:0|0:0,0:0:0:0:
422,46,13702,6,0,L|464:46,1,42.7499986953736,2|0,3:2|0:0,0:0:0:0:
90,173,14094,2,0,L|48:173,1,42.7499986953736,2|0,3:0|0:0,0:0:0:0:
90,46,14355,5,8,1:2:0:0:
302,110,14485,1,8,1:2:0:0:
186,299,14615,1,0,3:0:0:0:
422,338,14746,6,0,L|464:338,1,42.7499986953736,2|0,3:2|0:0,0:0:0:0:
90,307,15137,2,0,L|48:307,1,42.7499986953736,2|0,1:3|0:0,0:0:0:0:
90,307,15659,6,0,B|136:286|136:286|189:346|262:309,1,190,4|0,1:1|3:0,0:0:0:0:
220,133,16050,2,0,L|211:227,1,95,8|0,1:0|0:0,0:0:0:0:
396,92,16311,1,0,3:0:0:0:
229,38,16442,1,2,3:1:0:0:
386,186,16572,2,0,L|480:177,1,95,8|2,1:2|0:1,0:0:0:0:
261,309,16833,5,0,3:0:0:0:
396,92,16963,1,2,0:1:0:0:
143,78,17094,1,8,1:1:0:0:
386,186,17224,1,2,0:1:0:0:
133,172,17355,1,0,3:0:0:0:
306,93,17485,1,0,3:0:0:0:
261,309,17615,1,8,1:2:0:0:
57,117,17746,6,0,L|73:306,1,190,4|0,3:1|3:0,0:0:0:0:
261,309,18137,2,0,L|270:215,1,95,8|0,1:0|0:0,0:0:0:0:
396,92,18398,1,0,3:0:0:0:
220,133,18529,1,2,3:1:0:0:
376,280,18659,2,0,L|385:186,1,95,8|2,1:2|0:1,0:0:0:0:
229,38,18920,5,8,1:2:0:0:
30,114,19050,2,0,L|124:123,1,95,0|0,3:0|2:0,0:0:0:0:
270,214,19311,2,0,L|176:205,1,95,0|0,3:0|0:0,0:0:0:0:
17,271,19572,2,0,L|111:278,1,95,0|0,3:0|0:0,0:0:0:0:
321,345,19833,6,0,B|161:358|161:358|178:366|185:376,1,190,4|0,1:0|3:0,0:0:0:0:
270,214,20224,2,0,L|279:120,1,95,8|0,1:2|0:0,0:0:0:0:
193,14,20485,1,0,3:0:0:0:
373,128,20615,1,2,3:1:0:0:
175,204,20746,2,0,L|81:195,1,95,8|2,1:0|0:1,0:0:0:0:
287,23,21007,5,0,3:0:0:0:
46,48,21137,1,2,0:1:0:0:
270,214,21268,1,8,1:0:0:0:
17,271,21398,1,2,0:1:0:0:
184,109,21529,1,0,3:0:0:0:
260,308,21659,1,0,3:0:0:0:
80,194,21789,1,8,1:2:0:0:
364,223,21920,6,0,P|447:185|460:95,1,190,4|0,3:1|3:0,0:0:0:0:
287,23,22311,2,0,L|278:117,1,95,8|0,1:0|0:0,0:0:0:0:
260,308,22572,1,0,3:0:0:0:
373,128,22702,1,2,3:1:0:0:
175,204,22833,2,0,L|269:213,1,95,8|2,1:2|0:1,0:0:0:0:
91,101,23094,5,8,1:2:0:0:
260,308,23224,2,0,L|160:299,1,99.7499969558717,2|0,3:1|0:0,0:0:0:0:
100,79,23485,5,8,1:2:0:0:
331,288,23615,2,0,L|228:306,1,104.500003189087,2|0,3:1|0:0,0:0:0:0:
110,58,23876,5,8,1:2:0:0:
399,248,24007,2,0,L|299:294,1,109.250002083778,2|0,3:1|0:0,0:0:0:0:
120,37,24268,5,8,1:2:0:0:
458,189,24398,2,0,L|370:262,1,113.999996520996,2|0,3:1|0:0,0:0:0:0:
130,16,24659,5,8,1:0:0:0:
503,112,24789,1,8,1:0:0:0:
175,204,24920,1,8,1:0:0:0:
444,359,25050,6,0,L|458:188,1,170.999994781494,4|0,3:1|3:0,0:0:0:0:
297,174,25442,1,8,1:2:0:0:
370,261,25572,1,0,0:0:0:0:
384,101,25702,1,0,3:0:0:0:
224,87,25833,2,0,L|138:79,1,85.4999973907472,0|8,3:0|1:2,0:0:0:0:
31,242,26094,6,0,P|93:187|174:203,1,170.999994781494,0|0,3:0|3:0,0:0:0:0:
159,362,26485,2,0,L|73:370,1,85.4999973907472,8|0,1:2|0:0,0:0:0:0:
246,289,26746,1,0,3:0:0:0:
31,242,26876,1,0,3:0:0:0:
173,202,27007,1,8,1:0:0:0:
53,71,27137,6,0,L|223:86,1,170.999994781494,4|0,3:2|0:0,0:0:0:0:
391,56,27529,1,8,1:2:0:0:
333,216,27659,1,0,3:0:0:0:
223,86,27789,1,0,3:0:0:0:
246,289,27920,2,0,L|253:374,1,85.4999973907472,0|8,3:0|1:0,0:0:0:0:
473,263,28181,6,0,P|413:204|332:216,1,170.999994781494,0|0,3:0|3:0,0:0:0:0:
253,374,28572,2,0,L|338:367,1,85.4999973907472,8|0,1:2|0:0,0:0:0:0:
235,188,28833,1,0,3:0:0:0:
385,295,28963,1,0,3:0:0:0:
403,112,29094,1,0,3:0:0:0:
246,288,29224,6,0,P|166:263|133:187,1,170.999994781494,4|0,3:1|0:0,0:0:0:0:
317,112,29615,2,0,L|402:112,1,85.4999973907472,8|0,1:2|0:0,0:0:0:0:
235,188,29876,1,0,3:0:0:0:
134,0,30007,2,0,L|134:85,1,85.4999973907472,0|8,3:0|1:0,0:0:0:0:
32,255,30268,6,0,L|32:84,1,170.999994781494,0|0,0:0|3:0,0:0:0:0:
236,86,30659,1,8,1:2:0:0:
133,187,30789,1,0,0:0:0:0:
134,0,30920,1,0,3:0:0:0:
321,1,31050,2,0,L|406:1,1,85.4999973907472,0|8,3:0|1:2,0:0:0:0:
377,225,31311,6,0,P|296:242|235:188,1,170.999994781494,4|0,3:2|3:0,0:0:0:0:
373,337,31702,2,0,L|458:337,1,85.4999973907472,8|0,1:0|0:0,0:0:0:0:
322,150,31963,1,0,3:0:0:0:
185,287,32094,2,0,L|185:372,1,85.4999973907472,0|8,3:0|1:0,0:0:0:0:
458,337,32355,6,0,P|497:264|462:190,1,170.999994781494,0|0,0:0|3:0,0:0:0:0:
234,187,32746,1,8,1:2:0:0:
410,113,32876,1,0,3:0:0:0:
373,337,33007,5,8,1:2:0:0:
236,86,33137,1,8,0:2:0:0:
236,86,33398,6,0,P|154:70|93:125,1,170.999994781494,4|0,3:1|0:0,0:0:0:0:
185,287,33789,2,0,L|270:279,1,85.4999973907472,8|0,1:2|0:0,0:0:0:0:
461,189,34050,1,0,3:0:0:0:
373,337,34181,1,0,3:0:0:0:
322,150,34311,1,8,1:2:0:0:
135,208,34442,6,0,P|91:278|120:356,1,170.999994781494,0|0,3:0|3:0,0:0:0:0:
277,364,34833,2,0,L|269:278,1,85.4999973907472,8|0,1:2|0:0,0:0:0:0:
236,86,35094,1,0,3:0:0:0:
377,225,35224,1,0,3:0:0:0:
185,287,35355,1,12,1:2:0:0:
373,337,35485,1,0,3:0:0:0:
220,200,35615,6,0,L|134:207,1,85.4999973907472,0|0,0:0|0:0,0:0:0:0:
335,44,35876,2,0,L|421:51,1,85.4999973907472,12|0,1:2|0:0,0:0:0:0:
470,215,36137,1,0,3:0:0:0:
322,150,36268,1,0,3:0:0:0:
507,129,36398,1,8,1:1:0:0:
373,337,36529,6,0,P|318:275|235:281,1,170.999994781494,4|0,3:1|0:0,0:0:0:0:
322,150,36920,2,0,L|407:140,1,85.4999973907472,8|0,1:0|3:0,0:0:0:0:
236,281,37181,1,0,0:0:0:0:
137,128,37311,1,8,3:3:0:0:
322,150,37442,1,4,3:3:0:0:
137,37,37572,6,0,P|63:75|50:157,1,170.999994781494,4|0,1:1|0:0,0:0:0:0:
150,281,37963,2,0,L|236:281,1,85.4999973907472,8|0,1:0|0:0,0:0:0:0:
230,139,38224,1,0,3:0:0:0:
49,242,38355,2,0,L|49:327,1,85.4999973907472,0|8,3:0|1:2,0:0:0:0:
253,372,38615,6,0,P|318:321|317:238,1,170.999994781494,0|0,3:0|3:0,0:0:0:0:
230,53,39007,2,0,L|230:138,1,85.4999973907472,8|0,1:0|0:0,0:0:0:0:
398,195,39268,1,0,3:0:0:0:
236,281,39398,2,0,L|150:281,1,85.4999973907472,0|8,3:0|1:0,0:0:0:0:
336,125,39659,6,0,P|415:102|481:152,1,170.999994781494,4|0,3:2|0:0,0:0:0:0:
398,280,40050,2,0,L|398:194,1,85.4999973907472,8|0,1:0|0:0,0:0:0:0:
362,20,40311,1,0,3:0:0:0:
230,138,40442,1,0,3:0:0:0:
398,194,40572,1,8,0:2:0:0:
171,212,40702,6,0,P|135:137|172:63,1,170.999994781494,0|0,3:0|3:0,0:0:0:0:
336,125,41094,1,8,1:0:0:0:
236,281,41224,1,0,3:0:0:0:
171,63,41355,5,8,1:2:0:0:
398,280,41485,1,8,1:2:0:0:
398,280,41876,6,0,P|354:339|280:348,1,152,4|0,3:1|0:0,0:0:0:0:
117,256,42267,1,0,3:0:0:0:
115,236,42333,1,0,3:0:0:0:
57,221,42398,2,0,L|170:211,1,114,4|0,1:2|3:0,0:0:0:0:
277,50,42789,1,0,3:0:0:0:
394,118,42920,6,0,P|320:109|276:49,1,152,2|0,3:2|0:0,0:0:0:0:
103,65,43311,1,0,3:0:0:0:
82,66,43377,1,0,3:0:0:0:
58,11,43442,2,0,L|67:124,1,114,12|0,1:2|3:0,0:0:0:0:
225,279,43833,1,0,3:0:0:0:
108,347,43963,6,0,P|152:287|225:279,1,152,2|0,1:2|0:0,0:0:0:0:
398,280,44355,1,0,3:0:0:0:
397,259,44421,1,0,3:0:0:0:
452,235,44486,2,0,L|338:244,1,114,4|0,1:2|3:0,0:0:0:0:
276,50,44876,1,0,3:0:0:0:
159,118,45007,6,0,P|203:58|276:50,1,152,2|0,3:2|0:0,0:0:0:0:
449,70,45398,1,0,3:0:0:0:
470,69,45464,1,0,3:0:0:0:
494,124,45529,2,0,L|485:11,1,114,4|0,1:2|3:0,0:0:0:0:
307,146,45920,1,0,3:0:0:0:
396,248,46050,6,0,P|373:177|306:145,1,152,4|0,1:0|0:0,0:0:0:0:
147,251,46442,1,0,3:0:0:0:
167,253,46508,1,0,3:0:0:0:
181,311,46573,2,0,L|191:198,1,114,4|0,1:2|3:0,0:0:0:0:
40,68,46963,1,0,3:0:0:0:
170,32,47094,6,0,P|96:21|39:67,1,152,2|0,3:2|0:0,0:0:0:0:
93,206,47485,1,0,3:0:0:0:
91,226,47551,1,0,3:0:0:0:
33,240,47616,2,0,L|145:250,1,114,4|0,1:2|3:0,0:0:0:0:
347,328,48007,1,0,3:0:0:0:
216,364,48137,6,0,P|289:374|346:328,1,152,0|0,1:0|0:0,0:0:0:0:
327,147,48529,1,0,3:0:0:0:
307,145,48595,1,0,3:0:0:0:
293,87,48660,2,0,L|282:199,1,114,4|0,1:2|3:0,0:0:0:0:
91,226,49050,1,0,0:0:0:0:
28,106,49181,6,0,P|32:179|89:225,1,152,2|0,3:2|0:0,0:0:0:0:
233,121,49572,1,0,3:0:0:0:
235,101,49638,1,0,3:0:0:0:
293,87,49703,2,0,L|181:77,1,114,4|2,1:2|3:3,0:0:0:0:
354,249,50094,1,2,3:3:0:0:
90,225,50224,5,4,1:1:0:0:
293,87,50355,1,0,3:0:0:0:
248,329,50485,1,8,1:2:0:0:
109,127,50615,1,0,3:0:0:0:
64,369,50746,1,8,1:2:0:0:
271,208,50876,1,0,3:0:0:0:
0,181,51007,1,8,1:2:0:0:
207,20,51137,1,0,3:0:0:0:
168,289,51268,5,8,1:0:0:0:
6,72,51398,1,0,3:0:0:0:
293,87,51529,1,8,1:0:0:0:
90,225,51659,1,0,3:0:0:0:
377,240,51789,1,8,1:0:0:0:
174,378,51920,1,0,3:0:0:0:
201,107,52050,1,8,1:0:0:0:
383,329,52181,1,4,3:2:0:0:
410,58,52311,5,8,1:2:0:0:
185,198,52442,1,0,3:0:0:0:
458,280,52572,1,8,1:2:0:0:
293,87,52702,1,0,3:0:0:0:
248,329,52833,5,8,1:2:0:0:
109,127,52963,1,0,3:0:0:0:
377,240,53094,1,8,1:2:0:0:
0,268,53224,1,12,1:2:0:0:
64,369,53615,5,2,0:0:0:0:
110,359,53876,1,2,0:0:0:0:
156,349,54137,1,2,0:0:0:0:
202,339,54398,5,0,0:0:0:0:
162,313,54528,1,2,0:0:0:0:
122,287,54659,1,0,0:0:0:0:
82,261,54789,1,2,0:0:0:0:
100,153,54920,5,2,0:0:0:0:
220,231,55050,1,0,0:0:0:0:
238,123,55181,1,0,0:0:0:0:
82,261,55311,1,0,0:0:0:0:
271,351,55442,6,0,L|375:341,1,104.500003189087,4|8,3:1|1:2,0:0:0:0:
492,221,55703,1,0,3:0:0:0:
483,222,55768,1,0,3:0:0:0:
473,223,55833,2,0,L|368:232,1,104.500003189087,10|0,1:2|3:0,0:0:0:0:
238,123,56094,1,8,1:2:0:0:
391,55,56224,1,2,3:1:0:0:
400,54,56289,1,0,3:0:0:0:
410,53,56355,1,8,1:2:0:0:
211,32,56485,6,0,P|168:59|146:106,1,104.500003189087,2|8,3:2|1:2,0:0:0:0:
245,242,56746,1,0,3:0:0:0:
254,241,56811,1,0,3:0:0:0:
264,240,56876,2,0,L|369:231,1,104.500003189087,10|0,1:1|3:0,0:0:0:0:
142,358,57137,1,8,1:2:0:0:
49,220,57267,1,2,3:2:0:0:
50,211,57332,1,0,3:0:0:0:
51,201,57398,1,8,1:2:0:0:
238,123,57529,5,6,3:1:0:0:
54,43,57659,1,8,1:2:0:0:
181,199,57789,1,0,3:0:0:0:
180,209,57855,1,0,3:0:0:0:
179,218,57920,1,8,1:2:0:0:
368,121,58050,1,0,3:0:0:0:
184,41,58180,1,8,1:2:0:0:
311,197,58310,1,2,3:2:0:0:
310,207,58376,1,0,3:0:0:0:
309,216,58441,1,8,1:2:0:0:
168,322,58572,6,0,L|178:218,1,104.500003189087,2|8,3:1|1:2,0:0:0:0:
349,119,58833,1,0,3:0:0:0:
358,120,58898,1,0,3:0:0:0:
368,121,58964,1,8,1:2:0:0:
298,320,59094,2,0,L|308:216,1,104.500003189087,2|8,3:1|1:2,0:0:0:0:
479,117,59355,1,2,3:1:0:0:
488,118,59420,1,0,3:0:0:0:
498,119,59486,1,8,1:0:0:0:
288,30,59616,6,0,L|184:40,1,104.500003189087,4|8,3:2|1:2,0:0:0:0:
67,160,59877,1,0,3:0:0:0:
76,161,59942,1,0,3:0:0:0:
86,162,60007,2,0,L|191:171,1,104.500003189087,10|0,1:2|3:0,0:0:0:0:
298,320,60268,1,8,1:2:0:0:
134,292,60397,1,2,3:2:0:0:
124,291,60463,1,0,3:0:0:0:
115,290,60528,1,8,1:2:0:0:
308,215,60659,6,0,L|412:205,1,104.500003189087,2|8,3:2|1:2,0:0:0:0:
411,40,60920,1,0,3:0:0:0:
402,39,60985,1,0,3:0:0:0:
392,38,61050,2,0,L|287:29,1,104.500003189087,10|0,1:2|3:0,0:0:0:0:
190,170,61311,1,8,1:2:0:0:
116,19,61441,1,2,3:2:0:0:
115,9,61507,1,0,3:0:0:0:
114,0,61572,1,8,1:2:0:0:
19,160,61702,5,4,3:1:0:0:
190,170,61833,1,8,1:2:0:0:
95,330,61963,1,0,3:0:0:0:
94,321,62028,1,0,3:0:0:0:
93,311,62094,1,8,1:2:0:0:
190,170,62224,1,0,3:0:0:0:
361,180,62355,1,8,1:2:0:0:
266,340,62485,1,0,3:0:0:0:
265,331,62550,1,0,3:0:0:0:
264,321,62616,1,8,1:2:0:0:
361,180,62746,6,0,L|465:190,1,104.500003189087,0|8,3:0|1:2,0:0:0:0:
287,29,63007,1,0,3:0:0:0:
278,30,63072,1,0,3:0:0:0:
268,31,63138,1,8,1:2:0:0:
190,170,63268,1,0,3:1:0:0:
361,180,63398,1,0,3:0:0:0:
188,189,63529,1,8,3:3:0:0:
359,199,63659,1,4,3:0:0:0:
179,284,63789,6,0,P|103:232|106:141,1,190,6|0,1:1|3:0,0:0:0:0:
278,146,64181,1,0,3:0:0:0:
179,284,64311,2,0,P|88:300|26:234,1,190,2|0,1:0|3:0,0:0:0:0:
107,65,64702,1,0,3:0:0:0:
278,146,64833,6,0,L|372:137,1,95,2|0,1:0|3:0,0:0:0:0:
107,65,65094,2,0,L|12:56,1,95,0|0,3:0|3:0,0:0:0:0:
233,21,65355,1,2,1:0:0:0:
153,191,65485,1,0,3:0:0:0:
278,146,65615,1,0,3:0:0:0:
107,65,65746,1,0,3:0:0:0:
356,91,65876,6,0,P|365:182|293:238,1,190,4|0,1:2|3:0,0:0:0:0:
193,106,66268,1,0,3:0:0:0:
356,91,66398,2,0,P|427:149|416:239,1,190,2|0,1:0|3:0,0:0:0:0:
229,270,66789,1,0,3:0:0:0:
412,316,66920,6,0,L|506:324,1,95,4|0,1:2|3:0,0:0:0:0:
229,270,67181,2,0,L|134:278,1,95,0|0,3:0|3:0,0:0:0:0:
298,384,67442,1,2,1:0:0:0:
344,202,67572,1,0,3:0:0:0:
412,316,67702,1,0,1:0:0:0:
229,270,67833,1,0,3:0:0:0:
459,134,67963,5,4,1:1:0:0:
298,384,68094,1,0,3:0:0:0:
276,88,68224,1,8,1:2:0:0:
115,338,68355,1,0,3:0:0:0:
344,202,68485,5,8,1:2:0:0:
47,224,68615,1,0,3:0:0:0:
298,384,68746,1,6,1:2:0:0:
160,156,68876,1,0,3:0:0:0:
158,144,68942,1,0,3:0:0:0:
157,132,69007,6,0,L|147:18,1,113.999996520996,6|0,1:0|3:0,0:0:0:0:
344,202,69268,1,8,1:2:0:0:
115,338,69398,1,0,3:0:0:0:
276,88,69529,5,10,1:2:0:0:
298,384,69659,1,0,3:0:0:0:
459,134,69789,1,10,1:2:0:0:
160,156,69920,1,0,3:0:0:0:
147,157,69985,1,0,3:0:0:0:
135,159,70050,5,4,1:2:0:0:
412,316,70181,1,0,3:0:0:0:
391,20,70311,1,8,1:2:0:0:
230,270,70442,1,2,3:1:0:0:
95,42,70572,5,8,1:2:0:0:
344,202,70702,1,0,3:0:0:0:
48,224,70833,1,10,1:2:0:0:
298,384,70963,1,0,3:0:0:0:
296,372,71028,1,0,3:0:0:0:
294,360,71093,5,12,1:1:0:0:
243,31,71224,1,0,3:0:0:0:
146,371,71355,1,8,1:2:0:0:
367,111,71485,1,0,3:0:0:0:
48,224,71615,5,10,1:1:0:0:
453,312,71746,1,2,1:1:0:0:
453,312,72137,6,0,L|349:302,1,104.500003189087,4|8,3:1|1:2,0:0:0:0:
209,181,72398,1,0,3:0:0:0:
218,182,72463,1,0,3:0:0:0:
228,183,72528,2,0,L|333:192,1,104.500003189087,10|0,1:2|3:0,0:0:0:0:
225,381,72789,1,8,1:2:0:0:
90,259,72920,1,2,3:1:0:0:
89,249,72986,1,0,3:0:0:0:
88,240,73051,1,8,1:2:0:0:
88,73,73181,6,0,P|127:39|178:33,1,104.500003189087,2|8,3:2|1:2,0:0:0:0:
343,68,73442,1,0,3:0:0:0:
342,77,73507,1,0,3:0:0:0:
341,87,73572,2,0,L|332:192,1,104.500003189087,10|0,1:1|3:0,0:0:0:0:
186,275,73833,1,8,1:2:0:0:
314,381,73963,1,2,3:2:0:0:
324,382,74029,1,0,3:0:0:0:
333,383,74094,1,8,1:2:0:0:
228,183,74223,5,6,3:1:0:0:
436,199,74354,1,8,1:2:0:0:
259,60,74485,1,0,3:0:0:0:
258,51,74550,1,0,3:0:0:0:
257,41,74616,1,8,1:2:0:0:
124,175,74746,1,0,3:0:0:0:
332,191,74877,1,8,1:2:0:0:
155,52,75007,1,2,3:2:0:0:
154,43,75072,1,0,3:0:0:0:
153,33,75138,1,8,1:2:0:0:
20,167,75268,6,0,L|10:271,1,104.500003189087,2|8,3:1|1:2,0:0:0:0:
157,360,75529,1,0,3:0:0:0:
158,351,75594,1,0,3:0:0:0:
159,341,75660,1,8,1:2:0:0:
332,191,75789,2,0,L|322:295,1,104.500003189087,2|8,3:1|1:2,0:0:0:0:
469,384,76050,1,2,3:1:0:0:
470,375,76115,1,0,3:0:0:0:
471,365,76181,1,8,1:0:0:0:
444,130,76311,6,0,L|339:121,1,104.500003189087,4|8,3:2|1:2,0:0:0:0:
198,284,76572,1,0,3:0:0:0:
207,285,76637,1,0,3:0:0:0:
217,286,76702,2,0,L|322:295,1,104.500003189087,10|0,1:2|3:0,0:0:0:0:
188,132,76963,1,8,1:2:0:0:
81,287,77094,1,2,3:2:0:0:
80,296,77159,1,0,3:0:0:0:
79,306,77225,1,8,1:2:0:0:
0,118,77355,6,0,L|9:13,1,104.500003189087,2|8,3:2|1:2,0:0:0:0:
198,8,77615,1,0,3:0:0:0:
197,17,77680,1,0,3:0:0:0:
196,27,77745,2,0,L|187:132,1,104.500003189087,10|0,1:2|3:0,0:0:0:0:
217,286,78007,1,8,1:2:0:0:
23,224,78137,1,2,3:2:0:0:
14,225,78202,1,0,3:0:0:0:
4,226,78268,1,8,1:2:0:0:
122,379,78398,5,4,3:1:0:0:
202,209,78529,1,8,1:2:0:0:
300,364,78658,1,0,3:0:0:0:
310,363,78724,1,0,3:0:0:0:
319,362,78789,1,8,1:2:0:0:
390,193,78919,1,0,3:0:0:0:
202,209,79050,1,8,1:2:0:0:
273,40,79181,1,0,3:0:0:0:
282,39,79246,1,0,3:0:0:0:
292,38,79312,1,8,1:2:0:0:
94,55,79442,5,2,3:2:0:0:
202,209,79572,1,0,3:2:0:0:
113,53,79702,1,0,3:0:0:0:
183,211,79833,1,0,3:2:0:0:
336,116,79963,2,0,L|440:125,1,104.500003189087,2|0,3:2|3:0,0:0:0:0:
164,213,80224,2,0,L|59:222,1,104.500003189087,8|4,3:3|3:3,0:0:0:0:
310,363,80485,6,0,P|346:278|296:203,1,190,6|0,1:1|3:0,0:0:0:0:
148,132,80876,1,0,3:0:0:0:
296,203,81007,2,0,L|485:219,1,190,2|0,1:0|3:0,0:0:0:0:
403,370,81398,1,0,3:0:0:0:
252,288,81529,6,0,L|157:296,1,95,2|0,1:0|3:0,0:0:0:0:
53,140,81789,2,0,L|147:131,1,95,0|0,3:0|3:0,0:0:0:0:
336,115,82050,1,2,1:0:0:0:
201,209,82181,1,0,3:0:0:0:
236,42,82311,1,0,3:0:0:0:
296,203,82442,1,0,3:0:0:0:
106,215,82572,6,0,P|61:295|103:375,1,190,4|0,1:2|3:0,0:0:0:0:
310,363,82963,1,0,3:0:0:0:
157,296,83094,2,0,L|346:279,1,190,2|0,1:0|3:0,0:0:0:0:
510,263,83485,1,0,3:0:0:0:
495,99,83615,6,0,L|486:4,1,95,4|0,1:2|3:0,0:0:0:0:
327,20,83876,2,0,L|335:114,1,95,0|0,3:0|3:0,0:0:0:0:
428,271,84137,1,2,1:0:0:0:
413,107,84268,1,0,3:0:0:0:
343,196,84398,1,0,1:0:0:0:
503,181,84529,1,0,3:0:0:0:
353,361,84659,5,4,1:1:0:0:
249,122,84789,1,0,3:0:0:0:
510,263,84920,1,8,1:2:0:0:
406,24,85050,1,0,3:0:0:0:
268,286,85181,5,8,1:2:0:0:
496,99,85311,1,0,3:0:0:0:
242,40,85442,1,6,1:2:0:0:
427,250,85571,1,0,3:0:0:0:
427,260,85637,1,0,3:0:0:0:
428,271,85702,6,0,L|439:398,1,113.999996520996,6|0,1:0|3:0,0:0:0:0:
186,293,85963,1,8,1:2:0:0:
413,107,86094,1,0,3:0:0:0:
160,47,86224,5,10,1:2:0:0:
346,278,86355,1,0,3:0:0:0:
93,218,86485,1,10,1:2:0:0:
325,32,86615,1,0,3:0:0:0:
333,25,86681,1,0,3:0:0:0:
341,18,86746,5,4,1:2:0:0:
268,286,86876,1,0,3:0:0:0:
160,47,87007,1,8,1:2:0:0:
87,315,87137,1,2,3:1:0:0:
343,196,87268,5,8,1:2:0:0:
85,137,87398,1,0,3:0:0:0:
341,18,87529,1,10,1:2:0:0:
186,293,87659,1,0,3:0:0:0:
186,283,87725,1,0,3:0:0:0:
185,272,87790,6,0,L|174:145,1,113.999996520996,12|0,1:1|3:0,0:0:0:0:
413,107,88050,2,0,L|422:220,1,113.999996520996,8|0,1:2|3:0,0:0:0:0:
160,47,88311,5,10,1:1:0:0:
353,361,88442,1,2,1:1:0:0:
353,361,88702,6,0,B|438:357|494:311|494:311|464:287,1,190,4|0,1:1|3:0,0:0:0:0:
269,167,89094,2,0,L|175:158,1,95,8|0,1:0|0:0,0:0:0:0:
16,107,89355,1,0,3:0:0:0:
139,263,89485,1,2,3:1:0:0:
254,56,89615,2,0,L|160:47,1,95,8|2,1:2|0:1,0:0:0:0:
33,228,89876,5,0,3:0:0:0:
269,167,90007,1,2,0:1:0:0:
104,369,90137,1,8,1:1:0:0:
340,308,90268,1,2,0:1:0:0:
174,157,90398,1,0,3:0:0:0:
375,202,90529,1,0,3:0:0:0:
139,263,90660,1,8,1:2:0:0:
400,111,90789,6,0,P|466:173|449:263,1,190,4|0,3:1|3:0,0:0:0:0:
243,367,91181,2,0,L|234:273,1,95,8|0,1:0|0:0,0:0:0:0:
104,193,91442,1,0,3:0:0:0:
269,167,91572,1,2,3:1:0:0:
159,46,91702,2,0,L|65:55,1,95,8|2,1:2|0:1,0:0:0:0:
139,263,91963,5,8,1:2:0:0:
269,167,92094,2,0,L|278:73,1,95,0|0,3:0|2:0,0:0:0:0:
373,289,92355,2,0,L|364:383,1,95,0|0,3:0|0:0,0:0:0:0:
503,193,92615,2,0,L|512:99,1,95,0|0,3:0|0:0,0:0:0:0:
278,72,92876,6,0,P|194:107|179:197,1,190,4|0,1:0|3:0,0:0:0:0:
373,289,93268,2,0,L|467:298,1,95,8|0,1:2|0:0,0:0:0:0:
269,167,93529,1,0,3:0:0:0:
243,367,93659,1,2,3:1:0:0:
83,245,93789,2,0,L|74:151,1,95,8|2,1:0|0:1,0:0:0:0:
278,72,94050,5,0,3:0:0:0:
83,245,94181,1,2,0:1:0:0:
321,228,94311,1,8,1:0:0:0:
159,81,94442,1,2,0:1:0:0:
397,63,94572,1,0,3:0:0:0:
230,257,94702,1,0,3:0:0:0:
468,239,94833,1,8,1:2:0:0:
243,367,94963,6,0,B|209:371|177:354|177:354|123:364|123:364|93:347|58:350,1,190,4|0,3:1|3:0,0:0:0:0:
73,150,95355,2,0,L|167:159,1,95,8|0,1:0|0:0,0:0:0:0:
321,228,95615,1,0,3:0:0:0:
167,159,95746,1,2,3:1:0:0:
302,53,95876,2,0,L|396:62,1,95,8|2,1:2|0:1,0:0:0:0:
468,239,96137,5,12,1:2:0:0:
243,367,96268,2,0,L|234:267,1,99.7499969558717,2|0,3:1|0:0,0:0:0:0:
466,263,96529,5,12,1:2:0:0:
171,319,96659,2,0,L|189:216,1,104.500003189087,2|0,3:1|0:0,0:0:0:0:
457,285,96920,5,4,1:2:0:0:
114,253,97050,2,0,L|160:153,1,109.250002083778,2|0,3:1|0:0,0:0:0:0:
443,304,97311,5,4,1:2:0:0:
77,174,97442,2,0,L|150:86,1,113.999996520996,2|0,3:1|0:0,0:0:0:0:
424,319,97702,5,4,1:2:0:0:
155,18,97833,1,8,1:0:0:0:
497,166,97963,1,8,1:0:0:0:
171,319,98094,1,4,1:2:0:0:
