osu file format v14

[General]
AudioFilename: Audio.mp3
AudioLeadIn: 0
PreviewTime: 53485
Countdown: 0
SampleSet: Soft
StackLeniency: 0.5
Mode: 0
LetterboxInBreaks: 0
WidescreenStoryboard: 0

[Editor]
DistanceSpacing: 1.3
BeatDivisor: 4
GridSize: 16
TimelineZoom: 2.1

[Metadata]
Title:Yakata Mawari
TitleUnicode:館廻り
Artist:Denkishiki Karen Ongaku Shuudan
ArtistUnicode:電気式華憐音楽集団
Creator:Dored
Version:Hard
Source:死に逝く君、館に芽吹く憎悪
Tags:Denkare Shini Yuku Kimi Yakata ni Mebuku Zouo Galgame Eroge Visual Novel Opening Short Version Bug System sahuang My Angel Azusa Affirmation Neoskylove yf_bmp Yugu Bossandy fuyuyu- Mamayu Kanau Silky Hey lululu
BeatmapID:1747285
BeatmapSetID:834127

[Difficulty]
HPDrainRate:4.5
CircleSize:3.5
OverallDifficulty:6
ApproachRate:8
SliderMultiplier:1.3
SliderTickRate:1

[Events]
//Background and Video events
0,0,"BG.jpg",0,0
//Break Periods
//Storyboard Layer 0 (Background)
//Storyboard Layer 1 (Fail)
//Storyboard Layer 2 (Pass)
//Storyboard Layer 3 (Foreground)
//Storyboard Sound Samples

[TimingPoints]
11616,260.869565217391,4,2,1,40,1,0
11616,-200,4,2,1,40,0,0
13050,-200,4,2,1,5,0,0
13181,-200,4,2,1,40,0,0
13572,-100,4,2,1,5,0,0
13702,-111.111111111111,4,2,1,55,0,0
13768,-111.111111111111,4,2,1,15,0,0
14094,-111.111111111111,4,2,1,55,0,0
14159,-111.111111111111,4,2,1,15,0,0
14355,-111.111111111111,4,2,1,55,0,0
14811,-111.111111111111,4,2,1,15,0,0
15137,-111.111111111111,4,2,1,55,0,0
15202,-111.111111111111,4,2,1,15,0,0
15659,-111.111111111111,4,2,1,65,0,0
19181,-111.111111111111,4,2,1,20,0,0
19311,-111.111111111111,4,2,1,65,0,0
19442,-111.111111111111,4,2,1,20,0,0
19572,-111.111111111111,4,2,1,65,0,0
19702,-111.111111111111,4,2,1,20,0,0
19833,-111.111111111111,4,2,1,65,0,0
25050,-111.111111111111,4,2,1,60,0,0
41876,-125,4,2,1,55,0,0
50224,-111.111111111111,4,2,1,70,0,0
53615,-125,4,2,1,45,0,0
54398,-125,4,2,1,55,0,0
54920,-111.111111111111,4,2,1,70,0,0
55442,-100,4,2,1,75,0,1
63789,-111.111111111111,4,2,1,70,0,0
67963,-100,4,2,1,75,0,1
71746,-100,4,2,1,70,0,0
72137,-100,4,2,1,75,0,1
80485,-111.111111111111,4,2,1,70,0,0
84659,-100,4,2,1,75,0,1
88702,-111.111111111111,4,2,1,70,0,0
92224,-111.111111111111,4,2,1,20,0,0
92355,-111.111111111111,4,2,1,70,0,0
92485,-111.111111111111,4,2,1,20,0,0
92615,-111.111111111111,4,2,1,70,0,0
92746,-111.111111111111,4,2,1,20,0,0
92876,-111.111111111111,4,2,1,70,0,0

[Colours]
Combo1 : 80,0,160
Combo2 : 160,0,80
Combo3 : 128,128,255
Combo4 : 0,20,200

[HitObjects]
352,64,11615,5,0,0:0:0:0:
415,119,11876,2,0,L|479:113,2,65,2|2|2,0:0|0:0|0:0,0:0:0:0:
352,176,12659,2,0,L|287:170,1,65,2|0,0:0|0:0,0:0:0:0:
224,113,13181,2,0,L|159:118,1,65,2|0,0:0|0:0,0:0:0:0:
97,176,13702,6,0,P|85:232|107:285,1,116.999996429443,2|0,3:2|0:0,0:0:0:0:
172,327,14094,1,2,3:0:0:0:
287,228,14355,2,0,L|287:169,2,58.4999982147217,8|8|0,1:2|1:2|3:0,0:0:0:0:
313,299,14746,2,0,P|369:310|422:288,1,116.999996429443,2|0,3:2|0:0,0:0:0:0:
464,224,15138,1,2,1:3:0:0:
464,224,15659,6,0,P|459:165|453:107,1,116.999996429443,4|0,1:1|3:0,0:0:0:0:
410,44,16050,2,0,L|351:49,1,58.4999982147217,8|0,1:0|0:0,0:0:0:0:
281,78,16311,2,0,L|222:73,1,58.4999982147217,0|2,3:0|3:1,0:0:0:0:
152,44,16572,1,8,1:2:0:0:
16,113,16833,6,0,L|21:172,1,58.4999982147217,0|2,3:0|0:1,0:0:0:0:
64,233,17094,2,0,L|123:238,1,58.4999982147217,8|2,1:1|0:1,0:0:0:0:
166,299,17355,2,0,L|171:358,2,58.4999982147217,0|0|8,3:0|3:0|1:2,0:0:0:0:
198,229,17746,6,0,P|252:213|307:230,1,116.999996429443,4|0,3:1|3:0,0:0:0:0:
340,300,18137,2,0,L|334:358,1,58.4999982147217,8|0,1:0|0:0,0:0:0:0:
411,364,18398,2,0,L|416:305,1,58.4999982147217,0|2,3:0|3:1,0:0:0:0:
384,236,18659,1,8,1:2:0:0:
466,107,18920,5,8,1:2:0:0:
424,43,19050,2,0,P|365:38|307:32,2,116.999996429443,0|0|0,3:0|3:0|3:0,0:0:0:0:
284,104,19833,6,0,P|226:106|179:139,1,116.999996429443,4|0,1:0|3:0,0:0:0:0:
156,211,20224,2,0,L|161:269,1,58.4999982147217,8|0,1:2|0:0,0:0:0:0:
116,331,20485,2,0,L|58:336,1,58.4999982147217,0|2,3:0|3:1,0:0:0:0:
1,284,20746,1,8,1:0:0:0:
28,135,21007,6,0,L|30:76,1,58.4999982147217,0|2,3:0|0:1,0:0:0:0:
105,78,21268,2,0,L|102:136,1,58.4999982147217,8|2,1:0|0:1,0:0:0:0:
179,138,21529,2,0,L|181:79,2,58.4999982147217,0|0|8,3:0|3:0|1:2,0:0:0:0:
230,194,21920,6,0,P|288:192|335:159,1,116.999996429443,4|0,3:1|3:0,0:0:0:0:
396,113,22311,2,0,L|454:108,1,58.4999982147217,8|0,1:0|0:0,0:0:0:0:
507,162,22572,2,0,L|512:220,1,58.4999982147217,0|2,3:0|3:1,0:0:0:0:
473,286,22833,1,8,1:2:0:0:
340,217,23094,6,0,L|335:159,1,58.4999982147217,8|2,1:2|3:1,0:0:0:0:
473,286,23485,2,0,L|478:344,1,58.4999982147217,8|2,1:2|3:1,0:0:0:0:
335,159,23876,2,0,L|393:164,1,58.4999982147217,8|2,1:2|3:1,0:0:0:0:
478,344,24268,2,0,L|420:339,1,58.4999982147217,8|2,1:2|3:1,0:0:0:0:
231,292,24659,5,8,1:0:0:0:
187,229,24789,1,8,1:0:0:0:
143,166,24920,1,8,1:0:0:0:
176,96,25050,6,0,L|292:85,1,116.999996429443,4|0,3:1|3:0,0:0:0:0:
354,41,25442,2,0,L|412:36,2,58.4999982147217,8|0|0,1:2|0:0|3:0,0:0:0:0:
286,9,25833,2,0,L|228:14,1,58.4999982147217,0|8,3:0|1:2,0:0:0:0:
151,21,26094,6,0,P|94:18|45:48,1,116.999996429443,0|0,3:0|3:0,0:0:0:0:
26,122,26485,2,0,L|31:180,1,58.4999982147217,8|0,1:2|0:0,0:0:0:0:
97,228,26746,1,0,3:0:0:0:
97,228,26876,2,0,L|92:286,1,58.4999982147217,0|8,3:0|1:0,0:0:0:0:
33,335,27137,6,0,P|89:324|142:346,1,116.999996429443,4|0,3:2|0:0,0:0:0:0:
211,379,27529,2,0,L|269:384,2,58.4999982147217,8|0|0,1:2|3:0|3:0,0:0:0:0:
204,303,27920,2,0,L|199:245,1,58.4999982147217,0|8,3:0|1:0,0:0:0:0:
191,168,28181,6,0,P|250:173|308:179,1,116.999996429443,0|0,3:0|3:0,0:0:0:0:
299,101,28572,2,0,L|294:43,1,58.4999982147217,8|0,1:2|0:0,0:0:0:0:
371,37,28833,1,0,3:0:0:0:
371,37,28963,2,0,L|377:95,1,58.4999982147217,0|0,3:0|3:0,0:0:0:0:
385,172,29224,6,0,P|442:168|492:198,1,116.999996429443,4|0,3:1|0:0,0:0:0:0:
498,275,29615,2,0,L|440:281,1,58.4999982147217,8|0,1:2|0:0,0:0:0:0:
446,358,29876,2,0,L|504:353,2,58.4999982147217,0|0|8,3:0|3:0|1:0,0:0:0:0:
368,364,30268,6,0,P|310:367|260:337,1,116.999996429443,0|0,0:0|3:0,0:0:0:0:
255,261,30659,2,0,L|313:255,1,58.4999982147217,8|0,1:2|0:0,0:0:0:0:
307,178,30920,2,0,L|249:183,2,58.4999982147217,0|0|8,3:0|3:0|1:2,0:0:0:0:
341,108,31311,6,0,P|291:78|233:81,1,116.999996429443,4|0,3:2|3:0,0:0:0:0:
185,140,31702,2,0,L|126:134,1,58.4999982147217,8|0,1:0|0:0,0:0:0:0:
83,72,31963,2,0,L|77:13,2,58.4999982147217,0|0|8,3:0|3:0|1:0,0:0:0:0:
50,141,32355,6,0,P|27:194|38:250,1,116.999996429443,0|0,0:0|3:0,0:0:0:0:
112,269,32746,2,0,L|171:275,1,58.4999982147217,8|0,1:2|3:0,0:0:0:0:
229,324,33007,1,8,1:2:0:0:
277,265,33137,1,8,0:2:0:0:
277,265,33398,6,0,P|330:287|386:276,1,116.999996429443,4|0,3:1|0:0,0:0:0:0:
429,212,33789,2,0,L|435:154,1,58.4999982147217,8|0,1:2|0:0,0:0:0:0:
512,160,34050,2,0,L|507:218,2,58.4999982147217,0|0|8,3:0|3:0|1:2,0:0:0:0:
478,90,34442,6,0,P|429:59|371:60,1,116.999996429443,0|0,3:0|3:0,0:0:0:0:
312,108,34833,2,0,L|254:114,1,58.4999982147217,8|0,1:2|0:0,0:0:0:0:
260,191,35094,2,0,L|318:186,1,58.4999982147217,0|0,3:0|3:0,0:0:0:0:
324,263,35355,2,0,L|266:268,1,58.4999982147217,12|0,1:2|3:0,0:0:0:0:
190,278,35615,6,0,L|194:336,1,58.4999982147217
128,374,35876,2,0,L|70:368,1,58.4999982147217,12|0,1:2|0:0,0:0:0:0:
57,293,36137,2,0,L|-1:299,2,58.4999982147217,0|0|8,3:0|3:0|1:1,0:0:0:0:
117,245,36529,6,0,P|112:186|106:128,1,116.999996429443,4|0,3:1|0:0,0:0:0:0:
134,57,36920,2,0,L|192:63,1,58.4999982147217,8|0,1:0|3:0,0:0:0:0:
254,114,37181,1,0,0:0:0:0:
254,114,37311,2,0,L|312:108,1,58.4999982147217,8|4,3:3|3:3,0:0:0:0:
371,59,37572,6,0,P|424:37|481:47,1,116.999996429443,4|0,1:1|0:0,0:0:0:0:
512,118,37963,2,0,L|506:176,1,58.4999982147217,8|0,1:0|0:0,0:0:0:0:
447,225,38224,2,0,L|389:219,2,58.4999982147217,0|0|8,3:0|3:0|1:2,0:0:0:0:
434,300,38615,6,0,L|317:289,1,116.999996429443,0|0,3:0|3:0,0:0:0:0:
262,236,39007,2,0,L|204:242,1,58.4999982147217,8|0,1:0|0:0,0:0:0:0:
155,301,39268,2,0,L|161:359,2,58.4999982147217,0|0|8,3:0|3:0|1:0,0:0:0:0:
96,253,39659,6,0,P|64:204|65:147,1,116.999996429443,4|0,3:2|0:0,0:0:0:0:
139,132,40050,2,0,L|197:126,1,58.4999982147217,8|0,1:0|0:0,0:0:0:0:
191,49,40311,2,0,L|133:54,2,58.4999982147217,0|0|8,3:0|3:0|0:2,0:0:0:0:
260,82,40702,6,0,P|318:86|376:92,1,116.999996429443,0|0,3:0|3:0,0:0:0:0:
387,168,41094,2,0,L|393:226,1,58.4999982147217,8|0,1:0|3:0,0:0:0:0:
392,302,41355,1,8,1:2:0:0:
327,264,41485,1,8,1:2:0:0:
327,264,41876,6,0,P|256:236|185:263,1,156,4|0,3:1|3:0,0:0:0:0:
121,301,42398,2,0,L|43:307,2,78,4|0|0,1:2|3:0|3:0,0:0:0:0:
185,263,42920,6,0,P|212:192|185:121,1,156,2|0,3:2|3:0,0:0:0:0:
120,82,43442,2,0,L|42:75,2,78,12|0|0,1:2|3:0|3:0,0:0:0:0:
184,120,43963,6,0,P|255:148|326:121,1,156,2|0,1:2|3:0,0:0:0:0:
390,83,44485,2,0,L|467:76,2,78,4|0|0,1:2|3:0|3:0,0:0:0:0:
326,121,45007,6,0,P|299:192|326:263,1,156,2|0,3:2|3:0,0:0:0:0:
391,302,45529,2,0,L|468:308,2,78,4|0|0,1:2|3:0|3:0,0:0:0:0:
326,263,46050,6,0,P|353:191|326:120,1,156,4|0,1:0|3:0,0:0:0:0:
390,83,46572,2,0,L|467:89,2,78,4|0|0,1:2|3:0|3:0,0:0:0:0:
326,120,47094,6,0,P|254:92|183:120,1,156,2|0,3:2|3:0,0:0:0:0:
120,82,47615,2,0,L|42:88,2,78,4|0|0,1:2|3:0|3:0,0:0:0:0:
183,119,48137,6,0,P|156:190|183:261,1,156,0|0,1:0|3:0,0:0:0:0:
121,301,48659,2,0,L|43:294,2,78,4|0|0,1:2|3:0|0:0,0:0:0:0:
183,261,49181,6,0,P|254:289|325:262,1,156,2|0,3:2|3:0,0:0:0:0:
391,302,49702,2,0,L|468:295,2,78,4|2|2,1:2|3:3|3:3,0:0:0:0:
351,368,50224,6,0,P|292:372|234:378,1,116.999996429443,4|8,1:1|1:2,0:0:0:0:
158,368,50615,1,0,3:0:0:0:
158,368,50746,2,0,L|99:362,2,58.4999982147217,8|0|8,1:2|3:0|1:2,0:0:0:0:
204,307,51137,1,0,3:0:0:0:
204,307,51268,6,0,P|205:248|204:190,1,116.999996429443,8|8,1:0|1:0,0:0:0:0:
166,125,51659,1,0,3:0:0:0:
166,125,51789,2,0,L|107:131,2,58.4999982147217,8|0|8,1:0|3:0|1:0,0:0:0:0:
246,125,52181,1,4,3:2:0:0:
246,125,52311,6,0,L|305:131,1,58.4999982147217,8|0,1:2|3:0,0:0:0:0:
334,201,52572,2,0,L|391:186,1,58.4999982147217,8|0,1:2|3:0,0:0:0:0:
442,242,52833,2,0,L|491:208,1,58.4999982147217,8|0,1:2|3:0,0:0:0:0:
497,132,53094,1,8,1:2:0:0:
473,59,53224,1,12,1:2:0:0:
473,59,53615,6,0,P|430:30|379:33,2,104,2|2|2,0:0|0:0|0:0,0:0:0:0:
490,208,54398,2,0,L|480:311,1,104,0|0,0:0|0:0,0:0:0:0:
339,365,54920,6,0,L|280:360,1,58.4999982147217,2|0,0:0|0:0,0:0:0:0:
210,331,55181,2,0,L|151:336,1,58.4999982147217,0|0,0:0|0:0,0:0:0:0:
81,365,55442,6,0,P|43:313|50:250,1,130,4|0,3:1|3:0,0:0:0:0:
112,192,55833,2,0,P|176:198|241:203,1,130,10|8,1:2|1:2,0:0:0:0:
276,280,56224,1,2,3:1:0:0:
361,287,56355,1,8,1:2:0:0:
409,218,56485,6,0,P|437:161|418:100,1,130,2|0,3:2|3:0,0:0:0:0:
348,53,56876,2,0,P|283:48|218:41,1,130,10|8,1:1|1:2,0:0:0:0:
138,11,57268,2,0,L|73:16,1,65,2|8,3:2|1:2,0:0:0:0:
23,85,57529,6,0,P|4:145|32:202,2,130,6|0|0,3:1|3:0|3:0,0:0:0:0:
87,139,58181,1,8,1:2:0:0:
165,107,58311,2,0,L|170:171,1,65,2|8,3:2|1:2,0:0:0:0:
209,247,58572,6,0,P|269:266|326:238,1,130,2|0,3:1|3:0,0:0:0:0:
351,156,58963,1,8,1:2:0:0:
409,218,59094,2,0,L|473:223,1,65,2|8,3:1|1:2,0:0:0:0:
510,299,59355,2,0,L|505:363,1,65,2|8,3:1|1:0,0:0:0:0:
423,343,59615,6,0,P|363:324|306:352,1,130,4|0,3:2|3:0,0:0:0:0:
223,376,60007,2,0,P|158:369|93:364,1,130,10|8,1:2|1:2,0:0:0:0:
38,299,60398,2,0,L|43:235,1,65,2|8,3:2|1:2,0:0:0:0:
3,159,60659,6,0,P|0:96|41:48,1,130,2|0,3:2|3:0,0:0:0:0:
115,91,61050,2,0,P|122:156|127:221,1,130,10|8,1:2|1:2,0:0:0:0:
209,234,61442,2,0,L|273:239,1,65,2|8,3:2|1:2,0:0:0:0:
320,312,61702,5,4,3:1:0:0:
320,312,61963,2,0,P|362:358|424:363,2,130,0|0|0,3:0|3:0|3:0,0:0:0:0:
399,283,62615,1,0,3:2:0:0:
450,215,62746,6,0,P|445:150|438:85,1,130,0|0,3:0|3:0,0:0:0:0:
378,26,63137,1,0,3:2:0:0:
310,77,63268,2,0,L|245:71,1,65,0|0,3:1|3:0,0:0:0:0:
173,26,63529,2,0,L|108:31,1,65,8|4,3:3|3:0,0:0:0:0:
49,91,63789,6,0,P|55:149|59:207,1,116.999996429443,6|0,1:1|3:0,0:0:0:0:
169,313,64311,2,0,P|164:254|158:196,1,116.999996429443,2|0,1:0|3:0,0:0:0:0:
245,71,64833,2,0,P|251:129|255:187,1,116.999996429443,2|0,1:0|3:0,0:0:0:0:
365,293,65355,2,0,L|370:234,1,58.4999982147217,2|0,1:0|3:0,0:0:0:0:
411,171,65615,2,0,L|416:112,1,58.4999982147217,0|0,3:0|3:0,0:0:0:0:
361,60,65876,6,0,P|302:66|244:70,1,116.999996429443,4|0,1:2|3:0,0:0:0:0:
124,165,66398,2,0,P|182:160|240:154,1,116.999996429443,2|0,1:0|3:0,0:0:0:0:
370,234,66920,2,0,P|311:240|253:244,1,116.999996429443,4|0,1:2|3:0,0:0:0:0:
133,339,67442,2,0,L|191:344,1,58.4999982147217,2|0,1:0|3:0,0:0:0:0:
258,379,67702,2,0,L|316:384,1,58.4999982147217,0|0,1:0|3:0,0:0:0:0:
400,376,67963,6,0,L|405:311,1,65,4|0,1:1|3:0,0:0:0:0:
370,234,68224,2,0,L|375:169,1,65,8|0,1:2|3:0,0:0:0:0:
340,92,68485,2,0,L|345:27,1,65,8|0,1:2|3:0,0:0:0:0:
260,20,68746,1,6,1:2:0:0:
175,13,68876,1,0,3:0:0:0:
168,98,69007,6,0,L|162:162,1,65,6|0,1:0|3:0,0:0:0:0:
79,183,69268,2,0,L|14:188,1,65,8|0,1:2|3:0,0:0:0:0:
14,272,69529,2,0,L|78:277,1,65,10|0,1:2|3:0,0:0:0:0:
162,297,69790,2,0,L|167:361,1,65,10|0,1:2|3:0,0:0:0:0:
250,380,70050,6,0,L|314:374,1,65,4|0,1:2|3:0,0:0:0:0:
316,289,70311,2,0,L|251:283,1,65,8|2,1:2|3:1,0:0:0:0:
250,198,70572,2,0,L|315:192,1,65,8|0,1:2|3:0,0:0:0:0:
316,107,70833,2,0,L|251:101,1,65,10|0,1:2|3:0,0:0:0:0:
168,98,71094,6,0,L|162:33,1,65,12|0,1:1|3:0,0:0:0:0:
78,33,71355,2,0,L|72:97,1,65,8|0,1:2|3:0,0:0:0:0:
120,167,71615,1,10,1:1:0:0:
120,251,71746,1,2,1:1:0:0:
120,251,72137,6,0,P|122:314|167:359,1,130,4|0,3:1|3:0,0:0:0:0:
250,380,72529,2,0,P|314:373|379:368,1,130,10|8,1:2|1:2,0:0:0:0:
443,312,72920,1,2,3:1:0:0:
389,247,73050,1,8,1:2:0:0:
454,192,73181,6,0,P|476:132|452:73,1,130,2|0,3:2|3:0,0:0:0:0:
393,135,73572,2,0,P|334:158|274:136,1,130,10|8,1:1|1:2,0:0:0:0:
189,129,73963,2,0,L|183:193,1,65,2|8,3:2|1:2,0:0:0:0:
119,251,74224,6,0,P|60:273|1:248,2,130,6|0|0,3:1|3:0|3:0,0:0:0:0:
62,190,74876,1,8,1:2:0:0:
5,129,75007,2,0,L|11:65,1,65,2|8,3:2|1:2,0:0:0:0:
87,27,75268,6,0,P|149:14|204:46,1,130,2|0,3:1|3:0,0:0:0:0:
289,53,75658,1,8,1:2:0:0:
372,38,75789,2,0,L|436:44,1,65,2|8,3:1|1:2,0:0:0:0:
460,127,76050,2,0,L|454:191,1,65,2|8,3:1|1:0,0:0:0:0:
415,269,76311,6,0,P|351:262|286:257,1,130,4|0,3:2|3:0,0:0:0:0:
225,198,76702,2,0,P|161:203|118:250,1,130,10|8,1:2|1:2,0:0:0:0:
120,336,77094,1,2,3:2:0:0:
193,379,77224,1,8,1:2:0:0:
267,338,77355,6,0,P|331:342|396:350,1,130,2|0,3:2|3:0,0:0:0:0:
477,325,77746,2,0,P|496:264|471:206,1,130,10|8,1:2|1:2,0:0:0:0:
388,187,78137,2,0,L|382:123,1,65,2|8,3:2|1:2,0:0:0:0:
321,63,78398,5,4,3:1:0:0:
321,63,78659,2,0,P|257:61|210:104,2,130,0|0|0,3:0|3:0|3:0,0:0:0:0:
287,141,79311,1,0,3:2:0:0:
303,224,79442,6,0,P|260:271|197:276,1,130,2|0,3:2|3:0,0:0:0:0:
141,212,79833,1,0,3:2:0:0:
58,227,79963,2,0,L|52:163,1,65,2|0,3:2|3:0,0:0:0:0:
5,91,80224,2,0,L|11:27,1,65,8|4,3:3|3:3,0:0:0:0:
92,55,80485,6,0,P|144:75|200:63,1,116.999996429443,6|0,1:1|3:0,0:0:0:0:
350,25,81007,2,0,P|406:12|459:32,1,116.999996429443,2|0,1:0|3:0,0:0:0:0:
449,185,81529,2,0,P|393:198|340:178,1,116.999996429443,2|0,1:0|3:0,0:0:0:0:
190,213,82050,2,0,L|131:219,1,58.4999982147217,2|0,1:0|3:0,0:0:0:0:
68,260,82311,2,0,L|9:265,1,58.4999982147217,0|0,3:0|3:0,0:0:0:0:
0,341,82572,6,0,P|58:345|116:351,1,116.999996429443,4|0,1:2|3:0,0:0:0:0:
268,333,83094,2,0,P|326:326|384:322,1,116.999996429443,2|0,1:0|3:0,0:0:0:0:
449,185,83615,2,0,P|393:198|340:178,1,116.999996429443,4|0,1:2|3:0,0:0:0:0:
190,138,84137,2,0,L|131:132,1,58.4999982147217,2|0,1:0|3:0,0:0:0:0:
63,95,84398,2,0,L|4:90,1,58.4999982147217,0|0,1:0|3:0,0:0:0:0:
9,12,84659,6,0,L|73:17,1,65,4|0,1:1|3:0,0:0:0:0:
151,51,84920,2,0,L|215:56,1,65,8|0,1:2|3:0,0:0:0:0:
293,90,85181,2,0,L|357:95,1,65,8|0,1:2|3:0,0:0:0:0:
442,103,85442,1,6,1:2:0:0:
406,26,85572,1,0,3:0:0:0:
357,95,85702,6,0,L|352:159,1,65,6|0,1:0|3:0,0:0:0:0:
302,228,85963,2,0,L|238:233,1,65,8|0,1:2|3:0,0:0:0:0:
154,214,86224,2,0,L|90:209,1,65,10|0,1:2|3:0,0:0:0:0:
39,277,86485,2,0,L|44:341,1,65,10|0,1:2|3:0,0:0:0:0:
126,360,86746,6,0,L|131:296,1,65,4|0,1:2|3:0,0:0:0:0:
154,214,87007,2,0,L|159:150,1,65,8|2,1:2|3:1,0:0:0:0:
242,169,87268,2,0,L|237:233,1,65,8|0,1:2|3:0,0:0:0:0:
214,315,87529,2,0,L|209:379,1,65,10|0,1:2|3:0,0:0:0:0:
293,372,87789,6,0,L|357:367,1,65,12|0,1:1|3:0,0:0:0:0:
384,286,88050,2,0,L|448:281,1,65,8|0,1:2|3:0,0:0:0:0:
475,200,88311,1,10,1:1:0:0:
448,120,88442,1,2,1:1:0:0:
448,120,88702,6,0,P|389:115|331:109,1,116.999996429443,4|0,1:1|3:0,0:0:0:0:
255,94,89094,2,0,L|250:35,1,58.4999982147217,8|0,1:0|0:0,0:0:0:0:
173,20,89355,2,0,L|114:25,1,58.4999982147217,0|2,3:0|3:1,0:0:0:0:
50,64,89615,1,8,1:2:0:0:
95,209,89876,6,0,L|154:214,1,58.4999982147217,0|2,3:0|0:1,0:0:0:0:
209,265,90137,2,0,L|268:260,1,58.4999982147217,8|2,1:1|0:1,0:0:0:0:
322,209,90398,2,0,L|381:214,2,58.4999982147217,0|0|8,3:0|3:0|1:2,0:0:0:0:
267,260,90789,6,0,P|256:316|278:369,1,116.999996429443,4|0,3:1|3:0,0:0:0:0:
354,378,91181,2,0,L|413:373,1,58.4999982147217,8|0,1:0|0:0,0:0:0:0:
444,303,91442,2,0,L|449:244,1,58.4999982147217,0|2,3:0|3:1,0:0:0:0:
442,169,91702,1,8,1:2:0:0:
316,82,91963,5,8,1:2:0:0:
255,128,92094,2,0,P|196:122|138:118,2,116.999996429443,0|0|0,3:0|3:0|3:0,0:0:0:0:
189,265,92876,6,0,P|131:272|79:246,1,116.999996429443,4|0,1:0|3:0,0:0:0:0:
29,188,93268,2,0,L|24:129,1,58.4999982147217,8|0,1:2|0:0,0:0:0:0:
47,56,93529,2,0,L|106:51,1,58.4999982147217,0|2,3:0|3:1,0:0:0:0:
167,7,93789,1,8,1:0:0:0:
255,128,94050,6,0,L|249:186,1,58.4999982147217,0|2,3:0|0:1,0:0:0:0:
326,192,94311,2,0,L|331:133,1,58.4999982147217,8|2,1:0|0:1,0:0:0:0:
406,138,94572,2,0,L|401:197,2,58.4999982147217,0|0|8,3:0|3:0|1:2,0:0:0:0:
481,143,94963,6,0,L|470:259,1,116.999996429443,4|0,3:1|3:0,0:0:0:0:
394,272,95355,2,0,L|335:267,1,58.4999982147217,8|0,1:0|0:0,0:0:0:0:
275,313,95615,2,0,L|216:318,1,58.4999982147217,0|2,3:0|3:1,0:0:0:0:
156,363,95876,1,8,1:2:0:0:
117,215,96137,6,0,L|58:209,1,58.4999982147217,12|2,1:2|3:1,0:0:0:0:
225,107,96529,2,0,L|283:101,1,58.4999982147217,12|2,1:2|3:1,0:0:0:0:
218,273,96920,2,0,L|224:215,1,58.4999982147217,4|2,1:2|3:1,0:0:0:0:
111,48,97311,2,0,L|117:107,1,58.4999982147217,4|2,1:2|3:1,0:0:0:0:
27,282,97702,5,4,1:2:0:0:
27,282,97833,1,8,1:0:0:0:
84,339,97963,1,8,1:0:0:0:
84,339,98094,1,4,1:2:0:0:
