osu file format v14

[General]
AudioFilename: audio.mp3
AudioLeadIn: 0
PreviewTime: 53550
Countdown: 0
SampleSet: Soft
StackLeniency: 0.7
Mode: 2
LetterboxInBreaks: 0
WidescreenStoryboard: 1

[Editor]
DistanceSpacing: 2
BeatDivisor: 4
GridSize: 32
TimelineZoom: 2.6

[Metadata]
Title:Yakata Mawari
TitleUnicode:Yakata Mawari
Artist:Denkishiki Karen Ongaku Shuudan
ArtistUnicode:Denkishiki Karen Ongaku Shuudan
Creator:AJamez
Version:Salad
Source:死に逝く君、館に芽吹く憎悪
Tags:chatie jeiryagtama -luminate hareimu denkare shini yuku kimi yakata ni mebuku zouo galgame eroge visual novel opening short version bug system yf_bmp
BeatmapID:1937465
BeatmapSetID:921491

[Difficulty]
HPDrainRate:4
CircleSize:3
OverallDifficulty:7.2
ApproachRate:7.2
SliderMultiplier:1.3
SliderTickRate:1

[Events]
//Background and Video events
0,0,"BG.jpg",0,0
//Break Periods
//Storyboard Layer 0 (Background)
//Storyboard Layer 1 (Fail)
//Storyboard Layer 2 (Pass)
//Storyboard Layer 3 (Foreground)
//Storyboard Sound Samples

[TimingPoints]
11616,260.869565217391,4,2,1,40,1,0
11616,-100,4,2,1,40,0,0
12072,-100,4,2,1,5,0,0
12137,-100,4,2,1,40,0,0
12333,-100,4,2,1,5,0,0
12398,-100,4,2,1,40,0,0
12594,-100,4,2,1,5,0,0
12659,-100,4,2,1,40,0,0
13050,-100,4,2,1,30,0,0
13181,-100,4,2,1,40,0,0
13572,-100,4,2,1,30,0,0
13702,-100,4,2,1,55,0,0
13768,-100,4,2,1,15,0,0
14094,-100,4,2,1,55,0,0
14159,-100,4,2,1,15,0,0
14355,-100,4,2,1,55,0,0
14811,-100,4,2,1,15,0,0
15137,-100,4,2,1,55,0,0
15202,-100,4,2,1,15,0,0
15659,-100,4,2,1,65,0,0
19181,-100,4,2,1,20,0,0
19311,-100,4,2,1,65,0,0
19442,-100,4,2,1,20,0,0
19572,-100,4,2,1,65,0,0
19702,-100,4,2,1,20,0,0
19833,-100,4,2,1,65,0,0
23094,-100,4,2,1,65,0,0
23485,-100,4,2,1,65,0,0
23876,-100,4,2,1,65,0,0
24268,-100,4,2,1,65,0,0
24659,-100,4,2,1,65,0,0
25050,-100,4,2,1,60,0,0
41876,-100,4,2,1,55,0,0
50224,-100,4,2,1,70,0,0
53615,-100,4,2,1,45,0,0
54398,-100,4,2,1,55,0,0
54920,-100,4,2,1,70,0,0
55442,-100,4,2,1,75,0,1
63789,-100,4,2,1,70,0,0
67963,-100,4,2,1,75,0,1
71746,-100,4,2,1,70,0,0
72137,-100,4,2,1,75,0,1
80485,-100,4,2,1,70,0,0
84659,-100,4,2,1,75,0,1
88702,-100,4,2,1,70,0,0
92224,-100,4,2,1,40,0,0
92355,-100,4,2,1,70,0,0
92485,-100,4,2,1,40,0,0
92615,-100,4,2,1,70,0,0
92746,-100,4,2,1,40,0,0
92876,-100,4,2,1,70,0,0
96137,-100,4,2,1,70,0,0
96529,-100,4,2,1,70,0,0
96920,-100,4,2,1,70,0,0
97311,-100,4,2,1,70,0,0
97702,-100,4,2,1,70,0,0

[Colours]
Combo1 : 89,247,255
Combo2 : 183,183,219
Combo3 : 255,170,255

[HitObjects]
256,192,11615,12,0,13442,0:0:0:0:
253,195,13702,5,2,3:2:0:0:
437,189,14094,1,2,3:0:0:0:
293,295,14355,1,8,1:2:0:0:
227,320,14485,2,0,L|95:346,1,130,8|2,1:2|3:2,0:0:0:0:
407,359,15137,1,2,1:3:0:0:
41,308,15659,6,0,L|181:345,1,130,4|0,1:1|3:0,0:0:0:0:
240,331,16050,1,8,1:0:0:0:
92,215,16311,1,0,3:0:0:0:
40,178,16441,1,2,3:1:0:0:
30,116,16571,1,8,1:2:0:0:
177,75,16833,5,0,3:0:0:0:
234,101,16963,1,2,0:1:0:0:
252,162,17094,2,0,L|130:230,1,130,8|0,1:1|3:0,0:0:0:0:
392,282,17615,1,8,1:2:0:0:
321,322,17746,6,0,L|185:362,1,130,4|0,3:1|3:0,0:0:0:0:
274,369,18137,1,8,1:0:0:0:
423,368,18398,1,0,3:0:0:0:
467,321,18528,1,2,3:1:0:0:
481,259,18658,1,8,1:2:0:0:
241,211,18920,6,0,L|231:132,1,65,8|0,1:2|3:0,0:0:0:0:
373,122,19311,2,0,P|415:97|453:19,1,130,0|0,3:0|3:0,0:0:0:0:
199,79,19833,6,0,L|189:226,1,130,4|0,1:0|3:0,0:0:0:0:
260,254,20224,1,8,1:2:0:0:
119,297,20485,1,0,3:0:0:0:
173,331,20615,1,2,3:1:0:0:
236,344,20745,1,8,1:0:0:0:
92,378,21007,5,0,3:0:0:0:
152,360,21137,1,2,0:1:0:0:
174,301,21268,2,0,L|57:225,1,130,8|0,1:0|3:0,0:0:0:0:
316,210,21789,1,8,1:2:0:0:
390,191,21920,6,0,P|395:133|358:57,1,130,4|0,3:1|3:0,0:0:0:0:
292,44,22311,2,0,P|243:34|145:41,1,130,8|0,1:0|3:0,0:0:0:0:
229,44,22702,1,2,3:1:0:0:
278,88,22832,1,8,1:2:0:0:
44,175,23094,6,0,L|49:240,1,65,8|2,1:2|3:1,0:0:0:0:
174,267,23485,2,0,L|181:333,1,65,8|2,1:2|3:1,0:0:0:0:
306,358,23876,2,0,L|377:365,1,65,8|2,1:2|3:1,0:0:0:0:
237,255,24268,6,0,L|159:269,1,65,8|2,1:2|3:1,0:0:0:0:
40,204,24659,2,0,L|28:140,2,65,8|8|8,1:0|1:0|1:0,0:0:0:0:
211,96,25050,5,4,3:1:0:0:
377,166,25442,2,0,L|392:246,1,65,8|0,1:2|0:0,0:0:0:0:
323,278,25702,2,0,L|188:304,1,130,0|8,3:0|1:2,0:0:0:0:
268,335,26094,1,0,3:0:0:0:
426,351,26355,2,0,L|492:369,2,65,0|8|0,3:0|1:2|0:0,0:0:0:0:
350,327,26746,2,0,P|325:258|379:246,1,130,0|8,3:0|1:0,0:0:0:0:
444,226,27137,6,0,L|452:88,1,130,4|0,3:2|0:0,0:0:0:0:
378,68,27529,1,8,1:2:0:0:
243,26,27789,1,0,3:0:0:0:
305,38,27919,1,0,3:0:0:0:
350,84,28049,1,8,1:0:0:0:
362,147,28180,5,0,3:0:0:0:
220,202,28442,1,0,3:0:0:0:
152,224,28572,2,0,P|114:244|65:333,1,130,8|0,1:2|3:0,0:0:0:0:
135,355,28963,1,0,3:0:0:0:
379,358,29224,6,0,L|371:224,1,130,4|0,3:1|0:0,0:0:0:0:
292,195,29615,2,0,P|254:169|222:93,1,130,8|0,1:2|3:0,0:0:0:0:
255,38,30006,1,0,3:0:0:0:
310,6,30136,1,8,1:0:0:0:
375,4,30267,1,0,0:0:0:0:
243,98,30529,1,0,3:0:0:0:
236,172,30659,6,0,L|91:184,1,130,8|0,1:2|3:0,0:0:0:0:
346,312,31181,1,8,1:2:0:0:
279,341,31311,2,0,L|131:362,1,130,4|0,3:2|3:0,0:0:0:0:
79,364,31702,1,8,1:0:0:0:
213,257,31963,6,0,L|289:239,2,65,0|0|8,3:0|3:0|1:0,0:0:0:0:
139,254,32355,2,0,P|75:229|51:149,1,130,0|0,0:0|3:0,0:0:0:0:
50,126,32746,1,8,1:2:0:0:
184,54,33007,2,0,L|94:46,1,65,8|8,1:2|0:2,0:0:0:0:
360,170,33398,6,0,P|407:178|457:260,1,130,4|0,3:1|0:0,0:0:0:0:
382,275,33789,2,0,P|327:289|285:373,1,130,8|0,1:2|3:0,0:0:0:0:
436,377,34311,1,8,1:2:0:0:
431,322,34442,2,0,P|380:293|284:273,1,130,0|0,3:0|3:0,0:0:0:0:
241,264,34833,1,8,1:2:0:0:
377,184,35094,2,0,P|448:162|481:102,1,130,0|12,3:0|1:2,0:0:0:0:
221,68,35615,5,0,0:0:0:0:
117,123,35876,2,0,P|76:169|75:255,1,130,12|0,1:2|3:0,0:0:0:0:
213,278,36398,1,8,1:1:0:0:
147,294,36529,2,0,L|17:329,1,130,4|0,3:1|0:0,0:0:0:0:
94,357,36920,2,0,L|234:370,1,130,8|0,1:0|0:0,0:0:0:0:
478,263,37442,5,4,3:3:0:0:
408,255,37572,2,0,P|350:221|315:141,1,130,4|0,1:1|0:0,0:0:0:0:
314,122,37963,1,8,1:0:0:0:
168,113,38224,1,0,3:0:0:0:
194,54,38354,1,0,3:0:0:0:
246,17,38484,1,0,0:0:0:0:
311,14,38615,5,0,3:0:0:0:
168,220,38876,1,0,3:0:0:0:
101,246,39007,2,0,P|62:262|38:362,1,130,8|0,1:0|3:0,0:0:0:0:
266,349,39529,1,8,1:0:0:0:
333,323,39659,2,0,L|348:182,1,130,4|0,3:2|0:0,0:0:0:0:
415,167,40050,1,8,1:0:0:0:
285,100,40311,5,0,3:0:0:0:
220,90,40441,1,0,3:0:0:0:
156,80,40571,1,0,0:0:0:0:
226,60,40702,2,0,L|366:36,1,130,0|0,3:0|3:0,0:0:0:0:
423,44,41094,1,8,1:0:0:0:
286,177,41355,2,0,L|199:197,1,65,8|8,1:2|1:2,0:0:0:0:
27,322,41876,6,0,L|175:346,1,130,4|0,3:1|0:0,0:0:0:0:
276,345,42398,2,0,L|294:235,2,97.5,4|0|0,1:2|3:0|3:0,0:0:0:0:
200,368,42920,2,0,P|133:340|90:297,1,130,2|0,3:2|0:0,0:0:0:0:
228,233,43442,2,0,L|341:208,2,97.5,12|0|0,1:2|3:0|3:0,0:0:0:0:
157,230,43963,5,2,1:2:0:0:
288,135,44224,1,0,0:0:0:0:
426,120,44485,2,0,L|450:14,2,97.5,4|0|0,1:2|3:0|3:0,0:0:0:0:
348,142,45007,2,0,P|307:160|276:256,1,130,2|0,3:2|0:0,0:0:0:0:
414,260,45529,2,0,P|459:280|479:376,1,130,4|0,1:2|0:0,0:0:0:0:
231,361,46050,6,0,L|222:222,1,130,4|0,1:0|0:0,0:0:0:0:
103,202,46572,2,0,L|97:96,2,97.5,4|0|0,1:2|3:0|3:0,0:0:0:0:
181,224,47094,2,0,P|229:246|256:327,1,130,2|0,3:2|0:0,0:0:0:0:
113,342,47615,2,0,L|17:295,2,97.5,4|0|0,1:2|3:0|3:0,0:0:0:0:
195,358,48137,6,0,L|334:368,1,130,0|0,1:0|0:0,0:0:0:0:
433,334,48659,1,4,1:2:0:0:
496,253,48855,1,0,3:0:0:0:
455,158,49050,1,0,0:0:0:0:
381,129,49181,2,0,L|250:108,1,130,2|0,3:2|0:0,0:0:0:0:
123,244,49702,2,0,L|263:228,1,130,4|0,1:2|0:0,0:0:0:0:
26,349,50224,6,0,L|158:356,1,130,4|8,1:1|1:2,0:0:0:0:
290,338,50746,2,0,P|306:269|290:182,1,130,8|8,1:2|1:2,0:0:0:0:
217,188,51137,2,0,L|206:101,1,65,0|8,3:0|1:0,0:0:0:0:
339,82,51529,1,8,1:0:0:0:
470,71,51789,2,0,L|477:-4,1,65,8|0,1:0|3:0,0:0:0:0:
217,188,52181,6,0,P|169:205|127:285,1,130,4|0,3:2|3:0,0:0:0:0:
203,298,52572,2,0,L|348:329,1,130,8|8,1:2|1:2,0:0:0:0:
266,352,52963,1,0,3:0:0:0:
30,365,53224,1,12,1:2:0:0:
256,192,53615,12,2,54920,0:0:0:0:
94,191,55442,6,0,P|43:140|45:73,1,130,4|0,3:1|3:0,0:0:0:0:
113,44,55833,2,0,L|267:20,1,130,10|8,1:2|1:2,0:0:0:0:
252,97,56224,1,2,3:1:0:0:
401,156,56485,2,0,L|388:288,1,130,2|0,3:2|3:0,0:0:0:0:
308,316,56876,2,0,L|168:356,1,130,10|8,1:1|1:2,0:0:0:0:
252,370,57268,1,2,3:2:0:0:
485,312,57529,6,0,P|455:274|372:254,1,130,6|0,3:1|3:0,0:0:0:0:
303,262,57920,1,8,1:2:0:0:
430,170,58181,2,0,L|355:152,1,65,8|2,1:2|3:2,0:0:0:0:
212,81,58572,2,0,L|337:28,3,130,2|0|2|2,3:1|3:0|3:1|3:1,0:0:0:0:
58,45,59615,6,0,L|46:198,1,130,4|0,3:2|3:0,0:0:0:0:
136,202,60007,2,0,L|152:336,1,130,10|8,1:2|1:2,0:0:0:0:
237,358,60398,2,0,L|320:368,1,65,2|8,3:2|1:2,0:0:0:0:
296,282,60659,2,0,L|149:264,1,130,2|0,3:2|3:0,0:0:0:0:
161,180,61050,2,0,L|22:172,1,130,10|8,1:2|1:2,0:0:0:0:
100,126,61442,1,2,3:2:0:0:
330,80,61702,6,0,L|202:31,3,130,4|2|0|0,3:1|3:2|3:0|3:0,0:0:0:0:
355,173,62746,2,0,P|412:181|473:259,1,130,0|0,3:0|3:0,0:0:0:0:
312,295,63268,2,0,L|168:324,1,130,0|8,3:1|3:3,0:0:0:0:
434,364,63789,6,0,P|468:334|446:237,1,130,6|0,1:1|3:0,0:0:0:0:
325,215,64311,2,0,L|312:75,1,130,2|0,1:0|3:0,0:0:0:0:
163,31,64833,2,0,L|307:-5,1,130,2|0,1:0|3:0,0:0:0:0:
140,138,65355,2,0,P|90:151|34:219,1,130,2|0,1:0|3:0,0:0:0:0:
278,341,65876,6,0,L|288:204,1,130,4|0,1:2|3:0,0:0:0:0:
431,180,66398,2,0,L|410:38,1,130,2|0,1:0|3:0,0:0:0:0:
270,29,66920,2,0,L|129:19,1,130,4|0,1:2|3:0,0:0:0:0:
286,182,67442,2,0,L|443:154,1,130,2|0,1:0|1:0,0:0:0:0:
173,349,67963,5,4,1:1:0:0:
61,289,68223,1,8,1:2:0:0:
33,166,68484,1,8,1:2:0:0:
106,63,68745,1,6,1:2:0:0:
243,40,69007,2,0,L|392:50,1,130,6|8,1:0|1:2,0:0:0:0:
230,161,69529,2,0,L|83:191,1,130,10|10,1:2|1:2,0:0:0:0:
347,254,70050,6,0,P|397:253|474:318,1,130,4|8,1:2|1:2,0:0:0:0:
392,350,70442,2,0,L|255:365,1,130,2|0,3:1|3:0,0:0:0:0:
254,317,70833,1,10,1:2:0:0:
102,267,71094,2,0,P|115:218|166:158,1,130,12|8,1:1|1:2,0:0:0:0:
412,125,71615,2,0,L|418:40,1,65,10|2,1:1|1:1,0:0:0:0:
135,53,72137,6,0,P|77:69|37:146,1,130,4|0,3:1|3:0,0:0:0:0:
118,153,72529,2,0,P|157:172|198:246,1,130,10|8,1:2|1:2,0:0:0:0:
118,277,72920,2,0,L|115:351,1,65,2|8,3:1|1:2,0:0:0:0:
203,355,73181,2,0,L|358:230,2,195,2|10|2,3:2|1:1|3:2,0:0:0:0:
337,356,74224,6,0,P|403:349|465:286,1,130,6|0,3:1|3:0,0:0:0:0:
292,248,74746,2,0,P|299:205|359:139,1,130,0|2,3:0|3:2,0:0:0:0:
433,127,75137,1,8,1:2:0:0:
349,62,75268,2,0,L|206:55,1,130,2|0,3:1|3:0,0:0:0:0:
84,170,75789,2,0,L|221:178,1,130,2|2,3:1|3:1,0:0:0:0:
470,351,76311,6,0,L|457:198,1,130,4|0,3:2|3:0,0:0:0:0:
377,204,76702,2,0,L|350:73,1,130,10|8,1:2|1:2,0:0:0:0:
274,38,77094,2,0,L|182:20,1,65,2|8,3:2|1:2,0:0:0:0:
128,34,77355,2,0,L|343:12,1,195,2|0,3:2|0:0,0:0:0:0:
130,186,78137,1,2,3:2:0:0:
350,336,78398,6,0,L|220:359,1,130,4|0,3:1|3:0,0:0:0:0:
86,349,78920,2,0,P|46:323|51:235,1,130,0|0,3:0|3:0,0:0:0:0:
189,218,79442,2,0,P|253:193|267:119,1,130,2|0,3:2|3:0,0:0:0:0:
425,112,79963,1,2,3:2:0:0:
391,57,80093,1,0,3:0:0:0:
333,29,80223,1,8,3:3:0:0:
95,54,80485,6,0,P|52:81|90:215,1,195,6|0,1:1|3:0,0:0:0:0:
153,227,81007,2,0,P|200:242|256:315,1,130,2|0,1:0|3:0,0:0:0:0:
97,367,81529,2,0,L|90:231,1,130,2|0,1:0|3:0,0:0:0:0:
241,148,82050,2,0,L|110:122,1,130,2|0,1:0|3:0,0:0:0:0:
356,53,82572,6,0,P|397:63|440:193,1,195,4|0,1:2|3:0,0:0:0:0:
361,222,83094,2,0,P|338:247|326:349,1,130,2|0,1:0|3:0,0:0:0:0:
475,362,83615,2,0,P|438:312|356:291,1,130,4|0,1:2|3:0,0:0:0:0:
231,236,84137,1,2,1:0:0:0:
372,188,84398,1,0,1:0:0:0:
125,161,84659,6,0,P|68:136|37:73,1,130,4|8,1:1|1:2,0:0:0:0:
195,42,85181,2,0,L|332:26,1,130,8|6,1:2|1:2,0:0:0:0:
259,82,85572,1,0,3:0:0:0:
189,133,85702,2,0,P|139:156|67:228,1,130,6|8,1:0|1:2,0:0:0:0:
234,255,86224,2,0,P|275:264|365:326,1,130,10|10,1:2|1:2,0:0:0:0:
108,370,86746,6,0,L|96:240,1,130,4|8,1:2|1:2,0:0:0:0:
173,196,87137,2,0,L|199:64,1,130,2|0,3:1|3:0,0:0:0:0:
276,39,87529,2,0,L|346:19,1,65,10|0,1:2|3:0,0:0:0:0:
419,82,87789,2,0,L|272:126,1,130,12|8,1:1|1:2,0:0:0:0:
56,204,88311,2,0,L|49:278,1,65,10|2,1:1|1:1,0:0:0:0:
290,331,88702,6,0,L|427:347,1,130,4|0,1:1|3:0,0:0:0:0:
421,262,89094,1,8,1:0:0:0:
272,210,89355,1,0,3:0:0:0:
212,188,89485,1,2,3:1:0:0:
179,133,89615,5,8,1:2:0:0:
39,90,89876,1,0,3:0:0:0:
79,40,90006,1,2,0:1:0:0:
140,19,90137,2,0,L|212:135,1,130,8|0,1:1|3:0,0:0:0:0:
459,258,90659,5,8,1:2:0:0:
392,293,90789,2,0,L|239:315,1,130,4|0,3:1|3:0,0:0:0:0:
190,341,91181,1,8,1:0:0:0:
336,206,91442,1,0,3:0:0:0:
393,176,91572,1,2,3:1:0:0:
442,134,91702,1,8,1:2:0:0:
192,89,91963,5,8,1:2:0:0:
122,101,92094,2,0,L|17:205,2,130,0|0|0,3:0|3:0|3:0,0:0:0:0:
376,324,92876,6,0,L|248:359,1,130,4|0,1:0|3:0,0:0:0:0:
166,357,93268,2,0,P|160:304|191:226,1,130,8|0,1:2|3:0,0:0:0:0:
262,199,93659,2,0,L|332:171,1,65,2|8,3:1|1:0,0:0:0:0:
170,108,94050,2,0,L|95:91,1,65,0|2,3:0|0:1,0:0:0:0:
170,32,94311,2,0,L|311:11,1,130,8|0,1:0|3:0,0:0:0:0:
44,171,94833,5,8,1:2:0:0:
114,228,94963,2,0,L|253:249,1,130,4|0,3:1|3:0,0:0:0:0:
248,323,95355,1,8,1:0:0:0:
393,358,95615,1,0,3:0:0:0:
451,333,95745,1,2,3:1:0:0:
469,273,95875,1,8,1:2:0:0:
228,203,96137,6,0,L|213:126,1,65,12|2,1:2|3:1,0:0:0:0:
66,106,96529,2,0,L|72:31,1,65,12|2,1:2|3:1,0:0:0:0:
308,22,96920,2,0,L|394:4,1,65,4|2,1:2|3:1,0:0:0:0:
228,203,97311,2,0,L|135:227,1,65,4|2,1:2|3:1,0:0:0:0:
328,316,97702,2,0,L|411:330,2,65,4|8|8,1:2|1:0|1:0,0:0:0:0:
165,350,98094,1,4,1:2:0:0:
