osu file format v14

[General]
AudioFilename: audio.mp3
AudioLeadIn: 0
PreviewTime: 53550
Countdown: 0
SampleSet: Soft
StackLeniency: 0.7
Mode: 2
LetterboxInBreaks: 0
WidescreenStoryboard: 0

[Editor]
DistanceSpacing: 2
BeatDivisor: 4
GridSize: 32
TimelineZoom: 2.6

[Metadata]
Title:Yakata Mawari
TitleUnicode:Yakata Mawari
Artist:Denkishiki Karen Ongaku Shuudan
ArtistUnicode:Denkishiki Karen Ongaku Shuudan
Creator:AJamez
Version:Renascence
Source:死に逝く君、館に芽吹く憎悪
Tags:chatie jeiryagtama -luminate hareimu denkare shini yuku kimi yakata ni mebuku zouo galgame eroge visual novel opening short version bug system yf_bmp
BeatmapID:1924399
BeatmapSetID:921491

[Difficulty]
HPDrainRate:6
CircleSize:4
OverallDifficulty:9.6
ApproachRate:9.6
SliderMultiplier:1.9
SliderTickRate:2

[Events]
//Background and Video events
0,0,"BG.jpg",0,0
//Break Periods
//Storyboard Layer 0 (Background)
//Storyboard Layer 1 (Fail)
//Storyboard Layer 2 (Pass)
//Storyboard Layer 3 (Foreground)
//Storyboard Sound Samples

[TimingPoints]
11616,260.869565217391,4,2,1,40,1,0
11616,-100,4,2,1,40,0,0
12072,-100,4,2,1,5,0,0
12137,-100,4,2,1,40,0,0
12333,-100,4,2,1,5,0,0
12398,-100,4,2,1,40,0,0
12594,-100,4,2,1,5,0,0
12659,-100,4,2,1,40,0,0
13050,-100,4,2,1,30,0,0
13181,-100,4,2,1,40,0,0
13572,-100,4,2,1,30,0,0
13702,-100,4,2,1,55,0,0
13768,-100,4,2,1,15,0,0
14094,-100,4,2,1,55,0,0
14159,-100,4,2,1,15,0,0
14355,-100,4,2,1,55,0,0
14811,-100,4,2,1,15,0,0
15137,-100,4,2,1,55,0,0
15202,-100,4,2,1,15,0,0
15659,-100,4,2,1,65,0,0
19181,-100,4,2,1,20,0,0
19311,-100,4,2,1,65,0,0
19442,-100,4,2,1,20,0,0
19572,-100,4,2,1,65,0,0
19702,-100,4,2,1,20,0,0
19833,-100,4,2,1,65,0,0
23094,-100,4,2,1,65,0,0
23485,-100,4,2,1,65,0,0
23876,-100,4,2,1,65,0,0
24268,-100,4,2,1,65,0,0
24659,-100,4,2,1,65,0,0
25050,-100,4,2,1,60,0,0
41876,-100,4,2,1,55,0,0
50224,-100,4,2,1,70,0,0
53615,-100,4,2,1,45,0,0
54398,-100,4,2,1,55,0,0
54920,-100,4,2,1,70,0,0
55442,-100,4,2,1,75,0,1
63789,-100,4,2,1,70,0,0
67963,-100,4,2,1,75,0,1
71746,-100,4,2,1,70,0,0
72137,-100,4,2,1,75,0,1
80485,-100,4,2,1,70,0,0
84659,-100,4,2,1,75,0,1
88702,-100,4,2,1,70,0,0
92224,-100,4,2,1,40,0,0
92355,-100,4,2,1,70,0,0
92485,-100,4,2,1,40,0,0
92615,-100,4,2,1,70,0,0
92746,-100,4,2,1,40,0,0
92876,-100,4,2,1,70,0,0
96137,-100,4,2,1,70,0,0
96529,-100,4,2,1,70,0,0
96920,-100,4,2,1,70,0,0
97311,-100,4,2,1,70,0,0
97702,-100,4,2,1,70,0,0

[Colours]
Combo1 : 89,247,255
Combo2 : 183,183,219
Combo3 : 255,170,255

[HitObjects]
50,349,11615,5,0,0:0:0:0:
301,254,11876,2,0,L|462:232,1,142.5,2|0,0:0|0:0,0:0:0:0:
439,181,12137,2,0,L|281:202,1,142.5,2|0,0:0|0:0,0:0:0:0:
292,149,12398,2,0,L|452:130,1,142.5,2|0,0:0|0:0,0:0:0:0:
360,91,12659,2,0,P|293:118|376:262,1,285,2|0,0:0|0:0,0:0:0:0:
120,327,13181,2,0,L|419:361,1,285,2|0,0:0|0:0,0:0:0:0:
21,217,13702,6,0,L|72:209,1,47.5,2|0,3:2|0:0,0:0:0:0:
488,73,14094,2,0,L|437:65,1,47.5,2|0,3:0|0:0,0:0:0:0:
245,107,14355,1,8,1:2:0:0:
389,154,14485,1,8,1:2:0:0:
143,200,14615,1,0,3:0:0:0:
479,257,14746,6,0,L|473:315,1,47.5,2|0,3:2|0:0,0:0:0:0:
33,127,15137,2,0,L|39:69,1,47.5,2|0,1:3|0:0,0:0:0:0:
387,29,15659,6,0,L|172:74,1,190,4|0,1:1|3:0,0:0:0:0:
341,129,16050,2,0,L|229:150,1,95,8|0,1:0|0:0,0:0:0:0:
386,204,16311,1,0,3:0:0:0:
138,248,16442,1,2,3:1:0:0:
271,266,16572,1,8,1:2:0:0:
278,312,16637,1,0,0:0:0:0:
285,359,16702,1,2,0:1:0:0:
54,367,16833,5,0,3:0:0:0:
285,359,16963,1,2,0:1:0:0:
36,158,17094,1,8,1:1:0:0:
164,135,17224,1,2,0:1:0:0:
294,119,17355,1,0,3:0:0:0:
143,49,17485,1,0,3:0:0:0:
433,59,17615,1,8,1:2:0:0:
294,119,17746,6,0,L|283:326,1,190,4|0,3:1|3:0,0:0:0:0:
42,335,18137,2,0,L|158:355,2,95,8|0|0,1:0|0:0|3:0,0:0:0:0:
172,274,18529,1,2,3:1:0:0:
403,283,18659,2,0,P|364:235|252:214,1,142.5,8|0,1:2|0:0,0:0:0:0:
479,154,18920,5,8,1:2:0:0:
215,112,19050,1,0,3:0:0:0:
135,80,19311,1,0,3:0:0:0:
53,89,19572,1,0,3:0:0:0:
475,182,19833,6,0,L|457:378,1,190,4|0,1:0|3:0,0:0:0:0:
185,318,20224,1,8,1:2:0:0:
301,294,20354,1,0,0:0:0:0:
418,270,20484,1,0,3:0:0:0:
168,200,20615,1,2,3:1:0:0:
299,121,20746,1,8,1:0:0:0:
253,109,20811,1,0,0:0:0:0:
207,97,20876,1,2,0:1:0:0:
459,78,21007,5,0,3:0:0:0:
207,97,21137,1,2,0:1:0:0:
474,220,21268,1,8,1:0:0:0:
339,293,21398,1,2,0:1:0:0:
475,355,21529,1,0,3:0:0:0:
197,342,21659,1,0,3:0:0:0:
339,293,21789,1,8,1:2:0:0:
50,238,21920,6,0,L|250:182,1,190,4|0,3:1|3:0,0:0:0:0:
125,150,22311,2,0,L|11:126,1,95,8|0,1:0|0:0,0:0:0:0:
272,77,22572,1,0,3:0:0:0:
145,60,22702,1,2,3:1:0:0:
397,44,22833,2,0,L|503:28,1,95,8|2,1:2|0:1,0:0:0:0:
232,186,23094,5,8,1:2:0:0:
360,196,23224,2,0,L|369:301,1,95,2|0,3:1|0:0,0:0:0:0:
124,286,23485,1,8,1:2:0:0:
258,288,23615,2,0,L|292:388,1,95,2|0,3:1|0:0,0:0:0:0:
34,210,23876,1,8,1:2:0:0:
244,63,24007,2,0,L|309:151,1,95,2|0,3:1|0:0,0:0:0:0:
20,99,24268,1,8,1:2:0:0:
300,139,24398,2,0,L|395:185,1,95,2|0,3:1|0:0,0:0:0:0:
23,0,24659,5,8,1:0:0:0:
70,3,24724,1,0,0:0:0:0:
117,7,24789,1,8,1:0:0:0:
385,180,24920,1,8,1:0:0:0:
125,214,25050,6,0,P|68:239|84:364,1,190,4|0,3:1|3:0,0:0:0:0:
214,362,25442,1,8,1:2:0:0:
69,352,25572,1,0,0:0:0:0:
71,304,25637,1,0,0:0:0:0:
73,257,25702,1,0,3:0:0:0:
341,133,25833,1,0,3:0:0:0:
199,193,25963,1,8,1:2:0:0:
361,137,26094,6,0,P|432:149|483:262,1,190,0|0,3:0|3:0,0:0:0:0:
241,337,26485,2,0,L|349:351,1,95,8|0,1:2|0:0,0:0:0:0:
477,236,26746,2,0,L|374:260,1,95,0|0,3:0|3:0,0:0:0:0:
485,157,27007,1,8,1:0:0:0:
226,167,27137,5,4,3:2:0:0:
113,91,27268,2,0,L|-3:115,1,95,0|0,0:0|0:0,0:0:0:0:
274,36,27529,2,0,L|163:18,1,95,8|0,1:2|3:0,0:0:0:0:
294,117,27789,2,0,L|413:91,1,95,0|0,3:0|3:0,0:0:0:0:
162,248,28050,1,8,1:0:0:0:
304,307,28181,6,0,L|95:358,1,190,0|0,3:0|3:0,0:0:0:0:
422,384,28572,2,0,L|437:213,1,142.5,8|0,1:2|0:0,0:0:0:0:
246,180,28833,2,0,L|234:104,1,47.5,0|0,3:0|0:0,0:0:0:0:
426,92,28963,2,0,L|438:33,1,47.5,0|0,3:0|0:0,0:0:0:0:
213,37,29094,1,0,3:0:0:0:
477,316,29224,6,0,L|265:297,1,190,4|0,3:1|0:0,0:0:0:0:
118,240,29615,2,0,L|324:197,1,190,8|0,1:2|3:0,0:0:0:0:
179,141,30007,1,0,3:0:0:0:
303,201,30137,1,8,1:0:0:0:
51,48,30268,6,0,L|189:27,2,95,0|0|0,0:0|0:0|3:0,0:0:0:0:
303,201,30659,1,8,1:2:0:0:
298,248,30724,1,0,0:0:0:0:
293,295,30789,1,0,0:0:0:0:
149,330,30920,1,0,3:0:0:0:
288,342,31050,1,0,3:0:0:0:
65,230,31181,1,8,1:2:0:0:
203,178,31311,6,0,L|82:151,2,95,4|0|0,3:2|0:0|3:0,0:0:0:0:
463,218,31702,1,8,1:0:0:0:
344,217,31833,1,0,0:0:0:0:
225,310,31963,1,0,3:0:0:0:
351,342,32094,1,0,3:0:0:0:
477,356,32224,1,8,1:0:0:0:
171,70,32355,5,0,0:0:0:0:
307,90,32485,1,0,0:0:0:0:
171,156,32615,1,0,3:0:0:0:
405,168,32746,2,0,L|414:271,1,95,8|0,1:2|3:0,0:0:0:0:
150,246,33007,1,8,1:2:0:0:
423,345,33137,1,8,0:2:0:0:
76,313,33398,6,0,L|41:105,1,190,4|0,3:1|0:0,0:0:0:0:
316,70,33789,1,8,1:2:0:0:
241,170,33919,1,0,0:0:0:0:
119,197,34049,1,0,3:0:0:0:
371,245,34181,1,0,3:0:0:0:
235,273,34311,1,8,1:2:0:0:
484,267,34442,6,0,L|468:366,1,95,0|0,3:0|0:0,0:0:0:0:
348,360,34702,1,0,3:0:0:0:
113,281,34833,2,0,P|170:203|258:158,1,190,8|0,1:2|3:0,0:0:0:0:
374,138,35224,1,0,3:0:0:0:
140,73,35355,2,0,L|26:64,1,95,12|0,1:2|3:0,0:0:0:0:
305,267,35615,2,0,L|210:259,1,95,0|0,0:0|0:0,0:0:0:0:
484,359,35876,6,0,L|285:375,1,190,12|0,1:2|3:0,0:0:0:0:
163,368,36268,1,0,3:0:0:0:
402,256,36398,1,8,1:1:0:0:
255,189,36529,2,0,L|257:-22,1,190,4|0,3:1|0:0,0:0:0:0:
17,105,36920,2,0,L|135:108,1,95,8|0,1:0|3:0,0:0:0:0:
344,200,37181,6,0,L|340:262,1,47.5,0|0,0:0|0:0,0:0:0:0:
154,321,37311,2,0,L|163:372,1,47.5,8|0,3:3|0:0,0:0:0:0:
380,347,37442,2,0,L|430:359,1,47.5,4|0,3:3|0:0,0:0:0:0:
215,258,37572,6,0,P|154:230|28:220,1,190,4|0,1:1|0:0,0:0:0:0:
151,172,37963,1,8,1:0:0:0:
30,136,38094,1,0,0:0:0:0:
272,121,38224,1,0,3:0:0:0:
193,68,38354,1,0,3:0:0:0:
100,59,38484,1,0,0:0:0:0:
346,69,38615,6,0,P|429:95|467:195,1,190,0|0,3:0|3:0,0:0:0:0:
214,305,39007,1,8,1:0:0:0:
260,314,39072,1,0,0:0:0:0:
307,323,39137,1,0,0:0:0:0:
82,292,39268,1,0,3:0:0:0:
168,233,39398,1,0,3:0:0:0:
271,223,39528,1,8,1:0:0:0:
20,127,39659,6,0,L|127:115,2,95,4|0|0,3:2|0:0|0:0,0:0:0:0:
258,226,40050,2,0,L|271:122,1,95,8|0,1:0|0:0,0:0:0:0:
134,90,40311,1,0,3:0:0:0:
390,60,40442,2,0,L|490:48,1,95,0|8,3:0|0:2,0:0:0:0:
177,196,40702,6,0,P|223:255|369:282,1,190,0|0,3:0|3:0,0:0:0:0:
101,361,41094,2,0,L|90:264,1,95,8|0,1:0|3:0,0:0:0:0:
380,178,41355,1,8,1:2:0:0:
15,130,41485,1,8,1:2:0:0:
490,95,41876,6,0,L|497:321,1,190,4|0,3:1|0:0,0:0:0:0:
345,307,42268,1,0,3:0:0:0:
338,259,42333,1,0,3:0:0:0:
331,212,42398,1,4,1:2:0:0:
149,150,42594,1,0,3:0:0:0:
331,212,42789,1,0,3:0:0:0:
116,53,42920,6,0,L|100:249,1,190,2|0,3:2|0:0,0:0:0:0:
245,283,43311,2,0,L|255:331,1,47.5,0|0,3:0|3:0,0:0:0:0:
94,384,43442,2,0,L|100:239,1,142.5,12|0,1:2|3:0,0:0:0:0:
388,200,43833,1,0,3:0:0:0:
249,170,43963,6,0,L|60:98,1,190,2|0,1:2|0:0,0:0:0:0:
219,73,44355,2,0,L|277:69,1,47.5,0|0,3:0|3:0,0:0:0:0:
219,73,44485,2,0,L|74:18,2,142.5,4|0|0,1:2|3:0|3:0,0:0:0:0:
486,229,45007,2,0,L|299:264,1,190,2|0,3:2|0:0,0:0:0:0:
447,341,45398,1,0,3:0:0:0:
400,349,45463,1,0,3:0:0:0:
353,357,45528,1,4,1:2:0:0:
191,360,45724,1,0,3:0:0:0:
353,357,45920,1,0,3:0:0:0:
82,194,46050,6,0,L|316:165,1,190,4|0,1:0|0:0,0:0:0:0:
126,102,46442,2,0,L|181:93,1,47.5,0|0,3:0|3:0,0:0:0:0:
126,102,46572,2,0,P|67:124|18:201,2,142.5,4|0|0,1:2|3:0|3:0,0:0:0:0:
418,345,47094,2,0,L|409:137,1,190,2|0,3:2|0:0,0:0:0:0:
270,170,47485,2,0,L|213:178,1,47.5,0|0,3:0|3:0,0:0:0:0:
423,69,47615,1,4,1:2:0:0:
419,37,47811,1,0,3:0:0:0:
105,347,48007,1,0,3:0:0:0:
244,358,48137,6,0,L|272:153,1,190,0|0,1:0|0:0,0:0:0:0:
423,69,48529,1,0,3:0:0:0:
416,22,48594,1,0,3:0:0:0:
409,0,48659,1,4,1:2:0:0:
247,13,48855,1,0,3:0:0:0:
85,145,49050,1,0,0:0:0:0:
352,259,49181,2,0,L|166:303,1,190,2|0,3:2|0:0,0:0:0:0:
301,356,49572,2,0,L|249:370,1,47.5,0|0,3:0|3:0,0:0:0:0:
301,356,49702,2,0,L|452:377,2,142.5,4|2|2,1:2|3:3|3:3,0:0:0:0:
55,276,50224,6,0,L|155:266,1,95,4|0,1:1|3:0,0:0:0:0:
428,196,50485,1,8,1:2:0:0:
299,178,50615,1,0,3:0:0:0:
291,131,50680,1,0,0:0:0:0:
283,84,50745,1,8,1:2:0:0:
425,52,50876,1,0,3:0:0:0:
155,169,51007,1,8,1:2:0:0:
283,84,51137,1,0,3:0:0:0:
30,264,51268,5,8,1:0:0:0:
163,296,51398,1,0,3:0:0:0:
297,323,51529,1,8,1:0:0:0:
65,366,51659,1,0,3:0:0:0:
321,238,51789,1,8,1:0:0:0:
187,192,51920,1,0,3:0:0:0:
54,165,52050,1,8,1:0:0:0:
318,120,52181,5,4,3:2:0:0:
190,93,52311,1,8,1:2:0:0:
416,54,52442,5,0,3:0:0:0:
288,21,52572,1,8,1:2:0:0:
495,215,52702,5,0,3:0:0:0:
203,263,52833,1,8,1:2:0:0:
331,287,52963,5,0,3:0:0:0:
52,332,53094,1,8,1:2:0:0:
443,366,53224,5,12,1:2:0:0:
456,338,53615,1,2,0:0:0:0:
469,307,53876,1,2,0:0:0:0:
481,280,54137,1,2,0:0:0:0:
393,239,54398,5,0,0:0:0:0:
304,206,54529,1,2,0:0:0:0:
214,186,54659,1,0,0:0:0:0:
123,178,54789,1,2,0:0:0:0:
277,267,54920,5,2,0:0:0:0:
258,223,54985,1,0,0:0:0:0:
223,192,55050,1,0,0:0:0:0:
177,181,55115,1,0,0:0:0:0:
385,348,55181,2,0,L|459:344,1,47.5,0|0,0:0|0:0,0:0:0:0:
189,268,55311,2,0,L|127:276,1,47.5,0|0,0:0|0:0,0:0:0:0:
406,211,55442,6,0,L|509:195,1,95,4|8,3:1|1:2,0:0:0:0:
358,134,55702,1,0,3:0:0:0:
318,108,55767,1,0,3:0:0:0:
272,94,55832,1,10,1:2:0:0:
405,53,55963,5,0,3:0:0:0:
140,59,56094,1,8,1:2:0:0:
272,94,56224,1,2,3:1:0:0:
283,140,56289,1,0,3:0:0:0:
277,187,56354,1,8,1:2:0:0:
40,259,56485,5,2,3:2:0:0:
176,265,56615,1,8,1:2:0:0:
40,278,56746,1,0,3:0:0:0:
41,325,56811,1,0,3:0:0:0:
56,369,56876,1,10,1:1:0:0:
310,344,57007,5,0,3:0:0:0:
174,365,57137,1,8,1:2:0:0:
313,263,57268,1,2,3:2:0:0:
358,249,57333,1,0,3:0:0:0:
405,247,57398,1,8,1:2:0:0:
158,209,57529,5,6,3:1:0:0:
426,156,57659,1,8,1:2:0:0:
297,129,57789,1,0,3:0:0:0:
292,81,57854,1,0,3:0:0:0:
287,34,57919,1,8,1:2:0:0:
417,13,58050,5,0,3:0:0:0:
118,59,58181,1,8,1:2:0:0:
252,248,58311,1,2,3:2:0:0:
204,253,58376,1,0,3:0:0:0:
157,259,58441,1,8,1:2:0:0:
448,327,58572,5,2,3:1:0:0:
320,339,58702,1,8,1:2:0:0:
190,346,58833,1,0,3:0:0:0:
192,299,58898,1,0,3:0:0:0:
219,260,58963,1,8,1:2:0:0:
475,174,59094,5,2,3:1:0:0:
344,204,59224,1,8,1:2:0:0:
474,125,59355,1,2,3:1:0:0:
439,93,59420,1,0,3:0:0:0:
395,76,59485,1,8,1:0:0:0:
95,79,59615,5,4,3:2:0:0:
342,66,59746,1,8,1:2:0:0:
217,91,59876,1,0,3:0:0:0:
252,122,59941,1,0,3:0:0:0:
297,136,60006,1,10,1:2:0:0:
421,226,60137,1,0,3:0:0:0:
154,232,60268,5,8,1:2:0:0:
286,285,60398,1,2,3:2:0:0:
294,331,60463,1,0,3:0:0:0:
282,376,60528,1,8,1:2:0:0:
37,371,60659,5,2,3:2:0:0:
165,366,60789,1,8,1:2:0:0:
294,331,60920,1,0,3:0:0:0:
280,286,60985,1,0,3:0:0:0:
241,260,61050,1,10,1:2:0:0:
113,255,61181,1,0,3:0:0:0:
390,207,61311,5,8,1:2:0:0:
266,158,61442,1,2,3:2:0:0:
299,124,61507,1,0,3:0:0:0:
343,107,61572,1,8,1:2:0:0:
98,68,61702,5,4,3:1:0:0:
231,46,61833,1,8,1:2:0:0:
95,159,61964,1,2,3:2:0:0:
50,171,62029,1,0,3:0:0:0:
20,207,62094,1,8,1:2:0:0:
280,250,62224,5,0,3:0:0:0:
147,277,62355,1,8,1:2:0:0:
393,313,62485,1,0,3:0:0:0:
437,330,62550,1,0,3:0:0:0:
475,358,62615,1,8,1:2:0:0:
215,379,62746,5,0,3:0:0:0:
343,325,62876,1,8,1:2:0:0:
472,264,63007,1,0,3:0:0:0:
455,219,63072,1,0,3:0:0:0:
420,188,63137,1,8,1:2:0:0:
182,151,63268,1,0,3:1:0:0:
310,135,63398,1,0,3:0:0:0:
84,83,63529,1,8,3:3:0:0:
354,47,63659,1,4,3:0:0:0:
39,186,63789,6,0,P|75:228|215:271,1,190,6|0,1:1|3:0,0:0:0:0:
332,291,64181,1,0,3:0:0:0:
150,173,64311,2,0,P|191:131|331:93,1,190,2|0,1:0|3:0,0:0:0:0:
202,81,64702,1,0,3:0:0:0:
447,192,64833,6,0,L|442:297,1,95,2|0,1:0|3:0,0:0:0:0:
285,208,65094,2,0,L|286:330,1,95,0|0,3:0|3:0,0:0:0:0:
43,360,65355,2,0,L|35:244,1,95,2|0,1:0|3:0,0:0:0:0:
176,182,65615,2,0,L|66:168,1,95,0|0,3:0|3:0,0:0:0:0:
336,118,65876,1,4,1:2:0:0:
241,105,66006,1,0,0:0:0:0:
147,92,66136,1,0,3:0:0:0:
53,79,66267,1,0,3:0:0:0:
312,193,66398,5,2,1:0:0:0:
178,225,66529,1,0,0:0:0:0:
330,285,66659,1,0,3:0:0:0:
199,321,66789,1,0,3:0:0:0:
441,364,66920,5,4,1:2:0:0:
363,320,67050,1,0,3:0:0:0:
382,234,67180,1,0,3:0:0:0:
470,226,67311,1,0,3:0:0:0:
235,160,67442,2,0,L|127:143,1,95,2|0,1:0|3:0,0:0:0:0:
369,75,67702,2,0,L|478:54,1,95,0|0,1:0|3:0,0:0:0:0:
213,246,67963,6,0,L|329:262,1,95,4|0,1:1|3:0,0:0:0:0:
178,355,68224,1,8,1:2:0:0:
130,361,68289,1,0,0:0:0:0:
83,367,68354,1,0,3:0:0:0:
322,181,68485,2,0,L|209:165,1,95,8|0,1:2|3:0,0:0:0:0:
463,128,68746,1,6,1:2:0:0:
449,83,68811,1,0,0:0:0:0:
413,52,68876,1,0,3:0:0:0:
367,44,68941,1,0,3:0:0:0:
149,83,69007,6,0,L|250:68,1,95,6|0,1:0|3:0,0:0:0:0:
106,253,69268,1,8,1:2:0:0:
99,205,69333,1,0,0:0:0:0:
93,158,69398,1,0,3:0:0:0:
377,270,69529,2,0,L|256:255,1,95,10|0,1:2|3:0,0:0:0:0:
37,370,69789,2,0,L|152:347,1,95,10|0,1:2|3:0,0:0:0:0:
434,168,70050,5,4,1:2:0:0:
305,137,70181,1,0,3:0:0:0:
177,131,70311,1,8,1:2:0:0:
445,61,70442,1,2,3:1:0:0:
398,52,70507,1,0,0:0:0:0:
351,44,70572,1,8,1:2:0:0:
230,29,70702,1,0,3:0:0:0:
464,237,70833,1,10,1:2:0:0:
200,295,70963,1,0,3:0:0:0:
334,282,71094,5,12,1:1:0:0:
98,213,71224,1,0,3:0:0:0:
358,160,71355,1,8,1:2:0:0:
225,124,71485,1,0,3:0:0:0:
475,100,71615,1,10,1:1:0:0:
154,39,71746,2,0,P|105:65|20:183,1,190,2|0,1:1|0:0,0:0:0:0:
298,278,72137,5,4,3:1:0:0:
170,308,72268,1,8,1:2:0:0:
319,360,72398,1,0,3:0:0:0:
366,365,72463,1,0,3:0:0:0:
413,371,72528,1,10,1:2:0:0:
410,280,72659,1,0,3:0:0:0:
148,201,72789,5,8,1:2:0:0:
277,173,72920,1,2,3:1:0:0:
295,129,72985,1,0,3:0:0:0:
288,83,73050,1,8,1:2:0:0:
39,55,73181,5,2,3:2:0:0:
169,49,73311,1,8,1:2:0:0:
32,176,73442,1,0,3:0:0:0:
39,222,73507,1,0,3:0:0:0:
62,264,73572,1,10,1:1:0:0:
298,278,73702,5,0,3:0:0:0:
169,325,73833,1,8,1:2:0:0:
421,351,73963,1,2,3:2:0:0:
459,325,74028,1,0,3:0:0:0:
474,281,74093,1,8,1:2:0:0:
236,180,74224,5,6,3:1:0:0:
478,233,74355,1,8,1:2:0:0:
341,155,74485,1,0,3:0:0:0:
308,121,74550,1,0,3:0:0:0:
297,75,74615,1,8,1:2:0:0:
161,46,74746,2,0,L|153:153,1,95,0|8,3:0|1:2,0:0:0:0:
383,247,75007,1,2,3:2:0:0:
353,283,75072,1,0,3:0:0:0:
309,301,75137,1,8,1:2:0:0:
40,316,75268,5,2,3:1:0:0:
260,309,75398,1,8,1:2:0:0:
129,271,75529,1,0,3:0:0:0:
166,242,75594,1,0,3:0:0:0:
211,227,75659,1,8,1:2:0:0:
478,233,75789,5,2,3:1:0:0:
258,220,75920,1,8,1:2:0:0:
382,174,76050,1,2,3:1:0:0:
397,129,76115,1,0,3:0:0:0:
385,84,76180,1,8,1:0:0:0:
124,79,76311,5,4,3:2:0:0:
257,52,76442,1,8,1:2:0:0:
123,169,76572,1,0,3:0:0:0:
76,177,76637,1,0,3:0:0:0:
37,203,76702,1,10,1:2:0:0:
153,278,76833,1,0,3:0:0:0:
411,337,76963,5,8,1:2:0:0:
282,318,77094,1,2,3:2:0:0:
316,286,77159,1,0,3:0:0:0:
362,273,77224,1,8,1:2:0:0:
123,169,77355,5,2,3:2:0:0:
385,171,77485,1,8,1:2:0:0:
257,154,77615,1,0,3:0:0:0:
254,106,77680,1,0,3:0:0:0:
270,62,77745,1,10,1:2:0:0:
487,15,77876,2,0,L|387:39,1,95,0|8,3:0|1:2,0:0:0:0:
115,240,78137,1,2,3:2:0:0:
162,235,78202,1,0,3:0:0:0:
210,230,78267,1,8,1:2:0:0:
468,221,78398,6,0,L|472:321,1,95,4|8,3:1|1:2,0:0:0:0:
325,360,78659,1,0,3:0:0:0:
323,312,78724,1,0,3:0:0:0:
321,265,78789,1,8,1:2:0:0:
69,242,78920,2,0,L|59:135,1,95,0|8,3:0|1:2,0:0:0:0:
211,71,79181,1,0,3:0:0:0:
164,61,79246,1,0,3:0:0:0:
117,52,79311,1,8,1:2:0:0:
379,196,79442,5,2,3:2:0:0:
246,216,79572,1,0,3:2:0:0:
113,313,79702,1,0,3:0:0:0:
359,344,79833,1,0,3:2:0:0:
97,341,79963,1,2,3:2:0:0:
228,347,80093,1,0,3:0:0:0:
359,355,80223,1,8,3:3:0:0:
491,362,80354,1,4,3:3:0:0:
188,247,80485,6,0,P|231:192|354:146,1,190,6|0,1:1|3:0,0:0:0:0:
464,138,80876,1,0,3:0:0:0:
222,135,81007,2,0,L|209:342,1,190,2|0,1:0|3:0,0:0:0:0:
325,344,81398,1,0,3:0:0:0:
81,360,81529,5,2,1:0:0:0:
157,292,81659,1,0,3:0:0:0:
124,194,81789,1,0,3:0:0:0:
20,190,81920,1,0,3:0:0:0:
261,192,82050,2,0,L|273:84,1,95,2|0,1:0|3:0,0:0:0:0:
38,33,82311,2,0,L|146:19,1,95,0|0,3:0|3:0,0:0:0:0:
420,241,82572,6,0,L|215:286,1,190,4|0,1:2|3:0,0:0:0:0:
116,313,82963,1,0,3:0:0:0:
358,278,83094,2,0,P|322:220|189:184,1,190,2|0,1:0|3:0,0:0:0:0:
96,203,83485,1,0,3:0:0:0:
355,151,83615,6,0,L|366:48,1,95,4|0,1:2|3:0,0:0:0:0:
211,0,83876,2,0,L|218:96,1,95,0|0,3:0|3:0,0:0:0:0:
468,233,84137,2,0,L|357:251,1,95,2|0,1:0|3:0,0:0:0:0:
148,331,84398,2,0,L|24:349,1,95,0|0,1:0|3:0,0:0:0:0:
305,332,84659,5,4,1:1:0:0:
177,349,84789,1,0,3:0:0:0:
434,366,84920,1,8,1:2:0:0:
451,322,84985,1,0,0:0:0:0:
443,276,85050,1,0,3:0:0:0:
204,225,85181,5,8,1:2:0:0:
332,210,85311,1,0,3:0:0:0:
103,90,85442,1,6,1:2:0:0:
59,107,85507,1,0,0:0:0:0:
28,142,85572,1,0,3:0:0:0:
17,188,85637,1,0,3:0:0:0:
243,302,85702,5,6,1:0:0:0:
114,327,85833,1,0,3:0:0:0:
349,367,85963,1,8,1:2:0:0:
395,373,86028,1,0,0:0:0:0:
441,362,86093,1,0,3:0:0:0:
190,215,86224,1,10,1:2:0:0:
319,197,86355,1,0,3:0:0:0:
447,182,86485,5,10,1:2:0:0:
430,138,86550,1,0,0:0:0:0:
394,108,86615,1,0,3:0:0:0:
347,101,86680,1,0,3:0:0:0:
115,116,86746,6,0,L|101:223,1,95,4|0,1:2|3:0,0:0:0:0:
243,262,87007,1,8,1:2:0:0:
249,308,87072,1,0,0:0:0:0:
256,355,87137,1,2,3:1:0:0:
490,364,87268,2,0,L|382:379,1,95,8|0,1:2|3:0,0:0:0:0:
146,333,87529,1,10,1:2:0:0:
193,326,87594,1,0,0:0:0:0:
240,320,87659,1,0,3:0:0:0:
287,313,87724,1,0,3:0:0:0:
63,265,87789,6,0,L|53:147,1,95,12|0,1:1|3:0,0:0:0:0:
184,77,88050,1,8,1:2:0:0:
137,69,88115,1,0,0:0:0:0:
90,62,88180,1,0,3:0:0:0:
370,49,88311,1,10,1:1:0:0:
43,54,88442,1,2,1:1:0:0:
465,124,88702,6,0,L|437:327,1,190,4|0,1:1|3:0,0:0:0:0:
292,373,89094,2,0,L|400:388,1,95,8|0,1:0|0:0,0:0:0:0:
162,280,89355,1,0,3:0:0:0:
291,265,89485,1,2,3:1:0:0:
296,217,89550,1,0,0:0:0:0:
301,170,89615,1,8,1:2:0:0:
171,109,89746,1,2,0:1:0:0:
430,73,89876,5,0,3:0:0:0:
302,47,90007,1,2,0:1:0:0:
171,109,90137,1,8,1:1:0:0:
443,208,90268,1,2,0:1:0:0:
185,298,90398,1,0,3:0:0:0:
319,337,90529,1,0,3:0:0:0:
452,356,90659,1,8,1:2:0:0:
172,380,90789,6,0,P|70:338|44:265,1,190,4|0,3:1|3:0,0:0:0:0:
274,204,91181,2,0,L|149:185,2,95,8|0|0,1:0|0:0|3:0,0:0:0:0:
390,224,91572,1,2,3:1:0:0:
141,264,91702,2,0,L|104:90,1,142.5,8|0,1:2|0:0,0:0:0:0:
361,77,91963,5,8,1:2:0:0:
124,46,92094,1,0,3:0:0:0:
241,97,92224,2,0,L|246:199,1,95,0|0,2:0|3:0,0:0:0:0:
368,253,92485,2,0,L|371:360,1,95,0|0,0:0|3:0,0:0:0:0:
496,355,92746,1,0,0:0:0:0:
164,276,92876,6,0,P|242:228|343:204,1,190,4|0,1:0|3:0,0:0:0:0:
195,165,93268,1,8,1:2:0:0:
197,117,93333,1,0,0:0:0:0:
199,70,93398,1,0,0:0:0:0:
336,51,93529,1,0,3:0:0:0:
76,159,93659,1,2,3:1:0:0:
204,180,93789,1,8,1:0:0:0:
333,198,93920,1,2,0:1:0:0:
45,349,94050,5,0,3:0:0:0:
294,291,94181,1,2,0:1:0:0:
41,258,94311,1,8,1:0:0:0:
170,200,94442,1,2,0:1:0:0:
41,163,94572,1,0,3:0:0:0:
270,108,94702,1,0,3:0:0:0:
146,82,94833,1,8,1:2:0:0:
395,237,94963,6,0,L|197:276,1,190,4|0,3:1|3:0,0:0:0:0:
460,349,95355,2,0,L|339:361,1,95,8|0,1:0|0:0,0:0:0:0:
232,249,95615,1,0,3:0:0:0:
278,256,95680,1,0,0:0:0:0:
325,264,95745,1,2,3:1:0:0:
108,151,95876,2,0,L|11:166,1,95,8|2,1:2|0:1,0:0:0:0:
336,101,96137,5,12,1:2:0:0:
203,93,96268,2,0,L|115:18,1,95,2|0,3:1|0:0,0:0:0:0:
383,161,96529,1,12,1:2:0:0:
166,178,96659,2,0,L|57:133,1,95,2|0,3:1|0:0,0:0:0:0:
416,232,96920,1,4,1:2:0:0:
128,260,97050,2,0,L|15:241,1,95,2|0,3:1|0:0,0:0:0:0:
428,306,97311,1,4,1:2:0:0:
111,348,97442,2,0,L|-7:348,1,95,2|0,3:1|0:0,0:0:0:0:
432,379,97702,5,4,1:2:0:0:
237,298,97833,1,8,1:0:0:0:
34,244,97963,1,8,1:0:0:0:
464,241,98094,1,4,1:2:0:0:
