osu file format v14

[General]
AudioFilename: audio.mp3
AudioLeadIn: 0
PreviewTime: 53550
Countdown: 0
SampleSet: Soft
StackLeniency: 0.7
Mode: 2
LetterboxInBreaks: 0
WidescreenStoryboard: 1

[Editor]
DistanceSpacing: 2
BeatDivisor: 4
GridSize: 32
TimelineZoom: 2.6

[Metadata]
Title:Yakata Mawari
TitleUnicode:Yakata Mawari
Artist:Denkishiki Karen Ongaku Shuudan
ArtistUnicode:Denkishiki Karen Ongaku Shuudan
Creator:AJamez
Version:Rain
Source:死に逝く君、館に芽吹く憎悪
Tags:chatie jeiryagtama -luminate hareimu denkare shini yuku kimi yakata ni mebuku zouo galgame eroge visual novel opening short version bug system yf_bmp
BeatmapID:1930747
BeatmapSetID:921491

[Difficulty]
HPDrainRate:6
CircleSize:3.8
OverallDifficulty:9
ApproachRate:9
SliderMultiplier:1.6
SliderTickRate:2

[Events]
//Background and Video events
0,0,"BG.jpg",0,0
//Break Periods
//Storyboard Layer 0 (Background)
//Storyboard Layer 1 (Fail)
//Storyboard Layer 2 (Pass)
//Storyboard Layer 3 (Foreground)
//Storyboard Sound Samples

[TimingPoints]
11616,260.869565217391,4,2,1,40,1,0
11616,-100,4,2,1,40,0,0
12072,-100,4,2,1,5,0,0
12137,-100,4,2,1,40,0,0
12333,-100,4,2,1,5,0,0
12398,-100,4,2,1,40,0,0
12594,-100,4,2,1,5,0,0
12659,-100,4,2,1,40,0,0
13050,-100,4,2,1,30,0,0
13181,-100,4,2,1,40,0,0
13572,-100,4,2,1,30,0,0
13702,-100,4,2,1,55,0,0
13768,-100,4,2,1,15,0,0
14094,-100,4,2,1,55,0,0
14159,-100,4,2,1,15,0,0
14355,-100,4,2,1,55,0,0
14811,-100,4,2,1,15,0,0
15137,-100,4,2,1,55,0,0
15202,-100,4,2,1,15,0,0
15659,-100,4,2,1,65,0,0
19181,-100,4,2,1,20,0,0
19311,-100,4,2,1,65,0,0
19442,-100,4,2,1,20,0,0
19572,-100,4,2,1,65,0,0
19702,-100,4,2,1,20,0,0
19833,-100,4,2,1,65,0,0
23094,-100,4,2,1,65,0,0
23485,-100,4,2,1,65,0,0
23876,-100,4,2,1,65,0,0
24268,-100,4,2,1,65,0,0
24659,-100,4,2,1,65,0,0
25050,-100,4,2,1,60,0,0
41876,-100,4,2,1,55,0,0
50224,-100,4,2,1,70,0,0
53615,-100,4,2,1,45,0,0
54398,-100,4,2,1,55,0,0
54920,-100,4,2,1,70,0,0
55442,-100,4,2,1,75,0,1
63789,-100,4,2,1,70,0,0
67963,-100,4,2,1,75,0,1
71746,-100,4,2,1,70,0,0
72137,-100,4,2,1,75,0,1
80485,-100,4,2,1,70,0,0
84659,-100,4,2,1,75,0,1
88702,-100,4,2,1,70,0,0
92224,-100,4,2,1,40,0,0
92355,-100,4,2,1,70,0,0
92485,-100,4,2,1,40,0,0
92615,-100,4,2,1,70,0,0
92746,-100,4,2,1,40,0,0
92876,-100,4,2,1,70,0,0
96137,-100,4,2,1,70,0,0
96529,-100,4,2,1,70,0,0
96920,-100,4,2,1,70,0,0
97311,-100,4,2,1,70,0,0
97702,-100,4,2,1,70,0,0

[Colours]
Combo1 : 89,247,255
Combo2 : 183,183,219
Combo3 : 255,170,255

[HitObjects]
461,263,11876,5,2,0:0:0:0:
239,158,12137,2,0,L|432:121,1,160,2|2,0:0|0:0,0:0:0:0:
150,154,12659,2,0,P|210:142|139:262,2,320,2|2|2,0:0|0:0|3:2,0:0:0:0:
477,131,14094,5,2,3:0:0:0:
273,146,14355,1,8,1:2:0:0:
326,204,14485,1,8,1:2:0:0:
401,229,14615,1,0,3:0:0:0:
152,295,14746,1,2,3:2:0:0:
480,239,15137,1,2,1:3:0:0:
84,384,15659,6,0,L|57:206,1,160,4|0,1:1|3:0,0:0:0:0:
156,197,16050,1,8,1:0:0:0:
255,196,16181,1,0,0:0:0:0:
145,113,16311,1,0,3:0:0:0:
262,99,16442,1,2,3:1:0:0:
416,330,16572,2,0,L|306:316,1,80,8|2,1:2|0:1,0:0:0:0:
83,384,16833,5,0,3:0:0:0:
166,350,16963,1,2,0:1:0:0:
195,268,17093,1,8,1:1:0:0:
145,196,17224,1,2,0:1:0:0:
58,192,17354,1,0,3:0:0:0:
186,126,17485,1,0,3:0:0:0:
50,113,17615,1,8,1:2:0:0:
286,198,17746,6,0,L|468:222,1,160,4|0,3:1|3:0,0:0:0:0:
282,247,18137,2,0,P|299:298|391:354,1,160,8|0,1:0|3:0,0:0:0:0:
474,294,18529,1,2,3:1:0:0:
243,262,18659,2,0,L|156:244,1,80,8|0,1:2|0:0,0:0:0:0:
440,136,18920,5,8,1:2:0:0:
437,53,19050,1,0,3:0:0:0:
196,41,19311,2,0,L|382:22,1,160,0|0,3:0|3:0,0:0:0:0:
18,182,19833,6,0,L|33:346,1,160,4|0,1:0|3:0,0:0:0:0:
188,354,20224,2,0,P|159:302|52:261,1,160,8|0,1:2|3:0,0:0:0:0:
84,181,20615,1,2,3:1:0:0:
231,160,20746,2,0,L|242:67,1,80,8|2,1:0|0:1,0:0:0:0:
463,136,21007,5,0,3:0:0:0:
382,156,21137,1,2,0:1:0:0:
348,231,21267,1,8,1:0:0:0:
386,305,21398,1,2,0:1:0:0:
468,321,21528,1,0,3:0:0:0:
369,330,21659,1,0,3:0:0:0:
482,349,21789,1,8,1:2:0:0:
225,360,21920,6,0,P|152:328|126:240,1,160,4|0,3:1|3:0,0:0:0:0:
273,216,22311,2,0,L|284:46,1,160,8|0,1:0|3:0,0:0:0:0:
182,43,22702,1,2,3:1:0:0:
397,131,22833,2,0,L|490:119,1,80,8|2,1:2|0:1,0:0:0:0:
124,256,23094,6,0,L|25:248,1,80,8|2,1:2|3:1,0:0:0:0:
232,194,23485,1,8,1:2:0:0:
101,156,23615,1,2,3:1:0:0:
248,157,23876,1,8,1:2:0:0:
89,115,24007,1,2,3:1:0:0:
267,119,24268,5,8,1:2:0:0:
77,77,24398,1,2,3:1:0:0:
288,81,24659,1,8,1:0:0:0:
362,108,24789,1,8,1:0:0:0:
420,162,24919,1,8,1:0:0:0:
155,211,25050,6,0,P|90:241|66:328,1,160,4|0,3:1|3:0,0:0:0:0:
147,300,25442,2,0,L|236:317,1,80,8|0,1:2|0:0,0:0:0:0:
71,232,25702,2,0,L|55:148,1,80,0|0,3:0|3:0,0:0:0:0:
138,107,25963,1,8,1:2:0:0:
293,69,26094,2,0,L|140:21,1,160,0|0,3:0|3:0,0:0:0:0:
222,83,26485,1,8,1:2:0:0:
445,162,26746,2,0,L|366:179,2,80,0|0|8,3:0|3:0|1:0,0:0:0:0:
308,272,27137,6,0,L|120:303,1,160,4|0,3:2|0:0,0:0:0:0:
397,342,27529,2,0,L|405:246,1,80,8|0,1:2|3:0,0:0:0:0:
266,185,27789,1,0,3:0:0:0:
343,136,27919,1,0,3:0:0:0:
433,114,28049,1,8,1:0:0:0:
270,91,28181,2,0,L|261:289,1,160,0|0,3:0|3:0,0:0:0:0:
359,271,28572,5,8,1:2:0:0:
127,327,28833,1,0,3:0:0:0:
259,354,28963,1,0,3:0:0:0:
393,364,29094,1,0,3:0:0:0:
134,214,29224,6,0,P|140:165|250:111,1,160,4|0,3:1|0:0,0:0:0:0:
135,80,29615,1,8,1:2:0:0:
358,57,29876,2,0,L|277:37,2,80,0|0|8,3:0|3:0|1:0,0:0:0:0:
228,204,30268,2,0,P|163:237|143:341,1,160,0|0,0:0|3:0,0:0:0:0:
225,349,30659,1,8,1:2:0:0:
137,315,30789,1,0,0:0:0:0:
292,284,30920,2,0,L|383:275,1,80,0|0,3:0|3:0,0:0:0:0:
125,209,31181,1,8,1:2:0:0:
35,189,31311,6,0,L|30:20,1,160,4|0,3:2|3:0,0:0:0:0:
126,15,31702,1,8,1:0:0:0:
368,87,31963,1,0,3:0:0:0:
276,103,32094,1,0,3:0:0:0:
200,153,32224,1,8,1:0:0:0:
361,192,32355,2,0,P|420:208|463:298,1,160,0|0,0:0|3:0,0:0:0:0:
224,357,32746,1,8,1:2:0:0:
412,367,33007,2,0,L|512:378,1,80,8|8,1:2|0:2,0:0:0:0:
103,243,33398,6,0,P|53:223|15:111,1,160,4|0,3:1|0:0,0:0:0:0:
177,113,33789,2,0,P|168:69|40:22,1,160,8|0,1:2|3:0,0:0:0:0:
118,79,34180,1,0,3:0:0:0:
187,120,34310,1,8,1:2:0:0:
344,168,34442,2,0,L|351:330,1,160,0|0,3:0|3:0,0:0:0:0:
213,357,34833,1,8,1:2:0:0:
449,246,35094,2,0,L|331:248,3,80,0|0|12|0,3:0|3:0|1:2|3:0,0:0:0:0:
117,187,35615,5,0,0:0:0:0:
314,160,35876,2,0,P|368:140|427:46,1,160,12|0,1:2|3:0,0:0:0:0:
331,54,36268,1,0,3:0:0:0:
94,287,36398,1,8,1:1:0:0:
182,321,36529,2,0,L|341:348,1,160,4|0,3:1|0:0,0:0:0:0:
434,351,36920,1,8,1:0:0:0:
222,223,37181,2,0,L|263:129,1,80,0|8,0:0|3:3,0:0:0:0:
368,119,37442,1,4,3:3:0:0:
115,89,37572,6,0,P|46:137|32:238,1,160,4|0,1:1|0:0,0:0:0:0:
117,232,37963,2,0,L|128:313,1,80,8|0,1:0|0:0,0:0:0:0:
256,347,38224,2,0,L|353:356,2,80,0|0|0,3:0|3:0|0:0,0:0:0:0:
399,293,38615,2,0,P|457:261|472:156,1,160,0|0,3:0|3:0,0:0:0:0:
221,122,39007,1,8,1:0:0:0:
455,36,39268,1,0,3:0:0:0:
430,110,39398,1,0,3:0:0:0:
361,146,39528,1,8,1:0:0:0:
127,234,39659,6,0,P|156:289|266:318,1,160,4|0,3:2|0:0,0:0:0:0:
374,339,40050,2,0,L|186:375,1,160,8|0,1:0|3:0,0:0:0:0:
304,307,40442,1,0,3:0:0:0:
71,332,40572,1,8,0:2:0:0:
167,302,40702,2,0,P|207:253|208:154,1,160,0|0,3:0|3:0,0:0:0:0:
62,139,41094,1,8,1:0:0:0:
285,77,41355,1,8,1:2:0:0:
142,47,41485,1,8,1:2:0:0:
491,257,41876,6,0,L|309:288,1,160,4|0,3:1|0:0,0:0:0:0:
183,349,42268,1,0,3:0:0:0:
179,309,42333,1,0,3:0:0:0:
175,269,42398,1,4,1:2:0:0:
300,187,42594,1,0,3:0:0:0:
448,162,42789,1,0,3:0:0:0:
212,94,42920,6,0,L|23:72,1,160,2|0,3:2|0:0,0:0:0:0:
201,175,43311,1,0,3:0:0:0:
202,214,43376,1,0,3:0:0:0:
204,254,43441,1,12,1:2:0:0:
63,302,43637,1,0,3:0:0:0:
207,345,43833,1,0,3:0:0:0:
445,369,43963,6,0,P|404:307|310:278,1,160,2|0,1:2|0:0,0:0:0:0:
470,211,44355,1,0,3:0:0:0:
466,171,44420,1,0,3:0:0:0:
462,131,44485,1,4,1:2:0:0:
306,82,44681,1,0,3:0:0:0:
458,88,44876,1,0,3:0:0:0:
205,97,45007,6,0,P|213:150|312:181,1,160,2|0,3:2|0:0,0:0:0:0:
178,235,45398,1,0,3:0:0:0:
139,246,45463,1,0,3:0:0:0:
101,257,45528,1,4,1:2:0:0:
218,331,45724,1,0,3:0:0:0:
356,346,45920,1,0,3:0:0:0:
89,341,46050,6,0,P|32:311|44:208,1,160,4|0,1:0|0:0,0:0:0:0:
173,193,46442,1,0,3:0:0:0:
179,153,46507,1,0,3:0:0:0:
186,114,46572,1,4,1:2:0:0:
357,75,46768,1,0,3:0:0:0:
194,67,46963,1,0,3:0:0:0:
425,193,47094,6,0,P|400:233|289:275,1,160,2|0,3:2|0:0,0:0:0:0:
167,328,47485,1,0,3:0:0:0:
206,335,47550,1,0,3:0:0:0:
245,343,47615,1,4,1:2:0:0:
152,257,47811,1,0,3:0:0:0:
23,225,48007,1,0,3:0:0:0:
270,181,48137,6,0,P|389:161|414:113,1,160,0|0,1:0|0:0,0:0:0:0:
267,98,48529,1,0,3:0:0:0:
266,58,48594,1,0,3:0:0:0:
266,18,48659,1,4,1:2:0:0:
107,215,48855,1,0,3:0:0:0:
279,264,49050,1,0,0:0:0:0:
46,298,49181,6,0,L|39:121,1,160,2|0,3:2|0:0,0:0:0:0:
179,106,49572,1,0,3:0:0:0:
180,66,49637,1,0,3:0:0:0:
182,26,49702,1,4,1:2:0:0:
353,217,49898,1,2,3:3:0:0:
176,292,50094,1,2,3:3:0:0:
445,280,50224,6,0,P|465:238|408:131,1,160,4|8,1:1|1:2,0:0:0:0:
307,125,50615,1,0,3:0:0:0:
408,58,50746,1,8,1:2:0:0:
277,23,50876,2,0,L|168:1,1,80,0|8,3:0|1:2,0:0:0:0:
439,222,51137,1,0,3:0:0:0:
332,238,51268,6,0,L|323:330,1,80,8|0,1:0|3:0,0:0:0:0:
205,317,51529,2,0,L|194:407,1,80,8|0,1:0|3:0,0:0:0:0:
46,376,51789,2,0,L|65:269,1,80,8|0,1:0|3:0,0:0:0:0:
148,247,52050,1,8,1:0:0:0:
390,147,52181,6,0,L|496:135,2,80,4|8|0,3:2|1:2|3:0,0:0:0:0:
252,131,52572,2,0,L|238:39,1,80,8|0,1:2|3:0,0:0:0:0:
385,35,52833,2,0,L|399:-53,1,80,8|0,1:2|3:0,0:0:0:0:
163,165,53094,1,8,1:2:0:0:
423,248,53224,1,12,1:2:0:0:
402,275,53615,5,2,0:0:0:0:
372,300,53876,1,2,0:0:0:0:
334,312,54137,1,2,0:0:0:0:
290,313,54398,1,0,0:0:0:0:
220,276,54528,1,2,0:0:0:0:
194,202,54658,1,0,0:0:0:0:
224,130,54789,1,2,0:0:0:0:
295,98,54919,5,2,0:0:0:0:
407,102,55050,1,0,0:0:0:0:
285,199,55181,1,0,0:0:0:0:
412,200,55311,1,0,0:0:0:0:
144,124,55442,6,0,P|93:146|62:257,1,160,4|0,3:1|3:0,0:0:0:0:
176,269,55833,2,0,L|184:375,1,80,10|0,1:2|3:0,0:0:0:0:
61,358,56094,1,8,1:2:0:0:
157,360,56224,1,2,3:1:0:0:
253,361,56355,1,8,1:2:0:0:
397,362,56485,6,0,P|408:265|341:229,1,160,2|0,3:2|3:0,0:0:0:0:
128,171,56876,2,0,P|83:134|159:78,1,160,10|8,1:1|1:2,0:0:0:0:
239,60,57268,1,2,3:2:0:0:
136,70,57398,1,8,1:2:0:0:
383,127,57529,5,6,3:1:0:0:
286,160,57659,2,0,P|248:178|223:293,1,160,8|8,1:2|1:2,0:0:0:0:
306,316,58050,2,0,L|414:339,1,80,0|8,3:0|1:2,0:0:0:0:
148,351,58311,1,2,3:2:0:0:
37,334,58442,1,8,1:2:0:0:
148,351,58572,6,0,L|311:315,1,160,2|0,3:1|3:0,0:0:0:0:
212,279,58963,1,8,1:2:0:0:
328,218,59094,2,0,L|341:124,1,80,2|8,3:1|1:2,0:0:0:0:
464,107,59355,2,0,L|440:15,1,80,2|8,3:1|1:0,0:0:0:0:
186,48,59615,5,4,3:2:0:0:
85,53,59746,1,8,1:2:0:0:
186,48,59876,1,0,3:0:0:0:
314,52,60007,2,0,P|303:117|216:161,1,160,10|8,1:2|1:2,0:0:0:0:
115,203,60398,1,2,3:2:0:0:
226,161,60529,1,8,1:2:0:0:
81,134,60659,5,2,3:2:0:0:
115,203,60789,1,8,1:2:0:0:
190,221,60919,1,0,3:0:0:0:
58,267,61050,2,0,L|44:98,1,160,10|8,1:2|1:2,0:0:0:0:
178,300,61442,2,0,L|191:211,1,80,2|8,3:2|1:2,0:0:0:0:
423,166,61702,5,4,3:1:0:0:
321,162,61833,1,8,1:2:0:0:
426,260,61963,1,2,3:2:0:0:
444,294,62028,1,0,3:0:0:0:
444,334,62093,1,8,1:2:0:0:
314,364,62224,2,0,L|233:375,1,80,0|8,3:0|1:2,0:0:0:0:
383,86,62485,1,0,3:0:0:0:
422,81,62550,1,0,3:0:0:0:
462,76,62615,1,8,1:2:0:0:
235,220,62746,5,0,3:0:0:0:
160,195,62876,1,8,1:2:0:0:
120,127,63007,1,0,3:0:0:0:
110,89,63072,1,0,3:0:0:0:
123,52,63137,1,8,1:2:0:0:
293,64,63268,1,0,3:1:0:0:
240,144,63398,1,0,3:0:0:0:
160,195,63528,1,8,3:3:0:0:
64,207,63659,1,4,3:0:0:0:
313,363,63789,6,0,L|502:314,2,160,6|0|2,1:1|3:0|1:0,0:0:0:0:
238,343,64441,1,0,0:0:0:0:
212,271,64571,1,0,3:0:0:0:
256,208,64702,1,0,3:0:0:0:
333,208,64832,1,2,1:0:0:0:
117,168,65094,2,0,L|30:165,1,80,0|0,3:0|3:0,0:0:0:0:
119,85,65355,2,0,L|288:63,1,160,2|0,1:0|3:0,0:0:0:0:
37,166,65876,6,0,L|37:348,1,160,4|0,1:2|3:0,0:0:0:0:
124,356,66268,1,0,3:0:0:0:
291,325,66398,2,0,L|141:258,1,160,2|0,1:0|3:0,0:0:0:0:
232,207,66789,1,0,3:0:0:0:
397,204,66920,2,0,L|423:111,1,80,4|0,1:2|3:0,0:0:0:0:
322,91,67181,2,0,L|298:-8,1,80,0|0,3:0|3:0,0:0:0:0:
141,20,67442,2,0,P|171:82|277:119,1,160,2|0,1:0|1:0,0:0:0:0:
336,163,67833,1,0,3:0:0:0:
102,238,67963,6,0,L|7:256,1,80,4|0,1:1|3:0,0:0:0:0:
140,316,68224,2,0,L|232:336,1,80,8|0,1:2|3:0,0:0:0:0:
69,278,68485,2,0,L|67:94,1,160,8|6,1:2|1:2,0:0:0:0:
153,86,68876,1,0,3:0:0:0:
402,103,69007,6,0,L|407:193,1,80,6|0,1:0|3:0,0:0:0:0:
294,247,69268,2,0,L|390:270,1,80,8|0,1:2|3:0,0:0:0:0:
252,336,69529,2,0,L|165:357,1,80,10|0,1:2|3:0,0:0:0:0:
321,382,69789,2,0,L|421:407,1,80,10|0,1:2|3:0,0:0:0:0:
166,268,70050,6,0,P|190:205|276:158,1,160,4|8,1:2|1:2,0:0:0:0:
406,146,70442,2,0,L|425:46,1,80,2|8,3:1|1:2,0:0:0:0:
283,46,70702,2,0,L|261:-46,1,80,0|10,3:0|1:2,0:0:0:0:
124,28,70963,1,0,3:0:0:0:
358,217,71094,6,0,P|408:234|477:342,1,160,12|8,1:1|1:2,0:0:0:0:
372,318,71485,1,0,3:0:0:0:
118,365,71615,2,0,L|27:346,1,80,10|2,1:1|1:1,0:0:0:0:
351,235,72137,6,0,L|157:213,1,160,4|0,3:1|3:0,0:0:0:0:
297,309,72529,2,0,L|472:329,1,160,10|8,1:2|1:2,0:0:0:0:
351,235,72920,1,2,3:1:0:0:
455,327,73050,1,8,1:2:0:0:
330,198,73181,2,0,L|166:173,1,160,2|0,3:2|3:0,0:0:0:0:
399,112,73572,2,0,L|483:95,2,80,10|0|8,1:1|3:0|1:2,0:0:0:0:
286,21,73963,2,0,L|385:32,1,80,2|8,3:2|1:2,0:0:0:0:
139,112,74224,6,0,L|137:210,1,80,6|8,3:1|1:2,0:0:0:0:
20,227,74485,2,0,L|31:313,1,80,0|8,3:0|1:2,0:0:0:0:
154,346,74746,2,0,P|257:375|303:344,1,160,0|2,3:0|3:2,0:0:0:0:
176,265,75137,1,8,1:2:0:0:
407,235,75268,5,2,3:1:0:0:
288,211,75398,1,8,1:2:0:0:
419,150,75529,2,0,P|472:120|464:9,1,160,0|2,3:0|3:1,0:0:0:0:
312,30,75920,2,0,L|341:117,1,80,8|2,1:2|3:1,0:0:0:0:
451,176,76181,1,8,1:0:0:0:
191,182,76311,6,0,P|143:195|98:304,1,160,4|0,3:2|3:0,0:0:0:0:
252,272,76702,2,0,L|258:108,1,160,10|8,1:2|1:2,0:0:0:0:
147,73,77094,1,2,3:2:0:0:
261,28,77224,1,8,1:2:0:0:
23,124,77355,2,0,P|54:186|150:206,1,160,2|0,3:2|3:0,0:0:0:0:
380,310,77746,2,0,L|463:315,2,80,10|0|8,1:2|3:0|1:2,0:0:0:0:
266,345,78137,2,0,L|168:358,1,80,2|8,3:2|1:2,0:0:0:0:
412,210,78398,6,0,L|501:193,1,80,4|8,3:1|1:2,0:0:0:0:
351,126,78659,2,0,L|335:37,1,80,0|8,3:0|1:2,0:0:0:0:
198,60,78920,2,0,L|216:154,1,80,0|8,3:0|1:2,0:0:0:0:
380,310,79181,1,0,3:0:0:0:
419,318,79246,1,0,3:0:0:0:
458,326,79311,1,8,1:2:0:0:
223,358,79442,5,2,3:2:0:0:
145,342,79572,1,0,3:2:0:0:
82,294,79702,1,0,3:0:0:0:
48,222,79833,1,0,3:2:0:0:
166,171,79963,1,2,3:2:0:0:
285,162,80094,1,0,3:0:0:0:
166,171,80224,1,8,3:3:0:0:
285,162,80355,1,4,3:3:0:0:
39,63,80485,6,0,L|49:257,1,160,6|0,1:1|3:0,0:0:0:0:
284,321,81007,2,0,L|285:130,1,160,2|0,1:0|3:0,0:0:0:0:
199,146,81398,1,0,3:0:0:0:
344,233,81529,2,0,P|423:208|472:138,1,160,2|0,1:0|3:0,0:0:0:0:
371,122,81920,1,0,3:0:0:0:
139,308,82050,1,2,1:0:0:0:
318,335,82311,1,0,3:0:0:0:
51,166,82572,6,0,P|67:102|162:51,1,160,4|0,1:2|3:0,0:0:0:0:
403,222,83094,2,0,L|226:262,1,160,2|0,1:0|3:0,0:0:0:0:
250,354,83485,1,0,3:0:0:0:
380,383,83615,2,0,L|366:286,1,80,4|0,1:2|3:0,0:0:0:0:
499,251,83876,2,0,L|500:160,1,80,0|0,3:0|3:0,0:0:0:0:
334,147,84137,2,0,P|324:76|373:0,1,160,2|0,1:0|1:0,0:0:0:0:
476,16,84529,1,0,3:0:0:0:
228,225,84659,6,0,L|125:250,1,80,4|0,1:1|3:0,0:0:0:0:
283,304,84920,2,0,L|279:400,1,80,8|0,1:2|3:0,0:0:0:0:
143,164,85181,2,0,L|232:144,1,80,8|0,1:2|3:0,0:0:0:0:
114,80,85442,2,0,L|25:101,1,80,6|0,1:2|3:0,0:0:0:0:
293,91,85702,6,0,L|306:-9,1,80,6|0,1:0|3:0,0:0:0:0:
157,182,85963,2,0,L|121:343,1,160,8|10,1:2|1:2,0:0:0:0:
242,358,86355,1,0,3:0:0:0:
124,255,86485,2,0,L|21:270,1,80,10|0,1:2|3:0,0:0:0:0:
296,279,86746,6,0,L|476:245,1,160,4|8,1:2|1:2,0:0:0:0:
342,186,87137,1,2,3:1:0:0:
446,162,87268,1,8,1:2:0:0:
310,104,87398,1,0,3:0:0:0:
429,81,87529,2,0,P|439:37|420:-2,1,80,10|0,1:2|3:0,0:0:0:0:
172,114,87789,6,0,P|196:65|303:17,1,160,12|8,1:1|1:2,0:0:0:0:
185,9,88181,1,0,3:0:0:0:
414,266,88311,2,0,L|495:251,1,80,10|2,1:1|1:1,0:0:0:0:
143,358,88702,6,0,P|77:324|37:241,1,160,4|0,1:1|3:0,0:0:0:0:
163,219,89094,2,0,L|171:115,1,80,8|0,1:0|0:0,0:0:0:0:
40,106,89355,2,0,L|36:12,1,80,0|2,3:0|3:1,0:0:0:0:
285,40,89615,1,8,1:2:0:0:
452,120,89876,5,0,3:0:0:0:
377,139,90006,1,2,0:1:0:0:
346,210,90136,1,8,1:1:0:0:
382,278,90267,1,2,0:1:0:0:
458,292,90397,1,0,3:0:0:0:
226,335,90529,2,0,L|128:353,1,80,0|8,3:0|1:2,0:0:0:0:
401,349,90789,6,0,P|456:309|463:204,1,160,4|0,3:1|3:0,0:0:0:0:
354,177,91181,2,0,L|246:158,1,80,8|0,1:0|0:0,0:0:0:0:
397,94,91442,2,0,L|479:83,1,80,0|2,3:0|3:1,0:0:0:0:
227,46,91702,1,8,1:2:0:0:
212,79,91963,5,8,1:2:0:0:
373,208,92094,2,0,L|212:246,2,160,0|0|0,3:0|3:0|3:0,0:0:0:0:
31,176,92876,6,0,L|57:351,1,160,4|0,1:0|3:0,0:0:0:0:
177,361,93268,2,0,L|157:264,1,80,8|0,1:2|0:0,0:0:0:0:
280,260,93529,2,0,L|294:162,1,80,0|2,3:0|3:1,0:0:0:0:
174,138,93789,2,0,L|83:127,1,80,8|2,1:0|0:1,0:0:0:0:
328,80,94050,5,0,3:0:0:0:
218,69,94181,1,2,0:1:0:0:
290,96,94311,1,8,1:0:0:0:
320,168,94441,1,2,0:1:0:0:
288,239,94572,1,0,3:0:0:0:
214,265,94702,1,0,3:0:0:0:
354,284,94833,1,8,1:2:0:0:
102,276,94963,6,0,P|124:214|220:164,1,160,4|0,3:1|3:0,0:0:0:0:
356,147,95355,2,0,P|426:117|454:11,1,160,8|0,1:0|3:0,0:0:0:0:
356,39,95745,1,2,3:1:0:0:
255,37,95875,1,8,1:2:0:0:
155,36,96006,1,2,0:1:0:0:
404,304,96137,6,0,L|493:304,1,80,12|2,1:2|3:1,0:0:0:0:
323,225,96529,1,12,1:2:0:0:
454,204,96659,1,2,3:1:0:0:
271,146,96920,1,4,1:2:0:0:
423,111,97050,1,2,3:1:0:0:
210,81,97311,1,4,1:2:0:0:
400,23,97442,1,2,3:1:0:0:
181,106,97702,5,4,1:2:0:0:
271,146,97833,1,8,1:0:0:0:
360,179,97963,1,8,1:0:0:0:
106,283,98094,1,4,1:2:0:0:
