osu file format v14

[General]
AudioFilename: audio.mp3
AudioLeadIn: 0
PreviewTime: 53521
Countdown: 0
SampleSet: Soft
StackLeniency: 0.7
Mode: 0
LetterboxInBreaks: 0
WidescreenStoryboard: 1

[Editor]
DistanceSpacing: 1
BeatDivisor: 4
GridSize: 8
TimelineZoom: 2.799999

[Metadata]
Title:Yakata Mawari
TitleUnicode:館廻り
Artist:Denkishiki Karen Ongaku Shuudan
ArtistUnicode:電気式華憐音楽集団
Creator:-Light-
Version:Extra
Source:死に逝く君、館に芽吹く憎悪
Tags:wajinshu ataraxia schoolboy komore internallight djulus m3gb3g trynna denkare eroge yousei teikoku shi ni iku kimi yakata ni mebuku zouo Bug System
BeatmapID:1662214
BeatmapSetID:788114

[Difficulty]
HPDrainRate:5.7
CircleSize:4
OverallDifficulty:8.8
ApproachRate:9.4
SliderMultiplier:1.88
SliderTickRate:1

[Events]
//Background and Video events
0,0,"0467.jpg",0,0
//Break Periods
2,53460,54938
//Storyboard Layer 0 (Background)
//Storyboard Layer 1 (Fail)
//Storyboard Layer 2 (Pass)
//Storyboard Layer 3 (Foreground)
//Storyboard Sound Samples

[TimingPoints]
11639,260.869565217391,4,2,1,55,1,0
11639,-153.846153846154,4,2,1,55,0,0
13725,-100,4,2,1,55,0,0
14378,279.06976744186,4,2,1,55,1,0
14936,250,4,2,1,55,1,0
15186,255.31914893617,4,2,1,55,1,0
15696,260.869565217391,4,2,1,70,1,0
15696,-100,4,2,1,70,0,0
41913,260.869565217391,4,2,1,50,1,0
41913,-133.333333333333,4,2,1,50,0,0
49217,-100,4,2,1,60,0,0
52347,-100,4,2,1,70,0,0
53260,-133.333333333333,4,2,1,40,0,0
54434,-200,4,2,1,40,0,0
54956,-100,4,2,0,60,0,0
55478,-100,4,1,2,75,0,1
63304,-100,4,1,2,85,0,1
63825,-100,4,2,1,65,0,1
63826,-133.333333333333,4,2,1,65,0,0
65391,-100,4,2,1,65,0,0
65912,-133.333333333333,4,2,1,65,0,0
67478,-100,4,2,1,65,0,0
67999,-100,4,1,2,85,0,1
70086,-100,4,1,2,95,0,1
71782,-100,4,2,1,100,0,0
72173,-100,4,1,2,85,0,1
80521,-133.333333333333,4,2,1,65,0,0
82086,-100,4,2,1,65,0,0
82608,-133.333333333333,4,2,1,65,0,0
84173,-100,4,2,1,65,0,0
84695,-100,4,1,2,85,0,1
86782,-100,4,1,2,95,0,1
88478,-100,4,2,1,100,0,0
88739,260.869565217391,4,1,2,75,1,0
88739,-100,4,1,2,75,0,0
96173,-100,4,1,2,80,0,0
96565,-100,4,1,2,85,0,0
96956,-100,4,1,2,90,0,0
97347,-100,4,1,2,95,0,0
97738,-100,4,1,2,100,0,0
98130,-83.3333333333333,4,1,2,100,0,0

[Colours]
Combo1 : 61,235,91
Combo2 : 239,80,80
Combo3 : 151,182,240
Combo4 : 233,27,27
Combo5 : 203,245,73
Combo6 : 96,108,223

[HitObjects]
388,351,13725,6,0,L|282:341,1,94,4|0,0:2|0:0,0:0:0:0:
99,256,14117,5,4,0:2:0:0:
269,166,14378,5,8,0:1:0:0:
209,336,14517,1,8,0:1:0:0:
178,128,14657,1,8,0:1:0:0:
273,262,14796,1,4,0:2:0:0:
282,277,15186,6,0,B|287:222|287:222|280:187|280:187|292:82,1,188,4|0,0:2|0:0,0:0:0:0:
497,70,15696,6,0,L|486:177,1,94,4|0,0:1|0:0,0:0:0:0:
369,277,15956,2,0,L|378:183,1,94,0|8,0:0|0:1,0:0:0:0:
426,361,16217,1,0,0:0:0:0:
282,277,16348,1,0,3:0:0:0:
486,243,16478,1,0,3:0:0:0:
327,374,16609,2,0,L|230:357,1,94,8|0,0:1|0:0,0:0:0:0:
183,171,16869,6,0,P|202:209|193:273,1,94,2|0,3:1|3:0,0:0:0:0:
56,349,17130,2,0,P|37:311|46:247,1,94,10|0,0:1|0:0,0:0:0:0:
140,94,17391,1,2,3:1:0:0:
113,289,17522,1,2,3:1:0:0:
10,140,17652,1,10,0:1:0:0:
168,223,17782,6,0,B|232:212|232:212|271:231|271:231|371:215,1,188,4|0,0:2|0:0,0:0:0:0:
439,38,18174,2,0,P|404:27|346:63,1,94,8|0,0:1|0:0,0:0:0:0:
367,236,18435,1,0,3:0:0:0:
241,103,18565,1,0,3:0:0:0:
215,291,18695,2,0,L|228:391,1,94,8|0,0:1|0:0,0:0:0:0:
288,221,18956,5,8,0:1:0:0:
94,171,19087,1,0,3:0:0:0:
132,368,19348,5,0,3:2:0:0:
241,103,19609,5,0,3:2:0:0:
35,268,19869,6,0,B|84:250|124:262|124:262|164:299|236:289,1,188,4|0,0:2|3:0,0:0:0:0:
372,371,20261,2,0,P|367:325|372:269,1,94,8|0,0:1|0:0,0:0:0:0:
377,75,20522,1,0,3:0:0:0:
292,262,20652,1,0,3:0:0:0:
442,161,20782,2,0,L|340:147,1,94,8|0,0:1|0:0,0:0:0:0:
180,36,21043,6,0,B|168:71|168:71|169:144,1,94,2|0,3:1|3:0,0:0:0:0:
272,279,21304,2,0,B|284:244|284:244|283:171,1,94,10|0,0:1|0:0,0:0:0:0:
65,223,21565,1,2,3:1:0:0:
162,374,21695,1,2,3:1:0:0:
199,157,21826,1,10,0:1:0:0:
26,323,21956,6,0,B|81:316|81:316|132:336|132:336|228:326,1,188,0|0,0:0|0:0,0:0:0:0:
199,137,22348,2,0,P|158:166|135:219,1,94,8|0,0:1|0:0,0:0:0:0:
322,249,22609,1,0,3:0:0:0:
293,68,22739,1,0,3:0:0:0:
228,227,22869,2,0,L|333:213,1,94,8|0,0:1|0:0,0:0:0:0:
455,78,23130,5,8,0:1:0:0:
430,274,23261,1,0,3:0:0:0:
445,66,23522,5,8,0:1:0:0:
322,249,23652,1,0,3:0:0:0:
441,53,23913,5,8,0:1:0:0:
246,149,24043,1,0,3:0:0:0:
442,37,24304,5,8,0:1:0:0:
225,48,24435,1,0,3:0:0:0:
393,187,24695,5,8,0:1:0:0:
286,369,24825,1,8,0:1:0:0:
257,134,24956,1,8,0:1:0:0:
396,276,25087,6,0,L|293:267,1,94,4|0,0:0|0:0,0:0:0:0:
93,192,25348,1,0,3:0:0:0:
142,377,25478,1,8,0:1:0:0:
246,209,25609,1,0,0:0:0:0:
92,300,25739,2,0,L|195:288,1,94,0|0,3:0|3:0,0:0:0:0:
137,114,26000,1,8,0:1:0:0:
20,256,26130,6,0,B|10:292|10:292|19:352,1,94,0|0,3:0|0:0,0:0:0:0:
167,209,26391,1,0,3:0:0:0:
24,121,26522,1,8,0:1:0:0:
92,300,26652,1,0,0:0:0:0:
137,114,26782,2,0,L|141:15,1,94,0|0,3:0|3:0,0:0:0:0:
70,188,27043,1,8,0:1:0:0:
232,147,27174,6,0,B|289:138|289:138|341:163|341:163|434:151,1,188,0|0,3:0|3:0,0:0:0:0:
300,48,27565,1,8,0:1:0:0:
306,231,27695,1,0,0:0:0:0:
445,82,27826,1,0,3:0:0:0:
462,238,27956,2,0,L|451:336,1,94,0|8,3:0|0:1,0:0:0:0:
294,218,28217,6,0,P|345:199|408:212,1,94,0|0,3:0|0:0,0:0:0:0:
248,377,28478,1,0,3:0:0:0:
231,169,28609,1,8,0:1:0:0:
325,305,28739,1,0,3:0:0:0:
125,370,28869,2,0,L|135:260,2,94,0|0|8,0:0|3:1|0:1,0:0:0:0:
218,192,29261,6,0,B|210:136|210:136|221:6,1,188,4|0,0:0|3:0,0:0:0:0:
403,133,29652,2,0,P|359:148|304:140,1,94,8|0,0:1|0:0,0:0:0:0:
408,2,29913,1,0,3:0:0:0:
508,108,30043,2,0,L|500:221,1,94,0|8,3:0|0:1,0:0:0:0:
364,325,30304,2,0,L|357:231,1,94,0|0,3:0|0:0,0:0:0:0:
461,318,30565,5,0,3:0:0:0:
284,230,30695,1,8,0:1:0:0:
423,165,30826,1,0,0:0:0:0:
364,325,30956,1,0,3:0:0:0:
323,142,31087,2,0,L|328:43,1,94,0|8,3:0|0:1,0:0:0:0:
300,221,31348,6,0,B|251:206|214:220|214:220|179:250|107:235,1,188,0|0,3:0|3:0,0:0:0:0:
110,57,31739,2,0,P|140:87|150:144,1,94,8|0,0:1|0:0,0:0:0:0:
122,322,32000,1,0,3:0:0:0:
20,214,32130,2,0,L|30:110,1,94,0|8,3:0|0:1,0:0:0:0:
243,37,32391,6,0,L|251:130,1,94,0|0,3:0|0:0,0:0:0:0:
235,310,32652,1,0,3:0:0:0:
103,191,32782,2,0,P|153:174|202:189,1,94,8|0,0:1|0:0,0:0:0:0:
305,362,33043,5,8,0:1:0:0:
336,151,33174,1,8,0:1:0:0:
315,161,33435,6,0,B|376:154|376:154|408:175|408:175|504:165,1,188,4|0,0:0|3:0,0:0:0:0:
362,63,33826,2,0,L|264:77,1,94,8|0,0:1|0:0,0:0:0:0:
377,250,34087,1,0,3:0:0:0:
445,83,34217,1,0,3:0:0:0:
223,149,34348,1,8,0:1:0:0:
389,262,34478,6,0,P|400:212|394:159,1,94,0|0,3:0|0:0,0:0:0:0:
231,263,34739,1,0,3:0:0:0:
345,352,34869,2,0,L|447:341,1,94,8|0,0:1|0:0,0:0:0:0:
243,247,35130,2,0,L|141:236,1,94,0|0,3:0|3:0,0:0:0:0:
252,373,35391,1,8,0:1:0:0:
322,225,35522,6,0,B|330:175|315:128|315:128|290:90|304:29,1,188,0|0,3:0|3:0,0:0:0:0:
492,150,35913,2,0,P|448:164|393:156,1,94,8|0,0:1|0:0,0:0:0:0:
212,66,36174,1,0,3:0:0:0:
407,37,36304,1,0,3:0:0:0:
322,225,36435,1,8,0:1:0:0:
196,74,36565,6,0,B|251:79|251:79|291:107|291:107|395:111,1,188,0|0,3:0|3:0,0:0:0:0:
466,262,36956,2,0,P|420:253|373:293,1,94,8|0,0:1|0:0,0:0:0:0:
208,368,37217,2,0,L|319:361,2,94,0|0|8,3:0|3:0|0:1,0:0:0:0:
64,230,37609,6,0,B|106:210|154:215|154:215|197:256|271:247,1,188,4|0,0:2|3:0,0:0:0:0:
246,63,38000,2,0,P|227:102|230:166,1,94,8|0,0:1|0:0,0:0:0:0:
350,280,38261,1,0,3:0:0:0:
410,115,38391,2,0,L|304:123,1,94,0|8,3:0|0:1,0:0:0:0:
168,267,38652,6,0,B|273:237|246:311|360:277,1,188,0|0,3:0|3:0,0:0:0:0:
501,157,39043,2,0,P|480:194|475:251,1,94,8|0,0:1|0:0,0:0:0:0:
363,373,39304,1,0,3:0:0:0:
306,197,39435,2,0,L|312:94,1,94,0|8,3:0|0:1,0:0:0:0:
349,279,39695,6,0,B|246:311|273:237|168:267,1,188,0|0,3:0|3:0,0:0:0:0:
115,95,40087,2,0,P|169:79|227:94,1,94,8|0,0:1|0:0,0:0:0:0:
168,266,40348,1,0,3:0:0:0:
21,195,40478,2,0,L|18:96,1,94,0|8,3:0|0:1,0:0:0:0:
170,172,40739,6,0,L|167:265,1,94,0|0,3:0|0:0,0:0:0:0:
129,81,41000,1,0,3:0:0:0:
309,96,41130,2,0,L|408:102,1,94,8|0,0:1|0:0,0:0:0:0:
269,252,41391,5,8,0:1:0:0:
246,38,41522,1,8,0:1:0:0:
361,149,41913,6,0,B|352:199|352:199|365:241|365:241|352:312,1,141.000005378723,4|0,0:1|0:0,0:0:0:0:
263,351,42304,1,0,3:0:0:0:
263,351,42369,1,0,3:0:0:0:
263,351,42434,2,0,P|250:308|272:247,1,105.750004034043,8|0,0:1|3:0,0:0:0:0:
361,149,42826,1,0,3:3:0:0:
378,164,42956,6,0,B|300:143|314:190|227:167,1,141.000005378723,0|0,3:0|0:0,0:0:0:0:
119,137,43347,1,0,3:0:0:0:
119,137,43413,1,0,3:0:0:0:
119,137,43478,2,0,L|124:255,1,105.750004034043,8|0,0:1|3:3,0:0:0:0:
173,55,43869,1,0,3:0:0:0:
183,48,43999,6,0,B|150:38|107:47|107:47|69:69|29:55,1,141.000005378723,4|0,3:2|3:0,0:0:0:0:
38,191,44391,1,0,3:0:0:0:
38,191,44456,1,0,3:0:0:0:
38,191,44521,2,0,P|79:184|122:117,1,105.750004034043,8|0,0:1|3:0,0:0:0:0:
256,27,44913,1,0,3:0:0:0:
268,11,45043,6,0,B|263:66|263:66|276:86|276:86|266:165,1,141.000005378723,0|0,3:0|3:1,0:0:0:0:
335,269,45434,1,0,3:0:0:0:
335,269,45499,1,0,3:0:0:0:
335,269,45565,2,0,P|325:232|359:163,1,105.750004034043,8|0,0:1|0:0,0:0:0:0:
441,277,45956,1,0,3:0:0:0:
380,351,46086,6,0,B|306:331|322:383|234:356,1,141.000005378723,4|0,3:1|3:0,0:0:0:0:
185,211,46478,1,0,3:0:0:0:
185,211,46543,1,0,3:0:0:0:
185,211,46608,2,0,P|233:225|256:289,1,105.750004034043,8|0,0:1|3:0,0:0:0:0:
101,327,46999,1,0,3:0:0:0:
108,341,47130,6,0,B|111:279|111:279|103:237|103:237|109:180,1,141.000005378723,0|0,3:0|3:0,0:0:0:0:
172,35,47521,1,0,3:0:0:0:
172,35,47586,1,0,3:0:0:0:
172,35,47652,2,0,P|155:75|173:145,1,105.750004034043,8|0,0:1|3:0,0:0:0:0:
352,92,48043,1,0,3:0:0:0:
371,78,48173,6,0,B|332:68|307:73|307:73|261:96|227:90,1,141.000005378723,4|0,3:2|3:0,0:0:0:0:
251,190,48565,1,0,3:0:0:0:
251,190,48630,1,0,3:0:0:0:
251,190,48695,2,0,P|303:176|358:207,1,105.750004034043,8|0,0:1|3:0,0:0:0:0:
265,362,49086,1,0,3:0:0:0:
251,374,49217,6,0,B|256:319|256:319|242:284|242:284|252:177,1,188,4|0,3:2|3:0,0:0:0:0:
226,34,49608,1,0,3:0:0:0:
226,34,49673,1,0,3:0:0:0:
226,34,49739,2,0,B|267:22|267:22|370:47,1,141
272,176,50130,1,8,0:1:0:0:
441,336,50260,6,0,L|321:313,1,94,8|0,0:1|3:0,0:0:0:0:
180,194,50521,2,0,L|300:171,1,94,8|0,0:1|3:0,0:0:0:0:
445,97,50782,2,0,B|454:131|454:131|448:195,1,94,8|0,0:1|3:0,0:0:0:0:
268,269,51043,1,8,0:1:0:0:
243,67,51173,1,0,3:0:0:0:
243,67,51239,1,0,0:0:0:0:
243,67,51304,6,0,L|360:53,1,94,8|0,0:1|3:0,0:0:0:0:
180,194,51565,2,0,L|63:180,1,94,8|0,0:1|3:0,0:0:0:0:
268,269,51826,2,0,B|276:220|276:220|271:167,1,94,8|0,0:1|3:0,0:0:0:0:
102,286,52086,1,8,0:1:0:0:
269,355,52217,1,0,3:0:0:0:
269,355,52282,1,0,0:0:0:0:
269,355,52347,6,0,L|380:343,1,94,8|0,0:1|3:0,0:0:0:0:
510,196,52608,2,0,L|399:184,1,94,8|0,0:1|3:0,0:0:0:0:
192,136,52869,1,8,0:1:0:0:
257,341,52999,1,0,3:0:0:0:
304,102,53130,1,8,0:1:0:0:
194,275,53260,1,0,3:0:0:0:
400,78,55478,6,0,P|359:55|275:153,1,188,6|8,3:1|0:0,0:0:0:0:
381,331,55869,2,0,P|393:286|384:226,1,94,2|8,3:1|0:0,0:0:0:0:
271,137,56130,1,0,3:0:0:0:
207,336,56260,1,10,0:1:0:0:
207,336,56326,1,0,3:0:0:0:
207,336,56391,1,0,3:0:0:0:
47,215,56521,6,0,B|105:210|105:210|144:232|144:232|244:222,1,188,10|8,0:0|0:0,0:0:0:0:
181,26,56912,2,0,P|154:63|148:131,1,94,2|8,3:1|0:0,0:0:0:0:
250,247,57173,1,0,3:0:0:0:
297,38,57304,1,10,0:0:0:0:
297,38,57369,1,0,3:0:0:0:
297,38,57434,1,0,3:0:0:0:
412,280,57565,6,0,L|417:181,1,94,10|0,0:0|3:0,0:0:0:0:
217,175,57826,2,0,L|223:269,1,94,10|0,0:0|3:0,0:0:0:0:
420,288,58086,2,0,L|426:179,1,94,10|0,0:0|3:0,0:0:0:0:
228,165,58347,2,0,L|233:259,1,94,10|0,0:0|3:0,0:0:0:0:
373,42,58608,5,10,0:0:0:0:
318,258,58739,1,0,3:0:0:0:
255,50,58869,1,10,0:0:0:0:
425,187,58999,1,0,3:0:0:0:
425,187,59065,1,0,0:0:0:0:
425,187,59130,2,0,L|320:176,1,94,8|0,0:0|3:0,0:0:0:0:
161,59,59391,2,0,L|254:49,1,94,10|0,0:0|3:0,0:0:0:0:
224,257,59652,6,0,B|188:250|188:250|158:256|158:256|132:245|132:245|35:234,1,188,10|8,0:0|0:0,0:0:0:0:
161,59,60043,2,0,P|187:102|189:149,1,94,2|8,3:1|0:0,0:0:0:0:
91,334,60304,1,0,3:0:0:0:
106,129,60434,1,10,0:1:0:0:
106,129,60499,1,0,3:0:0:0:
106,129,60565,1,0,3:0:0:0:
198,334,60695,6,0,B|247:313|285:323|285:323|350:367|415:340,1,188,10|8,0:1|0:0,0:0:0:0:
497,165,61086,2,0,P|456:176|391:160,1,94,2|8,3:1|0:0,0:0:0:0:
246,46,61347,1,0,3:0:0:0:
275,281,61478,1,10,0:1:0:0:
275,281,61543,1,0,3:0:0:0:
275,281,61608,1,0,3:0:0:0:
332,39,61739,6,0,L|426:51,1,94,10|0,0:0|3:0,0:0:0:0:
457,241,61999,2,0,L|363:252,1,94,10|0,0:1|3:0,0:0:0:0:
334,49,62260,2,0,L|428:61,1,94,10|0,0:1|3:0,0:0:0:0:
458,250,62521,2,0,L|364:261,1,94,10|0,0:1|3:0,0:0:0:0:
149,194,62782,5,4,3:2:0:0:
348,146,62912,1,0,0:0:0:0:
136,189,63043,1,8,0:0:0:0:
293,370,63173,1,0,3:0:0:0:
293,370,63239,1,0,0:0:0:0:
293,370,63304,2,0,P|300:337|295:265,1,94,8|8,0:0|0:0,0:0:0:0:
180,116,63565,2,0,L|291:106,1,94,8|8,0:0|0:0,0:0:0:0:
297,277,63826,6,0,B|222:251|239:305|145:280,1,141.000005378723,4|0,0:1|3:0,0:0:0:0:
61,359,64217,1,0,3:0:0:0:
61,359,64347,2,0,P|41:319|60:219,1,141.000005378723,8|0,0:1|3:1,0:0:0:0:
165,138,64739,1,0,3:0:0:0:
165,138,64869,6,0,P|184:178|183:205,1,70.5000026893617,0|0,3:0|0:0,0:0:0:0:
40,137,65130,2,0,P|41:102|58:71,1,70.5000026893617,0|0,3:0|3:0,0:0:0:0:
195,28,65391,2,0,L|302:36,1,94,8|0,0:1|0:0,0:0:0:0:
351,162,65652,2,0,L|244:154,1,94,0|0,3:0|3:0,0:0:0:0:
437,84,65912,6,0,B|434:135|434:135|437:150|437:150|432:164|432:164|429:247,1,141.000005378723,4|0,3:0|3:0,0:0:0:0:
354,306,66304,1,0,3:0:0:0:
354,306,66434,2,0,P|345:265|351:212,1,70.5000026893617,8|0,0:1|0:0,0:0:0:0:
456,194,66695,2,0,P|465:235|459:288,1,70.5000026893617,0|0,3:0|3:0,0:0:0:0:
413,365,66956,6,0,P|381:383|331:382,1,70.5000026893617,0|0,3:0|0:0,0:0:0:0:
280,215,67217,2,0,P|314:218|345:235,1,70.5000026893617,0|0,3:0|3:0,0:0:0:0:
178,361,67478,2,0,B|167:322|167:322|172:250,1,94,8|0,0:1|0:0,0:0:0:0:
272,122,67739,2,0,B|283:161|283:161|278:233,1,94,0|0,3:0|3:0,0:0:0:0:
213,38,67999,6,0,L|320:27,1,94,4|0,3:1|3:0,0:0:0:0:
188,168,68260,2,0,L|81:157,1,94,10|0,0:0|3:0,0:0:0:0:
213,298,68521,2,0,L|306:288,1,94,10|0,0:0|3:0,0:0:0:0:
111,374,68782,1,10,0:0:0:0:
94,158,68912,1,0,3:0:0:0:
94,158,68978,1,0,3:0:0:0:
94,158,69043,6,0,L|201:169,1,94,4|0,3:2|3:0,0:0:0:0:
365,81,69304,2,0,P|340:109|325:177,1,94,10|0,0:0|3:0,0:0:0:0:
402,334,69565,2,0,P|409:297|388:230,1,94,10|0,0:0|3:0,0:0:0:0:
209,198,69826,1,10,0:0:0:0:
293,375,69956,1,0,3:0:0:0:
293,375,70021,1,0,3:0:0:0:
293,375,70086,6,0,B|298:333|298:333|296:315|296:315|301:275,1,94,4|0,3:1|3:0,0:0:0:0:
201,104,70347,2,0,B|205:137|205:137|203:155|203:155|208:197,1,94,10|0,0:0|3:0,0:0:0:0:
359,45,70608,2,0,P|313:32|255:50,1,94,10|0,0:0|3:0,0:0:0:0:
334,245,70869,1,10,0:0:0:0:
468,115,70999,1,0,3:0:0:0:
468,115,71065,1,0,3:0:0:0:
468,115,71130,6,0,L|462:213,1,94,10|0,0:0|3:0,0:0:0:0:
339,338,71391,2,0,L|333:244,1,94,10|0,0:0|3:0,0:0:0:0:
268,41,71652,5,8,0:0:0:0:
191,275,71782,1,8,0:1:0:0:
177,290,72173,6,0,B|178:235|178:235|169:206|169:206|179:81,1,188,6|8,3:1|0:0,0:0:0:0:
342,165,72565,2,0,P|304:178|244:167,1,94,2|8,3:1|0:0,0:0:0:0:
355,40,72826,1,0,3:0:0:0:
453,173,72956,1,10,0:1:0:0:
453,173,73021,1,0,3:0:0:0:
453,173,73086,1,0,3:0:0:0:
328,350,73217,6,0,B|332:307|332:307|327:288|327:288|334:264|334:264|342:160,1,188,10|8,0:0|0:0,0:0:0:0:
232,32,73608,2,0,L|236:129,1,94,2|8,3:1|0:0,0:0:0:0:
233,307,73869,1,0,3:0:0:0:
341,164,73999,1,10,0:0:0:0:
341,164,74065,1,0,3:0:0:0:
341,164,74130,1,0,3:0:0:0:
150,152,74260,6,0,B|137:188|137:188|140:248,1,94,10|0,0:0|3:0,0:0:0:0:
307,363,74521,2,0,B|320:327|320:327|317:271,1,94,10|0,0:0|3:0,0:0:0:0:
142,141,74782,2,0,B|127:181|127:181|131:247,1,94,10|0,0:0|3:0,0:0:0:0:
314,373,75043,2,0,B|329:333|329:333|326:272,1,94,10|0,0:0|3:0,0:0:0:0:
226,85,75304,5,10,0:0:0:0:
233,307,75434,1,0,3:0:0:0:
354,143,75565,1,10,0:0:0:0:
401,335,75695,1,0,3:0:0:0:
401,335,75760,1,0,0:0:0:0:
401,335,75826,2,0,L|407:235,1,94,8|0,0:0|3:0,0:0:0:0:
275,150,76086,2,0,L|280:243,1,94,10|0,0:0|3:0,0:0:0:0:
406,45,76347,6,0,B|365:35|321:46|321:46|289:80|225:71,1,188,10|8,0:0|0:0,0:0:0:0:
31,41,76739,2,0,P|76:61|97:118,1,94,2|8,3:1|0:0,0:0:0:0:
93,289,76999,1,0,3:0:0:0:
12,123,77130,1,10,0:1:0:0:
12,123,77195,1,0,3:0:0:0:
12,123,77260,1,0,3:0:0:0:
192,187,77391,6,0,B|184:266|184:266|186:287|186:287|179:307|179:307|172:382,1,188,10|8,0:1|0:0,0:0:0:0:
102,196,77782,2,0,L|112:102,1,94,2|8,3:1|0:0,0:0:0:0:
276,169,78043,1,0,3:0:0:0:
180,318,78173,1,10,0:1:0:0:
180,318,78239,1,0,3:0:0:0:
180,318,78304,1,0,3:0:0:0:
222,101,78434,6,0,B|259:90|259:90|325:95,1,94,10|0,0:0|3:0,0:0:0:0:
350,299,78695,2,0,B|299:304|299:304|258:292,1,94,10|0,0:1|3:0,0:0:0:0:
228,90,78956,2,0,B|269:78|269:78|341:84,1,94,10|0,0:1|3:0,0:0:0:0:
344,288,79217,2,0,B|289:293|289:293|252:282,1,94,10|0,0:1|3:0,0:0:0:0:
153,170,79478,5,4,3:2:0:0:
219,375,79608,1,0,0:0:0:0:
272,165,79739,1,8,0:0:0:0:
114,322,79869,1,0,3:0:0:0:
114,322,79934,1,0,0:0:0:0:
114,322,79999,2,0,L|13:311,1,94,8|8,0:0|0:0,0:0:0:0:
224,245,80260,2,0,L|317:234,1,94,8|8,0:0|0:0,0:0:0:0:
134,105,80521,6,0,B|103:139|103:139|106:244,1,141.000005378723,4|0,0:1|3:0,0:0:0:0:
207,155,80912,1,0,3:0:0:0:
207,155,81043,2,0,P|218:122|220:78,1,70.5000026893617,8|0,0:1|0:0,0:0:0:0:
296,29,81304,2,0,P|298:64|309:97,1,70.5000026893617,0|0,3:1|3:0,0:0:0:0:
422,187,81565,6,0,L|346:178,1,70.5000026893617,0|0,3:0|0:0,0:0:0:0:
276,294,81826,2,0,L|346:285,1,70.5000026893617,0|0,3:0|3:0,0:0:0:0:
219,227,82086,2,0,P|190:258|178:311,1,94,8|0,0:1|0:0,0:0:0:0:
351,178,82347,2,0,P|340:132|309:97,1,94,0|0,3:0|3:0,0:0:0:0:
173,17,82608,6,0,P|192:57|151:142,1,141.000005378723,4|0,3:2|3:0,0:0:0:0:
37,61,82999,1,0,3:0:0:0:
37,61,83130,2,0,P|73:57|107:66,1,70.5000026893617,8|0,0:1|0:0,0:0:0:0:
129,171,83391,2,0,P|93:175|59:166,1,70.5000026893617,0|0,3:0|3:0,0:0:0:0:
205,120,83652,6,0,B|213:144|213:144|210:195,1,70.5000026893617,0|0,3:0|0:0,0:0:0:0:
138,321,83912,2,0,B|130:297|130:297|132:251,1,70.5000026893617,0|0,3:0|3:0,0:0:0:0:
291,233,84173,2,0,P|258:264|201:273,1,94,8|0,0:1|0:0,0:0:0:0:
205,120,84434,2,0,P|238:89|295:80,1,94,0|0,3:0|3:0,0:0:0:0:
459,290,84695,6,0,L|355:268,1,94,4|0,3:1|3:0,0:0:0:0:
404,84,84956,2,0,B|423:118|423:118|411:180,1,94,10|0,0:0|3:0,0:0:0:0:
299,321,85217,2,0,B|280:287|280:287|290:232,1,94,10|0,0:0|3:0,0:0:0:0:
294,26,85478,1,10,0:0:0:0:
412,172,85608,1,0,3:0:0:0:
412,172,85673,1,0,3:0:0:0:
412,172,85739,6,0,B|380:165|380:165|363:170|363:170|317:163,1,94,4|0,3:2|3:0,0:0:0:0:
164,65,85999,2,0,P|189:106|192:154,1,94,10|0,0:0|3:0,0:0:0:0:
88,345,86260,2,0,P|91:298|116:258,1,94,10|0,0:0|3:0,0:0:0:0:
275,170,86521,1,10,0:0:0:0:
242,364,86652,1,0,3:0:0:0:
242,364,86717,1,0,3:0:0:0:
242,364,86782,6,0,L|239:258,1,94,6|0,3:1|3:0,0:0:0:0:
373,178,87043,2,0,L|370:271,1,94,10|0,0:0|3:0,0:0:0:0:
255,73,87304,2,0,P|302:62|361:78,1,94,10|0,0:0|3:0,0:0:0:0:
239,270,87565,1,10,0:0:0:0:
142,113,87695,1,0,3:0:0:0:
142,113,87760,1,0,3:0:0:0:
142,113,87826,6,0,L|144:19,1,94,10|0,0:0|0:0,0:0:0:0:
319,268,88086,2,0,L|316:361,1,94,10|0,0:0|3:0,0:0:0:0:
189,212,88347,5,10,0:0:0:0:
453,143,88478,1,8,0:1:0:0:
469,130,88739,6,0,B|427:123|427:123|406:109|406:109|377:118|377:118|267:103,1,188,6|0,3:1|3:0,0:0:0:0:
204,233,89130,2,0,L|318:224,1,94,10|0,0:0|0:0,0:0:0:0:
141,146,89391,1,2,3:1:0:0:
172,327,89521,1,2,3:1:0:0:
237,147,89652,2,0,L|243:45,1,94,8|2,0:0|0:1,0:0:0:0:
110,238,89912,6,0,B|145:240|145:240|214:231,1,94,2|0,3:1|3:1,0:0:0:0:
242,53,90173,2,0,B|207:51|207:51|138:60,1,94,10|0,0:0|0:0,0:0:0:0:
297,205,90434,1,2,3:1:0:0:
402,63,90565,1,2,3:1:0:0:
438,248,90695,1,10,0:0:0:0:
262,130,90825,6,0,B|325:122|325:122|365:146|365:146|470:135,1,188,6|0,3:1|3:0,0:0:0:0:
308,294,91217,2,0,P|291:249|299:199,1,94,10|0,0:0|0:0,0:0:0:0:
354,383,91478,1,2,3:1:0:0:
206,250,91608,1,2,3:1:0:0:
438,248,91739,1,8,0:0:0:0:
242,361,91869,5,2,0:0:0:0:
242,361,91999,2,0,L|139:347,1,94,8|2,0:0|0:0,0:0:0:0:
290,145,92391,5,2,3:1:0:0:
354,383,92652,5,2,3:1:0:0:
376,189,92912,6,0,B|383:135|383:135|369:95|369:95|379:-6,1,188,6|0,3:1|0:1,0:0:0:0:
487,171,93304,2,0,P|492:221|479:268,1,94,10|0,0:0|0:0,0:0:0:0:
341,369,93565,1,2,3:1:0:0:
290,145,93695,1,2,3:1:0:0:
401,276,93825,2,0,L|296:263,1,94,8|2,0:0|0:0,0:0:0:0:
96,159,94086,6,0,P|138:143|199:147,1,94,2|0,3:1|3:0,0:0:0:0:
228,306,94347,2,0,P|186:322|125:318,1,94,10|0,0:0|0:0,0:0:0:0:
16,203,94608,1,2,3:1:0:0:
172,62,94739,1,2,3:1:0:0:
164,241,94869,1,10,0:1:0:0:
9,112,94999,6,0,B|57:94|101:114|101:114|138:154|212:140,1,188,6|0,3:1|3:0,0:0:0:0:
379,26,95391,2,0,P|348:60|336:110,1,94,10|0,0:0|0:0,0:0:0:0:
392,305,95652,1,2,3:1:0:0:
428,100,95782,1,2,3:1:0:0:
304,230,95912,2,0,L|410:222,1,94,8|2,0:0|0:0,0:0:0:0:
263,134,96173,5,10,0:1:0:0:
219,361,96304,1,2,0:1:0:0:
257,124,96565,5,10,0:1:0:0:
311,337,96695,1,2,3:1:0:0:
171,217,96956,5,10,0:1:0:0:
397,203,97086,1,2,3:1:0:0:
159,209,97347,5,10,0:1:0:0:
368,89,97478,1,2,3:1:0:0:
231,283,97738,5,10,0:1:0:0:
184,79,97868,1,10,0:1:0:0:
314,214,97999,1,10,0:1:0:0:
309,7,98130,1,4,3:2:0:0:
