osu file format v14

[General]
AudioFilename: audio.mp3
AudioLeadIn: 0
PreviewTime: 53521
Countdown: 0
SampleSet: Normal
StackLeniency: 0.7
Mode: 0
LetterboxInBreaks: 0
WidescreenStoryboard: 0

[Editor]
DistanceSpacing: 1
BeatDivisor: 8
GridSize: 4
TimelineZoom: 2.799999

[Metadata]
Title:Yakata Mawari
TitleUnicode:館廻り
Artist:Denkishiki Karen Ongaku Shuudan
ArtistUnicode:電気式華憐音楽集団
Creator:-Light-
Version:Disturbed
Source:死に逝く君、館に芽吹く憎悪
Tags:wajinshu ataraxia schoolboy komore internallight djulus m3gb3g trynna denkare eroge yousei teikoku shi ni iku kimi yakata ni mebuku zouo Bug System
BeatmapID:1654117
BeatmapSetID:788114

[Difficulty]
HPDrainRate:5.5
CircleSize:4.2
OverallDifficulty:9.2
ApproachRate:9.7
SliderMultiplier:2.1
SliderTickRate:1

[Events]
//Background and Video events
0,0,"0467.jpg",0,0
//Break Periods
//Storyboard Layer 0 (Background)
//Storyboard Layer 1 (Fail)
//Storyboard Layer 2 (Pass)
//Storyboard Layer 3 (Foreground)
//Storyboard Sound Samples

[TimingPoints]
11639,260.869565217391,4,2,1,55,1,0
11639,-153.846153846154,4,2,1,55,0,0
13725,-100,4,2,1,55,0,0
14378,279.06976744186,4,2,1,55,1,0
14936,250,4,2,1,55,1,0
15186,255.31914893617,4,2,1,55,1,0
15696,260.869565217391,4,2,1,70,1,0
41913,260.869565217391,4,2,1,50,1,0
41913,-133.333333333333,4,2,1,50,0,0
49217,-100,4,2,1,60,0,0
52347,-100,4,2,1,70,0,0
53260,-133.333333333333,4,2,1,40,0,0
54434,-200,4,2,1,40,0,0
54956,-100,4,2,0,60,0,0
55478,-100,4,1,2,75,0,1
63304,-100,4,1,2,85,0,1
63826,-133.333333333333,4,2,1,65,0,0
65391,-100,4,2,1,65,0,0
65912,-133.333333333333,4,2,1,65,0,0
67478,-100,4,2,1,65,0,0
67999,-100,4,1,2,85,0,1
70086,-100,4,1,2,95,0,1
71782,-100,4,2,1,100,0,0
72173,-100,4,1,2,85,0,1
80521,-133.333333333333,4,2,1,65,0,0
82086,-100,4,2,1,65,0,0
82608,-133.333333333333,4,2,1,65,0,0
84173,-100,4,2,1,65,0,0
84695,-100,4,1,2,85,0,1
86782,-100,4,1,2,95,0,1
88478,-100,4,2,1,100,0,0
88739,260.869565217391,4,1,2,75,1,0
88739,-100,4,1,2,75,0,0
96173,-100,4,1,2,80,0,0
96565,-100,4,1,2,85,0,0
96956,-100,4,1,2,90,0,0
97347,-100,4,1,2,95,0,0
97738,-100,4,1,2,100,0,0
98130,-83.3333333333333,4,1,2,100,0,0

[Colours]
Combo1 : 61,235,91
Combo2 : 239,80,80
Combo3 : 151,182,240
Combo4 : 233,27,27
Combo5 : 203,245,73
Combo6 : 96,108,223

[HitObjects]
256,192,6552,12,0,9649,0:0:0:0:
327,351,11638,5,0,0:0:0:0:
327,351,11899,2,0,L|324:271,1,68.2499968757631,2|0,0:2|0:0,0:0:0:0:
409,244,12160,2,0,L|412:164,1,68.2499968757631,2|0,0:2|0:0,0:0:0:0:
302,183,12421,2,0,L|299:103,1,68.2499968757631,2|0,0:2|0:0,0:0:0:0:
357,28,12682,6,0,P|313:8|229:41,1,136.499993751526,2|0,0:2|0:0,0:0:0:0:
83,213,13204,2,0,P|127:233|211:200,1,136.499993751526,2|0,0:2|0:0,0:0:0:0:
138,39,13725,6,0,L|140:153,1,105,4|0,0:2|0:0,0:0:0:0:
269,360,14117,2,0,L|270:255,1,105,4|0,0:2|0:0,0:0:0:0:
233,35,14378,1,8,0:1:0:0:
355,218,14517,1,8,0:1:0:0:
399,5,14657,1,8,0:1:0:0:
266,156,14796,6,0,L|391:140,1,105,4|0,0:2|0:0,0:0:0:0:
138,39,15186,2,0,L|13:23,1,105,4|0,0:2|0:0,0:0:0:0:
56,279,15696,6,0,B|107:260|157:273|157:273|200:315|272:297,1,210,4|0,0:1|0:0,0:0:0:0:
257,113,16087,2,0,P|231:157|230:215,1,105,8|0,0:1|0:0,0:0:0:0:
372,91,16348,1,0,3:0:0:0:
205,31,16478,1,0,3:0:0:0:
310,180,16609,2,0,L|437:167,1,105,8|0,0:1|0:0,0:0:0:0:
257,113,16869,5,2,3:1:0:0:
373,300,17000,1,0,3:0:0:0:
248,101,17130,1,10,0:1:0:0:
248,369,17261,1,0,0:0:0:0:
414,169,17391,1,2,3:1:0:0:
176,160,17522,1,2,3:1:0:0:
358,317,17652,1,10,0:1:0:0:
451,94,17782,6,0,B|400:83|359:102|359:102|313:145|239:121,1,210,4|0,0:2|0:0,0:0:0:0:
37,48,18174,2,0,L|45:157,1,105,8|0,0:1|0:0,0:0:0:0:
195,284,18435,1,0,3:0:0:0:
165,65,18565,1,0,3:0:0:0:
0,227,18695,2,0,P|47:236|108:213,1,105,8|0,0:1|0:0,0:0:0:0:
291,62,18956,1,8,0:1:0:0:
268,356,19087,5,0,3:0:0:0:
165,65,19348,5,0,3:2:0:0:
413,199,19609,5,0,3:2:0:0:
183,347,19869,6,0,B|191:280|191:280|189:222|189:222|203:126,1,210,4|0,0:2|3:0,0:0:0:0:
369,17,20261,2,0,P|390:67|364:128,1,105,8|0,0:1|0:0,0:0:0:0:
286,242,20522,1,0,3:0:0:0:
275,30,20652,1,0,3:0:0:0:
378,201,20782,2,0,L|360:320,1,105,8|0,0:1|0:0,0:0:0:0:
201,138,21043,5,2,3:1:0:0:
445,78,21174,1,0,3:0:0:0:
186,128,21304,1,10,0:1:0:0:
448,237,21435,1,0,0:0:0:0:
283,46,21565,1,2,3:1:0:0:
287,298,21695,1,2,3:1:0:0:
434,93,21826,1,10,0:1:0:0:
248,218,21956,6,0,B|194:212|194:212|144:231|144:231|36:216,1,210,0|0,0:0|0:0,0:0:0:0:
174,26,22348,2,0,P|191:80|183:134,1,105,8|0,0:1|0:0,0:0:0:0:
48,328,22609,1,0,3:0:0:0:
98,90,22739,1,0,3:0:0:0:
206,289,22869,2,0,L|93:273,1,105,8|0,0:1|0:0,0:0:0:0:
292,90,23130,5,8,0:1:0:0:
230,368,23261,1,0,3:0:0:0:
289,77,23521,5,8,0:1:0:0:
332,354,23652,1,0,3:0:0:0:
286,64,23913,5,8,0:1:0:0:
421,328,24043,1,0,3:0:0:0:
283,51,24304,5,8,0:1:0:0:
494,262,24435,1,0,3:0:0:0:
280,38,24695,5,8,0:1:0:0:
332,354,24826,1,8,0:1:0:0:
462,84,24956,1,8,0:1:0:0:
207,208,25087,6,0,B|262:209|262:209|318:231|318:231|417:233,1,210,4|0,0:0|3:0,0:0:0:0:
218,99,25478,1,8,0:1:0:0:
249,312,25609,1,0,0:0:0:0:
343,111,25739,1,0,3:0:0:0:
148,150,25869,2,0,P|127:191|131:258,1,105,0|8,3:0|0:1,0:0:0:0:
206,85,26130,6,0,P|161:68|89:83,1,105,0|0,3:0|0:0,0:0:0:0:
273,201,26391,1,0,3:0:0:0:
264,7,26522,1,8,0:1:0:0:
281,216,26652,1,0,0:0:0:0:
392,29,26782,1,0,3:0:0:0:
394,262,26913,1,0,3:0:0:0:
271,87,27043,1,8,0:1:0:0:
473,119,27174,6,0,B|456:159|467:207|467:207|492:267|471:330,1,210,0|0,3:0|3:0,0:0:0:0:
296,376,27565,1,8,0:1:0:0:
207,186,27695,1,0,0:0:0:0:
394,262,27826,1,0,3:0:0:0:
190,338,27956,2,0,L|79:324,1,105,0|8,3:0|0:1,0:0:0:0:
291,171,28217,6,0,B|312:220|312:220|295:379,1,210,0|0,3:0|3:0,0:0:0:0:
115,233,28609,1,8,0:1:0:0:
223,118,28739,2,0,P|259:96|328:103,1,105,0|0,3:0|0:0,0:0:0:0:
388,269,29000,1,0,3:1:0:0:
222,216,29130,1,8,0:1:0:0:
399,54,29261,6,0,B|395:117|395:117|367:167|367:167|366:265,1,210,4|0,0:0|3:0,0:0:0:0:
472,376,29652,2,0,P|490:335|480:263,1,105,8|0,0:1|0:0,0:0:0:0:
296,169,29913,1,0,3:0:0:0:
245,359,30043,2,0,L|360:346,1,105,0|8,3:0|0:1,0:0:0:0:
307,183,30304,6,0,B|249:167|211:182|211:182|156:235|101:213,1,210,0|0,3:0|3:0,0:0:0:0:
224,72,30695,1,8,0:1:0:0:
174,251,30826,1,0,0:0:0:0:
144,37,30956,1,0,3:0:0:0:
253,254,31087,2,0,L|243:373,1,105,0|8,3:0|0:1,0:0:0:0:
178,166,31348,6,0,B|237:156|237:156|295:182|295:182|404:174,1,210,0|0,3:0|3:0,0:0:0:0:
291,45,31739,1,8,0:1:0:0:
346,250,31869,1,0,0:0:0:0:
431,41,32000,1,0,3:0:0:0:
271,154,32130,2,0,P|249:211|254:259,1,105,0|8,3:0|0:1,0:0:0:0:
445,334,32391,6,0,B|462:273|462:273|444:119,1,210,0|0,3:0|3:0,0:0:0:0:
252,253,32782,1,8,0:1:0:0:
355,353,32913,1,0,0:0:0:0:
444,127,33043,5,8,0:1:0:0:
162,216,33174,1,8,0:1:0:0:
170,235,33435,6,0,B|180:174|180:174|164:121|164:121|180:13,1,210,4|0,0:0|3:0,0:0:0:0:
271,154,33826,2,0,P|283:211|268:256,1,105,8|0,0:1|0:0,0:0:0:0:
185,104,34087,1,0,3:0:0:0:
371,83,34217,1,0,3:0:0:0:
268,254,34348,1,8,0:1:0:0:
257,53,34478,6,0,B|307:35|307:35|470:55,1,210,0|0,3:0|3:0,0:0:0:0:
401,258,34869,2,0,P|391:203|406:154,1,105,8|0,0:1|0:0,0:0:0:0:
460,340,35130,1,0,3:0:0:0:
280,243,35261,1,0,3:0:0:0:
490,167,35391,1,8,0:1:0:0:
357,334,35522,6,0,B|304:322|263:335|263:335|228:370|145:358,1,210,0|0,3:0|3:0,0:0:0:0:
188,175,35913,2,0,P|203:226|193:281,1,105,8|0,0:1|0:0,0:0:0:0:
60,122,36174,1,0,3:0:0:0:
253,80,36304,1,0,3:0:0:0:
194,276,36435,1,8,0:1:0:0:
73,136,36565,6,0,B|127:117|185:133|185:133|226:168|293:157,1,210,0|0,3:0|3:0,0:0:0:0:
408,36,36956,2,0,P|389:81|382:144,1,105,8|0,0:1|0:0,0:0:0:0:
434,284,37217,1,0,3:0:0:0:
286,229,37348,1,0,3:0:0:0:
354,372,37478,1,8,0:1:0:0:
489,219,37609,6,0,B|440:200|440:200|269:232,1,210,4|0,0:2|3:0,0:0:0:0:
92,292,38000,1,8,0:1:0:0:
289,312,38130,1,0,0:0:0:0:
150,132,38261,1,0,3:0:0:0:
108,376,38391,2,0,L|223:359,1,105,0|8,3:0|0:1,0:0:0:0:
122,213,38652,6,0,P|69:207|18:336,1,210,0|0,3:0|3:0,0:0:0:0:
225,174,39043,2,0,P|236:132|222:68,1,105,8|0,0:1|0:0,0:0:0:0:
130,229,39304,1,0,3:0:0:0:
289,312,39435,2,0,L|402:291,1,105,0|8,3:0|0:1,0:0:0:0:
483,96,39695,6,0,B|430:84|375:107|375:107|337:139|276:128,1,210,0|0,3:0|3:0,0:0:0:0:
59,32,40087,2,0,P|111:19|178:32,1,105,8|0,0:1|0:0,0:0:0:0:
290,148,40348,1,0,3:0:0:0:
110,213,40478,2,0,L|117:96,1,105,0|8,3:0|0:1,0:0:0:0:
380,66,40739,6,0,L|373:183,1,105,0|0,3:0|0:0,0:0:0:0:
261,363,41000,1,0,3:0:0:0:
220,120,41130,1,8,0:1:0:0:
399,257,41261,1,0,0:0:0:0:
133,343,41391,5,8,0:1:0:0:
161,25,41522,1,8,0:1:0:0:
276,210,41913,6,0,B|232:196|199:205|199:205|163:227|115:223,1,157.500006008148,4|0,0:1|0:0,0:0:0:0:
10,120,42304,1,0,3:0:0:0:
10,120,42369,1,0,3:0:0:0:
10,120,42434,2,0,P|60:108|118:149,1,118.125004506111,8|0,0:1|3:0,0:0:0:0:
60,332,42825,1,0,3:3:0:0:
49,346,42956,6,0,B|42:308|42:308|54:268|54:268|47:174,1,157.500006008148,0|0,3:0|0:0,0:0:0:0:
140,33,43347,1,0,3:0:0:0:
140,33,43412,1,0,3:0:0:0:
140,33,43478,2,0,P|114:71|121:157,1,118.125004506111,8|0,0:1|3:3,0:0:0:0:
318,132,43869,1,0,3:0:0:0:
333,112,43999,6,0,B|298:84|298:84|181:94,1,157.500006008148,4|0,3:2|3:0,0:0:0:0:
235,258,44391,1,0,3:0:0:0:
235,258,44456,1,0,3:0:0:0:
235,258,44521,2,0,B|302:242|282:282|367:263,1,118.125004506111,8|0,0:1|3:0,0:0:0:0:
439,169,44912,1,0,3:0:0:0:
460,149,45043,6,0,B|472:190|472:190|459:314,1,157.500006008148,0|0,3:0|3:1,0:0:0:0:
299,336,45434,1,0,3:0:0:0:
299,336,45499,1,0,3:0:0:0:
299,336,45565,2,0,P|272:279|297:209,1,118.125004506111,8|0,0:1|0:0,0:0:0:0:
340,111,45956,1,0,3:0:0:0:
355,98,46086,6,0,B|300:89|300:89|271:105|271:105|193:95,1,157.500006008148,4|0,3:1|3:0,0:0:0:0:
29,53,46478,1,0,3:0:0:0:
29,53,46543,1,0,3:0:0:0:
29,53,46608,2,0,L|30:180,1,118.125004506111,8|0,0:1|3:0,0:0:0:0:
109,296,46999,1,0,3:0:0:0:
128,277,47130,6,0,P|81:262|29:350,1,157.500006008148,0|0,3:0|3:0,0:0:0:0:
209,373,47521,1,0,3:0:0:0:
209,373,47586,1,0,3:0:0:0:
209,373,47651,2,0,L|209:239,1,118.125004506111,8|0,0:1|3:0,0:0:0:0:
153,135,48043,1,0,3:0:0:0:
261,192,48173,6,0,B|299:175|335:189|335:189|372:216|419:210,1,157.500006008148,4|0,3:2|3:0,0:0:0:0:
423,17,48565,1,0,3:0:0:0:
423,17,48630,1,0,3:0:0:0:
423,17,48695,2,0,P|399:51|398:136,1,118.125004506111,8|0,0:1|3:0,0:0:0:0:
430,306,49087,1,0,3:0:0:0:
497,248,49218,6,0,B|442:215|387:236|387:236|355:273|290:266,1,210,4|0,3:2|3:0,0:0:0:0:
158,215,49609,1,0,3:0:0:0:
158,215,49674,1,0,3:0:0:0:
158,215,49739,1,8,0:1:0:0:
329,23,49934,6,0,L|316:180,1,157.5,0|0,3:0|3:0,0:0:0:0:
228,348,50260,5,8,0:1:0:0:
129,134,50391,1,0,3:0:0:0:
301,267,50521,1,8,0:1:0:0:
62,213,50651,1,0,3:0:0:0:
271,89,50782,1,8,0:1:0:0:
236,336,50912,1,0,3:0:0:0:
121,118,51043,1,8,0:1:0:0:
105,359,51173,1,0,3:0:0:0:
266,181,51304,5,8,0:1:0:0:
34,128,51434,1,0,3:0:0:0:
169,297,51565,1,8,0:1:0:0:
196,36,51695,1,0,3:0:0:0:
88,233,51825,1,8,0:1:0:0:
94,12,51956,1,0,3:0:0:0:
83,248,52086,1,8,0:1:0:0:
271,89,52217,1,0,3:0:0:0:
281,352,52347,5,8,0:1:0:0:
192,137,52478,1,0,3:0:0:0:
386,222,52608,1,8,0:1:0:0:
160,307,52738,1,0,3:0:0:0:
363,108,52869,1,8,0:1:0:0:
287,366,52999,1,0,3:0:0:0:
262,79,53130,1,8,0:1:0:0:
482,263,53260,1,0,3:0:0:0:
203,146,54434,6,0,B|178:135|134:147|134:147|89:183|34:167,1,157.5,2|0,0:2|0:0,0:0:0:0:
180,243,54956,5,2,0:2:0:0:
388,154,55086,1,2,0:2:0:0:
168,249,55217,1,2,0:2:0:0:
293,41,55347,1,2,0:2:0:0:
287,338,55478,6,0,B|292:279|292:279|287:220|287:220|294:123,1,210,6|8,3:1|0:0,0:0:0:0:
486,217,55869,2,0,P|446:248|392:245,1,105,2|8,3:1|0:0,0:0:0:0:
186,107,56130,1,0,3:0:0:0:
403,60,56260,1,10,0:1:0:0:
403,60,56325,1,0,3:0:0:0:
403,60,56391,1,0,3:0:0:0:
311,220,56521,6,0,B|191:264|231:169|104:212,1,210,10|8,0:0|0:0,0:0:0:0:
246,43,56912,2,0,P|271:90|263:144,1,105,2|8,3:1|0:0,0:0:0:0:
146,330,57173,1,0,3:0:0:0:
102,98,57304,1,10,0:0:0:0:
102,98,57369,1,0,3:0:0:0:
102,98,57434,1,0,3:0:0:0:
270,288,57565,5,10,0:0:0:0:
306,57,57695,1,0,3:0:0:0:
354,329,57825,1,10,0:0:0:0:
354,329,57891,1,0,3:0:0:0:
354,329,57956,1,0,3:0:0:0:
236,126,58086,5,10,0:0:0:0:
437,240,58217,1,0,3:0:0:0:
210,367,58347,1,10,0:0:0:0:
210,367,58412,1,0,3:0:0:0:
210,367,58478,1,0,3:0:0:0:
326,149,58608,6,0,B|370:140|370:140|439:152,1,105,10|0,0:0|3:0,0:0:0:0:
270,288,58869,1,10,0:0:0:0:
270,288,58934,1,0,3:0:0:0:
270,288,58999,1,0,3:0:0:0:
294,44,59130,1,8,0:0:0:0:
426,251,59260,1,0,3:0:0:0:
209,222,59391,1,10,0:0:0:0:
174,203,59456,1,0,3:0:0:0:
135,201,59521,1,0,3:0:0:0:
99,215,59586,1,0,3:0:0:0:
73,244,59651,6,0,L|73:133,1,105,10|0,0:0|0:0,0:0:0:0:
277,164,59912,1,8,0:0:0:0:
277,164,59978,1,0,3:0:0:0:
277,164,60043,2,0,P|300:213|292:269,1,105,2|8,3:1|0:0,0:0:0:0:
195,106,60304,1,0,3:0:0:0:
391,177,60434,1,10,0:1:0:0:
391,177,60499,1,0,3:0:0:0:
391,177,60565,1,0,3:0:0:0:
276,372,60695,6,0,B|278:307|278:307|267:264|267:264|278:151,1,210,10|8,0:1|0:0,0:0:0:0:
346,94,61021,1,0,3:0:0:0:
346,94,61086,2,0,P|362:142|357:195,1,105,2|8,3:1|0:0,0:0:0:0:
180,308,61347,1,0,3:0:0:0:
148,52,61478,1,10,0:1:0:0:
148,52,61543,1,0,3:0:0:0:
148,52,61608,1,0,3:0:0:0:
269,246,61738,5,10,0:0:0:0:
66,121,61869,1,0,3:0:0:0:
106,378,61999,1,10,0:1:0:0:
106,378,62065,1,0,3:0:0:0:
106,378,62130,1,0,3:0:0:0:
214,113,62260,1,10,0:1:0:0:
32,300,62391,1,0,3:0:0:0:
27,45,62521,1,10,0:1:0:0:
155,284,62651,1,0,3:0:0:0:
144,37,62782,6,0,B|201:14|247:38|247:38|287:82|351:63,1,210,4|8,3:2|0:0,0:0:0:0:
425,25,63108,1,0,3:0:0:0:
425,25,63173,1,0,3:0:0:0:
363,264,63304,1,8,0:0:0:0:
349,99,63434,1,8,0:0:0:0:
453,230,63565,1,8,0:0:0:0:
488,72,63695,1,8,0:0:0:0:
343,178,63825,6,0,B|273:168|273:168|224:194|224:194|129:176,1,210,4|0,0:1|3:0,0:0:0:0:
69,109,64217,1,0,3:0:0:0:
34,261,64347,2,0,L|126:246,1,78.7500030040742,8|0,0:1|0:0,0:0:0:0:
230,113,64608,2,0,L|138:98,1,78.7500030040742,0|0,3:1|3:0,0:0:0:0:
330,255,64869,6,0,P|339:212|335:163,1,78.7500030040742,0|0,3:0|0:0,0:0:0:0:
182,278,65130,2,0,P|173:321|177:370,1,78.7500030040742,0|0,3:0|3:0,0:0:0:0:
242,214,65391,2,0,B|209:191|209:191|144:198,1,105,8|0,0:1|0:0,0:0:0:0:
268,322,65651,2,0,B|301:345|301:345|366:338,1,105,0|0,3:0|3:0,0:0:0:0:
395,150,65912,6,0,P|331:175|333:260,1,157.500006008148,4|0,3:0|3:0,0:0:0:0:
446,332,66304,1,0,3:0:0:0:
500,241,66434,2,0,L|413:230,1,78.7500030040742,8|0,0:1|0:0,0:0:0:0:
316,159,66695,2,0,L|403:148,1,78.7500030040742,0|0,3:0|3:0,0:0:0:0:
248,101,66956,6,0,P|226:136|222:186,1,78.7500030040742,0|0,3:0|0:0,0:0:0:0:
378,71,67217,2,0,P|371:32|350:-1,1,78.7500030040742,0|0,3:0|3:0,0:0:0:0:
316,159,67478,2,0,L|420:145,1,105,8|0,0:1|0:0,0:0:0:0:
248,101,67738,2,0,L|143:87,1,105,0|0,3:0|3:0,0:0:0:0:
80,304,67999,5,4,3:1:0:0:
329,237,68130,1,0,3:0:0:0:
111,161,68260,1,10,0:0:0:0:
250,370,68391,1,0,3:0:0:0:
248,101,68521,2,0,L|236:212,1,105,10|0,0:0|3:0,0:0:0:0:
94,288,68782,1,10,0:0:0:0:
84,35,68912,1,0,3:0:0:0:
84,35,68978,1,0,3:0:0:0:
84,35,69043,5,4,3:2:0:0:
186,265,69173,1,0,3:0:0:0:
3,116,69304,1,10,0:0:0:0:
195,281,69434,1,0,3:0:0:0:
206,18,69565,1,10,0:0:0:0:
94,288,69695,1,0,3:0:0:0:
72,22,69825,1,10,0:0:0:0:
265,180,69956,1,0,3:0:0:0:
265,180,70021,1,0,3:0:0:0:
265,180,70086,5,4,3:1:0:0:
5,228,70217,1,0,3:0:0:0:
239,343,70347,1,10,0:0:0:0:
159,96,70478,1,0,3:0:0:0:
86,368,70608,1,10,0:0:0:0:
64,130,70738,1,0,3:0:0:0:
258,263,70869,1,10,0:0:0:0:
239,24,70999,1,0,3:0:0:0:
239,24,71065,1,0,3:0:0:0:
239,24,71130,5,10,0:0:0:0:
159,275,71260,1,0,3:0:0:0:
375,168,71391,1,10,0:0:0:0:
145,82,71521,1,0,3:0:0:0:
284,378,71651,5,8,0:0:0:0:
342,40,71782,1,8,0:1:0:0:
342,40,72173,6,0,B|314:81|329:137|329:137|364:192|345:252,1,210,6|8,3:1|0:0,0:0:0:0:
142,224,72565,2,0,P|204:207|262:216,1,105,2|8,3:1|0:0,0:0:0:0:
416,284,72825,1,0,3:0:0:0:
193,368,72956,1,10,0:1:0:0:
193,368,73021,1,0,3:0:0:0:
193,368,73086,1,0,3:0:0:0:
348,241,73217,6,0,B|289:229|289:229|242:241|242:241|134:223,1,210,10|8,0:0|0:0,0:0:0:0:
244,38,73608,2,0,P|257:89|251:155,1,105,2|8,3:1|0:0,0:0:0:0:
86,321,73869,1,0,3:0:0:0:
60,66,73999,1,10,0:0:0:0:
60,66,74065,1,0,3:0:0:0:
60,66,74130,1,0,3:0:0:0:
246,281,74260,5,10,0:0:0:0:
32,167,74391,1,0,3:0:0:0:
289,123,74521,1,10,0:0:0:0:
289,123,74586,1,0,3:0:0:0:
289,123,74651,1,0,3:0:0:0:
171,370,74782,5,10,0:0:0:0:
135,104,74912,1,0,3:0:0:0:
318,325,75043,1,10,0:0:0:0:
318,325,75108,1,0,3:0:0:0:
318,325,75173,1,0,3:0:0:0:
337,35,75304,5,10,0:0:0:0:
246,281,75434,1,0,3:0:0:0:
211,11,75565,1,10,0:0:0:0:
211,11,75630,1,0,3:0:0:0:
211,11,75695,1,0,3:0:0:0:
366,212,75825,5,8,0:0:0:0:
171,370,75956,1,0,3:0:0:0:
135,104,76086,1,10,0:0:0:0:
169,85,76151,1,0,3:0:0:0:
207,87,76217,1,0,3:0:0:0:
239,110,76282,1,0,3:0:0:0:
252,147,76347,6,0,P|237:191|242:258,1,105,10|0,0:0|0:0,0:0:0:0:
417,103,76608,1,8,0:0:0:0:
417,103,76673,1,0,3:0:0:0:
417,103,76738,2,0,B|380:91|380:91|306:101,1,105,2|8,3:1|0:0,0:0:0:0:
398,285,76999,1,0,3:0:0:0:
439,28,77130,1,10,0:1:0:0:
439,28,77195,1,0,3:0:0:0:
439,28,77260,1,0,3:0:0:0:
315,208,77391,6,0,B|362:185|422:203|422:203|456:247|528:226,1,210,10|8,0:1|0:0,0:0:0:0:
485,156,77717,1,0,3:0:0:0:
485,156,77782,2,0,P|452:193|442:253,1,105,2|8,3:1|0:0,0:0:0:0:
307,367,78043,1,0,3:0:0:0:
225,138,78173,1,10,0:1:0:0:
225,138,78238,1,0,3:0:0:0:
225,138,78304,1,0,3:0:0:0:
91,318,78434,5,10,0:0:0:0:
134,61,78565,1,0,3:0:0:0:
235,283,78695,1,10,0:1:0:0:
235,283,78760,1,0,3:0:0:0:
235,283,78825,1,0,3:0:0:0:
275,37,78956,5,10,0:1:0:0:
40,139,79086,1,0,3:0:0:0:
314,199,79217,1,10,0:1:0:0:
314,199,79282,1,0,0:0:0:0:
314,199,79347,1,0,3:0:0:0:
154,364,79478,5,4,3:2:0:0:
121,188,79608,1,0,0:0:0:0:
235,283,79738,1,8,0:0:0:0:
226,103,79869,1,0,3:0:0:0:
137,268,79999,1,8,0:0:0:0:
314,199,80130,1,8,0:0:0:0:
214,90,80260,2,0,L|109:102,1,105,8|8,0:0|0:0,0:0:0:0:
305,211,80521,6,0,B|327:164|327:164|319:34,1,157.500006008148,4|0,0:1|3:0,0:0:0:0:
218,182,80912,1,0,3:0:0:0:
246,278,81043,2,0,P|276:293|335:297,1,78.7500030040742,8|0,0:1|0:0,0:0:0:0:
378,189,81304,2,0,P|339:193|303:209,1,78.7500030040742,0|0,3:1|3:0,0:0:0:0:
436,346,81565,6,0,L|441:249,1,78.7500030040742,0|0,3:0|0:0,0:0:0:0:
374,111,81825,2,0,L|378:189,1,78.7500030040742,0|0,3:0|3:0,0:0:0:0:
425,45,82086,2,0,P|380:29|316:54,1,105,8|0,0:1|0:0,0:0:0:0:
378,189,82347,2,0,P|423:205|487:180,1,105,0|0,3:0|3:0,0:0:0:0:
258,113,82608,6,0,B|239:153|239:153|247:275,1,157.500006008148,4|0,3:2|3:0,0:0:0:0:
275,354,82999,1,0,3:0:0:0:
322,272,83130,2,0,P|279:260|228:274,1,78.7500030040742,8|0,0:1|0:0,0:0:0:0:
198,347,83391,2,0,P|241:359|292:345,1,78.7500030040742,0|0,3:0|3:0,0:0:0:0:
108,275,83651,6,0,L|113:365,1,78.7500030040742,0|0,3:0|0:0,0:0:0:0:
221,193,83912,2,0,L|225:114,1,78.7500030040742,0|0,3:0|3:0,0:0:0:0:
187,262,84173,2,0,B|216:274|216:274|299:269,1,105,8|0,0:1|0:0,0:0:0:0:
123,172,84434,2,0,B|94:160|94:160|11:165,1,105,0|0,3:0|3:0,0:0:0:0:
172,278,84695,5,4,3:1:0:0:
130,40,84825,1,0,3:0:0:0:
46,277,84956,1,10,0:0:0:0:
286,185,85086,1,0,3:0:0:0:
46,66,85217,1,10,0:0:0:0:
174,295,85347,1,0,3:0:0:0:
229,26,85478,1,10,0:0:0:0:
346,269,85608,1,0,3:0:0:0:
346,269,85673,1,0,3:0:0:0:
346,269,85738,5,4,3:2:0:0:
143,127,85869,1,0,3:0:0:0:
383,65,85999,1,10,0:0:0:0:
263,330,86130,1,0,3:0:0:0:
255,36,86260,1,10,0:0:0:0:
430,245,86391,1,0,3:0:0:0:
152,307,86521,1,10,0:0:0:0:
383,65,86651,1,0,3:0:0:0:
383,66,86717,1,0,3:0:0:0:
383,66,86782,5,6,3:1:0:0:
339,370,86912,1,0,3:0:0:0:
214,99,87043,1,10,0:0:0:0:
477,161,87173,1,0,3:0:0:0:
167,293,87304,1,10,0:0:0:0:
465,362,87434,1,0,3:0:0:0:
454,9,87565,1,10,0:0:0:0:
288,304,87695,1,0,3:0:0:0:
279,321,87760,1,0,3:0:0:0:
268,337,87825,6,0,B|275:269|275:269|269:229|269:229|280:114,1,210,10|10,0:0|0:0,0:0:0:0:
401,242,88217,1,0,3:0:0:0:
122,96,88347,5,10,0:0:0:0:
468,24,88478,1,8,0:1:0:0:
482,41,88739,6,0,B|409:32|409:32|357:60|357:60|267:51,1,210,6|0,3:1|3:0,0:0:0:0:
48,187,89130,2,0,P|98:171|161:188,1,105,10|0,0:0|0:0,0:0:0:0:
281,311,89392,1,2,3:1:0:0:
99,252,89521,1,2,3:1:0:0:
251,130,89652,2,0,B|268:172|268:172|256:235,1,105,8|2,0:0|0:1,0:0:0:0:
97,359,89913,5,2,3:1:0:0:
64,108,90043,1,0,3:1:0:0:
104,371,90173,1,10,0:0:0:0:
179,89,90304,1,0,0:0:0:0:
27,290,90434,1,2,3:1:0:0:
281,311,90565,1,2,3:1:0:0:
49,96,90695,1,10,0:0:0:0:
184,370,90825,6,0,B|209:325|196:273|196:273|171:225|194:158,1,210,6|0,3:1|3:0,0:0:0:0:
391,66,91217,2,0,P|398:114|378:174,1,105,10|0,0:0|0:0,0:0:0:0:
296,372,91478,1,2,3:1:0:0:
272,143,91608,1,2,3:1:0:0:
443,315,91739,2,0,L|333:300,1,105,8|2,0:0|0:0,0:0:0:0:
153,86,91999,1,8,0:0:0:0:
184,370,92130,5,2,0:0:0:0:
289,55,92391,5,2,3:1:0:0:
19,203,92652,5,2,3:1:0:0:
321,197,92912,6,0,B|254:181|254:181|213:200|213:200|115:181,1,210,6|0,3:1|0:1,0:0:0:0:
364,119,93304,2,0,P|393:146|408:218,1,105,10|0,0:0|0:0,0:0:0:0:
226,339,93565,1,2,3:1:0:0:
235,106,93695,1,2,3:1:0:0:
372,296,93825,2,0,L|249:262,1,105,8|2,0:0|0:0,0:0:0:0:
466,135,94086,5,2,3:1:0:0:
413,375,94217,1,0,3:0:0:0:
474,118,94347,1,10,0:0:0:0:
191,229,94478,1,0,0:0:0:0:
457,295,94608,1,2,3:1:0:0:
323,82,94739,1,2,3:1:0:0:
301,372,94869,1,10,0:1:0:0:
512,218,94999,6,0,B|465:192|407:212|407:212|358:241|301:221,1,210,6|0,3:1|3:0,0:0:0:0:
182,34,95391,2,0,P|210:68|213:134,1,105,10|0,0:0|0:0,0:0:0:0:
127,360,95652,1,2,3:1:0:0:
124,111,95782,1,2,3:1:0:0:
270,292,95912,2,0,L|160:278,1,105,8|2,0:0|0:0,0:0:0:0:
332,49,96173,5,10,0:1:0:0:
318,378,96304,2,0,L|208:364,1,105,2|0,0:1|2:0,0:0:0:0:
230,72,96565,5,10,0:1:0:0:
431,195,96695,2,0,P|451:239|441:307,1,105,2|0,3:1|2:0,0:0:0:0:
114,186,96956,5,10,0:1:0:0:
373,121,97086,2,0,B|416:108|416:108|488:120,1,105,2|0,3:1|2:0,0:0:0:0:
135,340,97347,5,10,0:1:0:0:
295,101,97478,2,0,B|306:66|306:66|307:38|307:38|318:-2,1,105,2|0,3:1|2:0,0:0:0:0:
344,271,97738,5,10,0:1:0:0:
56,137,97869,1,10,0:1:0:0:
213,375,97999,1,10,0:1:0:0:
201,24,98130,2,0,L|206:153,1,125.999996154785,4|0,3:2|2:0,0:0:0:0:
