osu file format v14

[General]
AudioFilename: audio.mp3
AudioLeadIn: 0
PreviewTime: 51595
Countdown: 0
SampleSet: Drum
StackLeniency: 0.6
Mode: 0
LetterboxInBreaks: 0
WidescreenStoryboard: 1

[Editor]
DistanceSpacing: 0.8
BeatDivisor: 8
GridSize: 32
TimelineZoom: 1.999998

[Metadata]
Title:Watch out!
TitleUnicode:Watch out!
Artist:Denkishiki Karen Ongaku Shuudan
ArtistUnicode:電気式華憐音楽集団
Creator:Lasse
Version:Insane
Source:
Tags:lmt denkare japanese rock metal detonator ignition
BeatmapID:2365688
BeatmapSetID:1130504

[Difficulty]
HPDrainRate:6
CircleSize:4.3
OverallDifficulty:8
ApproachRate:9
SliderMultiplier:1.6
SliderTickRate:1

[Events]
//Background and Video events
0,0,"1a.jpg",0,0
//Break Periods
//Storyboard Layer 0 (Background)
//Storyboard Layer 1 (Fail)
//Storyboard Layer 2 (Pass)
//Storyboard Layer 3 (Foreground)
//Storyboard Layer 4 (Overlay)
//Storyboard Sound Samples

[TimingPoints]
516,355.029585798817,4,2,35,60,1,0
516,-133.333333333333,4,2,35,60,0,0
2646,-133.333333333333,4,2,35,55,0,0
3356,-133.333333333333,4,2,35,60,0,0
5308,-133.333333333333,4,2,35,55,0,0
6018,-133.333333333333,4,2,36,55,0,0
6196,-133.333333333333,4,2,35,60,0,0
8326,-133.333333333333,4,2,35,55,0,0
8859,-133.333333333333,4,2,36,55,0,0
9036,-133.333333333333,4,2,35,60,0,0
10545,-133.333333333333,4,2,35,50,0,0
10634,-133.333333333333,4,2,35,55,0,0
11166,-133.333333333333,4,2,35,56,0,0
11521,-133.333333333333,4,2,35,58,0,0
11876,-100,4,2,35,64,0,0
22527,-100,4,2,35,60,0,0
22882,-100,4,2,35,66,0,0
23237,-133.333333333333,4,2,35,60,0,0
24125,-133.333333333333,4,2,36,60,0,0
24302,-133.333333333333,4,2,35,60,0,0
25545,-133.333333333333,4,2,36,60,0,0
25900,-133.333333333333,4,2,35,60,0,0
26965,-133.333333333333,4,2,36,60,0,0
27143,-133.333333333333,4,2,35,60,0,0
28918,-100,4,2,35,65,0,0
33711,-76.9230769230769,4,2,35,67,0,0
34066,-76.9230769230769,4,2,35,68,0,0
34421,-76.9230769230769,4,2,35,64,0,0
34598,-100,4,2,35,65,0,0
39391,-71.4285714285714,4,2,35,67,0,0
39924,-71.4285714285714,4,2,35,64,0,0
40279,-133.333333333333,4,2,35,60,0,0
41699,-100,4,2,35,60,0,0
43119,-133.333333333333,4,2,35,60,0,0
44539,-100,4,2,35,60,0,0
45959,-133.333333333333,4,2,35,60,0,0
47379,-100,4,2,35,60,0,0
48800,-133.333333333333,4,2,35,60,0,0
50397,-71.4285714285714,4,2,35,64,0,0
51640,-83.3333333333333,4,2,35,70,0,1
55900,-66.6666666666667,4,2,35,70,0,1
56610,-100,4,2,35,70,0,1
57320,-83.3333333333333,4,2,35,70,0,1
61581,-71.4285714285714,4,2,35,70,0,1
61936,-83.3333333333333,4,2,35,70,0,1
63001,-71.4285714285714,4,2,35,72,0,1
68681,-66.6666666666667,4,3,35,74,0,1
74007,-133.333333333333,4,2,35,60,0,0
75782,-100,4,2,35,64,0,0
86433,-100,4,2,35,60,0,0
86788,-100,4,2,36,62,0,0
87143,-133.333333333333,4,2,35,60,0,0
88563,-100,4,2,35,65,0,0
93356,-76.9230769230769,4,2,35,67,0,0
93711,-76.9230769230769,4,2,35,68,0,0
94066,-71.4285714285714,4,2,35,64,0,0
94243,-100,4,2,35,65,0,0
96373,-100,4,2,35,68,0,0
96418,-100,4,2,35,5,0,0
96551,-100,4,2,35,68,0,0
96595,-100,4,2,35,5,0,0
96729,-100,4,2,35,68,0,0
96773,-100,4,2,35,65,0,0
96906,-100,4,2,35,65,0,0
99036,-66.6666666666667,4,2,35,67,0,0
99391,-90.9090909090909,4,2,35,66,0,0
99480,-90.9090909090909,4,2,35,65,0,0
99569,-90.9090909090909,4,2,35,64,0,0
99658,-90.9090909090909,4,2,35,63,0,0
99746,-90.9090909090909,4,2,35,62,0,0
99835,-90.9090909090909,4,2,35,61,0,0
99924,-133.333333333333,4,2,35,60,0,0
101344,-100,4,2,35,60,0,0
102764,-133.333333333333,4,2,35,60,0,0
104184,-100,4,2,35,60,0,0
105604,-133.333333333333,4,2,35,60,0,0
107024,-100,4,2,35,60,0,0
108444,-133.333333333333,4,2,35,60,0,0
110042,-71.4285714285714,4,2,35,64,0,0
111285,-83.3333333333333,4,2,35,70,0,1
115545,-66.6666666666667,4,2,35,70,0,1
116255,-100,4,2,35,70,0,1
116965,-83.3333333333333,4,2,35,70,0,1
121226,-71.4285714285714,4,2,35,70,0,1
121581,-83.3333333333333,4,2,35,70,0,1
122646,-71.4285714285714,4,2,35,72,0,1
128326,-66.6666666666667,4,3,35,74,0,1
133652,-133.333333333333,4,2,35,60,0,0
135427,-100,4,2,35,64,0,0
146078,-86.9565217391304,4,2,35,60,0,0
146433,-86.9565217391304,4,2,35,62,0,0
146788,-100,4,2,35,64,0,0
152468,-83.3333333333333,4,2,35,68,0,0
152646,-83.3333333333333,4,2,35,66,0,0
155308,-83.3333333333333,4,2,35,62,0,0
155663,-83.3333333333333,4,2,35,64,0,0
157439,-83.3333333333333,4,2,35,65,0,0
157794,-83.3333333333333,4,2,35,66,0,0
158149,-71.4285714285714,4,3,35,70,0,1
162409,-66.6666666666667,4,3,35,72,0,1
162498,-66.6666666666667,4,3,35,68,0,1
162587,-62.5,4,3,35,70,0,1
162764,-62.5,4,3,35,72,0,1
162853,-62.5,4,3,35,68,0,1
162942,-58.8235294117647,4,3,35,70,0,1
163119,-58.8235294117647,4,3,35,72,0,1
163208,-58.8235294117647,4,3,35,68,0,1
163297,-83.3333333333333,4,3,35,72,0,1
163652,-83.3333333333333,4,3,35,72,0,1
163829,-66.6666666666667,4,3,35,74,0,1
168800,-166.666666666667,4,2,35,66,0,0
169066,-200,4,2,35,5,0,0
169155,-133.333333333333,4,2,35,55,0,0
169332,-133.333333333333,4,2,35,40,0,0
169510,-133.333333333333,4,2,35,60,0,0
170930,-100,4,2,35,60,0,0
172350,-133.333333333333,4,2,35,60,0,0
173770,-100,4,2,35,60,0,0
175190,-133.333333333333,4,2,35,60,0,0
176610,-100,4,2,35,60,0,0
178030,-133.333333333333,4,2,35,60,0,0
179628,-71.4285714285714,4,2,35,64,0,0
180871,-83.3333333333333,4,2,35,70,0,1
185131,-66.6666666666667,4,2,35,70,0,1
185841,-100,4,2,35,70,0,1
186551,-83.3333333333333,4,2,35,70,0,1
190811,-71.4285714285714,4,2,35,70,0,1
190989,-83.3333333333333,4,2,35,70,0,1
192231,-71.4285714285714,4,2,35,72,0,1
197912,-66.6666666666667,4,3,35,74,0,1
203237,-133.333333333333,4,2,35,60,0,0
205013,-100,4,2,35,64,0,0
215663,-100,4,2,35,60,0,0
216018,-100,4,2,35,66,0,0
216373,-90.9090909090909,4,2,35,64,0,0
216462,-90.9090909090909,4,2,35,63,0,0
216551,-90.9090909090909,4,2,35,62,0,0
216640,-90.9090909090909,4,2,35,61,0,0
216729,-90.9090909090909,4,2,35,60,0,0
216817,-90.9090909090909,4,2,35,59,0,0
216906,-90.9090909090909,4,2,35,58,0,0
216995,-90.9090909090909,4,2,35,57,0,0
217084,-66.6666666666667,4,2,35,65,0,0
217172,-66.6666666666667,4,2,35,40,0,0
217261,-66.6666666666667,4,2,35,65,0,0
217527,-66.6666666666667,4,2,35,40,0,0
217616,-66.6666666666667,4,2,99,65,0,0

[Colours]
Combo1 : 250,180,240
Combo2 : 120,200,230
Combo3 : 255,230,130
Combo4 : 160,230,150

[HitObjects]
22,216,516,6,0,B|103:193|66:244|144:223,1,120.000004577637,14|0,0:1|0:0,0:0:0:0:
275,80,1226,5,14,0:1:0:0:
210,124,1403,2,0,L|135:110,1,60.0000022888184,14|0,0:1|0:0,0:0:0:0:
151,112,1758,2,0,P|128:156|149:242,1,120.000004577637,14|0,0:1|0:0,0:0:0:0:
304,357,2646,6,0,L|340:350,3,30.0000011444092,2|0|0|0,0:0|0:0|0:0|0:0,0:0:0:0:
357,368,3001,2,0,L|393:361,3,30.0000011444092,2|0|0|0,0:0|0:0|0:0|0:0,0:0:0:0:
415,371,3356,6,0,P|439:328|405:254,1,120.000004577637,14|0,0:1|0:0,0:0:0:0:
342,126,4066,5,14,0:1:0:0:
282,171,4243,2,0,B|280:197|280:197|276:205|276:205|274:229,1,60.0000022888184,14|0,0:1|0:0,0:0:0:0:
274,230,4598,2,0,B|202:215|228:260|153:243,1,120.000004577637,14|0,0:1|0:0,0:0:0:0:
43,154,5308,5,4,0:3:0:0:
43,154,5397,1,4,0:3:0:0:
43,154,5486,2,0,L|37:105,2,30.0000011444092,10|0|0,0:3|0:0|0:0,0:0:0:0:
103,76,5752,2,0,L|109:27,2,30.0000011444092,6|0|0,0:3|0:0|0:0,0:0:0:0:
183,28,6018,2,0,L|202:-4,1,30.0000011444092,10|0,0:3|0:3,0:0:0:0:
254,48,6196,6,0,P|307:76|379:48,1,120.000004577637,14|0,0:1|0:0,0:0:0:0:
512,163,6906,5,14,0:1:0:0:
451,214,7084,2,0,L|434:151,1,60.0000022888184,14|0,0:1|0:0,0:0:0:0:
435,156,7439,2,0,B|395:158|395:158|370:183|370:183|313:192,1,120.000004577637,14|0,0:1|0:0,0:0:0:0:
168,157,8326,6,0,L|128:149,2,30.0000011444092,10|0|0,0:3|0:0|0:0,0:0:0:0:
227,217,8592,2,0,L|267:225,2,30.0000011444092,6|0|0,0:3|0:0|0:0,0:0:0:0:
158,264,8859,2,0,L|118:272,1,30.0000011444092,10|0,0:3|0:0,0:0:0:0:
71,206,9036,6,0,P|57:161|94:81,1,120.000004577637,14|0,0:1|0:0,0:0:0:0:
175,0,9746,5,14,0:1:0:0:
228,59,9924,2,0,B|225:80|225:80|228:88|228:88|221:129,1,60.0000022888184,14|0,0:1|0:0,0:0:0:0:
222,117,10279,2,0,L|161:130,1,60.0000022888184,14|0,0:1|0:0,0:0:0:0:
302,203,10634,6,0,L|338:209,1,30.0000011444092,8|0,0:3|0:0,0:0:0:0:
306,216,10811,2,0,L|342:222,1,30.0000011444092,8|0,0:3|0:0,0:0:0:0:
310,229,10989,2,0,L|346:235,1,30.0000011444092,8|0,0:3|0:0,0:0:0:0:
227,268,11166,5,8,0:0:0:0:
221,297,11255,1,8,0:0:0:0:
201,318,11344,1,8,0:0:0:0:
172,325,11433,1,8,0:0:0:0:
145,314,11521,1,8,0:0:0:0:
127,285,11610,1,8,0:0:0:0:
105,260,11699,1,8,0:0:0:0:
71,258,11788,1,8,0:0:0:0:
41,272,11876,6,0,B|17:284|17:284|43:209,1,80,14|8,0:1|0:0,0:0:0:0:
101,112,12231,1,8,0:1:0:0:
101,112,12320,1,8,0:1:0:0:
101,112,12409,1,8,0:2:0:0:
207,190,12587,1,10,0:1:0:0:
320,122,12764,2,0,P|329:85|303:29,1,80,10|8,0:0|0:1,0:0:0:0:
310,35,13030,1,8,0:1:0:0:
302,25,13119,2,0,L|208:17,1,80,10|8,0:0|0:1,0:0:0:0:
330,146,13474,5,8,0:0:0:0:
336,155,13563,1,8,0:1:0:0:
342,165,13652,2,0,B|371:161|371:161|379:164|379:164|436:157,1,80,8|8,0:1|0:0,0:0:0:0:
512,260,14007,1,10,0:1:0:0:
502,242,14095,1,10,0:1:0:0:
487,228,14184,1,10,0:0:0:0:
414,336,14362,1,10,0:1:0:0:
418,316,14450,1,10,0:1:0:0:
418,295,14539,1,10,0:0:0:0:
306,378,14717,6,0,P|300:330|285:292,1,80,10|8,0:1|0:2,0:0:0:0:
234,178,15072,1,8,0:1:0:0:
234,178,15160,1,8,0:1:0:0:
234,178,15249,1,8,0:2:0:0:
141,297,15427,1,10,0:1:0:0:
67,179,15604,2,0,P|71:139|83:101,1,80,10|8,0:0|0:1,0:0:0:0:
94,95,15871,1,8,0:1:0:0:
104,90,15959,2,0,B|132:89|132:89|143:97|143:97|194:105,1,80,10|8,0:0|0:1,0:0:0:0:
264,220,16314,5,8,0:2:0:0:
276,225,16403,1,8,0:1:0:0:
289,226,16492,2,0,B|317:227|317:227|328:219|328:219|379:211,1,80,8|8,0:1|0:2,0:0:0:0:
491,260,16847,2,0,P|491:275|481:298,1,40,10|8,0:1|0:1,0:0:0:0:
445,189,17024,2,0,P|436:171|435:151,1,40,10|8,0:0|0:1,0:0:0:0:
481,87,17202,1,8,0:1:0:0:
491,80,17291,1,8,0:1:0:0:
498,70,17379,2,0,P|501:51|497:29,1,40,14|8,0:2|0:1,0:0:0:0:
395,0,17557,6,0,B|368:2|368:2|352:14|352:14|319:20,1,80,14|8,0:1|0:0,0:0:0:0:
151,15,17912,1,8,0:1:0:0:
151,15,18001,1,8,0:1:0:0:
151,15,18089,1,8,0:2:0:0:
250,115,18267,1,10,0:1:0:0:
133,182,18444,2,0,P|118:138|129:98,1,80,10|8,0:0|0:1,0:0:0:0:
133,97,18711,1,8,0:1:0:0:
143,91,18800,2,0,P|157:54|151:15,1,80,10|8,0:0|0:1,0:0:0:0:
12,132,19155,5,8,0:2:0:0:
7,143,19243,1,8,0:1:0:0:
4,154,19332,2,0,P|-3:193|11:230,1,80,8|8,0:1|0:0,0:0:0:0:
100,329,19687,1,10,0:1:0:0:
105,305,19776,1,10,0:1:0:0:
112,282,19865,1,10,0:0:0:0:
213,232,20042,1,10,0:1:0:0:
212,207,20131,1,10,0:1:0:0:
210,183,20220,1,10,0:0:0:0:
294,93,20397,6,0,L|205:83,1,80,10|8,0:1|0:0,0:0:0:0:
356,0,20752,1,8,0:1:0:0:
356,0,20841,1,8,0:1:0:0:
356,0,20930,1,8,0:2:0:0:
372,130,21107,1,10,0:1:0:0:
512,158,21285,2,0,B|529:122|529:122|512:85,1,80,10|8,0:0|0:1,0:0:0:0:
503,77,21551,1,8,0:1:0:0:
494,68,21640,2,0,B|468:62|468:62|455:68|455:68|402:60,1,80,10|8,0:0|0:1,0:0:0:0:
335,164,21995,5,8,0:2:0:0:
325,170,22084,1,8,0:1:0:0:
316,176,22172,2,0,B|290:170|290:170|277:176|277:176|224:168,1,80,8|8,0:1|0:2,0:0:0:0:
165,71,22527,5,10,0:1:0:0:
168,60,22616,1,10,0:1:0:0:
169,49,22705,1,10,0:2:0:0:
167,37,22794,1,10,0:1:0:0:
162,28,22882,1,10,0:0:0:0:
142,51,22971,1,10,0:0:0:0:
130,78,23060,1,10,0:0:0:0:
125,113,23149,1,10,0:0:0:0:
130,137,23237,5,14,0:1:0:0:
198,199,23415,2,0,L|267:189,1,60.0000022888184,10|8,0:1|0:0,0:0:0:0:
334,254,23770,5,8,0:3:0:0:
334,254,23859,1,8,0:3:0:0:
334,254,23947,1,6,0:3:0:0:
349,171,24125,1,10,0:3:0:0:
286,115,24302,2,0,P|282:70|293:44,1,60.0000022888184,10|8,0:0|0:1,0:0:0:0:
296,50,24569,1,8,0:1:0:0:
306,44,24658,5,14,0:1:0:0:
208,66,24835,2,0,L|136:57,1,60.0000022888184,10|8,0:1|0:0,0:0:0:0:
58,16,25190,5,8,0:3:0:0:
58,16,25279,1,8,0:3:0:0:
58,16,25368,1,4,0:3:0:0:
12,97,25545,1,8,0:3:0:0:
12,97,25634,1,8,0:3:0:0:
12,97,25723,2,0,L|17:161,1,60.0000022888184,4|8,0:3|0:1,0:0:0:0:
19,168,25989,1,8,0:1:0:0:
20,179,26078,5,14,0:1:0:0:
80,246,26255,2,0,L|151:237,1,60.0000022888184,10|8,0:1|0:0,0:0:0:0:
224,301,26610,5,8,0:3:0:0:
224,301,26699,1,8,0:3:0:0:
224,301,26788,1,6,0:3:0:0:
272,232,26965,1,10,0:3:0:0:
339,282,27143,2,0,P|337:314|344:343,1,60.0000022888184,8|8,0:0|0:1,0:0:0:0:
350,354,27409,1,8,0:1:0:0:
361,363,27498,5,14,0:1:0:0:
456,321,27675,2,0,P|462:291|460:261,1,60.0000022888184,10|8,0:1|0:0,0:0:0:0:
410,151,28030,5,8,0:3:0:0:
410,151,28119,1,8,0:3:0:0:
410,151,28208,1,6,0:3:0:0:
337,221,28385,5,8,0:0:0:0:
317,236,28474,1,8,0:0:0:0:
293,240,28563,1,8,0:0:0:0:
270,232,28652,1,8,0:0:0:0:
254,213,28740,1,8,0:0:0:0:
249,189,28829,1,8,0:0:0:0:
258,165,28918,5,14,0:1:0:0:
332,82,29095,1,10,0:0:0:0:
249,8,29273,1,10,0:1:0:0:
175,91,29450,1,10,0:0:0:0:
168,101,29539,2,0,B|135:95|135:95|125:100|125:100|81:93,1,80,2|0,0:0|0:0,0:0:0:0:
20,121,29805,1,10,0:0:0:0:
15,131,29894,1,2,0:0:0:0:
10,142,29983,2,0,P|4:174|25:228,1,80,10|10,0:1|0:0,0:0:0:0:
87,315,30338,5,10,0:1:0:0:
193,279,30516,1,10,0:0:0:0:
288,337,30693,1,10,0:1:0:0:
393,297,30871,1,10,0:0:0:0:
393,297,30959,1,2,0:0:0:0:
486,359,31137,1,2,0:0:0:0:
486,359,31226,2,0,P|499:321|493:282,1,80,10|10,0:0|0:1,0:0:0:0:
423,174,31581,5,10,0:0:0:0:
318,213,31758,1,10,0:1:0:0:
337,103,31936,1,10,0:0:0:0:
341,92,32024,1,2,0:0:0:0:
344,80,32113,2,0,P|351:35|334:3,1,80,10|10,0:1|0:0,0:0:0:0:
261,23,32379,1,2,0:0:0:0:
254,33,32468,2,0,P|246:71|261:107,1,80,8|8,0:1|0:0,0:0:0:0:
342,188,32823,1,10,0:1:0:0:
254,288,33001,5,10,0:0:0:0:
254,288,33089,1,2,0:0:0:0:
254,288,33178,1,10,0:1:0:0:
175,208,33356,1,10,0:0:0:0:
104,295,33533,1,10,0:1:0:0:
14,200,33711,5,10,0:0:0:0:
34,205,33800,1,10,0:0:0:0:
54,200,33888,2,0,B|77:172|77:172|59:106,1,103.999995239258,14|10,0:1|0:0,0:0:0:0:
247,0,34243,2,0,B|229:65|229:65|252:93,1,103.999995239258,14|8,0:1|0:0,0:0:0:0:
381,174,34598,5,14,0:1:0:0:
314,260,34776,1,10,0:0:0:0:
390,338,34953,2,0,B|426:356|426:356|473:325,1,80,10|10,0:1|0:0,0:0:0:0:
512,287,35220,1,2,0:0:0:0:
470,183,35397,1,2,0:0:0:0:
500,74,35575,1,2,0:0:0:0:
500,74,35663,1,10,0:1:0:0:
399,1,35841,5,10,0:0:0:0:
391,15,35930,1,2,0:0:0:0:
382,28,36018,2,0,P|350:52|296:43,1,80,10|10,0:1|0:0,0:0:0:0:
192,6,36373,1,10,0:1:0:0:
207,121,36551,1,10,0:0:0:0:
207,121,36640,1,2,0:0:0:0:
108,79,36817,1,2,0:0:0:0:
108,79,36906,1,10,0:0:0:0:
116,190,37084,1,10,0:1:0:0:
222,253,37261,6,0,P|262:242|311:241,1,80,10|10,0:0|0:1,0:0:0:0:
182,349,37616,1,10,0:0:0:0:
178,356,37705,1,2,0:0:0:0:
173,362,37794,1,10,0:1:0:0:
104,280,37971,1,10,0:0:0:0:
96,282,38060,1,2,0:0:0:0:
136,178,38237,1,2,0:0:0:0:
130,172,38326,1,10,0:0:0:0:
126,164,38415,1,2,0:0:0:0:
124,156,38504,2,0,P|119:114|133:81,1,80,10|10,0:1|0:0,0:0:0:0:
274,0,38859,5,10,0:1:0:0:
333,94,39036,1,10,0:0:0:0:
313,205,39214,1,10,0:1:0:0:
409,271,39391,5,10,0:0:0:0:
434,282,39480,1,10,0:0:0:0:
458,295,39569,2,0,B|487:310|487:310|449:232,1,111.999996582031,14|8,0:1|0:0,0:0:0:0:
376,112,39924,5,10,0:3:0:0:
376,112,40013,1,8,0:3:0:0:
376,112,40101,1,8,0:3:0:0:
464,29,40279,6,0,L|495:22,2,30.0000011444092,14|10|10,0:1|0:1|0:1,0:0:0:0:
376,112,40634,2,0,L|460:129,1,60.0000022888184,10|0,0:0|0:0,0:0:0:0:
350,218,40989,2,0,L|414:274,1,60.0000022888184,10|0,0:1|0:0,0:0:0:0:
274,296,41344,2,0,L|301:377,1,60.0000022888184,10|0,0:0|0:0,0:0:0:0:
157,333,41699,5,8,0:1:0:0:
157,333,41788,1,8,0:1:0:0:
157,333,41876,2,0,P|117:337|81:314,1,80,10|8,0:2|0:1,0:0:0:0:
54,285,42143,1,8,0:1:0:0:
54,285,42231,2,0,L|68:204,1,80,10|8,0:2|0:1,0:0:0:0:
34,177,42498,1,8,0:1:0:0:
34,177,42587,2,0,L|26:92,1,80,10|8,0:2|0:1,0:0:0:0:
52,58,42853,1,8,0:1:0:0:
52,58,42942,1,10,0:2:0:0:
183,32,43119,6,0,L|205:-1,2,30.0000011444092,10|8|8,0:1|0:1|0:1,0:0:0:0:
104,128,43474,2,0,L|45:145,1,60.0000022888184,10|0,0:0|0:0,0:0:0:0:
185,204,43829,2,0,L|244:221,1,60.0000022888184,10|0,0:1|0:0,0:0:0:0:
107,289,44184,2,0,L|48:306,1,60.0000022888184,10|0,0:0|0:0,0:0:0:0:
214,349,44539,5,8,0:1:0:0:
214,349,44628,1,8,0:1:0:0:
214,349,44717,2,0,B|249:352|249:352|257:360|257:360|294:365,1,80,10|8,0:2|0:1,0:0:0:0:
338,349,44983,1,8,0:1:0:0:
338,349,45072,2,0,L|353:259,1,80,10|8,0:2|0:1,0:0:0:0:
388,238,45338,1,8,0:1:0:0:
388,238,45427,2,0,B|423:235|423:235|431:227|431:227|464:222,1,80,10|8,0:2|0:1,0:0:0:0:
510,248,45693,1,8,0:1:0:0:
510,248,45782,1,10,0:2:0:0:
488,128,45959,6,0,L|495:89,2,30.0000011444092,14|8|8,0:1|0:1|0:2,0:0:0:0:
388,238,46314,5,10,0:1:0:0:
366,156,46492,1,8,0:0:0:0:
269,181,46669,5,10,0:1:0:0:
313,92,46847,1,8,0:0:0:0:
239,29,47024,6,0,L|232:-4,2,30.0000011444092,10|8|8,0:1|0:1|0:0,0:0:0:0:
167,99,47379,5,10,0:1:0:0:
167,99,47468,1,8,0:1:0:0:
167,99,47557,2,0,B|135:92|135:92|119:95|119:95|80:89,1,80,10|8,0:2|0:1,0:0:0:0:
47,111,47823,1,8,0:1:0:0:
47,111,47912,2,0,P|29:143|52:216,1,80,10|8,0:2|0:1,0:0:0:0:
65,225,48178,1,8,0:1:0:0:
65,225,48267,2,0,B|95:224|95:224|110:229|110:229|143:226,1,80,10|8,0:2|0:1,0:0:0:0:
186,202,48533,1,8,0:1:0:0:
186,202,48622,1,10,0:2:0:0:
256,299,48800,6,0,L|241:343,2,30.0000011444092,10|8|8,0:1|0:1|0:2,0:0:0:0:
335,215,49155,5,10,0:1:0:0:
283,148,49332,1,8,0:0:0:0:
370,132,49510,5,10,0:1:0:0:
404,45,49687,1,8,0:0:0:0:
459,118,49865,5,8,0:1:0:0:
462,125,49953,1,8,0:1:0:0:
468,137,50042,5,8,0:0:0:0:
472,144,50131,1,8,0:0:0:0:
478,157,50220,5,8,0:1:0:0:
462,279,50397,6,0,B|429:302|429:302|341:280,1,111.999996582031,14|0,0:1|0:0,0:0:0:0:
287,186,50752,2,0,B|254:163|254:163|166:185,1,111.999996582031,14|0,0:1|0:0,0:0:0:0:
121,313,51107,1,14,0:1:0:0:
14,237,51285,5,8,0:1:0:0:
12,224,51373,1,8,0:1:0:0:
10,203,51462,5,8,0:0:0:0:
8,192,51551,1,8,0:0:0:0:
6,168,51640,6,0,B|14:134|14:134|10:113|10:113|24:47,1,95.9999970703126,14|8,0:1|0:0,0:0:0:0:
179,101,51995,1,8,0:1:0:0:
179,101,52084,1,8,0:1:0:0:
179,101,52172,2,0,B|171:67|171:67|175:46|175:46|161:-20,1,95.9999970703126,10|8,0:0|0:1,0:0:0:0:
303,116,52527,1,8,0:0:0:0:
303,116,52616,1,8,0:1:0:0:
373,34,52794,1,8,0:1:0:0:
373,34,52882,1,8,0:0:0:0:
460,132,53060,6,0,P|476:176|465:222,1,95.9999970703126,10|8,0:1|0:0,0:0:0:0:
456,233,53326,1,2,0:0:0:0:
443,241,53415,2,0,L|392:233,1,47.9999985351563,8|8,0:1|0:1,0:0:0:0:
318,210,53592,2,0,L|299:96,1,95.9999970703126,10|8,0:0|0:1,0:0:0:0:
201,190,53947,1,8,0:0:0:0:
201,190,54036,1,8,0:1:0:0:
251,305,54214,1,8,0:1:0:0:
251,305,54302,1,8,0:0:0:0:
117,367,54480,6,0,B|71:384|71:384|31:357,1,95.9999970703126,14|8,0:1|0:0,0:0:0:0:
0,232,54835,1,10,0:1:0:0:
0,232,54924,1,8,0:1:0:0:
0,232,55013,1,8,0:0:0:0:
100,144,55190,2,0,P|113:99|102:53,1,95.9999970703126,10|8,0:1|0:0,0:0:0:0:
158,0,55456,1,8,0:1:0:0:
158,0,55545,2,0,P|144:45|155:91,1,95.9999970703126,10|8,0:1|0:0,0:0:0:0:
314,161,55900,6,0,B|364:127|364:127|421:144,1,120.000004577637,14|8,0:0|0:1,0:0:0:0:
438,237,56166,2,0,B|387:270|387:270|330:253,1,120.000004577637,10|8,0:0|0:1,0:0:0:0:
243,221,56433,1,10,0:0:0:0:
326,137,56610,5,8,0:0:0:0:
345,106,56699,1,8,0:0:0:0:
348,71,56788,1,8,0:0:0:0:
333,38,56876,1,8,0:0:0:0:
305,16,56965,2,0,L|275:12,5,26.6666666666667,8|8|8|8|8|8,0:3|0:3|0:3|0:3|0:3|0:3,0:0:0:0:
253,27,57320,6,0,B|216:28|216:28|200:40|200:40|147:49,1,95.9999970703126,14|8,0:1|0:0,0:0:0:0:
53,153,57675,1,8,0:1:0:0:
53,153,57764,1,8,0:1:0:0:
53,153,57853,2,0,P|33:103|55:51,1,95.9999970703126,10|8,0:0|0:1,0:0:0:0:
168,175,58208,1,8,0:0:0:0:
168,175,58297,1,8,0:1:0:0:
72,279,58474,1,8,0:1:0:0:
72,279,58563,1,8,0:2:0:0:
194,344,58740,6,0,B|231:345|231:345|247:357|247:357|300:366,1,95.9999970703126,10|8,0:1|0:0,0:0:0:0:
300,362,59007,1,2,0:1:0:0:
313,358,59095,2,0,P|333:315|323:270,1,95.9999970703126,8|10,0:1|0:0,0:0:0:0:
259,134,59450,1,10,0:1:0:0:
172,232,59628,1,8,0:0:0:0:
172,232,59717,1,10,0:1:0:0:
84,137,59894,1,8,0:1:0:0:
84,137,59983,1,10,0:0:0:0:
207,36,60160,6,0,B|241:31|241:31|254:13|254:13|314:2,1,95.9999970703126,10|8,0:1|0:0,0:0:0:0:
442,39,60516,1,10,0:1:0:0:
442,39,60604,1,8,0:1:0:0:
442,39,60693,1,8,0:0:0:0:
380,175,60871,2,0,P|358:127|377:76,1,95.9999970703126,10|8,0:1|0:0,0:0:0:0:
320,32,61137,1,8,0:1:0:0:
320,32,61226,2,0,P|329:78|308:119,1,95.9999970703126,10|8,0:1|0:0,0:0:0:0:
191,198,61581,6,0,P|145:169|91:178,1,111.999996582031,14|8,0:1|0:0,0:0:0:0:
59,204,61847,1,8,0:0:0:0:
59,204,61936,2,0,P|49:224|49:255,5,31.9999990234375,8|8|8|8|8|8,0:3|0:3|0:3|0:3|0:3|0:3,0:0:0:0:
19,267,62291,2,0,P|18:286|37:324,3,47.9999985351563,6|4|4|4,0:3|0:3|0:3|0:3,0:0:0:0:
88,356,62646,5,8,0:0:0:0:
110,328,62734,1,8,0:0:0:0:
142,313,62823,1,8,0:0:0:0:
178,313,62912,1,8,0:0:0:0:
210,329,63001,6,0,P|259:360|323:344,1,111.999996582031,14|8,0:0|0:1,0:0:0:0:
373,314,63267,1,8,0:1:0:0:
373,314,63356,2,0,L|356:182,1,111.999996582031,10|8,0:0|0:1,0:0:0:0:
300,166,63622,1,8,0:1:0:0:
300,166,63711,2,0,L|313:39,1,111.999996582031,10|8,0:0|0:1,0:0:0:0:
370,11,63977,1,8,0:1:0:0:
370,11,64066,1,10,0:0:0:0:
289,70,64243,5,8,0:1:0:0:
266,73,64332,1,8,0:1:0:0:
243,71,64421,2,0,B|206:57|206:57|183:67|183:67|137:55,1,111.999996582031,10|8,0:0|0:1,0:0:0:0:
78,96,64687,1,8,0:1:0:0:
78,96,64776,2,0,P|62:145|93:223,1,111.999996582031,10|8,0:0|0:1,0:0:0:0:
135,252,65042,1,8,0:1:0:0:
135,252,65131,2,0,B|173:243|173:243|194:257|194:257|242:253,1,111.999996582031,10|8,0:0|0:1,0:0:0:0:
293,311,65397,1,8,0:1:0:0:
293,311,65486,2,0,B|331:319|331:319|352:305|352:305|400:309,1,111.999996582031,10|8,0:0|0:1,0:0:0:0:
502,159,65841,6,0,P|513:111|478:47,1,111.999996582031,14|8,0:0|0:1,0:0:0:0:
431,9,66107,1,8,0:1:0:0:
431,9,66196,2,0,B|386:10|386:10|371:22|371:22|299:29,1,111.999996582031,10|8,0:0|0:1,0:0:0:0:
282,88,66462,1,8,0:1:0:0:
281,88,66551,2,0,P|271:142|295:191,1,111.999996582031,10|8,0:0|0:1,0:0:0:0:
346,251,66817,1,8,0:1:0:0:
346,251,66906,1,10,0:0:0:0:
302,374,67084,5,8,0:1:0:0:
291,360,67172,1,8,0:1:0:0:
277,346,67261,2,0,P|234:314|179:321,1,111.999996582031,10|8,0:0|0:1,0:0:0:0:
122,366,67527,1,8,0:1:0:0:
122,366,67616,2,0,P|67:373|23:340,1,111.999996582031,10|8,0:0|0:1,0:0:0:0:
3,270,67882,1,8,0:1:0:0:
3,270,67971,2,0,L|19:148,1,111.999996582031,10|8,0:0|0:1,0:0:0:0:
27,138,68237,1,8,0:1:0:0:
36,117,68326,5,14,0:0:0:0:
115,208,68504,1,8,0:0:0:0:
237,148,68681,5,14,0:1:0:0:
224,121,68770,1,0,0:1:0:0:
221,91,68859,1,8,0:2:0:0:
230,62,68947,1,0,0:1:0:0:
248,39,69036,2,0,L|322:28,3,60.0000022888184,8|0|8|0,0:1|0:1|0:2|0:1,0:0:0:0:
372,73,69391,2,0,L|446:84,3,60.0000022888184,8|0|8|0,0:1|0:1|0:2|0:1,0:0:0:0:
492,128,69746,2,0,P|503:170|493:198,3,60.0000022888184,8|0|8|0,0:1|0:1|0:2|0:1,0:0:0:0:
449,245,70101,5,10,0:1:0:0:
425,225,70190,1,0,0:2:0:0:
397,217,70279,1,8,0:2:0:0:
367,223,70368,1,0,0:2:0:0:
343,239,70456,1,8,0:1:0:0:
317,256,70545,1,0,0:2:0:0:
287,260,70634,1,8,0:2:0:0:
260,252,70723,1,0,0:2:0:0:
237,233,70811,2,0,L|247:160,3,60.0000022888184,8|0|8|0,0:1|0:2|0:2|0:2,0:0:0:0:
307,129,71166,2,0,L|297:56,3,60.0000022888184,8|0|8|0,0:1|0:2|0:2|0:2,0:0:0:0:
236,14,71521,5,14,0:1:0:0:
227,42,71610,1,0,0:2:0:0:
209,67,71699,1,8,0:2:0:0:
183,82,71788,1,0,0:2:0:0:
154,87,71876,2,0,P|126:73|77:74,3,60.0000022888184,8|0|8|0,0:1|0:2|0:2|0:2,0:0:0:0:
31,105,72231,2,0,L|41:184,3,60.0000022888184,8|0|8|0,0:1|0:2|0:2|0:2,0:0:0:0:
78,227,72587,2,0,L|68:306,3,60.0000022888184,8|0|8|0,0:1|0:2|0:2|0:2,0:0:0:0:
115,360,72942,5,10,0:1:0:0:
134,337,73030,1,0,0:2:0:0:
158,320,73119,1,8,0:2:0:0:
187,310,73208,1,0,0:2:0:0:
217,309,73297,1,8,0:1:0:0:
246,316,73385,1,0,0:2:0:0:
271,331,73474,6,0,P|293:347|343:354,1,60.0000022888184,10|0,0:2|0:2,0:0:0:0:
312,253,73652,2,0,P|337:248|377:218,1,60.0000022888184,10|0,0:2|0:2,0:0:0:0:
284,168,73829,2,0,P|299:146|306:96,1,60.0000022888184,10|0,0:2|0:2,0:0:0:0:
252,49,74007,6,0,P|199:48|121:1,2,120.000004577637,14|8|8,0:1|0:1|0:1,0:0:0:0:
399,10,75072,5,10,0:1:0:0:
399,10,75249,1,8,0:1:0:0:
486,73,75427,5,8,0:0:0:0:
469,88,75516,1,8,0:0:0:0:
460,108,75604,1,8,0:0:0:0:
459,131,75693,1,8,0:0:0:0:
466,152,75782,6,0,B|486:188|486:188|470:246,1,80,14|8,0:1|0:0,0:0:0:0:
428,348,76137,1,8,0:1:0:0:
428,348,76226,1,8,0:1:0:0:
428,348,76314,1,8,0:2:0:0:
306,256,76492,1,10,0:1:0:0:
236,369,76669,2,0,B|233:344|233:344|235:331|235:331|226:286,1,80,10|8,0:0|0:1,0:0:0:0:
219,280,76936,1,8,0:1:0:0:
212,269,77024,2,0,B|215:244|215:244|213:231|213:231|222:186,1,80,10|8,0:0|0:1,0:0:0:0:
320,64,77379,5,8,0:0:0:0:
326,73,77468,1,8,0:1:0:0:
332,83,77557,2,0,B|361:79|361:79|375:88|375:88|427:83,1,80,8|8,0:1|0:0,0:0:0:0:
335,216,77912,1,10,0:1:0:0:
330,196,78001,1,10,0:1:0:0:
324,176,78089,1,10,0:0:0:0:
211,226,78267,1,10,0:1:0:0:
218,207,78356,1,10,0:1:0:0:
221,190,78444,1,10,0:0:0:0:
131,98,78622,6,0,P|115:54|81:20,1,80,10|8,0:1|0:2,0:0:0:0:
19,160,78977,1,8,0:1:0:0:
19,160,79066,1,8,0:1:0:0:
19,160,79155,1,8,0:2:0:0:
111,258,79332,1,10,0:1:0:0:
0,331,79510,2,0,P|0:291|17:255,1,80,10|8,0:0|0:1,0:0:0:0:
26,247,79776,1,8,0:1:0:0:
36,240,79865,2,0,B|64:239|64:239|76:248|76:248|123:262,1,80,10|8,0:0|0:1,0:0:0:0:
251,192,80220,5,8,0:2:0:0:
257,181,80308,1,8,0:1:0:0:
262,170,80397,2,0,B|269:141|269:141|266:130|266:130|275:84,1,80,8|8,0:1|0:2,0:0:0:0:
359,12,80752,2,0,P|363:38|375:65,1,40,10|8,0:1|0:1,0:0:0:0:
441,86,80930,2,0,P|447:66|449:47,1,40,10|8,0:0|0:1,0:0:0:0:
375,138,81107,1,8,0:1:0:0:
379,149,81196,1,8,0:1:0:0:
387,157,81285,2,0,P|409:172|443:176,1,40,14|8,0:2|0:1,0:0:0:0:
320,235,81462,6,0,B|287:240|287:240|278:247|278:247|243:252,1,80,14|8,0:1|0:0,0:0:0:0:
173,381,81817,1,8,0:1:0:0:
173,381,81906,1,8,0:1:0:0:
173,381,81995,1,8,0:2:0:0:
77,282,82172,1,10,0:1:0:0:
161,183,82350,2,0,B|172:146|172:146|155:103,1,80,10|8,0:0|0:1,0:0:0:0:
148,98,82616,1,8,0:1:0:0:
139,89,82705,2,0,B|110:88|110:88|96:95|96:95|40:90,1,80,10|8,0:0|0:1,0:0:0:0:
167,198,83060,5,8,0:2:0:0:
178,201,83149,1,8,0:1:0:0:
189,205,83237,2,0,B|218:204|218:204|232:211|232:211|288:206,1,80,8|8,0:1|0:0,0:0:0:0:
337,117,83592,1,10,0:1:0:0:
323,96,83681,1,10,0:1:0:0:
315,73,83770,1,10,0:0:0:0:
424,77,83947,1,10,0:1:0:0:
434,55,84036,1,10,0:1:0:0:
451,38,84125,1,10,0:0:0:0:
510,151,84302,6,0,P|517:190|495:250,1,80,10|8,0:1|0:0,0:0:0:0:
452,336,84658,1,8,0:1:0:0:
452,336,84746,1,8,0:1:0:0:
452,336,84835,1,8,0:2:0:0:
360,261,85013,1,10,0:1:0:0:
280,384,85190,2,0,P|290:348|265:298,1,80,10|8,0:0|0:1,0:0:0:0:
268,299,85456,1,8,0:1:0:0:
260,289,85545,2,0,P|246:252|256:213,1,80,10|8,0:0|0:1,0:0:0:0:
379,140,85900,5,8,0:2:0:0:
389,146,85989,1,8,0:1:0:0:
398,152,86078,2,0,B|424:146|424:146|441:154|441:154|490:144,1,80,8|8,0:1|0:2,0:0:0:0:
310,46,86433,5,10,0:1:0:0:
313,34,86521,1,10,0:1:0:0:
315,23,86610,1,10,0:2:0:0:
314,11,86699,1,10,0:1:0:0:
309,3,86788,1,8,0:3:0:0:
294,23,86876,1,8,0:3:0:0:
273,35,86965,1,8,0:3:0:0:
248,39,87054,1,8,0:3:0:0:
224,32,87143,5,14,0:1:0:0:
129,91,87320,2,0,P|129:61|138:32,1,60.0000022888184,10|4,0:1|0:3,0:0:0:0:
138,32,87587,1,4,0:3:0:0:
138,32,87675,1,4,0:3:0:0:
224,136,87853,5,14,0:0:0:0:
131,199,88030,1,10,0:1:0:0:
120,209,88119,2,0,B|90:214|90:214|65:197,1,60.0000022888184,8|8,0:0|0:0,0:0:0:0:
55,185,88385,1,8,0:0:0:0:
45,173,88474,1,8,0:0:0:0:
35,161,88563,5,14,0:1:0:0:
45,49,88740,1,10,0:0:0:0:
148,5,88918,1,10,0:1:0:0:
245,59,89095,1,10,0:0:0:0:
252,69,89184,2,0,B|265:107|265:107|249:143,1,80,2|0,0:0|0:0,0:0:0:0:
211,206,89450,1,10,0:0:0:0:
206,216,89539,1,2,0:0:0:0:
202,227,89628,2,0,B|186:263|186:263|199:301,1,80,8|10,0:1|0:0,0:0:0:0:
320,384,89983,5,10,0:1:0:0:
373,285,90160,1,10,0:2:0:0:
445,369,90338,1,10,0:1:0:0:
502,273,90516,1,10,0:0:0:0:
502,273,90604,1,2,0:0:0:0:
431,185,90782,1,2,0:0:0:0:
431,185,90871,2,0,P|419:137|442:88,1,80,10|10,0:0|0:1,0:0:0:0:
493,0,91226,5,10,0:0:0:0:
438,97,91403,1,10,0:1:0:0:
346,25,91581,1,10,0:0:0:0:
346,25,91669,2,0,B|307:45|307:45|259:29,1,80,2|8,0:0|0:1,0:0:0:0:
205,6,91936,1,10,0:0:0:0:
185,1,92024,1,2,0:0:0:0:
168,13,92113,2,0,P|149:41|151:92,1,80,10|10,0:1|0:0,0:0:0:0:
175,191,92468,1,10,0:1:0:0:
290,254,92646,5,10,0:0:0:0:
290,254,92734,1,2,0:0:0:0:
290,254,92823,2,0,B|318:250|318:250|326:257|326:257|375:250,1,80,10|10,0:1|0:0,0:0:0:0:
470,314,93178,1,10,0:1:0:0:
512,197,93356,5,10,0:0:0:0:
502,178,93444,1,10,0:0:0:0:
491,160,93533,2,0,B|480:130|480:130|482:115|482:115|462:51,1,103.999995239258,14|10,0:1|0:0,0:0:0:0:
309,0,93888,2,0,B|302:40|302:40|305:53|305:53|296:103,1,103.999995239258,14|8,0:1|0:0,0:0:0:0:
247,216,94243,5,14,0:1:0:0:
181,125,94421,1,10,0:0:0:0:
70,139,94598,1,10,0:1:0:0:
32,245,94776,1,2,0:0:0:0:
28,259,94865,2,0,P|22:297|37:339,1,80,2|0,0:0|0:0,0:0:0:0:
92,384,95131,1,10,0:0:0:0:
103,380,95220,1,2,0:0:0:0:
115,376,95308,1,10,0:1:0:0:
230,319,95486,5,10,0:0:0:0:
216,303,95575,1,2,0:0:0:0:
203,288,95663,2,0,P|194:248|204:210,1,80,10|10,0:1|0:0,0:0:0:0:
270,120,96018,1,10,0:1:0:0:
372,164,96196,1,10,0:0:0:0:
381,171,96285,1,10,0:0:0:0:
390,178,96373,6,0,L|418:174,1,20,10|0,0:1|0:0,0:0:0:0:
410,102,96551,6,0,L|432:84,1,20,10|0,0:1|0:0,0:0:0:0:
380,33,96729,6,0,L|390:6,1,20,10|0,0:1|0:0,0:0:0:0:
304,28,96906,5,8,0:0:0:0:
304,28,96995,1,8,0:0:0:0:
304,28,97084,2,0,P|266:52|224:46,1,80,14|10,0:1|0:0,0:0:0:0:
127,10,97439,1,10,0:1:0:0:
57,97,97616,1,10,0:0:0:0:
57,97,97705,2,0,P|44:130|51:179,1,80,2|0,0:0|0:0,0:0:0:0:
85,236,97971,1,10,0:0:0:0:
92,245,98060,1,2,0:0:0:0:
100,253,98149,2,0,L|189:245,1,80,10|10,0:1|0:0,0:0:0:0:
295,324,98504,5,10,0:1:0:0:
264,216,98681,1,10,0:0:0:0:
297,108,98859,1,10,0:1:0:0:
394,34,99036,5,8,0:0:0:0:
409,42,99125,1,8,0:0:0:0:
426,45,99214,1,14,0:1:0:0:
353,122,99391,5,8,0:0:0:0:
342,129,99480,1,8,0:0:0:0:
330,136,99569,2,0,L|270:139,1,44.0000013427735,10|8,0:3|0:3,0:0:0:0:
386,203,99746,2,0,L|428:220,1,44.0000013427735,6|4,0:3|0:3,0:0:0:0:
300,258,99924,6,0,L|249:266,2,30.0000011444092,14|8|8,0:1|0:1|0:1,0:0:0:0:
363,359,100279,2,0,P|372:331|367:293,1,60.0000022888184,10|0,0:0|0:0,0:0:0:0:
197,302,100634,2,0,P|187:273|190:243,1,60.0000022888184,10|0,0:1|0:0,0:0:0:0:
331,179,100989,2,0,P|340:150|337:120,1,60.0000022888184,10|0,0:0|0:0,0:0:0:0:
221,34,101344,5,8,0:1:0:0:
221,34,101433,1,8,0:1:0:0:
221,34,101521,2,0,L|141:27,1,80,10|8,0:2|0:1,0:0:0:0:
98,50,101788,1,8,0:1:0:0:
98,50,101876,2,0,P|82:89|89:131,1,80,10|8,0:2|0:1,0:0:0:0:
118,168,102143,1,8,0:1:0:0:
118,168,102231,2,0,L|222:159,1,80,10|8,0:2|0:1,0:0:0:0:
236,196,102498,1,8,0:1:0:0:
236,196,102587,1,10,0:2:0:0:
337,120,102764,6,0,L|342:79,2,30.0000011444092,10|8|8,0:1|0:1|0:1,0:0:0:0:
369,229,103119,2,0,L|387:306,1,60.0000022888184,10|0,0:0|0:0,0:0:0:0:
422,138,103474,2,0,L|440:61,1,60.0000022888184,10|0,0:1|0:0,0:0:0:0:
462,241,103829,2,0,L|475:299,1,60.0000022888184,10|0,0:0|0:0,0:0:0:0:
331,368,104184,5,8,0:1:0:0:
331,368,104273,1,8,0:1:0:0:
331,368,104362,2,0,B|296:361|296:361|286:367|286:367|247:361,1,80,10|8,0:2|0:1,0:0:0:0:
212,384,104628,1,8,0:1:0:0:
212,384,104717,2,0,L|197:294,1,80,10|8,0:2|0:1,0:0:0:0:
171,271,104983,1,8,0:1:0:0:
171,271,105072,2,0,L|186:181,1,80,10|8,0:2|0:1,0:0:0:0:
163,153,105338,1,8,0:1:0:0:
163,153,105427,1,10,0:2:0:0:
77,220,105604,6,0,L|84:259,2,30.0000011444092,14|8|8,0:1|0:1|0:2,0:0:0:0:
0,158,105959,5,10,0:1:0:0:
56,78,106137,1,8,0:0:0:0:
130,122,106314,5,10,0:1:0:0:
107,12,106492,1,8,0:0:0:0:
208,63,106669,6,0,L|202:100,2,30.0000011444092,10|8|8,0:1|0:1|0:0,0:0:0:0:
300,12,107024,5,10,0:1:0:0:
300,12,107113,1,8,0:1:0:0:
300,12,107202,2,0,B|332:5|332:5|344:11|344:11|386:7,1,80,10|8,0:2|0:1,0:0:0:0:
426,28,107468,1,8,0:1:0:0:
426,28,107557,2,0,P|444:60|416:121,1,80,10|8,0:2|0:1,0:0:0:0:
401,134,107823,1,8,0:1:0:0:
401,134,107912,2,0,B|369:131|369:131|355:136|355:136|308:133,1,80,10|8,0:2|0:1,0:0:0:0:
281,117,108178,1,8,0:1:0:0:
281,117,108267,1,10,0:2:0:0:
220,220,108444,6,0,L|227:253,2,30.0000011444092,10|8|8,0:1|0:1|0:2,0:0:0:0:
138,141,108800,5,10,0:1:0:0:
121,234,108977,1,8,0:0:0:0:
38,215,109155,5,10,0:1:0:0:
66,311,109332,1,8,0:0:0:0:
146,367,109510,5,8,0:1:0:0:
149,359,109598,1,8,0:1:0:0:
153,346,109687,5,8,0:0:0:0:
156,339,109776,1,8,0:0:0:0:
162,325,109865,5,8,0:1:0:0:
264,285,110042,6,0,B|296:312|296:312|388:295,1,111.999996582031,14|0,0:1|0:0,0:0:0:0:
512,184,110397,2,0,B|480:211|480:211|388:194,1,111.999996582031,14|0,0:1|0:0,0:0:0:0:
309,114,110752,1,14,0:1:0:0:
194,215,110930,5,8,0:1:0:0:
196,201,111018,1,8,0:1:0:0:
200,181,111107,5,8,0:0:0:0:
202,169,111196,1,8,0:0:0:0:
209,147,111285,6,0,B|226:102|226:102|204:42,1,95.9999970703126,14|8,0:1|0:0,0:0:0:0:
67,140,111640,1,8,0:1:0:0:
67,140,111729,1,8,0:1:0:0:
67,140,111817,2,0,B|50:185|50:185|72:245,1,95.9999970703126,10|8,0:0|0:1,0:0:0:0:
127,348,112172,1,8,0:0:0:0:
127,348,112261,1,8,0:1:0:0:
246,290,112439,1,8,0:1:0:0:
246,290,112527,1,8,0:0:0:0:
362,366,112705,6,0,B|400:362|400:362|412:368|412:368|461:362,1,95.9999970703126,10|8,0:1|0:0,0:0:0:0:
469,357,112971,1,2,0:0:0:0:
478,345,113060,2,0,P|484:318|478:291,1,47.9999985351563,8|8,0:1|0:1,0:0:0:0:
433,231,113237,2,0,B|395:227|395:227|383:233|383:233|334:227,1,95.9999970703126,10|8,0:0|0:1,0:0:0:0:
244,138,113592,1,8,0:0:0:0:
244,138,113681,1,8,0:1:0:0:
307,31,113859,1,8,0:1:0:0:
307,31,113947,1,8,0:0:0:0:
418,115,114125,6,0,B|456:111|456:111|468:117|468:117|512:111,1,95.9999970703126,14|8,0:1|0:0,0:0:0:0:
385,0,114480,1,10,0:1:0:0:
385,0,114569,1,8,0:1:0:0:
385,0,114658,1,8,0:0:0:0:
338,122,114835,2,0,P|328:168|345:215,1,95.9999970703126,10|8,0:1|0:0,0:0:0:0:
424,206,115101,1,8,0:1:0:0:
424,206,115190,2,0,P|433:159|417:113,1,95.9999970703126,10|8,0:1|0:0,0:0:0:0:
237,222,115545,6,0,B|183:249|183:249|128:225,1,120.000004577637,14|8,0:0|0:1,0:0:0:0:
123,130,115811,2,0,B|177:103|177:103|232:127,1,120.000004577637,10|8,0:0|0:1,0:0:0:0:
313,170,116078,1,10,0:0:0:0:
417,114,116255,5,8,0:0:0:0:
445,92,116344,1,8,0:0:0:0:
455,57,116433,1,8,0:0:0:0:
440,23,116521,1,8,0:0:0:0:
408,5,116610,2,0,L|377:7,5,26.6666666666667,8|8|8|8|8|8,0:3|0:3|0:3|0:3|0:3|0:3,0:0:0:0:
357,32,116965,6,0,B|320:31|320:31|304:19|304:19|251:10,1,95.9999970703126,14|8,0:1|0:0,0:0:0:0:
166,103,117320,1,8,0:1:0:0:
166,103,117409,1,8,0:1:0:0:
166,103,117498,2,0,B|148:57|148:57|174:7,1,95.9999970703126,10|8,0:0|0:1,0:0:0:0:
278,136,117853,1,8,0:0:0:0:
278,136,117942,1,8,0:1:0:0:
165,232,118119,1,8,0:1:0:0:
165,232,118208,1,8,0:2:0:0:
271,326,118385,6,0,B|292:284|292:284|274:238,1,95.9999970703126,10|8,0:1|0:0,0:0:0:0:
265,227,118652,1,2,0:1:0:0:
256,215,118740,2,0,B|220:217|220:217|210:228|210:228|153:234,1,95.9999970703126,8|10,0:1|0:0,0:0:0:0:
54,327,119095,1,10,0:1:0:0:
11,203,119273,1,8,0:0:0:0:
11,203,119362,1,10,0:1:0:0:
68,83,119539,1,8,0:1:0:0:
68,83,119628,1,10,0:0:0:0:
199,116,119805,6,0,B|247:125|247:125|289:103,1,95.9999970703126,10|8,0:1|0:0,0:0:0:0:
388,23,120160,1,10,0:1:0:0:
388,23,120249,1,8,0:1:0:0:
388,23,120338,1,8,0:0:0:0:
466,154,120516,2,0,B|483:109|483:109|457:64,1,95.9999970703126,10|8,0:1|0:0,0:0:0:0:
395,30,120782,1,8,0:1:0:0:
395,30,120871,2,0,B|362:24|362:24|347:33|347:33|279:28,1,95.9999970703126,10|8,0:1|0:0,0:0:0:0:
191,147,121226,6,0,B|169:199|169:199|188:255,1,111.999996582031,14|8,0:1|0:0,0:0:0:0:
209,281,121492,1,8,0:0:0:0:
209,281,121581,2,0,L|265:273,5,31.9999990234375,8|8|8|8|8|8,0:3|0:3|0:3|0:3|0:3|0:3,0:0:0:0:
271,305,121936,2,0,L|329:315,3,47.9999985351563,6|4|4|4,0:3|0:3|0:3|0:3,0:0:0:0:
389,348,122291,5,8,0:0:0:0:
362,324,122379,1,8,0:0:0:0:
349,292,122468,1,8,0:0:0:0:
350,256,122557,1,8,0:0:0:0:
368,224,122646,6,0,B|390:174|390:174|367:112,1,111.999996582031,14|8,0:0|0:1,0:0:0:0:
344,56,122912,1,8,0:1:0:0:
344,56,123001,2,0,B|292:79|292:79|237:64,1,111.999996582031,10|8,0:0|0:1,0:0:0:0:
177,33,123267,1,8,0:1:0:0:
177,33,123356,2,0,B|123:18|123:18|71:41,1,111.999996582031,10|8,0:0|0:1,0:0:0:0:
12,80,123622,1,8,0:1:0:0:
12,80,123711,1,10,0:0:0:0:
66,173,123888,5,8,0:1:0:0:
87,166,123977,1,8,0:1:0:0:
109,169,124066,2,0,B|163:184|163:184|215:161,1,111.999996582031,10|8,0:0|0:1,0:0:0:0:
277,123,124332,1,8,0:1:0:0:
277,123,124421,2,0,B|329:100|329:100|383:115,1,111.999996582031,10|8,0:0|0:1,0:0:0:0:
437,169,124687,1,8,0:1:0:0:
437,169,124776,2,0,B|434:214|434:214|440:231|440:231|431:304,1,111.999996582031,10|8,0:0|0:1,0:0:0:0:
393,341,125042,1,8,0:1:0:0:
393,341,125131,2,0,B|354:341|354:341|332:359|332:359|279:365,1,111.999996582031,10|8,0:0|0:1,0:0:0:0:
142,292,125486,6,0,B|146:247|146:247|141:233|141:233|148:157,1,111.999996582031,14|8,0:0|0:1,0:0:0:0:
180,118,125752,1,8,0:1:0:0:
180,118,125841,2,0,P|240:130|288:107,1,111.999996582031,10|8,0:0|0:1,0:0:0:0:
343,65,126107,1,8,0:1:0:0:
343,65,126196,2,0,P|394:44|447:56,1,111.999996582031,10|8,0:0|0:1,0:0:0:0:
501,112,126462,1,8,0:1:0:0:
501,112,126551,1,10,0:0:0:0:
454,222,126729,5,8,0:1:0:0:
441,209,126817,1,8,0:1:0:0:
425,197,126906,2,0,B|388:189|388:189|363:201|363:201|311:192,1,111.999996582031,10|8,0:0|0:1,0:0:0:0:
254,154,127172,1,8,0:1:0:0:
254,154,127261,2,0,P|266:99|241:42,1,111.999996582031,10|8,0:0|0:1,0:0:0:0:
173,40,127527,1,8,0:1:0:0:
173,40,127616,2,0,P|141:86|143:148,1,111.999996582031,10|8,0:0|0:1,0:0:0:0:
145,162,127882,1,8,0:1:0:0:
149,183,127971,5,14,0:0:0:0:
267,256,128149,1,8,0:0:0:0:
166,384,128326,5,14,0:1:0:0:
179,357,128415,1,0,0:1:0:0:
182,327,128504,1,8,0:2:0:0:
173,298,128592,1,0,0:1:0:0:
155,275,128681,2,0,L|91:258,3,60.0000022888184,8|0|8|0,0:1|0:1|0:2|0:1,0:0:0:0:
36,218,129036,2,0,L|34:150,3,60.0000022888184,8|0|8|0,0:1|0:1|0:2|0:1,0:0:0:0:
68,89,129391,2,0,L|132:72,3,60.0000022888184,8|0|8|0,0:1|0:1|0:2|0:1,0:0:0:0:
195,27,129746,5,10,0:1:0:0:
219,47,129835,1,0,0:2:0:0:
247,55,129924,1,8,0:2:0:0:
277,49,130013,1,0,0:2:0:0:
301,33,130101,1,8,0:1:0:0:
327,16,130190,1,0,0:2:0:0:
357,12,130279,1,8,0:2:0:0:
384,20,130368,1,0,0:2:0:0:
407,39,130456,2,0,L|418:112,3,60.0000022888184,8|0|8|0,0:1|0:2|0:2|0:2,0:0:0:0:
462,162,130811,2,0,L|451:235,3,60.0000022888184,8|0|8|0,0:1|0:2|0:2|0:2,0:0:0:0:
398,280,131166,5,14,0:1:0:0:
382,255,131255,1,0,0:2:0:0:
358,235,131344,1,8,0:2:0:0:
329,228,131433,1,0,0:2:0:0:
299,230,131521,2,0,P|266:239|216:223,3,60.0000022888184,8|0|8|0,0:1|0:2|0:2|0:2,0:0:0:0:
193,175,131876,2,0,P|201:144|188:100,3,60.0000022888184,8|0|8|0,0:1|0:2|0:2|0:2,0:0:0:0:
157,54,132231,2,0,L|91:47,3,60.0000022888184,8|0|8|0,0:1|0:2|0:2|0:2,0:0:0:0:
34,95,132587,5,10,0:1:0:0:
19,121,132675,1,0,0:2:0:0:
9,149,132764,1,8,0:2:0:0:
5,179,132853,1,0,0:2:0:0:
6,208,132942,1,8,0:1:0:0:
13,238,133030,1,0,0:2:0:0:
25,265,133119,6,0,L|95:257,1,60.0000022888184,10|0,0:2|0:2,0:0:0:0:
104,342,133297,2,0,L|174:350,1,60.0000022888184,10|0,0:2|0:2,0:0:0:0:
183,247,133474,2,0,L|242:240,1,60.0000022888184,10|0,0:2|0:2,0:0:0:0:
305,309,133652,6,0,B|358:338|358:338|411:308,2,120.000004577637,14|8|8,0:1|0:1|0:1,0:0:0:0:
175,244,134717,5,10,0:1:0:0:
175,244,134894,1,8,0:1:0:0:
259,169,135072,5,8,0:0:0:0:
276,154,135160,1,8,0:0:0:0:
285,134,135249,1,8,0:0:0:0:
286,111,135338,1,8,0:0:0:0:
279,90,135427,6,0,B|267:53|267:53|286:-1,1,80,14|8,0:1|0:0,0:0:0:0:
393,103,135782,1,8,0:1:0:0:
393,103,135871,1,8,0:1:0:0:
393,103,135959,1,8,0:2:0:0:
284,188,136137,1,10,0:1:0:0:
392,281,136314,2,0,B|421:281|421:281|431:289|431:289|473:295,1,80,10|8,0:0|0:1,0:0:0:0:
480,296,136581,1,8,0:1:0:0:
491,298,136669,2,0,B|504:259|504:259|492:222,1,80,10|8,0:0|0:1,0:0:0:0:
401,110,137024,5,8,0:0:0:0:
392,118,137113,1,8,0:1:0:0:
385,126,137202,2,0,B|356:118|356:118|341:124|341:124|290:112,1,80,8|8,0:1|0:0,0:0:0:0:
232,58,137557,1,10,0:1:0:0:
234,38,137646,1,10,0:1:0:0:
228,18,137734,1,10,0:0:0:0:
150,84,137912,1,10,0:1:0:0:
135,69,138001,1,10,0:1:0:0:
116,60,138089,1,10,0:0:0:0:
30,122,138267,6,0,P|15:158|24:203,1,80,10|8,0:1|0:2,0:0:0:0:
74,311,138622,1,8,0:1:0:0:
74,311,138711,1,8,0:1:0:0:
74,311,138800,1,8,0:2:0:0:
188,250,138977,1,10,0:1:0:0:
264,358,139155,2,0,B|301:372|301:372|348:354,1,80,10|8,0:0|0:1,0:0:0:0:
349,351,139421,1,8,0:1:0:0:
359,345,139510,2,0,B|367:245,1,80,10|8,0:0|0:1,0:0:0:0:
281,166,139865,5,8,0:2:0:0:
275,155,139953,1,8,0:1:0:0:
270,144,140042,2,0,B|260:112|260:112|276:60,1,80,8|8,0:1|0:2,0:0:0:0:
377,1,140397,2,0,L|429:9,1,40,10|8,0:1|0:1,0:0:0:0:
313,61,140575,2,0,L|261:69,1,40,10|8,0:0|0:1,0:0:0:0:
385,101,140752,1,8,0:1:0:0:
394,107,140841,1,8,0:1:0:0:
404,111,140930,2,0,L|463:124,1,40,14|8,0:2|0:1,0:0:0:0:
324,172,141107,6,0,B|288:176|288:176|280:185|280:185|247:189,1,80,14|8,0:1|0:0,0:0:0:0:
333,293,141462,1,8,0:1:0:0:
333,293,141551,1,8,0:1:0:0:
333,293,141640,1,8,0:2:0:0:
224,383,141817,1,10,0:1:0:0:
137,285,141995,2,0,B|150:247|150:247|131:205,1,80,10|8,0:0|0:1,0:0:0:0:
126,200,142261,1,8,0:1:0:0:
122,188,142350,2,0,B|105:155|105:155|118:113,1,80,10|8,0:0|0:1,0:0:0:0:
222,20,142705,5,8,0:2:0:0:
232,25,142794,1,8,0:1:0:0:
243,29,142882,2,0,B|271:26|271:26|282:21|282:21|339:17,1,80,8|8,0:1|0:0,0:0:0:0:
441,85,143237,1,10,0:1:0:0:
438,61,143326,1,10,0:1:0:0:
426,40,143415,1,10,0:0:0:0:
366,131,143592,1,10,0:1:0:0:
356,108,143681,1,10,0:1:0:0:
340,89,143770,1,10,0:0:0:0:
259,159,143947,6,0,B|243:196|243:196|260:236,1,80,10|8,0:1|0:0,0:0:0:0:
343,342,144302,1,8,0:1:0:0:
343,342,144391,1,8,0:1:0:0:
343,342,144480,1,8,0:2:0:0:
411,243,144658,1,10,0:1:0:0:
499,346,144835,6,0,B|515:309|515:309|499:272,1,80,10|8,0:0|0:1,0:0:0:0:
493,261,145101,1,8,0:1:0:0:
487,250,145190,2,0,B|457:242|457:242|442:249|442:249|400:240,1,80,10|8,0:0|0:1,0:0:0:0:
324,147,145545,5,8,0:2:0:0:
330,137,145634,1,8,0:1:0:0:
336,128,145723,2,0,B|330:102|330:102|338:85|338:85|328:36,1,80,8|8,0:1|0:2,0:0:0:0:
244,3,146078,5,10,0:1:0:0:
242,25,146166,1,10,0:1:0:0:
227,42,146255,1,10,0:2:0:0:
205,48,146344,1,10,0:1:0:0:
184,40,146433,5,10,0:0:0:0:
157,19,146521,1,10,0:0:0:0:
123,20,146610,1,10,0:0:0:0:
98,43,146699,1,10,0:0:0:0:
94,76,146788,6,0,B|103:104|103:104|99:124|99:124|114:182,1,80,14|10,0:1|0:0,0:0:0:0:
177,236,147143,1,10,0:1:0:0:
177,236,147231,1,10,0:1:0:0:
177,236,147320,1,10,0:0:0:0:
277,153,147498,2,0,B|284:123|284:123|280:103|280:103|289:75,1,80,10|10,0:1|0:0,0:0:0:0:
383,2,147853,1,10,0:1:0:0:
383,2,147942,1,10,0:1:0:0:
383,2,148030,1,10,0:0:0:0:
473,93,148208,6,0,B|482:121|482:121|478:141|478:141|485:170,1,80,10|10,0:1|0:0,0:0:0:0:
496,289,148563,5,10,0:1:0:0:
485,283,148652,1,10,0:1:0:0:
473,278,148740,1,10,0:0:0:0:
439,369,148918,5,10,0:1:0:0:
428,375,149007,1,2,0:0:0:0:
416,378,149095,2,0,P|390:375|365:359,1,40,10|2,0:0|0:0,0:0:0:0:
321,262,149362,5,10,0:1:0:0:
329,248,149450,1,10,0:0:0:0:
334,233,149539,2,0,P|332:216|324:194,1,40,2|10,0:0|0:1,0:0:0:0:
203,125,149805,5,10,0:0:0:0:
194,146,149894,1,2,0:0:0:0:
174,158,149983,2,0,P|148:146|113:98,1,80,10|10,0:1|0:0,0:0:0:0:
105,94,150249,1,2,0:0:0:0:
99,79,150338,2,0,P|96:50|120:-4,1,80,10|10,0:1|0:0,0:0:0:0:
279,39,150693,6,0,B|304:33|304:33|319:38|319:38|366:29,1,80,10|10,0:1|0:0,0:0:0:0:
372,31,150959,1,2,0:0:0:0:
387,33,151048,2,0,P|406:67|401:124,1,80,10|10,0:1|0:0,0:0:0:0:
346,203,151403,1,10,0:1:0:0:
329,191,151492,1,10,0:1:0:0:
309,185,151581,1,10,0:0:0:0:
327,298,151758,1,10,0:1:0:0:
253,373,151936,1,10,0:0:0:0:
153,313,152113,5,8,0:1:0:0:
151,303,152202,1,8,0:1:0:0:
148,288,152291,5,8,0:0:0:0:
146,280,152379,1,8,0:0:0:0:
143,265,152468,6,0,B|150:225|150:225|146:217|146:217|157:152,1,95.9999970703126,14|10,0:1|0:0,0:0:0:0:
231,153,152734,1,2,0:0:0:0:
231,153,152823,2,0,B|224:113|224:113|228:105|228:105|217:40,1,95.9999970703126,10|10,0:1|0:0,0:0:0:0:
71,0,153178,5,10,0:1:0:0:
0,106,153356,1,10,0:0:0:0:
11,126,153444,1,2,0:0:0:0:
21,147,153533,2,0,B|28:183|28:183|22:189|22:189|22:199|22:199|11:240,1,95.9999970703126,10|10,0:1|0:0,0:0:0:0:
110,337,153888,6,0,B|166:314|142:315|199:337,1,95.9999970703126,10|10,0:1|0:0,0:0:0:0:
271,370,154155,1,2,0:0:0:0:
271,370,154243,2,0,B|328:392|304:393|360:370,1,95.9999970703126,10|10,0:1|0:0,0:0:0:0:
461,308,154598,6,0,B|447:316|447:316|455:285,1,47.9999985351563,10|0,0:1|0:0,0:0:0:0:
503,227,154776,2,0,B|517:235|517:235|508:204,1,47.9999985351563,10|0,0:0|0:0,0:0:0:0:
449,159,154953,2,0,B|407:181|407:181|355:163,1,95.9999970703126,10|8,0:1|0:0,0:0:0:0:
240,241,155308,5,10,3:1:0:0:
244,230,155397,1,0,3:0:0:0:
248,218,155486,1,8,3:2:0:0:
248,206,155575,1,0,3:0:0:0:
247,194,155663,2,0,P|238:173|237:148,3,47.9999985351563,10|0|8|0,3:1|3:0|3:2|3:0,0:0:0:0:
276,82,156018,5,10,3:1:0:0:
287,83,156107,1,0,3:0:0:0:
300,83,156196,1,8,3:2:0:0:
311,80,156285,1,0,3:0:0:0:
323,76,156373,2,0,P|340:61|364:54,3,47.9999985351563,10|0|8|0,3:1|3:0|3:2|3:0,0:0:0:0:
429,89,156729,5,10,3:1:0:0:
427,100,156817,1,0,3:0:0:0:
427,113,156906,1,8,3:2:0:0:
430,124,156995,1,0,3:0:0:0:
434,136,157084,2,0,P|445:157|448:180,3,47.9999985351563,10|0|8|0,3:1|3:0|3:2|3:0,0:0:0:0:
407,258,157439,5,10,0:0:0:0:
397,280,157527,1,8,0:0:0:0:
386,304,157616,1,8,0:0:0:0:
377,329,157705,1,8,0:0:0:0:
368,352,157794,5,10,0:0:0:0:
363,323,157882,1,8,0:0:0:0:
357,296,157971,1,8,0:0:0:0:
350,269,158060,1,8,0:0:0:0:
345,241,158149,6,0,B|361:192|361:192|332:113,1,111.999996582031,14|10,0:1|0:2,0:0:0:0:
95,287,158504,2,0,B|78:238|78:238|99:181,1,111.999996582031,10|10,0:1|0:2,0:0:0:0:
202,77,158859,5,10,0:1:0:0:
224,93,158947,1,2,0:2:0:0:
252,96,159036,1,10,0:2:0:0:
277,84,159125,1,2,0:2:0:0:
292,61,159214,1,10,0:1:0:0:
307,39,159302,1,2,0:2:0:0:
332,27,159391,1,10,0:2:0:0:
360,29,159480,1,2,0:2:0:0:
382,45,159569,6,0,P|429:63|494:33,1,111.999996582031,10|10,0:1|0:2,0:0:0:0:
293,164,159924,2,0,P|241:145|190:166,1,111.999996582031,10|10,0:1|0:2,0:0:0:0:
324,299,160279,5,10,0:1:0:0:
343,330,160368,1,2,0:0:0:0:
373,348,160456,1,10,0:2:0:0:
409,350,160545,1,2,0:0:0:0:
442,336,160634,2,0,P|445:311|454:291,5,37.3333321940105,10|2|2|10|2|2,2:1|2:0|2:0|2:2|2:0|2:0,0:0:0:0:
471,282,160989,6,0,B|491:256|491:256|468:180,1,111.999996582031,10|10,0:1|0:2,0:0:0:0:
431,111,161255,1,2,0:0:0:0:
431,111,161344,2,0,B|379:133|379:133|303:107,1,111.999996582031,10|10,0:1|0:2,0:0:0:0:
200,62,161699,2,0,P|205:38|191:7,1,55.9999982910157,10|0,0:1|0:0,0:0:0:0:
127,82,161876,2,0,P|115:107|120:134,1,55.9999982910157,10|0,0:2|0:0,0:0:0:0:
183,195,162054,1,10,0:1:0:0:
183,195,162143,1,2,0:2:0:0:
183,195,162231,2,0,B|252:184,1,55.9999982910157,10|0,0:2|0:0,0:0:0:0:
306,129,162409,6,0,B|310:111|310:111|302:101|302:101|311:57,1,60.0000022888184,14|0,0:1|0:0,0:0:0:0:
367,212,162587,5,10,0:2:0:0:
367,212,162675,1,2,0:1:0:0:
367,212,162764,2,0,B|370:235|370:235|364:243|364:243|372:284,1,64,14|0,0:1|0:0,0:0:0:0:
432,116,162942,5,10,0:2:0:0:
432,116,163030,1,2,0:1:0:0:
432,116,163119,2,0,B|435:92|435:92|429:84|429:84|437:44,1,68.0000012969971,14|0,0:1|0:0,0:0:0:0:
505,213,163297,5,10,0:2:0:0:
505,213,163385,1,2,0:0:0:0:
505,213,163474,2,0,B|510:252|510:252|503:267|503:267|510:307,1,95.9999970703126,14|8,0:1|0:2,0:0:0:0:
442,372,163829,5,14,0:1:0:0:
424,349,163918,1,0,0:0:0:0:
399,337,164007,1,8,0:2:0:0:
370,337,164095,1,0,0:0:0:0:
345,350,164184,1,10,0:1:0:0:
319,362,164273,1,0,0:0:0:0:
292,362,164362,1,8,0:2:0:0:
266,350,164450,1,0,0:0:0:0:
249,328,164539,6,0,L|255:268,3,60.0000022888184,10|0|8|0,0:1|0:0|0:2|0:0,0:0:0:0:
292,196,164894,2,0,L|286:136,3,60.0000022888184,10|0|8|0,0:1|0:0|0:2|0:0,0:0:0:0:
251,56,165249,5,10,0:1:0:0:
227,73,165338,1,0,0:0:0:0:
200,78,165427,1,8,0:2:0:0:
172,71,165516,1,0,0:0:0:0:
151,52,165604,1,10,0:1:0:0:
129,33,165693,1,0,0:0:0:0:
103,26,165782,1,8,0:2:0:0:
75,31,165871,1,0,0:0:0:0:
53,48,165959,6,0,L|43:107,3,60.0000022888184,10|0|8|0,0:1|0:0|0:2|0:0,0:0:0:0:
52,188,166314,2,0,L|42:247,3,60.0000022888184,10|0|8|0,0:1|0:0|0:2|0:0,0:0:0:0:
90,316,166669,5,10,0:1:0:0:
106,300,166758,1,0,0:0:0:0:
126,290,166847,1,8,0:2:0:0:
148,283,166936,1,0,0:0:0:0:
170,282,167024,1,10,0:1:0:0:
193,285,167113,1,0,0:0:0:0:
214,293,167202,1,8,0:2:0:0:
233,304,167291,1,0,0:0:0:0:
249,320,167379,6,0,P|267:338|311:340,3,60.0000022888184,10|0|8|0,0:1|0:0|0:2|0:0,0:0:0:0:
366,289,167734,2,0,P|372:264|352:225,3,60.0000022888184,10|0|8|0,0:1|0:0|0:2|0:0,0:0:0:0:
296,176,168089,5,10,2:2:0:0:
266,182,168178,1,10,2:2:0:0:
237,188,168267,1,10,2:2:0:0:
207,194,168356,1,10,2:2:0:0:
178,201,168444,5,10,2:2:0:0:
185,165,168533,1,10,2:2:0:0:
192,130,168622,1,10,2:2:0:0:
199,94,168711,1,10,2:2:0:0:
205,59,168800,6,0,B|218:42|211:18|211:18|197:30|200:54,1,71.9999978027344,14|0,0:1|0:0,0:0:0:0:
149,104,169155,6,0,B|136:127|143:145|143:145|157:133|154:109,1,60.0000022888184,10|0,0:1|0:0,0:0:0:0:
71,40,169510,6,0,L|24:30,2,30.0000011444092,14|10|10,0:1|0:1|0:1,0:0:0:0:
149,104,169865,2,0,L|219:97,1,60.0000022888184,10|0,0:0|0:0,0:0:0:0:
91,177,170220,2,0,L|31:182,1,60.0000022888184,10|0,0:1|0:0,0:0:0:0:
154,245,170575,2,0,L|227:254,1,60.0000022888184,10|0,0:0|0:0,0:0:0:0:
300,362,170930,5,8,0:1:0:0:
300,362,171018,1,8,0:1:0:0:
300,362,171107,2,0,B|287:323|287:323|304:284,1,80,10|8,0:2|0:1,0:0:0:0:
330,248,171373,1,8,0:1:0:0:
330,248,171462,2,0,B|345:212|345:212|332:173,1,80,10|8,0:2|0:1,0:0:0:0:
310,134,171729,1,8,0:1:0:0:
310,134,171817,2,0,B|295:98|295:98|308:59,1,80,10|8,0:2|0:1,0:0:0:0:
339,22,172084,1,8,0:1:0:0:
339,22,172172,1,10,0:2:0:0:
456,70,172350,6,0,L|501:74,2,30.0000011444092,10|8|8,0:1|0:1|0:1,0:0:0:0:
369,128,172705,2,0,L|296:135,1,60.0000022888184,10|0,0:0|0:0,0:0:0:0:
447,192,173060,2,0,L|520:199,1,60.0000022888184,10|0,0:1|0:0,0:0:0:0:
386,288,173415,2,0,L|313:295,1,60.0000022888184,10|0,0:0|0:0,0:0:0:0:
203,363,173770,5,8,0:1:0:0:
203,363,173859,1,8,0:1:0:0:
203,363,173947,2,0,B|168:356|168:356|158:362|158:362|119:356,1,80,10|8,0:2|0:1,0:0:0:0:
84,379,174214,1,8,0:1:0:0:
84,379,174302,2,0,L|72:288,1,80,10|8,0:2|0:1,0:0:0:0:
43,268,174569,1,8,0:1:0:0:
43,268,174658,2,0,L|31:177,1,80,10|8,0:2|0:1,0:0:0:0:
5,155,174924,1,8,0:1:0:0:
5,155,175013,1,10,0:2:0:0:
80,52,175190,6,0,L|84:12,2,30.0000011444092,14|8|8,0:1|0:1|0:2,0:0:0:0:
136,140,175545,5,10,0:1:0:0:
184,66,175723,1,8,0:0:0:0:
143,159,175900,5,10,0:1:0:0:
250,144,176078,1,8,0:0:0:0:
148,238,176255,6,0,L|116:248,2,30.0000011444092,10|8|8,0:1|0:1|0:0,0:0:0:0:
250,310,176610,5,10,0:1:0:0:
250,310,176699,1,8,0:1:0:0:
250,310,176788,2,0,B|283:315|283:315|289:326|289:326|332:336,1,80,10|8,0:2|0:1,0:0:0:0:
368,358,177054,1,8,0:1:0:0:
368,358,177143,2,0,B|401:350|401:350|407:339|407:339|440:334,1,80,10|8,0:2|0:1,0:0:0:0:
491,340,177409,1,8,0:1:0:0:
491,340,177498,2,0,P|505:302|479:250,1,80,10|8,0:2|0:1,0:0:0:0:
471,228,177764,1,8,0:1:0:0:
471,228,177853,1,10,0:2:0:0:
373,180,178030,6,0,L|338:188,2,30.0000011444092,10|8|8,0:1|0:1|0:2,0:0:0:0:
469,100,178385,5,10,0:1:0:0:
372,50,178563,1,8,0:0:0:0:
286,126,178740,5,10,0:1:0:0:
263,19,178918,1,8,0:0:0:0:
192,112,179095,5,8,0:1:0:0:
189,102,179184,1,8,0:1:0:0:
186,89,179273,5,8,0:0:0:0:
184,82,179362,1,8,0:0:0:0:
181,67,179450,5,8,0:1:0:0:
82,11,179628,6,0,P|55:59|65:113,1,111.999996582031,14|0,0:1|0:0,0:0:0:0:
167,250,179983,2,0,L|291:234,1,111.999996582031,14|0,0:1|0:0,0:0:0:0:
376,317,180338,1,14,0:1:0:0:
488,231,180516,5,8,0:1:0:0:
487,216,180604,1,8,0:1:0:0:
487,196,180693,5,8,0:0:0:0:
487,184,180782,1,8,0:0:0:0:
487,162,180871,6,0,B|474:60,1,95.9999970703126,14|8,0:1|0:0,0:0:0:0:
324,167,181226,1,8,0:1:0:0:
324,167,181314,1,8,0:1:0:0:
324,167,181403,2,0,B|337:65,1,95.9999970703126,10|8,0:0|0:1,0:0:0:0:
195,159,181758,1,8,0:0:0:0:
195,159,181847,1,8,0:1:0:0:
118,42,182024,1,8,0:1:0:0:
118,42,182113,1,8,0:0:0:0:
19,145,182291,6,0,B|2:192|2:192|20:237,1,95.9999970703126,10|8,0:1|0:0,0:0:0:0:
27,245,182557,1,2,0:0:0:0:
38,253,182646,2,0,L|89:245,1,47.9999985351563,8|8,0:1|0:1,0:0:0:0:
119,311,182823,2,0,B|156:316|156:316|165:326|165:326|227:344,1,95.9999970703126,10|8,0:0|0:1,0:0:0:0:
341,378,183178,1,8,0:0:0:0:
341,378,183267,1,8,0:1:0:0:
373,250,183444,1,8,0:1:0:0:
373,250,183533,1,8,0:0:0:0:
256,170,183711,6,0,P|237:125|256:77,1,95.9999970703126,14|8,0:1|0:0,0:0:0:0:
351,0,184066,1,10,0:1:0:0:
351,0,184155,1,8,0:1:0:0:
351,0,184243,1,8,0:0:0:0:
456,66,184421,2,0,P|475:111|456:159,1,95.9999970703126,10|8,0:1|0:0,0:0:0:0:
405,202,184687,1,8,0:1:0:0:
405,202,184776,2,0,P|386:157|405:109,1,95.9999970703126,10|8,0:1|0:0,0:0:0:0:
256,1,185131,6,0,B|288:52|288:52|262:105,1,120.000004577637,14|8,0:0|0:1,0:0:0:0:
204,185,185397,2,0,B|178:238|178:238|210:289,1,120.000004577637,10|8,0:0|0:1,0:0:0:0:
268,359,185663,1,10,0:0:0:0:
402,302,185841,5,8,0:0:0:0:
419,270,185930,1,8,0:0:0:0:
421,233,186018,1,8,0:0:0:0:
405,202,186107,1,8,0:0:0:0:
378,181,186196,2,0,L|347:177,5,26.6666666666667,8|8|8|8|8|8,0:3|0:3|0:3|0:3|0:3|0:3,0:0:0:0:
323,192,186551,6,0,B|277:209|277:209|239:182,1,95.9999970703126,14|8,0:1|0:0,0:0:0:0:
338,64,186906,1,8,0:1:0:0:
338,64,186995,1,8,0:1:0:0:
338,64,187084,2,0,B|376:37|376:37|422:54,1,95.9999970703126,10|8,0:0|0:1,0:0:0:0:
512,160,187439,1,8,0:0:0:0:
512,160,187527,1,8,0:1:0:0:
501,296,187705,1,8,0:1:0:0:
501,296,187794,1,8,0:2:0:0:
374,366,187971,6,0,B|341:360|341:360|322:369|322:369|265:365,1,95.9999970703126,10|8,0:1|0:0,0:0:0:0:
266,365,188237,1,2,0:1:0:0:
252,361,188326,2,0,B|231:320|231:320|246:272,1,95.9999970703126,8|10,0:1|0:0,0:0:0:0:
319,155,188681,1,10,0:1:0:0:
451,198,188859,1,8,0:0:0:0:
451,198,188947,1,10,0:1:0:0:
486,71,189125,1,8,0:1:0:0:
486,71,189214,1,10,0:0:0:0:
350,7,189391,6,0,B|314:8|314:8|303:24|303:24|249:32,1,95.9999970703126,10|8,0:1|0:0,0:0:0:0:
120,32,189746,1,10,0:1:0:0:
120,32,189835,1,8,0:1:0:0:
120,32,189924,1,8,0:0:0:0:
202,173,190101,2,0,P|224:125|205:74,1,95.9999970703126,10|8,0:1|0:0,0:0:0:0:
267,34,190368,1,8,0:1:0:0:
267,34,190456,2,0,P|245:75|254:121,1,95.9999970703126,10|8,0:1|0:0,0:0:0:0:
382,208,190811,6,0,P|430:192|493:202,1,111.999996582031,14|8,0:1|0:0,0:0:0:0:
510,221,191078,1,8,0:0:0:0:
510,221,191166,2,0,P|511:245|505:273,5,31.9999990234375,8|8|8|8|8|8,0:3|0:3|0:3|0:3|0:3|0:3,0:0:0:0:
512,282,191521,2,0,P|509:307|484:333,3,47.9999985351563,6|4|4|4,0:3|0:3|0:3|0:3,0:0:0:0:
426,376,191876,5,8,0:0:0:0:
404,348,191965,1,8,0:0:0:0:
372,333,192054,1,8,0:0:0:0:
336,333,192143,1,8,0:0:0:0:
304,349,192231,6,0,B|257:376|257:376|199:351,1,111.999996582031,14|8,0:0|0:1,0:0:0:0:
148,308,192498,1,8,0:1:0:0:
148,308,192587,2,0,B|157:266|157:266|153:252|153:252|165:176,1,111.999996582031,10|8,0:0|0:1,0:0:0:0:
223,153,192853,1,8,0:1:0:0:
223,153,192942,2,0,B|214:111|214:111|218:97|218:97|206:21,1,111.999996582031,10|8,0:0|0:1,0:0:0:0:
148,6,193208,1,8,0:1:0:0:
148,6,193297,1,10,0:0:0:0:
286,47,193474,5,8,0:1:0:0:
309,50,193563,1,8,0:1:0:0:
332,48,193652,2,0,B|370:39|370:39|392:50|392:50|454:38,1,111.999996582031,10|8,0:0|0:1,0:0:0:0:
492,101,193918,1,8,0:1:0:0:
492,101,194007,2,0,P|509:153|490:226,1,111.999996582031,10|8,0:0|0:1,0:0:0:0:
443,259,194273,1,8,0:1:0:0:
443,259,194362,2,0,B|405:250|405:250|383:261|383:261|321:249,1,111.999996582031,10|8,0:0|0:1,0:0:0:0:
282,204,194628,1,8,0:1:0:0:
282,204,194717,2,0,P|291:149|274:96,1,111.999996582031,10|8,0:0|0:1,0:0:0:0:
79,180,195072,6,0,P|62:232|71:287,1,111.999996582031,14|8,0:0|0:1,0:0:0:0:
125,347,195338,1,8,0:1:0:0:
125,347,195427,2,0,B|170:349|170:349|183:360|183:360|257:367,1,111.999996582031,10|8,0:0|0:1,0:0:0:0:
305,337,195693,1,8,0:1:0:0:
305,337,195782,2,0,P|321:284|312:229,1,111.999996582031,10|8,0:0|0:1,0:0:0:0:
272,169,196048,1,8,0:1:0:0:
272,169,196137,1,10,0:0:0:0:
151,217,196314,5,8,0:1:0:0:
138,201,196403,1,8,0:1:0:0:
129,183,196492,2,0,P|120:128|136:75,1,111.999996582031,10|8,0:0|0:1,0:0:0:0:
192,24,196758,1,8,0:1:0:0:
192,24,196847,2,0,B|232:29|232:29|244:44|244:44|298:52,1,111.999996582031,10|8,0:0|0:1,0:0:0:0:
349,112,197113,1,8,0:1:0:0:
349,112,197202,2,0,B|389:107|389:107|401:92|401:92|455:84,1,111.999996582031,10|8,0:0|0:1,0:0:0:0:
470,98,197468,1,8,0:1:0:0:
483,116,197557,5,14,0:0:0:0:
404,2,197734,1,8,0:0:0:0:
349,112,197912,5,14,0:1:0:0:
354,142,198001,1,0,0:1:0:0:
348,172,198089,1,8,0:2:0:0:
333,197,198178,1,0,0:1:0:0:
309,215,198267,2,0,L|241:199,3,60.0000022888184,8|0|8|0,0:1|0:1|0:2|0:1,0:0:0:0:
209,140,198622,2,0,L|204:67,3,60.0000022888184,8|0|8|0,0:1|0:1|0:2|0:1,0:0:0:0:
159,19,198977,2,0,L|91:3,3,60.0000022888184,8|0|8|0,0:1|0:1|0:2|0:1,0:0:0:0:
34,53,199332,5,10,0:1:0:0:
20,79,199421,1,0,0:2:0:0:
10,107,199510,1,8,0:2:0:0:
3,137,199598,1,0,0:2:0:0:
0,167,199687,1,8,0:1:0:0:
1,196,199776,1,0,0:2:0:0:
6,226,199865,1,8,0:2:0:0:
14,255,199953,1,0,0:2:0:0:
26,282,200042,2,0,L|92:295,3,60.0000022888184,8|0|8|0,0:1|0:2|0:2|0:2,0:0:0:0:
136,354,200397,2,0,L|202:341,3,60.0000022888184,8|0|8|0,0:1|0:2|0:2|0:2,0:0:0:0:
289,370,200752,5,14,0:1:0:0:
275,343,200841,1,0,0:2:0:0:
269,312,200930,1,8,0:2:0:0:
277,283,201018,1,0,0:2:0:0:
294,259,201107,2,0,P|307:228|299:188,3,60.0000022888184,8|0|8|0,0:1|0:2|0:2|0:2,0:0:0:0:
260,137,201462,2,0,P|247:106|255:66,3,60.0000022888184,8|0|8|0,0:1|0:2|0:2|0:2,0:0:0:0:
291,13,201817,2,0,L|355:2,3,60.0000022888184,8|0|8|0,0:1|0:2|0:2|0:2,0:0:0:0:
434,42,202172,5,10,0:1:0:0:
454,60,202261,1,0,0:2:0:0:
470,85,202350,1,8,0:2:0:0:
480,114,202439,1,0,0:2:0:0:
479,145,202527,1,8,0:1:0:0:
473,173,202616,1,0,0:2:0:0:
456,197,202705,6,0,P|431:215|382:220,1,60.0000022888184,10|0,0:2|0:2,0:0:0:0:
345,154,202882,2,0,P|320:136|271:131,1,60.0000022888184,10|0,0:2|0:2,0:0:0:0:
248,230,203060,2,0,P|223:248|174:253,1,60.0000022888184,10|0,0:2|0:2,0:0:0:0:
129,182,203237,6,0,P|78:155|16:161,2,120.000004577637,14|8|8,0:1|0:1|0:1,0:0:0:0:
208,310,204302,5,10,0:1:0:0:
208,310,204480,1,8,0:1:0:0:
320,251,204658,5,8,0:0:0:0:
337,236,204746,1,8,0:0:0:0:
346,216,204835,1,8,0:0:0:0:
347,193,204924,1,8,0:0:0:0:
340,172,205013,6,0,P|331:128|353:75,1,80,14|8,0:1|0:0,0:0:0:0:
424,3,205368,1,8,0:1:0:0:
424,3,205456,1,8,0:1:0:0:
424,3,205545,1,8,0:2:0:0:
512,91,205723,1,10,0:1:0:0:
418,176,205900,2,0,B|384:172|384:172|373:176|373:176|339:171,1,80,10|8,0:0|0:1,0:0:0:0:
327,173,206166,1,8,0:1:0:0:
315,175,206255,2,0,B|303:138|303:138|316:99,1,80,10|8,0:0|0:1,0:0:0:0:
428,215,206610,5,8,0:0:0:0:
432,226,206699,1,8,0:1:0:0:
436,237,206788,2,0,B|448:274|448:274|435:313,1,80,8|8,0:1|0:0,0:0:0:0:
340,384,207143,1,10,0:1:0:0:
339,363,207231,1,10,0:1:0:0:
331,344,207320,1,10,0:0:0:0:
268,264,207498,1,10,0:1:0:0:
253,278,207587,1,10,0:1:0:0:
236,288,207675,1,10,0:0:0:0:
143,233,207853,6,0,P|132:194|138:155,1,80,10|8,0:1|0:2,0:0:0:0:
211,42,208208,1,8,0:1:0:0:
211,42,208297,1,8,0:1:0:0:
211,42,208385,1,8,0:2:0:0:
264,162,208563,1,10,0:1:0:0:
364,97,208740,2,0,P|370:57|354:21,1,80,10|8,0:0|0:1,0:0:0:0:
343,16,209007,1,8,0:1:0:0:
330,15,209095,2,0,B|298:16|298:16|291:26|291:26|234:30,1,80,10|8,0:0|0:1,0:0:0:0:
143,110,209450,5,8,0:2:0:0:
140,121,209539,1,8,0:1:0:0:
138,133,209628,2,0,P|133:172|148:209,1,80,8|8,0:1|0:2,0:0:0:0:
235,273,209983,2,0,L|287:263,1,40,10|8,0:1|0:1,0:0:0:0:
331,210,210160,2,0,P|331:194|340:167,1,40,10|8,0:0|0:1,0:0:0:0:
387,271,210338,1,8,0:1:0:0:
393,280,210427,1,8,0:1:0:0:
399,290,210516,2,0,P|398:309|392:328,1,40,14|8,0:2|0:1,0:0:0:0:
322,376,210693,6,0,B|290:371|290:371|281:364|281:364|242:359,1,80,14|8,0:1|0:0,0:0:0:0:
129,382,211048,1,8,0:1:0:0:
129,382,211137,1,8,0:1:0:0:
129,382,211226,1,8,0:2:0:0:
213,256,211403,1,10,0:1:0:0:
108,154,211581,2,0,B|95:116|95:116|114:74,1,80,10|8,0:0|0:1,0:0:0:0:
116,69,211847,1,8,0:1:0:0:
125,61,211936,2,0,B|156:60|156:60|165:68|165:68|222:67,1,80,10|8,0:0|0:1,0:0:0:0:
332,121,212291,5,8,0:2:0:0:
336,109,212379,1,8,0:1:0:0:
340,98,212468,2,0,B|353:60|353:60|328:18,1,80,8|8,0:1|0:0,0:0:0:0:
204,92,212823,1,10,0:1:0:0:
201,115,212912,1,10,0:1:0:0:
203,138,213001,1,10,0:0:0:0:
266,212,213178,1,10,0:1:0:0:
286,200,213267,1,10,0:1:0:0:
309,196,213356,1,10,0:0:0:0:
405,247,213533,6,0,B|444:263|444:263|496:243,1,80,10|8,0:1|0:0,0:0:0:0:
403,96,213888,1,8,0:1:0:0:
403,96,213977,1,8,0:1:0:0:
403,96,214066,1,8,0:2:0:0:
309,196,214243,1,10,0:1:0:0:
215,108,214421,2,0,B|228:72|228:72|206:18,1,80,10|8,0:0|0:1,0:0:0:0:
203,25,214687,1,8,0:1:0:0:
192,20,214776,2,0,B|161:21|161:21|149:31|149:31|109:32,1,80,10|8,0:0|0:1,0:0:0:0:
220,133,215131,5,8,0:2:0:0:
231,137,215220,1,8,0:1:0:0:
241,141,215308,2,0,B|273:144|273:144|284:152|284:152|324:153,1,80,8|8,0:1|0:2,0:0:0:0:
455,95,215663,5,10,0:1:0:0:
450,79,215752,1,10,0:1:0:0:
444,64,215841,1,10,0:2:0:0:
435,50,215930,1,10,0:1:0:0:
425,37,216018,5,10,0:0:0:0:
413,66,216107,1,10,0:0:0:0:
396,93,216196,1,10,0:0:0:0:
370,113,216285,1,10,0:0:0:0:
341,127,216373,6,0,B|275:111,3,44.0000013427735,8|8|8|8,0:3|0:3|0:3|0:3,0:0:0:0:
248,178,216729,2,0,B|182:194,3,44.0000013427735,4|4|4|4,0:3|0:3|0:3|0:3,0:0:0:0:
123,153,217084,6,0,P|124:121|109:95,1,60.0000022888184,14|0,0:0|0:0,0:0:0:0:
49,234,217261,6,0,B|17:320|17:320|21:353|59:379|89:355,1,180.000006866455,14|0,0:0|0:0,0:0:0:0:
183,285,217616,5,14,0:1:0:0:
