osu file format v14

[General]
AudioFilename: audio.mp3
AudioLeadIn: 0
PreviewTime: 51595
Countdown: 0
SampleSet: Drum
StackLeniency: 0.6
Mode: 0
LetterboxInBreaks: 0
WidescreenStoryboard: 1

[Editor]
Bookmarks: 169510
DistanceSpacing: 1.4
BeatDivisor: 4
GridSize: 32
TimelineZoom: 1.999998

[Metadata]
Title:Watch out!
TitleUnicode:Watch out!
Artist:Denkishiki Karen Ongaku Shuudan
ArtistUnicode:電気式華憐音楽集団
Creator:Lasse
Version:Hard
Source:
Tags:lmt denkare japanese rock metal detonator ignition
BeatmapID:2367746
BeatmapSetID:1130504

[Difficulty]
HPDrainRate:5
CircleSize:4
OverallDifficulty:6.8
ApproachRate:8
SliderMultiplier:1.4
SliderTickRate:1

[Events]
//Background and Video events
0,0,"1a.jpg",0,0
//Break Periods
//Storyboard Layer 0 (Background)
//Storyboard Layer 1 (Fail)
//Storyboard Layer 2 (Pass)
//Storyboard Layer 3 (Foreground)
//Storyboard Layer 4 (Overlay)
//Storyboard Sound Samples

[TimingPoints]
516,355.029585798817,4,2,35,60,1,0
516,-133.333333333333,4,2,35,60,0,0
2646,-166.666666666667,4,2,35,55,0,0
3356,-133.333333333333,4,2,35,60,0,0
5308,-166.666666666667,4,2,35,55,0,0
6018,-133.333333333333,4,2,36,55,0,0
6196,-133.333333333333,4,2,35,60,0,0
8326,-166.666666666667,4,2,35,55,0,0
8859,-133.333333333333,4,2,36,55,0,0
9036,-133.333333333333,4,2,35,60,0,0
10545,-133.333333333333,4,2,35,50,0,0
10634,-147.058823529412,4,2,35,55,0,0
11166,-133.333333333333,4,2,35,56,0,0
11521,-133.333333333333,4,2,35,58,0,0
11876,-100,4,2,35,64,0,0
22527,-100,4,2,35,60,0,0
22882,-100,4,2,35,66,0,0
23237,-133.333333333333,4,2,35,60,0,0
24125,-133.333333333333,4,2,36,60,0,0
24302,-133.333333333333,4,2,35,60,0,0
25545,-133.333333333333,4,2,36,60,0,0
25900,-133.333333333333,4,2,35,60,0,0
26965,-133.333333333333,4,2,36,60,0,0
27143,-133.333333333333,4,2,35,60,0,0
28918,-100,4,2,35,65,0,0
33711,-83.3333333333333,4,2,35,67,0,0
34066,-83.3333333333333,4,2,35,68,0,0
34421,-83.3333333333333,4,2,35,64,0,0
34598,-100,4,2,35,65,0,0
39391,-76.9230769230769,4,2,35,67,0,0
39924,-76.9230769230769,4,2,35,64,0,0
40279,-133.333333333333,4,2,35,60,0,0
41699,-100,4,2,35,60,0,0
43119,-133.333333333333,4,2,35,60,0,0
44539,-100,4,2,35,60,0,0
45959,-133.333333333333,4,2,35,60,0,0
47379,-100,4,2,35,60,0,0
48800,-133.333333333333,4,2,35,60,0,0
50397,-83.3333333333333,4,2,35,64,0,0
51640,-90.9090909090909,4,2,35,70,0,1
55900,-76.9230769230769,4,2,35,70,0,1
56610,-100,4,2,35,70,0,1
57320,-90.9090909090909,4,2,35,70,0,1
61581,-83.3333333333333,4,2,35,70,0,1
61936,-100,4,2,35,70,0,1
63001,-83.3333333333333,4,2,35,72,0,1
68681,-83.3333333333333,4,3,35,74,0,1
74007,-117.647058823529,4,2,35,60,0,0
75782,-100,4,2,35,64,0,0
86433,-100,4,2,35,60,0,0
86788,-100,4,2,36,62,0,0
87143,-133.333333333333,4,2,35,60,0,0
88563,-100,4,2,35,65,0,0
93356,-83.3333333333333,4,2,35,67,0,0
93711,-83.3333333333333,4,2,35,68,0,0
94066,-71.4285714285714,4,2,35,64,0,0
94243,-100,4,2,35,65,0,0
96373,-100,4,2,35,68,0,0
96418,-100,4,2,35,5,0,0
96551,-100,4,2,35,68,0,0
96595,-100,4,2,35,5,0,0
96729,-100,4,2,35,68,0,0
96773,-100,4,2,35,65,0,0
96906,-100,4,2,35,65,0,0
99036,-83.3333333333333,4,2,35,67,0,0
99391,-90.9090909090909,4,2,35,66,0,0
99480,-90.9090909090909,4,2,35,65,0,0
99569,-114.942528735632,4,2,35,64,0,0
99658,-90.9090909090909,4,2,35,63,0,0
99746,-90.9090909090909,4,2,35,62,0,0
99835,-90.9090909090909,4,2,35,61,0,0
99924,-133.333333333333,4,2,35,60,0,0
101344,-100,4,2,35,60,0,0
102764,-133.333333333333,4,2,35,60,0,0
104184,-100,4,2,35,60,0,0
105604,-133.333333333333,4,2,35,60,0,0
107024,-100,4,2,35,60,0,0
108444,-133.333333333333,4,2,35,60,0,0
110042,-83.3333333333333,4,2,35,64,0,0
111285,-90.9090909090909,4,2,35,70,0,1
115545,-76.9230769230769,4,2,35,70,0,1
116255,-100,4,2,35,70,0,1
116965,-90.9090909090909,4,2,35,70,0,1
121226,-83.3333333333333,4,2,35,70,0,1
121581,-83.3333333333333,4,2,35,70,0,1
121936,-100,4,2,35,70,0,1
122646,-83.3333333333333,4,2,35,72,0,1
128326,-83.3333333333333,4,3,35,74,0,1
133652,-117.647058823529,4,2,35,60,0,0
135427,-100,4,2,35,64,0,0
146078,-100,4,2,35,60,0,0
146433,-86.9565217391304,4,2,35,62,0,0
146788,-100,4,2,35,64,0,0
152468,-90.9090909090909,4,2,35,68,0,0
152646,-90.9090909090909,4,2,35,66,0,0
155308,-90.9090909090909,4,2,35,62,0,0
155663,-90.9090909090909,4,2,35,64,0,0
157439,-90.9090909090909,4,2,35,65,0,0
157794,-90.9090909090909,4,2,35,66,0,0
158149,-83.3333333333333,4,3,35,70,0,1
162409,-76.9230769230769,4,3,35,72,0,1
162498,-76.9230769230769,4,3,35,68,0,1
162587,-76.9230769230769,4,3,35,70,0,1
162764,-76.9230769230769,4,3,35,72,0,1
162853,-76.9230769230769,4,3,35,68,0,1
162942,-83.3333333333333,4,3,35,70,0,1
163119,-76.9230769230769,4,3,35,72,0,1
163208,-76.9230769230769,4,3,35,68,0,1
163297,-76.9230769230769,4,3,35,72,0,1
163652,-76.9230769230769,4,3,35,72,0,1
163829,-83.3333333333333,4,3,35,74,0,1
168800,-117.647058823529,4,2,35,66,0,0
169066,-200,4,2,35,5,0,0
169155,-133.333333333333,4,2,35,55,0,0
169332,-133.333333333333,4,2,35,40,0,0
169510,-133.333333333333,4,2,35,60,0,0
170930,-100,4,2,35,60,0,0
172350,-133.333333333333,4,2,35,60,0,0
173770,-100,4,2,35,60,0,0
175190,-133.333333333333,4,2,35,60,0,0
176610,-100,4,2,35,60,0,0
178030,-133.333333333333,4,2,35,60,0,0
179628,-83.3333333333333,4,2,35,64,0,0
180871,-90.9090909090909,4,2,35,70,0,1
185131,-76.9230769230769,4,2,35,70,0,1
185841,-100,4,2,35,70,0,1
186551,-90.9090909090909,4,2,35,70,0,1
190811,-83.3333333333333,4,2,35,70,0,1
190989,-83.3333333333333,4,2,35,70,0,1
191521,-100,4,2,35,70,0,1
192231,-83.3333333333333,4,2,35,72,0,1
197912,-83.3333333333333,4,3,35,74,0,1
203237,-117.647058823529,4,2,35,60,0,0
205013,-100,4,2,35,64,0,0
215663,-100,4,2,35,60,0,0
216018,-100,4,2,35,66,0,0
216373,-90.9090909090909,4,2,35,64,0,0
216462,-90.9090909090909,4,2,35,63,0,0
216551,-90.9090909090909,4,2,35,62,0,0
216640,-90.9090909090909,4,2,35,61,0,0
216729,-90.9090909090909,4,2,35,60,0,0
216817,-90.9090909090909,4,2,35,59,0,0
216906,-90.9090909090909,4,2,35,58,0,0
216995,-90.9090909090909,4,2,35,57,0,0
217084,-76.9230769230769,4,2,35,65,0,0
217172,-76.9230769230769,4,2,35,40,0,0
217261,-76.9230769230769,4,2,35,65,0,0
217527,-76.9230769230769,4,2,35,40,0,0
217616,-76.9230769230769,4,2,99,65,0,0

[Colours]
Combo1 : 250,180,240
Combo2 : 120,200,230
Combo3 : 255,230,130
Combo4 : 160,230,150

[HitObjects]
0,249,516,6,0,L|108:241,1,105.000004005432,14|0,0:1|0:0,0:0:0:0:
241,351,1226,1,14,0:1:0:0:
241,351,1403,1,14,0:1:0:0:
327,277,1758,2,0,P|341:236|314:169,1,105.000004005432,14|0,0:1|0:0,0:0:0:0:
238,100,2646,6,0,L|187:92,1,41.9999987182618,2|0,0:0|0:0,0:0:0:0:
178,166,3001,2,0,L|136:159,1,41.9999987182618,2|0,0:0|0:0,0:0:0:0:
74,117,3356,6,0,P|63:82|93:22,1,105.000004005432,14|0,0:1|0:0,0:0:0:0:
243,104,4066,1,14,0:1:0:0:
243,104,4243,1,14,0:1:0:0:
378,111,4598,2,0,P|387:60|360:17,1,105.000004005432,14|0,0:1|0:0,0:0:0:0:
234,134,5308,5,4,0:3:0:0:
234,134,5397,1,4,0:3:0:0:
234,134,5486,2,0,P|221:176|228:210,2,62.9999980773926,10|6|10,0:3|0:3|0:3,0:0:0:0:
301,89,6196,6,0,L|409:81,1,105.000004005432,14|0,0:1|0:0,0:0:0:0:
512,220,6906,1,14,0:1:0:0:
512,220,7084,1,14,0:1:0:0:
415,305,7439,2,0,L|307:297,1,105.000004005432,14|0,0:1|0:0,0:0:0:0:
157,316,8326,6,0,P|166:346|154:392,2,62.9999980773926,10|6|10,0:3|0:3|0:3,0:0:0:0:
107,244,9036,6,0,P|93:205|107:133,1,105.000004005432,14|0,0:1|0:0,0:0:0:0:
193,20,9746,1,14,0:1:0:0:
193,20,9924,1,14,0:1:0:0:
299,82,10279,2,0,P|331:91|354:84,1,52.5000020027161,14|0,0:1|0:0,0:0:0:0:
420,54,10634,6,0,P|442:43|464:39,2,47.6000002905273,8|8|8,0:3|0:3|0:3,0:0:0:0:
362,108,11166,6,0,L|354:143,3,26.2500010013581,8|8|8|8,0:0|0:0|0:0|0:0,0:0:0:0:
368,166,11521,2,0,L|360:201,3,26.2500010013581,8|8|8|8,0:0|0:0|0:0|0:0,0:0:0:0:
364,243,11876,6,0,P|410:270|448:263,1,70,14|8,0:1|0:0,0:0:0:0:
502,209,12231,2,0,L|510:126,1,70,8|8,0:1|0:2,0:0:0:0:
455,46,12587,1,10,0:1:0:0:
455,46,12764,2,0,P|420:48|389:33,1,70,10|8,0:0|0:1,0:0:0:0:
287,77,13119,6,0,P|223:48|154:53,1,140,10|8,0:0|0:0,0:0:0:0:
139,62,13563,1,8,0:1:0:0:
127,75,13652,2,0,P|112:112|114:152,1,70,8|8,0:1|0:0,0:0:0:0:
143,244,14007,1,10,0:1:0:0:
143,244,14095,1,10,0:1:0:0:
143,244,14184,1,10,0:0:0:0:
87,325,14362,2,0,P|49:341|-1:336,1,70,10|10,0:1|0:0,0:0:0:0:
143,244,14717,6,0,P|181:228|231:233,1,70,10|8,0:1|0:2,0:0:0:0:
288,285,15072,2,0,P|284:315|312:360,1,70,8|8,0:1|0:2,0:0:0:0:
386,267,15427,1,10,0:1:0:0:
386,267,15604,2,0,P|390:237|362:192,1,70,10|8,0:0|0:1,0:0:0:0:
273,134,15959,6,0,B|225:126|225:126|192:142|192:142|123:134,1,140,10|8,0:0|0:2,0:0:0:0:
120,134,16403,1,8,0:1:0:0:
103,127,16492,2,0,P|93:90|105:41,1,70,8|8,0:1|0:2,0:0:0:0:
182,10,16847,2,0,L|257:17,1,70,10|10,0:1|0:0,0:0:0:0:
333,65,17202,1,8,0:1:0:0:
418,3,17379,1,14,0:2:0:0:
496,83,17557,6,0,P|504:109|494:159,1,70,14|8,0:1|0:0,0:0:0:0:
428,220,17912,2,0,L|341:205,1,70,8|8,0:1|0:2,0:0:0:0:
323,302,18267,1,10,0:1:0:0:
323,302,18444,2,0,L|236:317,1,70,10|8,0:0|0:1,0:0:0:0:
170,233,18800,6,0,P|184:157|159:93,1,140,10|8,0:0|0:2,0:0:0:0:
151,86,19243,1,8,0:1:0:0:
136,76,19332,2,0,L|54:84,1,70,8|8,0:1|0:0,0:0:0:0:
8,161,19687,1,10,0:1:0:0:
8,161,19776,1,10,0:1:0:0:
8,161,19865,1,10,0:0:0:0:
73,233,20042,2,0,L|142:239,1,70,10|10,0:1|0:0,0:0:0:0:
246,172,20397,6,0,P|242:141|258:93,1,70,10|8,0:1|0:0,0:0:0:0:
318,31,20752,2,0,L|402:24,1,70,8|8,0:1|0:2,0:0:0:0:
480,58,21107,1,10,0:1:0:0:
480,58,21285,2,0,P|489:91|485:126,1,70,10|8,0:0|0:1,0:0:0:0:
396,205,21640,6,0,B|338:196|338:196|315:208|315:208|259:199,1,140,10|8,0:0|0:2,0:0:0:0:
242,196,22084,1,8,0:1:0:0:
225,191,22172,2,0,L|219:104,1,70,8|8,0:1|0:2,0:0:0:0:
128,226,22527,2,0,L|132:156,1,70,10|10,0:1|0:2,0:0:0:0:
110,48,22882,1,10,0:0:0:0:
103,53,22971,1,10,0:0:0:0:
96,59,23060,1,10,0:0:0:0:
90,65,23149,1,10,0:0:0:0:
83,71,23237,6,0,B|53:73|53:73|19:51,1,52.5000020027161,14|10,0:1|0:1,0:0:0:0:
203,15,23770,1,8,0:3:0:0:
203,15,23947,2,0,P|200:41|217:83,1,52.5000020027161,6|10,0:3|0:3,0:0:0:0:
259,117,24302,2,0,L|317:108,1,52.5000020027161,10|8,0:0|0:1,0:0:0:0:
394,144,24658,5,14,0:1:0:0:
409,59,24835,1,10,0:1:0:0:
478,180,25190,1,8,0:3:0:0:
478,180,25368,2,0,P|480:211|463:243,1,52.5000020027161,4|8,0:3|0:3,0:0:0:0:
466,242,25634,1,8,0:3:0:0:
456,251,25723,2,0,L|393:260,1,52.5000020027161,4|8,0:3|0:1,0:0:0:0:
342,325,26078,5,14,0:1:0:0:
295,256,26255,1,10,0:1:0:0:
194,362,26610,1,8,0:3:0:0:
194,362,26788,2,0,P|154:361|125:344,1,52.5000020027161,6|10,0:3|0:3,0:0:0:0:
88,306,27143,2,0,L|85:247,1,52.5000020027161,8|8,0:0|0:1,0:0:0:0:
138,165,27498,5,14,0:1:0:0:
199,239,27675,1,10,0:1:0:0:
284,119,28030,1,8,0:3:0:0:
284,119,28208,2,0,P|289:80|275:58,1,52.5000020027161,6|8,0:3|0:0,0:0:0:0:
272,51,28474,1,8,0:0:0:0:
255,38,28563,2,0,L|196:31,1,52.5000020027161,8|8,0:0|0:0,0:0:0:0:
116,109,28918,6,0,P|111:148|125:186,1,70,14|10,0:1|0:0,0:0:0:0:
156,260,29273,1,10,0:1:0:0:
248,244,29450,1,10,0:0:0:0:
248,244,29539,2,0,P|281:234|319:237,1,70,2|0,0:0|0:0,0:0:0:0:
336,241,29805,2,0,P|369:251|407:248,2,70,10|10|10,0:0|0:1|0:0,0:0:0:0:
281,130,30338,6,0,P|287:97|275:54,1,70,10|10,0:1|0:0,0:0:0:0:
205,7,30693,1,10,0:1:0:0:
141,72,30871,1,10,0:0:0:0:
141,72,30959,2,0,P|135:105|147:148,1,70,2|2,0:0|0:0,0:0:0:0:
153,158,31226,2,0,P|160:191|154:226,1,70,10|10,0:0|0:1,0:0:0:0:
54,323,31581,6,0,P|94:309|132:307,1,70,10|10,0:0|0:1,0:0:0:0:
219,338,31936,1,10,0:0:0:0:
219,338,32024,1,2,0:0:0:0:
219,338,32113,2,0,P|259:352|297:354,1,70,10|10,0:1|0:0,0:0:0:0:
307,351,32379,2,0,P|341:334|413:329,1,105,2|8,0:0|0:0,0:0:0:0:
498,362,32823,1,10,0:1:0:0:
502,255,33001,5,10,0:0:0:0:
502,255,33089,1,2,0:0:0:0:
502,255,33178,2,0,B|491:226|491:226|494:216|494:216|486:187,1,70,10|10,0:1|0:0,0:0:0:0:
456,101,33533,1,10,0:1:0:0:
377,156,33711,1,10,0:0:0:0:
377,156,33800,1,10,0:0:0:0:
377,156,33888,2,0,B|337:169|337:169|302:138,1,83.9999974365235,14|10,0:1|0:0,0:0:0:0:
248,49,34243,2,0,B|216:21|216:21|176:34,1,83.9999974365235,14|8,0:1|0:0,0:0:0:0:
86,96,34598,6,0,L|93:197,1,70,14|10,0:1|0:0,0:0:0:0:
168,213,34953,2,0,L|161:314,1,70,10|10,0:1|0:0,0:0:0:0:
168,303,35220,1,2,0:0:0:0:
174,322,35308,2,0,P|211:340|247:335,1,70,0|0,0:0|0:0,0:0:0:0:
327,318,35663,1,10,0:1:0:0:
339,210,35841,5,10,0:0:0:0:
339,210,35930,1,2,0:0:0:0:
339,210,36018,2,0,L|350:113,1,70,10|10,0:1|0:0,0:0:0:0:
402,59,36373,2,0,P|443:49|493:57,1,70,10|10,0:1|0:0,0:0:0:0:
486,64,36640,2,0,L|504:148,1,70,2|2,0:0|0:0,0:0:0:0:
512,149,36906,2,0,P|506:201|503:235,1,70,10|10,0:0|0:1,0:0:0:0:
447,316,37261,6,0,P|407:305|364:305,1,70,10|10,0:0|0:1,0:0:0:0:
297,355,37616,1,10,0:0:0:0:
297,355,37705,1,2,0:0:0:0:
297,355,37794,2,0,P|263:364|228:367,1,70,10|10,0:1|0:0,0:0:0:0:
207,366,38060,2,0,P|173:356|126:354,1,70,2|2,0:0|0:0,0:0:0:0:
118,357,38326,2,0,P|83:354|49:344,1,70,10|10,0:0|0:1,0:0:0:0:
0,269,38681,1,10,0:0:0:0:
75,188,38859,6,0,P|104:179|157:176,1,70,10|10,0:1|0:0,0:0:0:0:
230,202,39214,1,10,0:1:0:0:
320,156,39391,1,10,0:0:0:0:
320,156,39480,1,10,0:0:0:0:
320,156,39569,2,0,P|332:108|318:67,1,90.9999958343508,14|8,0:1|0:0,0:0:0:0:
254,4,39924,1,10,0:3:0:0:
254,4,40013,1,8,0:3:0:0:
254,4,40101,1,8,0:3:0:0:
171,48,40279,6,0,L|136:54,2,26.2500010013581,14|10|10,0:1|0:1|0:1,0:0:0:0:
243,87,40634,2,0,B|319:76|273:111|357:94,2,105.000004005432,10|10|10,0:0|0:1|0:0,0:0:0:0:
120,194,41699,5,8,0:1:0:0:
120,194,41788,1,8,0:1:0:0:
120,193,41876,2,0,P|110:226|114:262,1,70,10|8,0:2|0:1,0:0:0:0:
162,330,42231,2,0,P|208:323|247:328,1,70,10|8,0:2|0:1,0:0:0:0:
307,361,42587,2,0,P|341:367|376:366,1,70,10|8,0:2|0:1,0:0:0:0:
453,337,42942,1,10,0:2:0:0:
417,261,43119,6,0,L|396:218,2,26.2500010013581,10|8|8,0:1|0:1|0:1,0:0:0:0:
471,187,43474,2,0,P|475:145|455:67,2,105.000004005432,10|10|10,0:0|0:1|0:0,0:0:0:0:
317,270,44539,5,8,0:1:0:0:
317,270,44628,1,8,0:1:0:0:
317,269,44717,2,0,P|275:253|230:257,1,70,10|8,0:2|0:1,0:0:0:0:
187,310,45072,2,0,P|155:324|120:326,1,70,10|8,0:2|0:1,0:0:0:0:
46,277,45427,2,0,P|36:241|42:195,1,70,10|8,0:2|0:1,0:0:0:0:
88,135,45782,1,10,0:2:0:0:
171,183,45959,6,0,L|168:225,2,26.2500010013581,14|8|8,0:1|0:1|0:2,0:0:0:0:
213,117,46314,2,0,L|220:45,1,52.5000020027161,10|8,0:1|0:0,0:0:0:0:
292,39,46669,2,0,L|297:91,1,52.5000020027161,10|8,0:1|0:0,0:0:0:0:
374,106,47024,2,0,L|379:53,1,52.5000020027161,10|8,0:1|0:0,0:0:0:0:
476,25,47379,5,10,0:1:0:0:
476,25,47468,1,8,0:1:0:0:
476,25,47557,2,0,P|487:58|476:104,1,70,10|8,0:2|0:1,0:0:0:0:
438,171,47912,2,0,P|406:180|381:208,1,70,10|8,0:2|0:1,0:0:0:0:
343,282,48267,2,0,P|319:307|286:317,1,70,10|8,0:2|0:1,0:0:0:0:
200,306,48622,1,10,0:2:0:0:
127,360,48800,6,0,L|113:401,2,26.2500010013581,10|8|8,0:1|0:1|0:2,0:0:0:0:
84,298,49155,2,0,L|76:233,1,52.5000020027161,10|8,0:1|0:0,0:0:0:0:
105,172,49510,2,0,L|113:107,1,52.5000020027161,10|8,0:1|0:0,0:0:0:0:
154,56,49865,1,8,0:1:0:0:
220,115,50042,1,8,0:0:0:0:
220,115,50131,1,8,0:0:0:0:
220,115,50220,1,8,0:1:0:0:
296,64,50397,6,0,B|334:46|334:46|386:65,1,83.9999974365235,14|0,0:1|0:0,0:0:0:0:
437,134,50752,2,0,B|428:162|428:162|431:183|431:183|424:219,1,83.9999974365235,14|0,0:1|0:0,0:0:0:0:
457,305,51107,1,14,0:1:0:0:
386,373,51285,2,0,P|362:358|299:352,1,83.9999974365235,8|8,0:1|0:0,0:0:0:0:
288,354,51551,1,8,0:0:0:0:
269,358,51640,6,0,B|247:370|247:370|194:363,1,77.0000023498536,14|8,0:1|0:0,0:0:0:0:
108,324,51995,1,8,0:1:0:0:
108,324,52084,1,8,0:1:0:0:
108,324,52172,2,0,B|94:291|94:291|105:241,1,77.0000023498536,10|8,0:0|0:1,0:0:0:0:
165,178,52527,1,8,0:0:0:0:
165,178,52616,2,0,B|192:199|192:199|284:184,1,115.50000352478,8|8,0:1|0:0,0:0:0:0:
367,94,53060,6,0,P|357:48|374:0,1,77.0000023498536,10|8,0:1|0:0,0:0:0:0:
378,7,53326,2,0,L|458:-1,1,77.0000023498536,2|8,0:0|0:1,0:0:0:0:
471,8,53592,2,0,P|483:44|478:82,1,77.0000023498536,10|8,0:0|0:1,0:0:0:0:
442,177,53947,1,8,0:0:0:0:
442,177,54036,2,0,B|398:172|398:172|374:184|374:184|324:179,1,115.50000352478,8|8,0:1|0:0,0:0:0:0:
220,129,54480,6,0,B|231:93|231:93|218:55,1,77.0000023498536,14|8,0:1|0:0,0:0:0:0:
141,9,54835,1,10,0:1:0:0:
141,9,54924,1,8,0:1:0:0:
141,9,55013,1,8,0:0:0:0:
60,68,55190,2,0,B|47:105|47:105|58:141,1,77.0000023498536,10|8,0:1|0:0,0:0:0:0:
67,158,55456,1,8,0:1:0:0:
76,174,55545,2,0,B|105:178|105:178|111:184|111:184|153:188,1,77.0000023498536,10|8,0:1|0:0,0:0:0:0:
259,155,55900,6,0,P|264:104|290:63,1,90.9999958343508,14|8,0:0|0:1,0:0:0:0:
309,60,56166,2,0,L|421:55,1,90.9999958343508,10|8,0:0|0:1,0:0:0:0:
420,39,56433,1,10,0:0:0:0:
480,132,56610,2,0,L|474:173,3,35,8|8|8|8,0:0|0:0|0:0|0:0,0:0:0:0:
486,189,56965,2,0,L|480:230,5,23.3333333333333,8|8|8|8|8|8,0:3|0:3|0:3|0:3|0:3|0:3,0:0:0:0:
492,238,57320,6,0,B|505:277|505:277|491:310,1,77.0000023498536,14|8,0:1|0:0,0:0:0:0:
413,367,57675,1,8,0:1:0:0:
413,367,57764,1,8,0:1:0:0:
413,367,57853,2,0,P|376:349|328:346,1,77.0000023498536,10|8,0:0|0:1,0:0:0:0:
244,359,58208,1,8,0:0:0:0:
244,359,58297,2,0,P|199:376|120:367,1,115.50000352478,8|8,0:1|0:2,0:0:0:0:
42,303,58740,6,0,B|34:214,1,77.0000023498536,10|8,0:1|0:0,0:0:0:0:
26,208,59007,1,2,0:1:0:0:
16,191,59095,2,0,B|8:102,1,77.0000023498536,8|10,0:1|0:0,0:0:0:0:
63,35,59450,2,0,P|96:23|162:31,1,77.0000023498536,10|8,0:1|0:0,0:0:0:0:
155,30,59717,2,0,P|191:42|229:41,1,77.0000023498536,10|8,0:1|0:1,0:0:0:0:
247,34,59983,1,10,0:0:0:0:
323,115,60160,6,0,L|330:204,1,77.0000023498536,10|8,0:1|0:0,0:0:0:0:
391,283,60516,1,10,0:1:0:0:
391,283,60604,1,8,0:1:0:0:
391,283,60693,1,8,0:0:0:0:
480,236,60871,2,0,L|486:159,1,77.0000023498536,10|8,0:1|0:0,0:0:0:0:
488,140,61137,1,8,0:1:0:0:
487,120,61226,2,0,L|480:43,1,77.0000023498536,10|8,0:1|0:0,0:0:0:0:
368,13,61581,6,0,P|322:42|275:33,1,83.9999974365235,14|8,0:1|0:0,0:0:0:0:
273,34,61847,1,8,0:0:0:0:
257,26,61936,2,0,P|235:17|172:21,1,70,8|8,0:3|0:3,0:0:0:0:
121,68,62291,2,0,L|112:125,3,35,6|4|4|4,0:3|0:3|0:3|0:3,0:0:0:0:
129,130,62646,2,0,L|138:187,3,35,8|8|8|8,0:0|0:0|0:0|0:0,0:0:0:0:
149,197,63001,6,0,P|132:235|137:276,1,83.9999974365235,14|8,0:0|0:1,0:0:0:0:
223,327,63356,2,0,L|319:315,1,83.9999974365235,10|8,0:0|0:1,0:0:0:0:
316,329,63622,1,8,0:1:0:0:
325,343,63711,2,0,L|413:359,1,83.9999974365235,10|8,0:0|0:1,0:0:0:0:
490,299,64066,1,10,0:0:0:0:
469,192,64243,5,8,0:1:0:0:
469,192,64332,1,8,0:1:0:0:
469,192,64421,2,0,L|454:103,1,83.9999974365235,10|8,0:0|0:1,0:0:0:0:
378,43,64776,2,0,P|341:60|284:52,1,83.9999974365235,10|8,0:0|0:1,0:0:0:0:
278,52,65042,1,8,0:1:0:0:
258,43,65131,2,0,P|220:25|79:45,1,167.999994873047,10|10,0:0|0:0,0:0:0:0:
3,130,65663,5,8,0:1:0:0:
3,130,65752,1,0,0:0:0:0:
3,130,65841,2,0,L|9:221,1,83.9999974365235,14|8,0:0|0:1,0:0:0:0:
47,305,66196,2,0,P|86:288|127:293,1,83.9999974365235,10|8,0:0|0:1,0:0:0:0:
144,306,66462,1,8,0:1:0:0:
161,317,66551,2,0,P|199:333|240:328,1,83.9999974365235,10|8,0:0|0:1,0:0:0:0:
327,275,66906,1,10,0:0:0:0:
263,174,67084,5,8,0:1:0:0:
263,174,67172,1,8,0:1:0:0:
263,174,67261,2,0,B|230:171|230:171|218:182|218:182|166:183,1,83.9999974365235,10|8,0:0|0:1,0:0:0:0:
93,135,67616,2,0,P|86:93|103:49,1,83.9999974365235,10|8,0:0|0:1,0:0:0:0:
189,9,67971,2,0,B|222:11|222:11|232:23|232:23|283:33,1,83.9999974365235,10|8,0:0|0:1,0:0:0:0:
354,79,68326,1,14,0:0:0:0:
435,18,68504,1,8,0:0:0:0:
497,107,68681,6,0,P|505:168|495:207,1,83.9999974365235,14|8,0:1|0:2,0:0:0:0:
495,205,68947,1,0,0:1:0:0:
486,219,69036,2,0,P|439:207|386:207,1,83.9999974365235,8|8,0:1|0:2,0:0:0:0:
329,274,69391,2,0,P|288:285|246:287,1,83.9999974365235,8|8,0:1|0:2,0:0:0:0:
229,284,69658,1,0,0:1:0:0:
214,275,69746,2,0,L|201:179,1,83.9999974365235,8|8,0:1|0:2,0:0:0:0:
138,80,70101,6,0,B|98:62|98:62|48:80,1,83.9999974365235,10|8,0:1|0:2,0:0:0:0:
48,87,70368,1,0,0:2:0:0:
38,100,70456,2,0,L|26:183,1,83.9999974365235,8|8,0:1|0:2,0:0:0:0:
44,295,70811,2,0,B|80:277|80:277|121:290,1,83.9999974365235,8|8,0:1|0:2,0:0:0:0:
135,300,71078,1,0,0:2:0:0:
149,308,71166,2,0,B|188:321|188:321|226:303,1,83.9999974365235,8|8,0:1|0:2,0:0:0:0:
328,231,71521,5,14,0:1:0:0:
268,148,71699,1,8,0:2:0:0:
268,148,71788,1,0,0:2:0:0:
268,148,71876,2,0,P|258:109|275:52,1,83.9999974365235,8|8,0:1|0:2,0:0:0:0:
351,12,72231,2,0,L|442:5,1,83.9999974365235,8|8,0:1|0:2,0:0:0:0:
450,10,72498,1,0,0:2:0:0:
463,19,72587,2,0,P|473:58|456:115,1,83.9999974365235,8|8,0:1|0:2,0:0:0:0:
406,205,72942,5,10,0:1:0:0:
317,155,73119,1,8,0:2:0:0:
317,155,73208,1,0,0:2:0:0:
317,155,73297,2,0,P|272:138|219:144,1,83.9999974365235,8|10,0:1|0:2,0:0:0:0:
142,179,73652,1,10,0:2:0:0:
129,278,73829,1,10,0:2:0:0:
211,336,74007,6,0,B|222:349|242:356|242:356|247:314|213:282,2,119.000002269745,14|8|8,0:1|0:1|0:1,0:0:0:0:
104,265,75072,1,10,0:1:0:0:
104,265,75249,1,8,0:1:0:0:
167,192,75427,5,8,0:0:0:0:
173,183,75516,1,8,0:0:0:0:
176,174,75604,1,8,0:0:0:0:
177,164,75693,1,8,0:0:0:0:
174,154,75782,6,0,P|161:117|169:73,1,70,14|8,0:1|0:0,0:0:0:0:
234,19,76137,2,0,L|315:12,1,70,8|8,0:1|0:2,0:0:0:0:
392,67,76492,1,10,0:1:0:0:
392,67,76669,2,0,P|405:104|397:148,1,70,10|8,0:0|0:1,0:0:0:0:
309,217,77024,6,0,B|249:181|249:181|174:207,1,140,10|8,0:0|0:0,0:0:0:0:
168,213,77468,1,8,0:1:0:0:
152,221,77557,2,0,P|118:233|82:224,1,70,8|8,0:1|0:0,0:0:0:0:
24,162,77912,1,10,0:1:0:0:
24,162,78001,1,10,0:1:0:0:
24,162,78089,1,10,0:0:0:0:
75,78,78267,2,0,P|109:66|145:75,1,70,10|10,0:1|0:0,0:0:0:0:
243,157,78622,6,0,P|239:190|262:234,1,70,10|8,0:1|0:2,0:0:0:0:
317,297,78977,2,0,L|391:291,1,70,8|8,0:1|0:2,0:0:0:0:
462,228,79332,1,10,0:1:0:0:
462,228,79510,2,0,P|475:195|471:161,1,70,10|8,0:0|0:1,0:0:0:0:
385,89,79865,6,0,B|305:67|330:111|248:98,1,140,10|8,0:0|0:2,0:0:0:0:
231,93,80308,1,8,0:1:0:0:
215,85,80397,2,0,P|183:68|147:61,1,70,8|8,0:1|0:2,0:0:0:0:
114,152,80752,2,0,P|83:171|59:198,1,70,10|10,0:1|0:0,0:0:0:0:
39,292,81107,1,8,0:1:0:0:
91,374,81285,1,14,0:2:0:0:
191,330,81462,6,0,B|195:304|195:304|193:294|193:294|201:242,1,70,14|8,0:1|0:0,0:0:0:0:
246,176,81817,2,0,B|242:150|242:150|244:140|244:140|236:88,1,70,8|8,0:1|0:2,0:0:0:0:
180,27,82172,1,10,0:1:0:0:
180,27,82350,2,0,P|152:47|102:47,1,70,10|8,0:0|0:1,0:0:0:0:
243,111,82705,6,0,B|328:104|293:148|388:145,1,140,10|8,0:0|0:2,0:0:0:0:
392,144,83149,1,8,0:1:0:0:
409,141,83237,2,0,P|436:125|480:121,1,70,8|8,0:1|0:0,0:0:0:0:
509,223,83592,1,10,0:1:0:0:
509,223,83681,1,10,0:1:0:0:
509,223,83770,1,10,0:0:0:0:
427,275,83947,2,0,P|388:277|352:260,1,70,10|10,0:1|0:0,0:0:0:0:
283,190,84302,6,0,P|297:154|283:114,1,70,10|8,0:1|0:0,0:0:0:0:
219,55,84658,2,0,L|135:48,1,70,8|8,0:1|0:2,0:0:0:0:
76,114,85013,1,10,0:1:0:0:
76,114,85190,2,0,P|62:150|76:190,1,70,10|8,0:0|0:1,0:0:0:0:
131,268,85545,6,0,B|186:265|186:265|208:278|208:278|268:273,1,140,10|8,0:0|0:2,0:0:0:0:
283,267,85989,1,8,0:1:0:0:
295,255,86078,2,0,L|303:172,1,70,8|8,0:1|0:2,0:0:0:0:
400,210,86433,2,0,L|396:140,1,70,10|10,0:1|0:2,0:0:0:0:
340,69,86788,1,8,0:3:0:0:
333,74,86876,1,8,0:3:0:0:
326,80,86965,1,8,0:3:0:0:
320,86,87054,1,8,0:3:0:0:
313,92,87143,6,0,B|285:97|285:97|249:72,1,52.5000020027161,14|10,0:1|0:1,0:0:0:0:
176,3,87675,1,4,0:3:0:0:
176,3,87853,2,0,L|182:71,1,52.5000020027161,14|10,0:0|0:1,0:0:0:0:
189,74,88119,2,0,L|182:164,1,78.7500030040742,8|8,0:0|0:0,0:0:0:0:
267,215,88563,6,0,P|298:204|350:206,1,70,14|10,0:1|0:0,0:0:0:0:
410,253,88918,1,10,0:1:0:0:
359,330,89095,1,10,0:0:0:0:
359,330,89184,2,0,P|328:341|276:339,1,70,2|0,0:0|0:0,0:0:0:0:
270,340,89450,2,0,P|237:328|202:327,1,70,10|8,0:0|0:1,0:0:0:0:
116,373,89805,5,10,0:0:0:0:
116,373,89894,1,0,0:0:0:0:
116,373,89983,2,0,P|74:382|44:379,1,70,10|10,0:1|0:2,0:0:0:0:
1,300,90338,1,10,0:1:0:0:
59,230,90516,1,10,0:0:0:0:
59,230,90604,2,0,P|68:199|63:159,1,70,2|2,0:0|0:0,0:0:0:0:
56,142,90871,2,0,P|46:108|50:73,1,70,10|10,0:0|0:1,0:0:0:0:
128,14,91226,6,0,P|154:27|208:23,1,70,10|10,0:0|0:1,0:0:0:0:
263,87,91581,1,10,0:0:0:0:
263,87,91669,2,0,P|289:74|343:78,1,70,2|8,0:0|0:1,0:0:0:0:
348,82,91936,1,10,0:0:0:0:
358,99,92024,2,0,P|343:148|351:200,1,105,2|10,0:0|0:0,0:0:0:0:
407,272,92468,1,10,0:1:0:0:
492,216,92646,5,10,0:0:0:0:
492,216,92734,1,2,0:0:0:0:
492,216,92823,2,0,P|501:181|493:147,1,70,10|10,0:1|0:0,0:0:0:0:
443,72,93178,1,10,0:1:0:0:
356,114,93356,1,10,0:0:0:0:
356,114,93444,1,10,0:0:0:0:
356,114,93533,2,0,B|314:131|314:131|281:96,1,83.9999974365235,14|10,0:1|0:0,0:0:0:0:
216,37,93888,2,0,B|174:20|174:20|141:55,1,83.9999974365235,14|8,0:1|0:0,0:0:0:0:
87,145,94243,6,0,L|103:244,1,70,14|10,0:1|0:0,0:0:0:0:
166,274,94598,2,0,P|198:262|255:265,1,70,10|2,0:1|0:0,0:0:0:0:
253,267,94865,1,2,0:0:0:0:
269,279,94953,2,0,P|301:291|358:288,1,70,0|10,0:0|0:0,0:0:0:0:
424,269,95308,1,10,0:1:0:0:
393,176,95486,5,10,0:0:0:0:
393,176,95575,1,2,0:0:0:0:
393,176,95663,2,0,P|383:138|396:97,1,70,10|10,0:1|0:0,0:0:0:0:
496,68,96018,2,0,P|502:102|492:135,1,70,10|10,0:1|0:0,0:0:0:0:
397,180,96373,5,10,0:1:0:0:
442,242,96551,5,10,0:1:0:0:
429,318,96729,5,10,0:1:0:0:
350,370,96906,5,8,0:0:0:0:
350,370,96995,1,8,0:0:0:0:
350,370,97084,2,0,L|266:354,1,70,14|10,0:1|0:0,0:0:0:0:
209,300,97439,2,0,P|203:265|208:230,1,70,10|10,0:1|0:0,0:0:0:0:
213,211,97705,2,0,P|217:176|212:141,1,70,2|0,0:0|0:0,0:0:0:0:
203,122,97971,2,0,P|198:87|202:52,2,70,10|10|10,0:0|0:1|0:0,0:0:0:0:
299,160,98504,6,0,P|328:151|380:151,1,70,10|10,0:1|0:0,0:0:0:0:
447,202,98859,1,10,0:1:0:0:
386,288,99036,1,8,0:0:0:0:
386,288,99125,1,8,0:0:0:0:
386,288,99214,2,0,B|346:306|346:306|296:292,1,83.9999974365235,14|8,0:1|0:0,0:0:0:0:
223,254,99569,2,0,B|229:225|229:225|214:196,1,60.9000005110931,10|6,0:3|0:3,0:0:0:0:
133,136,99924,6,0,L|98:142,2,26.2500010013581,14|8|8,0:1|0:1|0:1,0:0:0:0:
206,94,100279,2,0,P|237:63|220:5,2,105.000004005432,10|10|10,0:0|0:1|0:0,0:0:0:0:
89,224,101344,5,8,0:1:0:0:
89,224,101433,1,8,0:1:0:0:
89,224,101521,2,0,P|77:256|83:293,1,70,10|8,0:2|0:1,0:0:0:0:
138,353,101876,2,0,P|170:340|224:346,1,70,10|8,0:2|0:1,0:0:0:0:
288,354,102231,2,0,P|320:367|355:366,1,70,10|8,0:2|0:1,0:0:0:0:
433,334,102587,1,10,0:2:0:0:
394,249,102764,6,0,L|379:205,2,26.2500010013581,10|8|8,0:1|0:1|0:1,0:0:0:0:
464,208,103119,2,0,B|480:158|480:158|461:101,2,105.000004005432,10|10|10,0:0|0:1|0:0,0:0:0:0:
318,272,104184,5,8,0:1:0:0:
318,272,104273,1,8,0:1:0:0:
318,271,104362,2,0,L|226:263,1,70,10|8,0:2|0:1,0:0:0:0:
208,190,104717,2,0,P|221:157|219:117,1,70,10|8,0:2|0:1,0:0:0:0:
178,50,105072,2,0,L|90:39,1,70,10|8,0:2|0:1,0:0:0:0:
32,77,105427,1,10,0:2:0:0:
8,172,105604,6,0,L|-4:210,2,26.2500010013581,14|8|8,0:1|0:1|0:2,0:0:0:0:
85,148,105959,2,0,L|142:136,1,52.5000020027161,10|8,0:1|0:0,0:0:0:0:
196,192,106314,2,0,L|253:204,1,52.5000020027161,10|8,0:1|0:0,0:0:0:0:
313,159,106669,2,0,L|364:148,1,52.5000020027161,10|8,0:1|0:0,0:0:0:0:
462,197,107024,5,10,0:1:0:0:
462,197,107113,1,8,0:1:0:0:
462,197,107202,2,0,P|474:236|462:276,1,70,10|8,0:2|0:1,0:0:0:0:
416,330,107557,2,0,P|378:317|338:324,1,70,10|8,0:2|0:1,0:0:0:0:
275,361,107912,2,0,P|242:373|207:371,1,70,10|8,0:2|0:1,0:0:0:0:
134,330,108267,1,10,0:2:0:0:
206,255,108444,6,0,L|220:214,2,26.2500010013581,10|8|8,0:1|0:1|0:2,0:0:0:0:
139,215,108800,2,0,L|131:150,1,52.5000020027161,10|8,0:1|0:0,0:0:0:0:
54,165,109155,2,0,L|62:100,1,52.5000020027161,10|8,0:1|0:0,0:0:0:0:
96,43,109510,1,8,0:1:0:0:
173,85,109687,1,8,0:0:0:0:
173,85,109776,1,8,0:0:0:0:
173,85,109865,1,8,0:1:0:0:
260,33,110042,6,0,B|298:20|298:20|340:30,1,83.9999974365235,14|0,0:1|0:0,0:0:0:0:
411,101,110397,2,0,B|402:129|402:129|407:152|407:152|398:186,1,83.9999974365235,14|0,0:1|0:0,0:0:0:0:
347,269,110752,1,14,0:1:0:0:
256,225,110930,2,0,B|218:207|218:207|174:219,1,83.9999974365235,8|8,0:1|0:0,0:0:0:0:
163,226,111196,1,8,0:0:0:0:
152,239,111285,6,0,P|135:272|157:334,1,77.0000023498536,14|8,0:1|0:0,0:0:0:0:
243,366,111640,1,8,0:1:0:0:
243,366,111729,1,8,0:1:0:0:
243,366,111817,2,0,B|327:361,1,77.0000023498536,10|8,0:0|0:1,0:0:0:0:
430,381,112172,1,8,0:0:0:0:
430,381,112261,2,0,P|445:338|424:263,1,115.50000352478,8|8,0:1|0:0,0:0:0:0:
335,197,112705,6,0,L|246:200,1,77.0000023498536,10|8,0:1|0:0,0:0:0:0:
253,218,112971,2,0,L|164:221,1,77.0000023498536,2|8,0:0|0:1,0:0:0:0:
169,238,113237,2,0,L|80:241,1,77.0000023498536,10|8,0:0|0:1,0:0:0:0:
15,172,113592,1,8,0:0:0:0:
15,172,113681,2,0,P|6:117|32:49,1,115.50000352478,8|8,0:1|0:0,0:0:0:0:
130,14,114125,6,0,P|127:49|152:101,1,77.0000023498536,14|8,0:1|0:0,0:0:0:0:
229,154,114480,1,10,0:1:0:0:
229,154,114569,1,8,0:1:0:0:
229,154,114658,1,8,0:0:0:0:
315,104,114835,2,0,P|352:83|401:81,1,77.0000023498536,10|8,0:1|0:0,0:0:0:0:
402,87,115101,1,8,0:1:0:0:
418,97,115190,2,0,P|430:126|429:191,1,77.0000023498536,10|8,0:1|0:0,0:0:0:0:
355,268,115545,6,0,P|320:254|264:256,1,90.9999958343508,14|8,0:0|0:1,0:0:0:0:
253,278,115811,2,0,P|210:293|165:290,1,90.9999958343508,10|8,0:0|0:1,0:0:0:0:
138,284,116078,1,10,0:0:0:0:
65,211,116255,2,0,L|71:170,3,35,8|8|8|8,0:0|0:0|0:0|0:0,0:0:0:0:
59,154,116610,2,0,L|65:113,5,23.3333333333333,8|8|8|8|8|8,0:3|0:3|0:3|0:3|0:3|0:3,0:0:0:0:
53,105,116965,6,0,B|41:71|41:71|61:25,1,77.0000023498536,14|8,0:1|0:0,0:0:0:0:
164,23,117320,1,8,0:1:0:0:
164,23,117409,1,8,0:1:0:0:
164,23,117498,2,0,B|180:60|180:60|168:94,1,77.0000023498536,10|8,0:0|0:1,0:0:0:0:
121,194,117853,1,8,0:0:0:0:
121,194,117942,2,0,B|102:244|102:244|129:326,1,115.50000352478,8|8,0:1|0:2,0:0:0:0:
215,372,118385,6,0,P|248:354|286:351,1,77.0000023498536,10|8,0:1|0:0,0:0:0:0:
306,354,118652,1,2,0:1:0:0:
325,360,118740,2,0,P|363:361|405:334,1,77.0000023498536,8|10,0:1|0:0,0:0:0:0:
471,264,119095,2,0,L|460:167,1,77.0000023498536,10|8,0:1|0:0,0:0:0:0:
471,170,119362,2,0,L|460:73,1,77.0000023498536,10|8,0:1|0:1,0:0:0:0:
468,75,119628,1,10,0:0:0:0:
379,23,119805,6,0,P|350:38|284:32,1,77.0000023498536,10|8,0:1|0:0,0:0:0:0:
216,20,120160,1,10,0:1:0:0:
216,20,120249,1,8,0:1:0:0:
216,20,120338,1,8,0:0:0:0:
152,97,120516,2,0,P|141:130|145:175,1,77.0000023498536,10|8,0:1|0:0,0:0:0:0:
154,187,120782,1,8,0:1:0:0:
166,201,120871,2,0,L|242:210,1,77.0000023498536,10|8,0:1|0:0,0:0:0:0:
287,303,121226,6,0,L|370:313,1,83.9999974365235,14|8,0:1|0:0,0:0:0:0:
383,328,121492,1,8,0:0:0:0:
394,340,121581,2,0,B|434:354|434:354|496:329,1,83.9999974365235,8|8,0:3|0:3,0:0:0:0:
507,254,121936,2,0,L|499:204,3,35,6|4|4|4,0:3|0:3|0:3|0:3,0:0:0:0:
481,196,122291,2,0,L|473:146,3,35,8|8|8|8,0:0|0:0|0:0|0:0,0:0:0:0:
454,141,122646,6,0,P|405:145|363:125,1,83.9999974365235,14|8,0:0|0:1,0:0:0:0:
290,74,123001,2,0,P|250:60|209:65,1,83.9999974365235,10|8,0:0|0:1,0:0:0:0:
196,76,123267,1,8,0:1:0:0:
184,88,123356,2,0,P|192:135|175:183,1,83.9999974365235,10|8,0:0|0:1,0:0:0:0:
118,254,123711,1,10,0:0:0:0:
26,184,123888,5,8,0:1:0:0:
26,184,123977,1,8,0:1:0:0:
26,184,124066,2,0,P|19:145|25:96,1,83.9999974365235,10|8,0:0|0:1,0:0:0:0:
104,40,124421,2,0,P|135:62|195:60,1,83.9999974365235,10|8,0:0|0:1,0:0:0:0:
200,59,124687,1,8,0:1:0:0:
219,50,124776,2,0,P|258:30|394:49,1,167.999994873047,10|10,0:0|0:0,0:0:0:0:
468,112,125308,5,8,0:1:0:0:
468,112,125397,1,0,0:0:0:0:
468,112,125486,2,0,L|459:203,1,83.9999974365235,14|8,0:0|0:1,0:0:0:0:
385,263,125841,2,0,P|346:246|305:251,1,83.9999974365235,10|8,0:0|0:1,0:0:0:0:
288,264,126107,1,8,0:1:0:0:
271,275,126196,2,0,P|233:291|192:286,1,83.9999974365235,10|8,0:0|0:1,0:0:0:0:
98,245,126551,1,10,0:0:0:0:
143,147,126729,5,8,0:1:0:0:
143,147,126817,1,8,0:1:0:0:
143,147,126906,2,0,B|168:141|168:141|185:149|185:149|238:138,1,83.9999974365235,10|8,0:0|0:1,0:0:0:0:
320,170,127261,2,0,P|326:128|311:89,1,83.9999974365235,10|8,0:0|0:1,0:0:0:0:
234,24,127616,2,0,B|211:21|211:21|191:32|191:32|143:26,1,83.9999974365235,10|8,0:0|0:1,0:0:0:0:
53,12,127971,1,14,0:0:0:0:
89,106,128149,1,8,0:0:0:0:
25,197,128326,6,0,P|10:248|35:295,1,83.9999974365235,14|8,0:1|0:2,0:0:0:0:
27,290,128592,1,0,0:1:0:0:
38,302,128681,2,0,L|138:290,1,83.9999974365235,8|8,0:1|0:2,0:0:0:0:
194,362,129036,2,0,L|294:374,1,83.9999974365235,8|8,0:1|0:2,0:0:0:0:
294,369,129302,1,0,0:1:0:0:
310,364,129391,2,0,P|325:325|316:285,1,83.9999974365235,8|8,0:1|0:2,0:0:0:0:
254,191,129746,6,0,P|239:152|248:112,1,83.9999974365235,10|8,0:1|0:2,0:0:0:0:
261,100,130013,1,0,0:2:0:0:
274,90,130101,2,0,L|372:73,1,83.9999974365235,8|8,0:1|0:2,0:0:0:0:
437,152,130456,2,0,P|452:191|443:231,1,83.9999974365235,8|8,0:1|0:2,0:0:0:0:
430,243,130723,1,0,0:2:0:0:
417,253,130811,2,0,L|319:270,1,83.9999974365235,8|8,0:1|0:2,0:0:0:0:
232,332,131166,5,14,0:1:0:0:
207,240,131344,1,8,0:2:0:0:
207,240,131433,1,0,0:2:0:0:
207,240,131521,2,0,B|222:198|222:198|196:142,1,83.9999974365235,8|8,0:1|0:2,0:0:0:0:
147,84,131876,2,0,L|59:80,1,83.9999974365235,8|8,0:1|0:2,0:0:0:0:
49,90,132143,1,0,0:2:0:0:
38,102,132231,2,0,B|16:139|16:139|28:179,1,83.9999974365235,8|8,0:1|0:2,0:0:0:0:
80,278,132587,5,10,0:1:0:0:
175,236,132764,1,8,0:2:0:0:
175,236,132853,1,0,0:2:0:0:
175,236,132942,2,0,P|219:222|271:229,1,83.9999974365235,8|10,0:1|0:2,0:0:0:0:
330,294,133297,1,10,0:2:0:0:
406,228,133474,1,10,0:2:0:0:
473,311,133652,6,0,B|510:358|510:358|502:299,2,119.000002269745,14|8|8,0:1|0:1|0:1,0:0:0:0:
400,213,134717,1,10,0:1:0:0:
400,213,134894,1,8,0:1:0:0:
464,151,135072,5,8,0:0:0:0:
470,142,135160,1,8,0:0:0:0:
473,133,135249,1,8,0:0:0:0:
474,123,135338,1,8,0:0:0:0:
471,113,135427,6,0,B|464:91|464:91|465:74|465:74|456:33,1,70,14|8,0:1|0:0,0:0:0:0:
365,14,135782,2,0,B|337:8|337:8|327:13|327:13|287:10,1,70,8|8,0:1|0:2,0:0:0:0:
239,91,136137,1,10,0:1:0:0:
239,91,136314,2,0,B|211:85|211:85|201:90|201:90|161:87,1,70,10|8,0:0|0:1,0:0:0:0:
81,144,136669,6,0,B|56:208|56:208|80:281,1,140,10|8,0:0|0:0,0:0:0:0:
87,290,137113,1,8,0:1:0:0:
99,302,137202,2,0,P|133:314|169:305,1,70,8|8,0:1|0:0,0:0:0:0:
249,253,137557,1,10,0:1:0:0:
249,253,137646,1,10,0:1:0:0:
249,253,137734,1,10,0:0:0:0:
221,159,137912,2,0,P|214:123|227:72,1,70,10|10,0:1|0:0,0:0:0:0:
302,23,138267,6,0,L|383:17,1,70,10|8,0:1|0:2,0:0:0:0:
451,73,138622,2,0,P|458:109|445:160,1,70,8|8,0:1|0:2,0:0:0:0:
403,228,138977,1,10,0:1:0:0:
403,228,139155,2,0,L|331:223,1,70,10|8,0:0|0:1,0:0:0:0:
237,306,139510,6,0,B|229:260|229:260|236:238|236:238|221:166,1,140,10|8,0:0|0:2,0:0:0:0:
212,154,139953,1,8,0:1:0:0:
202,139,140042,2,0,L|185:67,1,70,8|8,0:1|0:2,0:0:0:0:
112,6,140397,2,0,L|95:74,1,70,10|10,0:1|0:0,0:0:0:0:
102,172,140752,1,8,0:1:0:0:
47,254,140930,1,14,0:2:0:0:
107,337,141107,6,0,B|200:330,1,70,14|8,0:1|0:0,0:0:0:0:
267,368,141462,2,0,B|360:375,1,70,8|8,0:1|0:2,0:0:0:0:
428,331,141817,1,10,0:1:0:0:
428,331,141995,2,0,P|436:294|423:257,1,70,10|8,0:0|0:1,0:0:0:0:
353,179,142350,6,0,B|298:175|298:175|272:193|272:193|205:200,1,140,10|8,0:0|0:2,0:0:0:0:
205,208,142794,1,8,0:1:0:0:
191,218,142882,2,0,L|105:210,1,70,8|8,0:1|0:0,0:0:0:0:
44,270,143237,1,10,0:1:0:0:
44,270,143326,1,10,0:1:0:0:
44,270,143415,1,10,0:0:0:0:
5,180,143592,2,0,P|4:144|23:98,1,70,10|10,0:1|0:0,0:0:0:0:
77,28,143947,6,0,L|153:37,1,70,10|8,0:1|0:0,0:0:0:0:
221,99,144302,2,0,L|297:90,1,70,8|8,0:1|0:2,0:0:0:0:
363,24,144658,1,10,0:1:0:0:
363,24,144835,2,0,L|432:32,1,70,10|8,0:0|0:1,0:0:0:0:
487,128,145190,6,0,P|488:176|413:206,1,140,10|8,0:0|0:2,0:0:0:0:
396,197,145634,1,8,0:1:0:0:
380,188,145723,2,0,L|366:105,1,70,8|8,0:1|0:2,0:0:0:0:
268,164,146078,2,0,L|282:81,1,70,10|10,0:1|0:2,0:0:0:0:
221,26,146433,5,10,0:0:0:0:
214,31,146521,1,10,0:0:0:0:
207,37,146610,1,10,0:0:0:0:
201,43,146699,1,10,0:0:0:0:
194,49,146788,6,0,B|161:57|161:57|123:40,1,70,14|10,0:1|0:0,0:0:0:0:
40,85,147143,2,0,L|-3:91,2,35,10|10|10,0:1|0:1|0:0,0:0:0:0:
103,160,147498,2,0,B|110:190|110:190|108:203|108:203|117:235,1,70,10|10,0:1|0:0,0:0:0:0:
144,331,147853,1,10,0:1:0:0:
144,331,147942,1,10,0:1:0:0:
144,331,148030,1,10,0:0:0:0:
265,359,148208,6,0,B|294:355|294:355|306:357|306:357|346:353,1,70,10|10,0:1|0:0,0:0:0:0:
432,355,148563,2,0,L|484:371,2,35,10|10|10,0:1|0:1|0:0,0:0:0:0:
380,271,148918,1,10,0:1:0:0:
380,271,149007,1,2,0:0:0:0:
380,271,149095,2,0,P|373:238|382:187,1,70,10|0,0:0|0:0,0:0:0:0:
434,122,149450,2,0,L|494:108,2,35,10|2|10,0:0|0:0|0:1,0:0:0:0:
326,138,149805,5,10,0:0:0:0:
326,138,149894,1,2,0:0:0:0:
326,138,149983,2,0,B|298:134|298:134|287:141|287:141|238:132,1,70,10|10,0:1|0:0,0:0:0:0:
245,131,150249,1,2,0:0:0:0:
231,126,150338,2,0,L|220:44,1,70,10|10,0:1|0:0,0:0:0:0:
143,130,150693,2,0,L|133:199,1,70,10|10,0:1|0:0,0:0:0:0:
207,281,151048,6,0,P|236:272|293:277,1,70,10|10,0:1|0:0,0:0:0:0:
344,341,151403,2,0,L|341:385,2,35,10|10|10,0:1|0:1|0:0,0:0:0:0:
399,277,151758,1,10,0:1:0:0:
476,309,151936,1,10,0:0:0:0:
511,232,152113,1,8,0:1:0:0:
434,196,152291,1,8,0:0:0:0:
424,186,152379,1,8,0:0:0:0:
416,176,152468,6,0,B|403:138|403:138|412:95,1,77.0000023498536,14|10,0:1|0:0,0:0:0:0:
312,105,152823,2,0,B|323:66|323:66|308:24,1,77.0000023498536,10|10,0:1|0:0,0:0:0:0:
216,122,153178,2,0,B|178:115|178:115|143:128,1,77.0000023498536,10|10,0:1|0:0,0:0:0:0:
129,136,153444,1,2,0:0:0:0:
117,148,153533,2,0,B|106:187|106:187|120:228,1,77.0000023498536,10|10,0:1|0:0,0:0:0:0:
188,300,153888,6,0,B|216:302|216:302|230:316|230:316|258:323,1,77.0000023498536,10|10,0:1|0:0,0:0:0:0:
269,335,154155,1,2,0:0:0:0:
282,344,154243,2,0,B|317:341|317:341|328:329|328:329|382:315,1,77.0000023498536,10|10,0:1|0:0,0:0:0:0:
449,374,154598,1,10,0:1:0:0:
449,374,154687,1,0,0:0:0:0:
449,374,154776,1,10,0:0:0:0:
501,289,154953,2,0,L|485:199,1,77.0000023498536,10|8,0:1|0:0,0:0:0:0:
423,144,155308,6,0,P|387:157|348:149,1,77.0000023498536,10|8,3:1|3:2,0:0:0:0:
275,95,155663,1,10,3:1:0:0:
275,95,155752,1,0,3:0:0:0:
275,95,155841,1,8,3:2:0:0:
244,181,156018,2,0,L|236:268,1,77.0000023498536,10|8,3:1|3:2,0:0:0:0:
233,276,156285,1,0,3:0:0:0:
225,293,156373,2,0,P|180:304|141:294,1,77.0000023498536,10|8,3:1|3:2,0:0:0:0:
61,250,156729,6,0,L|66:164,1,77.0000023498536,10|8,3:1|3:2,0:0:0:0:
129,95,157084,2,0,P|186:103|212:90,1,77.0000023498536,10|8,3:1|3:2,0:0:0:0:
291,49,157439,2,0,P|314:33|339:31,3,38.5000011749268,10|8|8|8,0:0|0:0|0:0|0:0,0:0:0:0:
350,30,157794,2,0,P|373:46|398:48,3,38.5000011749268,10|8|8|8,0:0|0:0|0:0|0:0,0:0:0:0:
408,62,158149,6,0,B|447:46|447:46|511:57,1,83.9999974365235,14|10,0:1|0:2,0:0:0:0:
458,167,158504,2,0,B|419:183|419:183|377:175,1,83.9999974365235,10|10,0:1|0:2,0:0:0:0:
291,119,158859,1,10,0:1:0:0:
291,119,158947,1,2,0:2:0:0:
291,119,159036,1,10,0:2:0:0:
291,119,159125,1,2,0:2:0:0:
291,119,159214,2,0,P|297:69|281:37,1,83.9999974365235,10|10,0:1|0:2,0:0:0:0:
162,101,159569,6,0,P|146:139|154:180,1,83.9999974365235,10|10,0:1|0:2,0:0:0:0:
207,267,159924,2,0,P|241:244|283:243,1,83.9999974365235,10|10,0:1|0:2,0:0:0:0:
388,299,160279,1,10,0:1:0:0:
388,299,160368,1,2,0:0:0:0:
388,299,160456,1,10,0:2:0:0:
388,299,160545,1,2,0:0:0:0:
388,299,160634,2,0,P|380:344|397:391,1,83.9999974365235,10|10,3:1|3:2,0:0:0:0:
492,312,160989,6,0,P|502:271|494:230,1,83.9999974365235,10|10,0:1|0:2,0:0:0:0:
483,212,161255,1,2,0:0:0:0:
468,196,161344,2,0,B|442:190|442:190|424:196|424:196|377:189,1,83.9999974365235,10|10,0:1|0:2,0:0:0:0:
299,135,161699,2,0,B|311:93|311:93|293:49,1,83.9999974365235,10|10,0:1|0:2,0:0:0:0:
201,13,162054,2,0,L|162:0,2,41.9999987182618,10|2|10,0:1|0:2|0:2,0:0:0:0:
135,71,162409,6,0,P|121:119|136:162,1,90.9999958343508,14|10,0:1|0:2,0:0:0:0:
144,176,162675,1,2,0:1:0:0:
156,195,162764,2,0,L|265:187,1,90.9999958343508,14|10,0:1|0:2,0:0:0:0:
317,272,163119,6,0,L|426:280,1,90.9999958343508,14|10,0:1|0:2,0:0:0:0:
428,287,163385,1,2,0:0:0:0:
448,296,163474,2,0,P|462:248|447:205,1,90.9999958343508,14|8,0:1|0:2,0:0:0:0:
385,112,163829,6,0,B|377:85|377:85|380:62|380:62|364:21,1,83.9999974365235,14|8,0:1|0:2,0:0:0:0:
270,4,164184,1,10,0:1:0:0:
212,86,164362,1,8,0:2:0:0:
212,86,164450,1,0,0:0:0:0:
212,86,164539,2,0,L|205:176,1,83.9999974365235,10|8,0:1|0:2,0:0:0:0:
142,248,164894,2,0,P|99:254|58:230,1,83.9999974365235,10|8,0:1|0:2,0:0:0:0:
0,138,165249,5,10,0:1:0:0:
43,51,165427,1,8,0:2:0:0:
43,51,165516,1,0,0:0:0:0:
43,51,165604,1,10,0:1:0:0:
134,91,165782,2,0,B|175:104|175:104|211:86,1,83.9999974365235,8|10,0:2|0:1,0:0:0:0:
301,35,166137,1,8,0:2:0:0:
301,35,166226,1,0,0:0:0:0:
301,35,166314,2,0,B|337:17|337:17|378:30,1,83.9999974365235,10|8,0:1|0:2,0:0:0:0:
466,107,166669,5,10,0:1:0:0:
466,107,166758,1,0,0:0:0:0:
466,107,166847,1,8,0:2:0:0:
466,107,166936,1,0,0:0:0:0:
466,107,167024,2,0,L|469:205,1,83.9999974365235,10|8,0:1|0:2,0:0:0:0:
411,274,167379,2,0,P|376:262|320:267,1,83.9999974365235,10|8,0:1|0:2,0:0:0:0:
316,275,167646,1,0,0:0:0:0:
304,287,167734,2,0,P|264:299|222:296,1,83.9999974365235,10|8,0:1|0:2,0:0:0:0:
122,238,168089,5,10,2:2:0:0:
200,162,168267,1,10,2:2:0:0:
200,162,168356,1,10,2:2:0:0:
200,162,168444,2,0,P|212:114|193:71,1,83.9999974365235,10|10,2:2|2:2,0:0:0:0:
130,23,168800,6,0,B|85:21|85:21|71:36|71:36|6:33,1,119.000002269745,14|10,0:1|0:1,0:0:0:0:
85,173,169510,6,0,L|76:215,2,26.2500010013581,14|10|10,0:1|0:1|0:1,0:0:0:0:
155,137,169865,2,0,B|223:118|197:154|274:140,2,105.000004005432,10|10|10,0:0|0:1|0:0,0:0:0:0:
74,258,170930,5,8,0:1:0:0:
74,258,171018,1,8,0:1:0:0:
74,258,171107,2,0,B|61:290|61:290|71:326,1,70,10|8,0:2|0:1,0:0:0:0:
149,353,171462,2,0,L|237:344,1,70,10|8,0:2|0:1,0:0:0:0:
301,358,171817,2,0,L|377:367,1,70,10|8,0:2|0:1,0:0:0:0:
442,322,172172,1,10,0:2:0:0:
411,237,172350,6,0,L|403:188,2,26.2500010013581,10|8|8,0:1|0:1|0:1,0:0:0:0:
483,197,172705,2,0,P|498:152|480:90,2,105.000004005432,10|10|10,0:0|0:1|0:0,0:0:0:0:
343,288,173770,5,8,0:1:0:0:
343,288,173859,1,8,0:1:0:0:
343,288,173947,2,0,B|315:284|315:284|305:288|305:288|251:280,1,70,10|8,0:2|0:1,0:0:0:0:
208,335,174302,2,0,B|180:331|180:331|170:335|170:335|116:327,1,70,10|8,0:2|0:1,0:0:0:0:
63,292,174658,2,0,B|53:260|53:260|68:222,1,70,10|8,0:2|0:1,0:0:0:0:
104,150,175013,1,10,0:2:0:0:
181,193,175190,6,0,L|189:232,2,26.2500010013581,14|8|8,0:1|0:1|0:2,0:0:0:0:
213,121,175545,2,0,L|223:62,1,52.5000020027161,10|8,0:1|0:0,0:0:0:0:
283,19,175900,2,0,L|342:10,1,52.5000020027161,10|8,0:1|0:0,0:0:0:0:
409,37,176255,2,0,L|435:90,1,52.5000020027161,10|8,0:1|0:0,0:0:0:0:
493,162,176610,5,10,0:1:0:0:
493,162,176699,1,8,0:1:0:0:
493,162,176788,2,0,B|506:197|506:197|493:241,1,70,10|8,0:2|0:1,0:0:0:0:
429,279,177143,2,0,L|351:268,1,70,10|8,0:2|0:1,0:0:0:0:
304,332,177498,2,0,L|226:343,1,70,10|8,0:2|0:1,0:0:0:0:
158,301,177853,1,10,0:2:0:0:
212,227,178030,6,0,L|226:186,2,26.2500010013581,10|8|8,0:1|0:1|0:2,0:0:0:0:
141,197,178385,2,0,L|133:132,1,52.5000020027161,10|8,0:1|0:0,0:0:0:0:
207,118,178740,2,0,L|215:53,1,52.5000020027161,10|8,0:1|0:0,0:0:0:0:
263,0,179095,1,8,0:1:0:0:
335,59,179273,1,8,0:0:0:0:
335,59,179362,1,8,0:0:0:0:
335,59,179450,1,8,0:1:0:0:
431,20,179628,6,0,B|472:7|472:7|524:19,1,83.9999974365235,14|0,0:1|0:0,0:0:0:0:
480,96,179983,2,0,B|496:134|496:134|485:187,1,83.9999974365235,14|0,0:1|0:0,0:0:0:0:
436,263,180338,1,14,0:1:0:0:
336,243,180516,2,0,B|298:225|298:225|255:238,1,83.9999974365235,8|8,0:1|0:0,0:0:0:0:
240,248,180782,1,8,0:0:0:0:
226,262,180871,6,0,P|199:269|153:256,1,77.0000023498536,14|8,0:1|0:0,0:0:0:0:
74,197,181226,1,8,0:1:0:0:
74,197,181314,1,8,0:1:0:0:
74,197,181403,2,0,B|71:113,1,77.0000023498536,10|8,0:0|0:1,0:0:0:0:
131,30,181758,1,8,0:0:0:0:
131,30,181847,2,0,B|179:27|179:27|190:40|190:40|254:38,1,115.50000352478,8|8,0:1|0:0,0:0:0:0:
349,0,182291,6,0,P|337:39|347:86,1,77.0000023498536,10|8,0:1|0:0,0:0:0:0:
349,91,182557,2,0,P|361:130|351:177,1,77.0000023498536,2|8,0:0|0:1,0:0:0:0:
348,183,182823,2,0,P|336:219|340:257,1,77.0000023498536,10|8,0:0|0:1,0:0:0:0:
415,332,183178,1,8,0:0:0:0:
415,332,183267,2,0,B|469:351|469:351|492:288,1,115.50000352478,8|8,0:1|0:0,0:0:0:0:
472,171,183711,6,0,L|456:85,1,77.0000023498536,14|8,0:1|0:0,0:0:0:0:
392,22,184066,1,10,0:1:0:0:
392,22,184155,1,8,0:1:0:0:
392,22,184243,1,8,0:0:0:0:
315,97,184421,2,0,P|278:104|238:92,1,77.0000023498536,10|8,0:1|0:0,0:0:0:0:
223,85,184687,1,8,0:1:0:0:
205,76,184776,2,0,P|168:65|130:72,1,77.0000023498536,10|8,0:1|0:0,0:0:0:0:
40,148,185131,6,0,B|23:194|23:194|40:254,1,90.9999958343508,14|8,0:0|0:1,0:0:0:0:
47,258,185397,2,0,B|79:256|79:256|94:268|94:268|151:270,1,90.9999958343508,10|8,0:0|0:1,0:0:0:0:
152,290,185663,1,10,0:0:0:0:
244,239,185841,2,0,L|248:197,3,35,8|8|8|8,0:0|0:0|0:0|0:0,0:0:0:0:
264,185,186196,2,0,L|268:143,5,23.3333333333333,8|8|8|8|8|8,0:3|0:3|0:3|0:3|0:3|0:3,0:0:0:0:
283,139,186551,6,0,B|275:100|275:100|289:56,1,77.0000023498536,14|8,0:1|0:0,0:0:0:0:
405,120,186906,1,8,0:1:0:0:
405,120,186995,1,8,0:1:0:0:
405,120,187084,2,0,B|416:155|416:155|408:194,1,77.0000023498536,10|8,0:0|0:1,0:0:0:0:
324,263,187439,1,8,0:0:0:0:
324,263,187527,2,0,B|282:256|282:256|259:268|259:268|194:260,1,115.50000352478,8|8,0:1|0:2,0:0:0:0:
96,305,187971,6,0,P|86:266|103:216,1,77.0000023498536,10|8,0:1|0:0,0:0:0:0:
105,215,188237,1,2,0:1:0:0:
114,198,188326,2,0,P|121:160|111:123,1,77.0000023498536,8|10,0:1|0:0,0:0:0:0:
193,45,188681,2,0,P|185:82|195:119,1,77.0000023498536,10|8,0:1|0:0,0:0:0:0:
208,134,188947,2,0,L|297:125,1,77.0000023498536,10|8,0:1|0:1,0:0:0:0:
299,138,189214,1,10,0:0:0:0:
396,84,189391,6,0,P|403:49|376:-2,1,77.0000023498536,10|8,0:1|0:0,0:0:0:0:
287,3,189746,1,10,0:1:0:0:
287,3,189835,1,8,0:1:0:0:
287,3,189924,1,8,0:0:0:0:
200,61,190101,2,0,P|193:96|220:147,1,77.0000023498536,10|8,0:1|0:0,0:0:0:0:
218,149,190368,1,8,0:1:0:0:
232,161,190456,2,0,L|315:168,1,77.0000023498536,10|8,0:1|0:0,0:0:0:0:
402,251,190811,6,0,P|413:287|395:342,1,83.9999974365235,14|8,0:1|0:0,0:0:0:0:
389,347,191078,1,8,0:0:0:0:
373,360,191166,2,0,B|338:354|338:354|322:360|322:360|270:353,1,83.9999974365235,8|8,0:3|0:3,0:0:0:0:
197,378,191521,2,0,L|189:328,3,35,6|4|4|4,0:3|0:3|0:3|0:3,0:0:0:0:
171,320,191876,2,0,L|163:270,3,35,8|8|8|8,0:0|0:0|0:0|0:0,0:0:0:0:
141,264,192231,6,0,B|100:276|100:276|50:248,1,83.9999974365235,14|8,0:0|0:1,0:0:0:0:
161,173,192587,2,0,B|197:152|197:152|238:164,1,83.9999974365235,10|8,0:0|0:1,0:0:0:0:
251,172,192853,1,8,0:1:0:0:
265,180,192942,2,0,B|306:192|306:192|342:171,1,83.9999974365235,10|8,0:0|0:1,0:0:0:0:
421,96,193297,1,10,0:0:0:0:
498,192,193474,5,8,0:1:0:0:
498,192,193563,1,8,0:1:0:0:
498,192,193652,2,0,P|505:231|499:280,1,83.9999974365235,10|8,0:0|0:1,0:0:0:0:
430,359,194007,2,0,P|399:337|339:339,1,83.9999974365235,10|8,0:0|0:1,0:0:0:0:
334,340,194273,1,8,0:1:0:0:
315,349,194362,2,0,B|242:378|242:378|144:342,1,167.999994873047,10|10,0:0|0:0,0:0:0:0:
54,290,194894,5,8,0:1:0:0:
54,290,194983,1,0,0:0:0:0:
54,290,195072,2,0,L|63:199,1,83.9999974365235,14|8,0:0|0:1,0:0:0:0:
162,250,195427,2,0,L|153:159,1,83.9999974365235,10|8,0:0|0:1,0:0:0:0:
158,145,195693,1,8,0:1:0:0:
161,124,195782,2,0,L|170:33,1,83.9999974365235,10|8,0:0|0:1,0:0:0:0:
267,2,196137,1,10,0:0:0:0:
366,76,196314,5,8,0:1:0:0:
366,76,196403,1,8,0:1:0:0:
366,76,196492,2,0,B|399:72|399:72|411:79|411:79|460:72,1,83.9999974365235,10|8,0:0|0:1,0:0:0:0:
419,184,196847,2,0,B|434:221|434:221|425:267,1,83.9999974365235,10|8,0:0|0:1,0:0:0:0:
347,341,197202,2,0,B|314:337|314:337|302:344|302:344|253:337,1,83.9999974365235,10|8,0:0|0:1,0:0:0:0:
169,369,197557,1,14,0:0:0:0:
153,269,197734,1,8,0:0:0:0:
236,198,197912,6,0,B|254:158|254:158|242:119,1,83.9999974365235,14|8,0:1|0:2,0:0:0:0:
234,105,198178,1,0,0:1:0:0:
223,93,198267,2,0,L|128:86,1,83.9999974365235,8|8,0:1|0:2,0:0:0:0:
58,157,198622,2,0,B|40:197|40:197|51:235,1,83.9999974365235,8|8,0:1|0:2,0:0:0:0:
59,250,198888,1,0,0:1:0:0:
69,262,198977,2,0,L|164:269,1,83.9999974365235,8|8,0:1|0:2,0:0:0:0:
231,365,199332,6,0,L|326:358,1,83.9999974365235,10|8,0:1|0:2,0:0:0:0:
331,363,199598,1,0,0:2:0:0:
346,369,199687,2,0,L|441:362,1,83.9999974365235,8|8,0:1|0:2,0:0:0:0:
490,271,200042,2,0,P|498:230|483:191,1,83.9999974365235,8|8,0:1|0:2,0:0:0:0:
466,179,200308,1,0,0:2:0:0:
447,169,200397,2,0,L|342:158,1,83.9999974365235,8|8,0:1|0:2,0:0:0:0:
273,226,200752,5,14,0:1:0:0:
241,125,200930,1,8,0:2:0:0:
241,125,201018,1,0,0:2:0:0:
241,125,201107,2,0,B|234:92|234:92|238:78|238:78|226:30,1,83.9999974365235,8|8,0:1|0:2,0:0:0:0:
140,0,201462,2,0,B|131:34|131:34|135:48|135:48|128:81,1,83.9999974365235,8|8,0:1|0:2,0:0:0:0:
123,102,201729,1,0,0:2:0:0:
119,122,201817,2,0,B|127:156|127:156|123:170|123:170|130:203,1,83.9999974365235,8|8,0:1|0:2,0:0:0:0:
174,307,202172,5,10,0:1:0:0:
261,248,202350,1,8,0:2:0:0:
261,248,202439,1,0,0:2:0:0:
261,248,202527,2,0,L|269:157,1,83.9999974365235,8|10,0:1|0:2,0:0:0:0:
303,69,202882,1,10,0:2:0:0:
398,38,203060,1,10,0:2:0:0:
467,113,203237,6,0,B|500:169|500:169|496:113,2,119.000002269745,14|8|8,0:1|0:1|0:1,0:0:0:0:
398,19,204302,1,10,0:1:0:0:
398,19,204480,1,8,0:1:0:0:
322,72,204658,5,8,0:0:0:0:
313,78,204746,1,8,0:0:0:0:
303,81,204835,1,8,0:0:0:0:
294,82,204924,1,8,0:0:0:0:
284,79,205013,6,0,B|253:63|253:63|200:72,1,70,14|8,0:1|0:0,0:0:0:0:
128,108,205368,2,0,L|117:198,1,70,8|8,0:1|0:2,0:0:0:0:
80,269,205723,1,10,0:1:0:0:
80,269,205900,2,0,L|91:359,1,70,10|8,0:0|0:1,0:0:0:0:
196,359,206255,6,0,B|245:348|245:348|273:363|273:363|342:349,1,140,10|8,0:0|0:0,0:0:0:0:
343,352,206699,1,8,0:1:0:0:
356,350,206788,2,0,P|365:325|357:279,1,70,8|8,0:1|0:0,0:0:0:0:
315,205,207143,1,10,0:1:0:0:
315,205,207231,1,10,0:1:0:0:
315,205,207320,1,10,0:0:0:0:
228,159,207498,2,0,P|221:125|230:91,1,70,10|10,0:1|0:0,0:0:0:0:
321,28,207853,6,0,B|347:23|347:23|358:30|358:30|402:22,1,70,10|8,0:1|0:2,0:0:0:0:
466,84,208208,2,0,P|472:117|463:151,1,70,8|8,0:1|0:2,0:0:0:0:
403,228,208563,1,10,0:1:0:0:
403,228,208740,2,0,B|376:222|376:222|360:228|360:228|331:223,1,70,10|8,0:0|0:1,0:0:0:0:
237,171,209095,6,0,B|250:105|250:105|221:31,1,140,10|8,0:0|0:2,0:0:0:0:
209,27,209539,1,8,0:1:0:0:
192,21,209628,2,0,L|105:20,1,70,8|8,0:1|0:2,0:0:0:0:
55,92,209983,2,0,B|42:125|42:125|59:162,1,70,10|10,0:1|0:0,0:0:0:0:
140,207,210338,1,8,0:1:0:0:
88,290,210516,1,14,0:2:0:0:
162,353,210693,6,0,B|190:349|190:349|199:354|199:354|255:346,1,70,14|8,0:1|0:0,0:0:0:0:
324,377,211048,2,0,B|333:280,1,70,8|8,0:1|0:2,0:0:0:0:
432,374,211403,1,10,0:1:0:0:
432,374,211581,2,0,B|423:277,1,70,10|8,0:0|0:1,0:0:0:0:
476,212,211936,6,0,P|488:176|452:73,1,140,10|8,0:0|0:2,0:0:0:0:
445,72,212379,1,8,0:1:0:0:
432,60,212468,2,0,B|407:54|407:54|395:59|395:59|346:52,1,70,8|8,0:1|0:0,0:0:0:0:
283,18,212823,1,10,0:1:0:0:
283,18,212912,1,10,0:1:0:0:
283,18,213001,1,10,0:0:0:0:
221,93,213178,2,0,P|213:127|218:164,1,70,10|10,0:1|0:0,0:0:0:0:
288,249,213533,6,0,L|364:258,1,70,10|8,0:1|0:0,0:0:0:0:
276,338,213888,2,0,L|200:347,1,70,8|8,0:1|0:2,0:0:0:0:
116,382,214243,1,10,0:1:0:0:
116,382,214421,2,0,L|119:299,1,70,10|8,0:0|0:1,0:0:0:0:
43,237,214776,6,0,B|19:177|19:177|41:92,1,140,10|8,0:0|0:2,0:0:0:0:
50,92,215220,1,8,0:1:0:0:
63,81,215308,2,0,B|91:77|91:77|103:82|103:82|143:77,1,70,8|8,0:1|0:2,0:0:0:0:
206,140,215663,2,0,B|234:144|234:144|246:139|246:139|286:144,1,70,10|10,0:1|0:2,0:0:0:0:
373,111,216018,5,10,0:0:0:0:
378,104,216107,1,10,0:0:0:0:
384,97,216196,1,10,0:0:0:0:
390,91,216285,1,10,0:0:0:0:
396,84,216373,6,0,B|406:45|406:45|385:7,1,77.0000023498536,8|8,0:3|0:3,0:0:0:0:
266,71,216729,2,0,B|256:110|256:110|277:148,1,77.0000023498536,4|4,0:3|0:3,0:0:0:0:
383,200,217084,5,14,0:0:0:0:
443,263,217261,2,0,B|474:263|474:263|413:227|413:227|359:307,1,181.999991668702,14|14,0:0|0:1,0:0:0:0:
