osu file format v14

[General]
AudioFilename: audio.mp3
AudioLeadIn: 0
PreviewTime: 51595
Countdown: 0
SampleSet: Soft
StackLeniency: 0.6
Mode: 0
LetterboxInBreaks: 0
WidescreenStoryboard: 1

[Editor]
Bookmarks: 11876,23237,28918,40279,51640,63001,68681,74007,75782,87143,88563,99924,111285,122646,128326,133652,135427,146788,152468,158149,163829,168800,169510,180871,192231,203237,205013,205101,205190,216373,217616
DistanceSpacing: 0.6
BeatDivisor: 8
GridSize: 32
TimelineZoom: 2.599998

[Metadata]
Title:Watch out!
TitleUnicode:Watch out!
Artist:Denkishiki Karen Ongaku Shuudan
ArtistUnicode:電気式華憐音楽集団
Creator:Lasse
Version:Despair
Source:
Tags:lmt denkare japanese rock metal detonator ignition
BeatmapID:2361466
BeatmapSetID:1130504

[Difficulty]
HPDrainRate:6
CircleSize:5
OverallDifficulty:8.7
ApproachRate:9.2
SliderMultiplier:1.8
SliderTickRate:1

[Events]
//Background and Video events
0,0,"1a.jpg",0,0
//Break Periods
//Storyboard Layer 0 (Background)
//Storyboard Layer 1 (Fail)
//Storyboard Layer 2 (Pass)
//Storyboard Layer 3 (Foreground)
//Storyboard Layer 4 (Overlay)
//Storyboard Sound Samples

[TimingPoints]
516,355.029585798817,4,2,35,60,1,0
516,-133.333333333333,4,2,35,60,0,0
2646,-133.333333333333,4,2,35,55,0,0
3356,-133.333333333333,4,2,35,60,0,0
5308,-133.333333333333,4,2,35,55,0,0
6018,-133.333333333333,4,2,36,55,0,0
6196,-133.333333333333,4,2,35,60,0,0
8326,-133.333333333333,4,2,35,55,0,0
8859,-133.333333333333,4,2,36,55,0,0
9036,-133.333333333333,4,2,35,60,0,0
10545,-133.333333333333,4,2,35,50,0,0
10634,-133.333333333333,4,2,35,55,0,0
11166,-133.333333333333,4,2,35,56,0,0
11521,-133.333333333333,4,2,35,58,0,0
11876,-100,4,2,35,64,0,0
22527,-100,4,2,35,60,0,0
22882,-100,4,2,35,66,0,0
23237,-133.333333333333,4,2,35,60,0,0
24125,-133.333333333333,4,2,36,60,0,0
24302,-133.333333333333,4,2,35,60,0,0
25545,-133.333333333333,4,2,36,60,0,0
25900,-133.333333333333,4,2,35,60,0,0
26965,-133.333333333333,4,2,36,60,0,0
27143,-133.333333333333,4,2,35,60,0,0
28918,-100,4,2,35,65,0,0
33711,-76.9230769230769,4,2,35,67,0,0
34066,-76.9230769230769,4,2,35,68,0,0
34421,-76.9230769230769,4,2,35,64,0,0
34598,-100,4,2,35,65,0,0
39391,-71.4285714285714,4,2,35,67,0,0
39924,-71.4285714285714,4,2,35,64,0,0
40279,-133.333333333333,4,2,35,60,0,0
50397,-71.4285714285714,4,2,35,64,0,0
51640,-83.3333333333333,4,2,35,70,0,1
55900,-66.6666666666667,4,2,35,70,0,1
57320,-83.3333333333333,4,2,35,70,0,1
63001,-71.4285714285714,4,2,35,72,0,1
68681,-66.6666666666667,4,3,35,74,0,1
74007,-83.3333333333333,4,2,35,60,0,0
75782,-90.9090909090909,4,2,35,64,0,0
86433,-90.9090909090909,4,2,35,60,0,0
86788,-90.9090909090909,4,2,36,62,0,0
87143,-133.333333333333,4,2,35,60,0,0
88563,-90.9090909090909,4,2,35,65,0,0
93356,-71.4285714285714,4,2,35,67,0,0
93711,-71.4285714285714,4,2,35,68,0,0
94066,-71.4285714285714,4,2,35,64,0,0
94243,-90.9090909090909,4,2,35,65,0,0
96373,-90.9090909090909,4,2,35,68,0,0
96418,-90.9090909090909,4,2,35,5,0,0
96551,-76.9230769230769,4,2,35,68,0,0
96595,-90.9090909090909,4,2,35,5,0,0
96729,-66.6666666666667,4,2,35,68,0,0
96773,-90.9090909090909,4,2,35,65,0,0
96906,-90.9090909090909,4,2,35,65,0,0
99036,-66.6666666666667,4,2,35,67,0,0
99391,-90.9090909090909,4,2,35,66,0,0
99480,-90.9090909090909,4,2,35,65,0,0
99569,-90.9090909090909,4,2,35,64,0,0
99658,-90.9090909090909,4,2,35,63,0,0
99746,-90.9090909090909,4,2,35,62,0,0
99835,-90.9090909090909,4,2,35,61,0,0
99924,-125,4,2,35,60,0,0
110042,-71.4285714285714,4,2,35,64,0,0
111285,-83.3333333333333,4,2,35,70,0,1
115545,-66.6666666666667,4,2,35,70,0,1
116965,-83.3333333333333,4,2,35,70,0,1
122646,-71.4285714285714,4,2,35,72,0,1
128326,-66.6666666666667,4,3,35,74,0,1
133652,-83.3333333333333,4,2,35,60,0,0
135427,-86.9565217391304,4,2,35,64,0,0
146078,-86.9565217391304,4,2,35,60,0,0
146433,-86.9565217391304,4,2,35,62,0,0
146788,-100,4,2,35,64,0,0
152468,-83.3333333333333,4,2,35,68,0,0
152646,-83.3333333333333,4,2,35,66,0,0
155308,-83.3333333333333,4,2,35,62,0,0
155663,-83.3333333333333,4,2,35,64,0,0
157439,-83.3333333333333,4,2,35,65,0,0
157794,-83.3333333333333,4,2,35,66,0,0
158149,-71.4285714285714,4,3,35,70,0,1
162409,-66.6666666666667,4,3,35,72,0,1
162498,-66.6666666666667,4,3,35,68,0,1
162587,-62.5,4,3,35,70,0,1
162764,-62.5,4,3,35,72,0,1
162853,-62.5,4,3,35,68,0,1
162942,-58.8235294117647,4,3,35,70,0,1
163119,-58.8235294117647,4,3,35,72,0,1
163208,-58.8235294117647,4,3,35,68,0,1
163297,-111.111111111111,4,3,35,72,0,1
163652,-83.3333333333333,4,3,35,72,0,1
163829,-66.6666666666667,4,3,35,74,0,1
168800,-200,4,2,35,66,0,0
169066,-200,4,2,35,5,0,0
169155,-133.333333333333,4,2,35,55,0,0
169332,-133.333333333333,4,2,35,40,0,0
169510,-117.647058823529,4,2,35,60,0,0
179628,-66.6666666666667,4,2,35,64,0,0
180871,-76.9230769230769,4,2,35,70,0,1
185131,-62.5,4,2,35,70,0,1
186551,-76.9230769230769,4,2,35,70,0,1
192231,-66.6666666666667,4,2,35,72,0,1
197912,-62.5,4,3,35,74,0,1
203237,-83.3333333333333,4,2,35,60,0,0
205013,-83.3333333333333,4,2,35,64,0,0
215663,-83.3333333333333,4,2,35,60,0,0
216018,-83.3333333333333,4,2,35,66,0,0
216373,-83.3333333333333,4,2,35,64,0,0
216462,-83.3333333333333,4,2,35,63,0,0
216551,-83.3333333333333,4,2,35,62,0,0
216640,-83.3333333333333,4,2,35,61,0,0
216729,-83.3333333333333,4,2,35,60,0,0
216817,-83.3333333333333,4,2,35,59,0,0
216906,-83.3333333333333,4,2,35,58,0,0
216995,-83.3333333333333,4,2,35,57,0,0
217084,-66.6666666666667,4,2,35,65,0,0
217172,-66.6666666666667,4,2,35,40,0,0
217261,-66.6666666666667,4,2,35,65,0,0
217527,-66.6666666666667,4,2,35,40,0,0
217616,-66.6666666666667,4,2,99,65,0,0

[Colours]
Combo1 : 250,180,240
Combo2 : 120,200,230
Combo3 : 255,230,130
Combo4 : 160,230,150

[HitObjects]
105,25,516,6,0,B|74:64|74:64|101:154,1,135.000005149842,14|0,0:1|0:0,0:0:0:0:
172,336,1226,5,14,0:1:0:0:
262,377,1403,2,0,L|350:358,1,67.5000025749208,14|0,0:1|0:0,0:0:0:0:
258,262,1758,2,0,B|289:223|289:223|261:132,1,135.000005149842,14|0,0:1|0:0,0:0:0:0:
264,142,2646,6,0,L|258:175,3,33.7500012874604,2|0|0|0,0:0|0:0|0:0|0:0,0:0:0:0:
265,196,3001,2,0,L|259:229,3,33.7500012874604,2|0|0|0,0:0|0:0|0:0|0:0,0:0:0:0:
268,252,3356,6,0,P|324:284|403:243,1,135.000005149842,14|0,0:1|0:0,0:0:0:0:
512,57,4066,5,14,0:1:0:0:
414,109,4243,2,0,L|322:87,1,67.5000025749208,14|0,0:1|0:0,0:0:0:0:
263,143,4598,2,0,P|267:83|230:20,1,135.000005149842,14|0,0:1|0:0,0:0:0:0:
86,111,5308,5,4,0:3:0:0:
83,124,5397,1,4,0:3:0:0:
86,137,5486,2,0,P|96:156|104:186,2,33.7500012874604,10|0|0,0:3|0:0|0:0,0:0:0:0:
35,197,5752,2,0,P|25:216|17:246,2,33.7500012874604,6|0|0,0:3|0:0|0:0,0:0:0:0:
96,249,6018,2,0,P|106:268|114:298,1,33.7500012874604,10|0,0:3|0:3,0:0:0:0:
45,342,6196,6,0,P|128:323|193:324,1,135.000005149842,14|0,0:1|0:0,0:0:0:0:
421,367,6906,5,14,0:1:0:0:
331,377,7084,2,0,P|296:372|259:352,1,67.5000025749208,14|0,0:1|0:0,0:0:0:0:
392,285,7439,2,0,P|375:221|410:165,1,135.000005149842,14|0,0:1|0:0,0:0:0:0:
410,165,8326,6,0,L|430:192,2,33.7500012874604,10|0|0,0:3|0:0|0:0,0:0:0:0:
439,97,8592,2,0,L|472:101,2,33.7500012874604,6|0|0,0:3|0:0|0:0,0:0:0:0:
411,28,8859,2,0,L|438:8,1,33.7500012874604,10|0,0:3|0:0,0:0:0:0:
337,23,9036,6,0,B|289:27|289:27|268:50|268:50|208:56,1,135.000005149842,14|0,0:1|0:0,0:0:0:0:
9,70,9746,5,14,0:1:0:0:
106,151,9924,2,0,P|114:120|105:81,1,67.5000025749208,14|0,0:1|0:0,0:0:0:0:
20,211,10279,2,0,P|14:260|39:306,1,101.250003862381,14|0,0:1|0:0,0:0:0:0:
139,370,10634,6,0,P|149:354|159:322,1,33.7500012874604,8|0,0:3|0:0,0:0:0:0:
171,381,10811,2,0,P|172:361|164:329,1,33.7500012874604,8|0,0:3|0:0,0:0:0:0:
204,374,10989,2,0,P|195:356|172:332,1,33.7500012874604,8|0,0:3|0:0,0:0:0:0:
175,242,11166,5,8,0:0:0:0:
151,217,11255,1,8,0:0:0:0:
147,183,11344,1,8,0:0:0:0:
163,153,11433,1,8,0:0:0:0:
194,142,11521,5,8,0:0:0:0:
226,166,11610,1,8,0:0:0:0:
265,175,11699,1,8,0:0:0:0:
304,165,11788,1,8,0:0:0:0:
331,135,11876,6,0,L|338:77,1,45,14|0,0:1|0:0,0:0:0:0:
408,218,12054,2,0,L|418:271,1,45,8|0,0:0|0:0,0:0:0:0:
493,141,12231,1,8,0:1:0:0:
494,127,12320,1,8,0:1:0:0:
494,113,12409,1,8,0:2:0:0:
492,99,12498,1,8,0:1:0:0:
490,85,12587,6,0,L|429:66,1,45,10|0,0:1|0:0,0:0:0:0:
331,135,12764,2,0,L|233:143,1,90,10|8,0:0|0:1,0:0:0:0:
230,156,13030,1,8,0:1:0:0:
220,171,13119,2,0,L|122:179,1,90,10|8,0:0|0:1,0:0:0:0:
269,336,13474,5,8,0:0:0:0:
279,350,13563,1,8,0:1:0:0:
290,363,13652,1,8,0:1:0:0:
304,372,13740,1,8,0:1:0:0:
321,376,13829,2,0,P|358:367|381:342,1,45,8|0,0:0|0:0,0:0:0:0:
452,302,14007,5,10,0:1:0:0:
427,282,14095,1,10,0:1:0:0:
408,256,14184,2,0,P|403:236|418:202,1,45,10|0,0:0|0:0,0:0:0:0:
468,119,14362,5,10,0:1:0:0:
494,94,14450,1,10,0:1:0:0:
506,60,14539,2,0,P|486:35|461:16,1,45,10|0,0:0|0:0,0:0:0:0:
362,0,14717,6,0,L|355:62,1,45,10|0,0:1|0:0,0:0:0:0:
284,159,14894,2,0,L|278:114,1,45,8|0,0:2|0:2,0:0:0:0:
189,26,15072,1,8,0:1:0:0:
176,38,15160,1,8,0:1:0:0:
159,44,15249,1,8,0:2:0:0:
140,44,15338,1,8,0:1:0:0:
122,39,15427,6,0,P|113:31|70:14,1,45,10|0,0:1|0:0,0:0:0:0:
9,125,15604,2,0,P|-4:160|18:230,1,90,10|8,0:0|0:1,0:0:0:0:
14,226,15871,1,8,0:1:0:0:
26,239,15959,2,0,P|52:249|83:247,1,45,10|0,0:0|0:0,0:0:0:0:
180,215,16137,5,8,0:1:0:0:
177,181,16226,1,8,0:1:0:0:
185,148,16314,1,8,0:2:0:0:
203,120,16403,1,8,0:1:0:0:
228,97,16492,1,8,0:1:0:0:
259,84,16581,1,8,0:1:0:0:
292,81,16669,1,8,0:2:0:0:
325,87,16758,1,8,0:1:0:0:
354,104,16847,6,0,L|372:164,1,45,10|8,0:1|0:1,0:0:0:0:
301,255,17024,2,0,L|288:211,1,45,10|8,0:0|0:1,0:0:0:0:
407,299,17202,5,8,0:1:0:0:
431,286,17291,1,8,0:1:0:0:
457,284,17379,2,0,P|476:297|506:304,1,45,14|8,0:2|0:1,0:0:0:0:
505,183,17557,6,0,L|492:139,1,45,14|0,0:1|0:0,0:0:0:0:
447,22,17734,2,0,L|434:65,1,45,8|0,0:0|0:0,0:0:0:0:
366,147,17912,1,8,0:1:0:0:
348,151,18001,1,8,0:1:0:0:
329,151,18089,1,8,0:2:0:0:
311,149,18178,1,8,0:1:0:0:
294,143,18267,6,0,P|271:132|232:130,1,45,10|0,0:1|0:0,0:0:0:0:
177,221,18444,2,0,P|169:266|183:324,1,90,10|8,0:0|0:1,0:0:0:0:
183,325,18711,1,8,0:1:0:0:
194,338,18800,2,0,B|234:356|234:356|290:311,1,90,10|8,0:0|0:1,0:0:0:0:
138,156,19155,5,8,0:2:0:0:
122,164,19243,1,8,0:1:0:0:
104,168,19332,1,8,0:1:0:0:
86,166,19421,1,8,0:1:0:0:
68,161,19510,2,0,P|54:138|42:100,1,45,8|0,0:0|0:0,0:0:0:0:
73,21,19687,5,10,0:1:0:0:
97,39,19776,1,10,0:1:0:0:
128,43,19865,2,0,P|148:27|175:15,1,45,10|0,0:0|0:0,0:0:0:0:
237,103,20042,5,10,0:1:0:0:
270,91,20131,1,10,0:1:0:0:
304,101,20220,2,0,P|332:115|373:128,1,45,10|0,0:0|0:0,0:0:0:0:
451,68,20397,6,0,P|456:46|464:25,1,45,10|0,0:1|0:0,0:0:0:0:
512,165,20575,2,0,P|506:186|498:207,1,45,8|0,0:0|0:0,0:0:0:0:
431,289,20752,1,8,0:1:0:0:
415,279,20841,1,8,0:1:0:0:
397,274,20930,1,8,0:2:0:0:
379,272,21018,1,8,0:1:0:0:
363,280,21107,6,0,L|344:337,1,45,10|0,0:1|0:0,0:0:0:0:
245,384,21285,2,0,P|232:338|230:262,1,90,10|8,0:0|0:1,0:0:0:0:
235,279,21551,1,8,0:1:0:0:
245,264,21640,2,0,P|257:238|255:205,1,45,10|0,0:0|0:0,0:0:0:0:
249,127,21817,5,8,0:1:0:0:
218,140,21906,1,8,0:1:0:0:
184,141,21995,1,8,0:2:0:0:
154,127,22084,1,8,0:1:0:0:
132,102,22172,1,8,0:1:0:0:
110,77,22261,1,8,0:1:0:0:
79,63,22350,1,8,0:2:0:0:
45,64,22439,1,8,0:1:0:0:
15,78,22527,5,10,0:1:0:0:
21,87,22616,1,10,0:1:0:0:
26,97,22705,1,10,0:2:0:0:
30,107,22794,1,10,0:1:0:0:
31,118,22882,5,10,0:0:0:0:
5,165,22971,5,10,0:0:0:0:
0,220,23060,5,10,0:0:0:0:
17,271,23149,5,10,0:0:0:0:
52,312,23237,5,14,0:1:0:0:
123,168,23415,2,0,L|133:91,1,67.5000025749208,10|8,0:1|0:0,0:0:0:0:
285,3,23770,5,8,0:3:0:0:
279,15,23859,1,8,0:3:0:0:
267,22,23947,1,6,0:3:0:0:
352,80,24125,1,10,0:3:0:0:
251,134,24302,1,10,0:0:0:0:
351,226,24480,5,8,0:1:0:0:
357,206,24569,1,8,0:1:0:0:
364,187,24658,1,14,0:1:0:0:
472,311,24835,2,0,P|467:263|450:235,1,67.5000025749208,10|8,0:1|0:0,0:0:0:0:
332,101,25190,5,8,0:3:0:0:
325,108,25279,1,8,0:3:0:0:
317,115,25368,1,4,0:3:0:0:
216,83,25545,5,8,0:3:0:0:
223,67,25634,1,8,0:3:0:0:
223,50,25723,1,4,0:3:0:0:
134,0,25900,5,8,0:1:0:0:
123,21,25989,1,8,0:1:0:0:
105,37,26078,1,14,0:1:0:0:
14,170,26255,2,0,P|9:130|21:96,1,67.5000025749208,10|8,0:1|0:0,0:0:0:0:
161,203,26610,5,8,0:3:0:0:
165,219,26699,1,8,0:3:0:0:
168,235,26788,1,6,0:3:0:0:
76,304,26965,1,10,0:3:0:0:
210,384,27143,1,8,0:0:0:0:
273,237,27320,5,8,0:1:0:0:
264,259,27409,1,8,0:1:0:0:
260,282,27498,1,14,0:1:0:0:
354,188,27675,2,0,P|353:150|334:103,1,67.5000025749208,10|8,0:1|0:0,0:0:0:0:
249,49,28030,5,8,0:3:0:0:
244,57,28119,1,8,0:3:0:0:
238,65,28208,1,6,0:3:0:0:
163,158,28385,5,8,0:0:0:0:
134,124,28474,1,8,0:0:0:0:
93,111,28563,1,8,0:0:0:0:
51,120,28652,1,8,0:0:0:0:
20,150,28740,1,8,0:0:0:0:
9,192,28829,1,8,0:0:0:0:
21,234,28918,6,0,L|77:251,1,45,14|0,0:1|0:0,0:0:0:0:
163,158,29095,2,0,L|179:103,1,45,10|0,0:0|0:0,0:0:0:0:
222,293,29273,2,0,L|238:348,1,45,10|8,0:1|0:1,0:0:0:0:
346,216,29450,5,10,0:0:0:0:
323,230,29539,2,0,P|308:230|269:211,2,45,2|8|0,0:0|0:1|0:0,0:0:0:0:
423,127,29805,5,10,0:0:0:0:
401,110,29894,1,2,0:0:0:0:
384,88,29983,2,0,P|386:55|411:18,1,45,10|8,0:1|0:1,0:0:0:0:
503,178,30160,5,10,0:0:0:0:
504,200,30249,1,2,0:0:0:0:
500,222,30338,2,0,P|485:244|453:264,1,45,10|0,0:1|0:0,0:0:0:0:
436,383,30516,2,0,P|423:354|396:330,1,45,10|0,0:0|0:0,0:0:0:0:
323,257,30693,2,0,P|307:255|269:234,1,45,10|8,0:1|0:1,0:0:0:0:
247,105,30871,5,10,0:0:0:0:
256,120,30959,2,0,P|273:101|279:68,1,45,2|8,0:0|0:1,0:0:0:0:
175,213,31137,1,2,0:0:0:0:
157,213,31226,2,0,P|164:237|190:258,1,45,10|0,0:0|0:0,0:0:0:0:
125,80,31403,2,0,P|100:74|69:86,1,45,10|8,0:1|0:1,0:0:0:0:
190,248,31581,6,0,P|214:253|246:241,1,45,10|0,0:0|0:0,0:0:0:0:
286,123,31758,2,0,P|286:106|299:69,1,45,10|0,0:1|0:0,0:0:0:0:
382,206,31936,1,10,0:0:0:0:
399,200,32024,1,2,0:0:0:0:
415,207,32113,2,0,P|429:235|426:277,1,45,10|8,0:1|0:1,0:0:0:0:
338,364,32291,5,10,0:0:0:0:
324,375,32379,2,0,P|300:371|272:357,1,45,2|8,0:0|0:1,0:0:0:0:
191,261,32557,2,0,P|211:252|233:248,1,45,2|8,0:0|0:0,0:0:0:0:
127,356,32734,1,2,0:0:0:0:
114,368,32823,2,0,P|108:348|105:322,1,45,10|8,0:1|0:1,0:0:0:0:
158,159,33001,5,10,0:0:0:0:
182,168,33089,1,2,0:0:0:0:
206,156,33178,2,0,P|214:129|211:95,1,45,10|0,0:1|0:0,0:0:0:0:
150,10,33356,2,0,L|86:5,1,45,10|0,0:0|0:0,0:0:0:0:
220,166,33533,2,0,L|264:162,1,45,10|8,0:1|0:1,0:0:0:0:
411,39,33711,5,10,0:0:0:0:
375,69,33800,1,10,0:0:0:0:
330,57,33888,2,0,B|313:35|313:35|323:-8,1,58.4999973220826,14|0,0:1|0:0,0:0:0:0:
490,123,34066,5,10,0:0:0:0:
510,168,34155,1,10,0:0:0:0:
492,213,34243,2,0,B|444:243|444:243|393:210,1,116.999994644165,14|8,0:1|0:0,0:0:0:0:
289,298,34598,6,0,L|333:292,1,45,14|0,0:1|0:0,0:0:0:0:
248,171,34776,2,0,L|275:135,1,45,10|0,0:0|0:0,0:0:0:0:
129,110,34953,2,0,L|123:65,1,45,10|10,0:1|0:1,0:0:0:0:
54,217,35131,5,10,0:0:0:0:
43,236,35220,2,0,L|-3:249,1,45,2|8,0:0|0:1,0:0:0:0:
111,358,35397,2,0,L|157:371,1,45,2|8,0:0|0:0,0:0:0:0:
279,318,35575,1,2,0:0:0:0:
289,298,35663,2,0,P|288:265|267:231,1,45,10|8,0:1|0:1,0:0:0:0:
171,135,35841,5,10,0:0:0:0:
152,154,35930,1,2,0:0:0:0:
126,163,36018,2,0,P|103:160|74:129,1,45,10|0,0:1|0:0,0:0:0:0:
166,16,36196,2,0,P|184:3|206:1,1,45,10|0,0:0|0:0,0:0:0:0:
324,78,36373,2,0,P|322:103|339:134,1,45,10|8,0:1|0:1,0:0:0:0:
448,67,36551,5,10,0:0:0:0:
469,50,36640,2,0,P|476:28|474:6,1,45,2|8,0:0|0:1,0:0:0:0:
400,179,36817,1,2,0:0:0:0:
427,194,36906,2,0,P|453:194|485:169,1,45,10|0,0:0|0:0,0:0:0:0:
324,78,37084,2,0,P|301:78|257:103,1,45,10|8,0:1|0:1,0:0:0:0:
225,206,37261,6,0,P|226:231|214:271,1,45,10|0,0:0|0:0,0:0:0:0:
126,384,37439,2,0,P|124:356|118:339,1,45,10|0,0:1|0:0,0:0:0:0:
63,232,37616,1,10,0:0:0:0:
30,246,37705,1,2,0:0:0:0:
0,225,37794,2,0,L|14:150,1,45,10|8,0:1|0:1,0:0:0:0:
107,121,37971,1,10,0:0:0:0:
133,104,38060,2,0,L|124:50,1,45,2|8,0:0|0:1,0:0:0:0:
268,9,38237,5,2,0:0:0:0:
286,34,38326,1,10,0:0:0:0:
312,49,38415,1,2,0:0:0:0:
343,52,38504,2,0,P|349:36|347:-4,1,45,10|8,0:1|0:1,0:0:0:0:
264,152,38681,2,0,P|264:174|271:195,1,45,10|0,0:0|0:0,0:0:0:0:
379,340,38859,6,0,L|426:362,1,45,10|0,0:1|0:0,0:0:0:0:
253,295,39036,2,0,L|200:307,1,45,10|0,0:0|0:0,0:0:0:0:
366,193,39214,2,0,P|376:168|374:126,1,45,10|8,0:1|0:1,0:0:0:0:
276,42,39391,5,10,0:0:0:0:
239,67,39480,1,10,0:0:0:0:
197,50,39569,2,0,B|157:42|157:42|119:63|119:63|47:53,1,125.999996154785,14|8,0:1|0:0,0:0:0:0:
0,223,39924,5,10,0:3:0:0:
32,192,40013,1,8,0:3:0:0:
75,191,40101,1,8,0:3:0:0:
188,253,40279,5,14,0:1:0:0:
171,264,40368,1,10,0:1:0:0:
163,282,40456,1,10,0:1:0:0:
297,365,40634,6,0,L|387:352,1,67.5000025749208,10|0,0:0|0:0,0:0:0:0:
163,282,40989,2,0,L|96:272,1,67.5000025749208,10|0,0:1|0:0,0:0:0:0:
294,167,41344,2,0,L|384:154,1,67.5000025749208,10|0,0:0|0:0,0:0:0:0:
202,58,41699,5,8,0:1:0:0:
196,31,41788,1,8,0:1:0:0:
180,9,41876,1,10,0:2:0:0:
137,108,42054,5,8,0:1:0:0:
109,105,42143,1,8,0:1:0:0:
83,113,42231,1,10,0:2:0:0:
163,184,42409,5,8,0:1:0:0:
152,210,42498,1,8,0:1:0:0:
151,237,42587,1,10,0:2:0:0:
243,182,42764,5,8,0:1:0:0:
264,201,42853,1,8,0:1:0:0:
289,210,42942,1,10,0:2:0:0:
360,120,43119,5,10,0:1:0:0:
356,99,43208,1,8,0:1:0:0:
368,82,43297,1,8,0:1:0:0:
512,175,43474,6,0,L|495:264,1,67.5000025749208,10|0,0:0|0:0,0:0:0:0:
399,376,43829,2,0,L|386:309,1,67.5000025749208,10|0,0:1|0:0,0:0:0:0:
267,175,44184,2,0,L|255:241,1,67.5000025749208,10|0,0:0|0:0,0:0:0:0:
118,384,44539,5,8,0:1:0:0:
120,357,44628,1,8,0:1:0:0:
129,331,44717,1,10,0:2:0:0:
230,270,44894,5,8,0:1:0:0:
228,243,44983,1,8,0:1:0:0:
219,217,45072,1,10,0:2:0:0:
120,185,45249,5,8,0:1:0:0:
122,158,45338,1,8,0:1:0:0:
131,132,45427,1,10,0:2:0:0:
242,89,45604,5,8,0:1:0:0:
240,62,45693,1,8,0:1:0:0:
231,36,45782,1,10,0:2:0:0:
128,0,45959,5,14,0:1:0:0:
116,16,46048,1,8,0:1:0:0:
98,26,46137,1,8,0:2:0:0:
131,132,46314,5,10,0:1:0:0:
0,97,46492,1,8,0:0:0:0:
134,147,46669,5,10,0:1:0:0:
0,217,46847,1,8,0:0:0:0:
92,329,47024,5,10,0:1:0:0:
98,309,47113,1,8,0:1:0:0:
110,292,47202,1,8,0:0:0:0:
230,231,47379,5,10,0:1:0:0:
240,255,47468,1,8,0:1:0:0:
263,268,47557,1,10,0:2:0:0:
233,100,47734,5,8,0:1:0:0:
212,86,47823,1,8,0:1:0:0:
186,90,47912,1,10,0:2:0:0:
309,208,48089,5,8,0:1:0:0:
334,207,48178,1,8,0:1:0:0:
352,188,48267,1,10,0:2:0:0:
185,165,48444,5,8,0:1:0:0:
165,181,48533,1,8,0:1:0:0:
160,207,48622,1,10,0:2:0:0:
301,120,48800,5,10,0:1:0:0:
304,100,48888,1,8,0:1:0:0:
308,80,48977,1,8,0:2:0:0:
226,4,49155,5,10,0:1:0:0:
185,165,49332,1,8,0:0:0:0:
106,112,49510,5,10,0:1:0:0:
155,294,49687,1,8,0:0:0:0:
40,369,49865,5,8,0:1:0:0:
28,344,49953,1,8,0:1:0:0:
39,319,50042,5,8,0:0:0:0:
21,282,50131,1,8,0:0:0:0:
33,243,50220,5,8,0:1:0:0:
139,109,50397,6,0,B|98:128|98:128|15:99,1,125.999996154785,14|0,0:1|0:0,0:0:0:0:
204,31,50752,2,0,B|245:12|245:12|328:41,1,125.999996154785,14|0,0:1|0:0,0:0:0:0:
424,102,51107,2,0,L|491:90,1,62.9999980773926,14|0,0:1|0:0,0:0:0:0:
387,213,51285,5,8,0:1:0:0:
350,205,51373,1,8,0:1:0:0:
328,236,51462,5,8,0:0:0:0:
281,257,51551,1,8,0:0:0:0:
240,234,51640,6,0,P|188:206|137:220,1,107.999996704102,14|8,0:1|0:0,0:0:0:0:
321,369,51995,1,8,0:1:0:0:
321,369,52084,1,8,0:1:0:0:
321,369,52172,2,0,P|372:378|418:351,1,107.999996704102,10|8,0:0|0:1,0:0:0:0:
512,216,52527,1,8,0:0:0:0:
509,205,52616,1,8,0:1:0:0:
439,74,52794,1,8,0:1:0:0:
444,64,52882,1,8,0:0:0:0:
325,225,53060,6,0,P|276:241|228:217,1,107.999996704102,10|8,0:1|0:0,0:0:0:0:
212,201,53326,1,2,0:0:0:0:
202,181,53415,2,0,L|196:106,1,53.9999983520508,8|8,0:1|0:1,0:0:0:0:
75,35,53592,2,0,P|125:50|172:26,1,107.999996704102,10|8,0:0|0:1,0:0:0:0:
73,189,53947,1,8,0:0:0:0:
69,199,54036,1,8,0:1:0:0:
234,257,54214,1,8,0:1:0:0:
236,267,54302,1,8,0:0:0:0:
359,111,54480,6,0,P|371:65|340:11,1,107.999996704102,14|8,0:1|0:0,0:0:0:0:
207,118,54835,1,10,0:1:0:0:
207,118,54924,1,8,0:1:0:0:
207,118,55013,1,8,0:0:0:0:
381,231,55190,2,0,B|427:236|427:236|437:247|437:247|487:252,1,107.999996704102,10|8,0:1|0:0,0:0:0:0:
415,335,55456,1,8,0:1:0:0:
400,324,55545,2,0,B|354:329|354:329|344:340|344:340|294:345,1,107.999996704102,10|8,0:1|0:0,0:0:0:0:
106,277,55900,6,0,P|73:218|84:145,1,135.000005149842,14|8,0:0|0:1,0:0:0:0:
202,194,56166,2,0,P|167:251|99:278,1,135.000005149842,10|8,0:0|0:1,0:0:0:0:
158,125,56433,2,0,P|187:111|225:114,1,67.5000025749208,10|0,0:0|0:0,0:0:0:0:
336,220,56610,5,8,0:0:0:0:
361,247,56699,1,8,0:0:0:0:
397,263,56788,1,8,0:0:0:0:
437,260,56876,1,8,0:0:0:0:
471,243,56965,5,8,0:3:0:0:
461,222,57024,1,8,0:3:0:0:
455,200,57084,1,8,0:3:0:0:
454,178,57143,1,8,0:3:0:0:
456,156,57202,1,8,0:3:0:0:
462,134,57261,1,8,0:3:0:0:
472,113,57320,6,0,P|490:64|478:12,1,107.999996704102,14|8,0:1|0:0,0:0:0:0:
244,175,57675,1,8,0:1:0:0:
244,175,57764,1,8,0:1:0:0:
244,175,57853,2,0,P|224:125|237:73,1,107.999996704102,10|8,0:0|0:1,0:0:0:0:
372,264,58208,1,8,0:0:0:0:
381,268,58297,1,8,0:1:0:0:
248,371,58474,1,8,0:1:0:0:
246,381,58563,1,8,0:2:0:0:
90,286,58740,6,0,B|64:241|64:241|80:187,1,107.999996704102,10|8,0:1|0:0,0:0:0:0:
96,165,59007,1,2,0:1:0:0:
116,148,59095,2,0,L|182:140,1,53.9999983520508,8|8,0:1|0:1,0:0:0:0:
53,64,59273,2,0,L|-11:54,1,53.9999983520508,10|0,0:0|0:0,0:0:0:0:
199,0,59450,1,10,0:1:0:0:
265,126,59628,1,8,0:0:0:0:
268,136,59717,1,10,0:1:0:0:
164,246,59894,1,8,0:1:0:0:
158,255,59983,1,10,0:0:0:0:
333,338,60160,6,0,B|372:343|372:343|387:361|387:361|440:372,1,107.999996704102,10|8,0:1|0:0,0:0:0:0:
512,195,60516,1,10,0:1:0:0:
512,195,60604,1,8,0:1:0:0:
512,195,60693,1,8,0:0:0:0:
380,101,60871,2,0,B|371:61|371:61|361:51|361:51|349:-3,1,107.999996704102,10|8,0:1|0:0,0:0:0:0:
284,73,61137,1,8,0:1:0:0:
271,89,61226,2,0,B|232:84|232:84|217:63|217:63|164:55,1,107.999996704102,10|8,0:1|0:0,0:0:0:0:
5,239,61581,5,14,0:1:0:0:
144,384,61758,1,8,0:0:0:0:
184,367,61847,1,8,0:0:0:0:
202,327,61936,5,8,0:3:0:0:
184,312,61995,1,8,0:3:0:0:
170,292,62054,1,8,0:3:0:0:
164,269,62113,1,8,0:3:0:0:
163,245,62172,1,8,0:3:0:0:
170,222,62231,1,8,0:3:0:0:
182,202,62291,2,0,P|195:181|199:151,3,53.9999983520508,6|4|4|4,0:3|0:3|0:3|0:3,0:0:0:0:
145,73,62646,5,8,0:0:0:0:
124,107,62734,1,8,0:0:0:0:
89,126,62823,1,8,0:0:0:0:
49,125,62912,1,8,0:0:0:0:
15,104,63001,6,0,L|26:34,1,62.9999980773926,14|0,0:0|0:0,0:0:0:0:
91,218,63178,5,8,0:1:0:0:
91,218,63267,1,8,0:1:0:0:
91,218,63356,2,0,L|80:288,1,62.9999980773926,10|0,0:0|0:0,0:0:0:0:
215,150,63533,5,8,0:1:0:0:
215,150,63622,1,8,0:1:0:0:
215,150,63711,2,0,L|226:80,1,62.9999980773926,10|0,0:0|0:0,0:0:0:0:
286,287,63888,5,8,0:1:0:0:
286,287,63977,1,8,0:1:0:0:
286,287,64066,2,0,L|275:357,1,62.9999980773926,10|0,0:0|0:0,0:0:0:0:
426,369,64243,5,8,0:1:0:0:
426,369,64332,1,8,0:1:0:0:
426,369,64421,2,0,L|495:361,1,62.9999980773926,10|0,0:0|0:0,0:0:0:0:
293,294,64598,5,8,0:1:0:0:
293,294,64687,1,8,0:1:0:0:
293,294,64776,2,0,L|224:302,1,62.9999980773926,10|0,0:0|0:0,0:0:0:0:
439,201,64953,5,8,0:1:0:0:
439,201,65042,1,8,0:1:0:0:
439,201,65131,2,0,L|508:193,1,62.9999980773926,10|0,0:0|0:0,0:0:0:0:
306,126,65308,5,8,0:1:0:0:
306,126,65397,1,8,0:1:0:0:
306,126,65486,2,0,L|237:134,1,62.9999980773926,10|0,0:0|0:0,0:0:0:0:
414,60,65663,5,8,0:1:0:0:
414,60,65752,1,8,0:1:0:0:
414,60,65841,2,0,B|425:28|425:28|409:3,1,62.9999980773926,14|0,0:0|0:0,0:0:0:0:
313,133,66018,5,8,0:1:0:0:
313,133,66107,1,8,0:1:0:0:
313,133,66196,2,0,B|302:165|302:165|317:189,1,62.9999980773926,10|0,0:0|0:0,0:0:0:0:
169,56,66373,5,8,0:1:0:0:
169,56,66462,1,8,0:1:0:0:
169,56,66551,2,0,B|180:24|180:24|164:0,1,62.9999980773926,10|0,0:0|0:0,0:0:0:0:
59,144,66729,5,8,0:1:0:0:
59,144,66817,1,8,0:1:0:0:
59,144,66906,2,0,B|48:176|48:176|63:200,1,62.9999980773926,10|0,0:0|0:0,0:0:0:0:
186,296,67084,5,8,0:1:0:0:
186,296,67172,1,8,0:1:0:0:
186,296,67261,2,0,L|271:284,1,62.9999980773926,10|0,0:0|0:0,0:0:0:0:
70,208,67439,5,8,0:1:0:0:
70,208,67527,1,8,0:1:0:0:
70,208,67616,2,0,L|-15:220,1,62.9999980773926,10|0,0:0|0:0,0:0:0:0:
196,306,67794,5,8,0:1:0:0:
196,306,67882,1,8,0:1:0:0:
196,306,67971,2,0,L|281:294,1,62.9999980773926,10|0,0:0|0:0,0:0:0:0:
361,156,68149,5,8,0:1:0:0:
361,134,68237,1,8,0:1:0:0:
354,113,68326,1,14,0:0:0:0:
266,306,68504,1,8,0:0:0:0:
150,123,68681,5,14,0:1:0:0:
146,156,68770,1,0,0:1:0:0:
160,186,68859,1,8,0:2:0:0:
187,206,68947,1,0,0:1:0:0:
220,209,69036,1,8,0:1:0:0:
250,196,69125,1,0,0:1:0:0:
270,169,69214,1,8,0:2:0:0:
274,136,69302,1,0,0:1:0:0:
261,105,69391,1,8,0:1:0:0:
247,74,69480,1,0,0:1:0:0:
251,41,69569,1,8,0:2:0:0:
271,14,69658,1,0,0:1:0:0:
301,0,69746,1,8,0:1:0:0:
334,4,69835,1,0,0:1:0:0:
361,24,69924,1,8,0:2:0:0:
375,54,70013,1,0,0:1:0:0:
371,87,70101,5,10,0:1:0:0:
341,101,70190,1,0,0:2:0:0:
316,124,70279,1,8,0:2:0:0:
300,153,70368,1,0,0:2:0:0:
293,186,70456,1,8,0:1:0:0:
296,219,70545,1,0,0:2:0:0:
310,250,70634,1,8,0:2:0:0:
332,275,70723,1,0,0:2:0:0:
361,292,70811,1,8,0:1:0:0:
394,300,70900,1,0,0:2:0:0:
427,297,70989,1,8,0:2:0:0:
458,284,71078,1,0,0:2:0:0:
484,263,71166,1,8,0:1:0:0:
502,234,71255,1,0,0:2:0:0:
510,202,71344,1,8,0:2:0:0:
508,168,71433,1,0,0:2:0:0:
496,137,71521,5,14,0:1:0:0:
478,174,71610,1,0,0:2:0:0:
444,198,71699,1,8,0:2:0:0:
402,204,71788,1,0,0:2:0:0:
363,189,71876,1,8,0:1:0:0:
336,157,71965,1,0,0:2:0:0:
327,117,72054,1,8,0:2:0:0:
338,76,72143,1,0,0:2:0:0:
366,48,72231,1,8,0:1:0:0:
392,78,72320,1,0,0:2:0:0:
401,119,72409,1,8,0:2:0:0:
390,159,72498,1,0,0:2:0:0:
363,189,72587,1,8,0:1:0:0:
324,201,72675,1,0,0:2:0:0:
282,196,72764,1,8,0:2:0:0:
249,171,72853,1,0,0:2:0:0:
231,133,72942,5,10,0:1:0:0:
233,182,73030,1,0,0:2:0:0:
206,225,73119,1,8,0:2:0:0:
161,245,73208,1,0,0:2:0:0:
112,236,73297,1,8,0:1:0:0:
76,201,73385,1,0,0:2:0:0:
65,153,73474,6,0,L|90:76,1,67.5000025749208,10|0,0:2|0:2,0:0:0:0:
231,0,73652,2,0,L|251:64,1,67.5000025749208,10|0,0:2|0:2,0:0:0:0:
342,243,73829,2,0,L|362:178,1,67.5000025749208,10|0,0:2|0:2,0:0:0:0:
473,15,74007,5,14,0:1:0:0:
475,28,74362,5,8,0:1:0:0:
477,41,74717,5,8,0:1:0:0:
479,54,75072,5,10,0:1:0:0:
481,67,75249,1,8,0:1:0:0:
483,80,75427,5,8,0:0:0:0:
485,93,75516,1,8,0:0:0:0:
487,106,75604,1,8,0:0:0:0:
489,119,75693,1,8,0:0:0:0:
491,132,75782,6,0,L|479:199,1,49.5000015106202,14|0,0:1|0:0,0:0:0:0:
378,69,75959,2,0,L|369:20,1,49.5000015106202,8|0,0:0|0:0,0:0:0:0:
308,171,76137,1,8,0:1:0:0:
302,184,76226,1,8,0:1:0:0:
297,198,76314,1,8,0:2:0:0:
295,212,76403,1,8,0:1:0:0:
297,226,76492,6,0,P|326:247|354:255,1,49.5000015106202,10|0,0:1|0:0,0:0:0:0:
227,146,76669,2,0,P|175:122|109:132,1,99.0000030212403,10|8,0:0|0:1,0:0:0:0:
114,126,76936,1,8,0:1:0:0:
96,134,77024,2,0,P|69:179|62:234,1,99.0000030212403,10|8,0:0|0:1,0:0:0:0:
143,363,77379,5,8,0:0:0:0:
160,355,77468,1,8,0:1:0:0:
178,353,77557,1,8,0:1:0:0:
196,352,77646,1,8,0:1:0:0:
214,354,77734,2,0,P|238:365|278:370,1,49.5000015106202,8|0,0:0|0:0,0:0:0:0:
371,347,77912,5,10,0:1:0:0:
346,323,78001,1,10,0:1:0:0:
332,290,78089,2,0,P|331:267|345:239,1,49.5000015106202,10|0,0:0|0:0,0:0:0:0:
446,197,78267,5,10,0:1:0:0:
483,188,78356,1,10,0:1:0:0:
492,150,78444,2,0,P|491:121|475:98,1,49.5000015106202,10|0,0:0|0:0,0:0:0:0:
366,0,78622,6,0,L|308:10,1,49.5000015106202,10|0,0:1|0:0,0:0:0:0:
293,148,78800,2,0,L|351:158,1,49.5000015106202,8|0,0:2|0:2,0:0:0:0:
198,62,78977,1,8,0:1:0:0:
186,45,79066,1,8,0:1:0:0:
170,32,79155,1,8,0:2:0:0:
151,25,79243,1,8,0:1:0:0:
131,22,79332,6,0,P|99:21|71:32,1,49.5000015106202,10|0,0:1|0:0,0:0:0:0:
8,105,79510,2,0,B|17:144|17:144|10:165|10:165|19:210,1,99.0000030212403,10|8,0:0|0:1,0:0:0:0:
24,222,79776,1,8,0:1:0:0:
33,239,79865,2,0,P|54:246|81:247,1,49.5000015106202,10|0,0:0|0:0,0:0:0:0:
178,179,80042,5,8,0:1:0:0:
171,144,80131,1,8,0:1:0:0:
177,109,80220,1,8,0:2:0:0:
193,78,80308,1,8,0:1:0:0:
216,52,80397,1,8,0:1:0:0:
247,36,80486,1,8,0:1:0:0:
281,30,80575,1,8,0:2:0:0:
316,33,80663,1,8,0:1:0:0:
348,48,80752,6,0,P|359:73|356:115,1,49.5000015106202,10|8,0:1|0:1,0:0:0:0:
296,207,80930,2,0,P|285:229|283:253,1,49.5000015106202,10|8,0:0|0:1,0:0:0:0:
357,355,81107,5,8,0:1:0:0:
382,346,81196,1,8,0:1:0:0:
407,353,81285,2,0,P|435:364|460:363,1,49.5000015106202,14|8,0:2|0:1,0:0:0:0:
512,248,81462,6,0,L|499:190,1,49.5000015106202,14|0,0:1|0:0,0:0:0:0:
453,81,81640,2,0,L|442:129,1,49.5000015106202,8|0,0:0|0:0,0:0:0:0:
365,205,81817,1,8,0:1:0:0:
345,209,81906,1,8,0:1:0:0:
324,209,81995,1,8,0:2:0:0:
305,207,82084,1,8,0:1:0:0:
286,200,82172,6,0,L|276:148,1,49.5000015106202,10|0,0:1|0:0,0:0:0:0:
215,76,82350,2,0,B|171:49|171:49|111:69,1,99.0000030212403,10|8,0:0|0:1,0:0:0:0:
108,73,82616,1,8,0:1:0:0:
94,86,82705,2,0,P|77:132|86:180,1,99.0000030212403,10|8,0:0|0:1,0:0:0:0:
185,333,83060,5,8,0:2:0:0:
202,323,83149,1,8,0:1:0:0:
221,322,83237,1,8,0:1:0:0:
240,326,83326,1,8,0:1:0:0:
257,336,83415,2,0,P|279:348|314:348,1,49.5000015106202,8|0,0:0|0:0,0:0:0:0:
370,266,83592,5,10,0:1:0:0:
345,244,83681,1,10,0:1:0:0:
332,213,83770,2,0,P|330:194|336:163,1,49.5000015106202,10|0,0:0|0:0,0:0:0:0:
403,92,83947,5,10,0:1:0:0:
431,114,84036,1,10,0:1:0:0:
467,111,84125,2,0,P|490:105|519:88,1,49.5000015106202,10|0,0:0|0:0,0:0:0:0:
352,19,84302,6,0,P|328:9|295:6,1,49.5000015106202,10|0,0:1|0:0,0:0:0:0:
268,139,84480,2,0,P|244:149|211:152,1,49.5000015106202,8|0,0:0|0:0,0:0:0:0:
133,68,84658,1,8,0:1:0:0:
120,52,84746,1,8,0:1:0:0:
103,41,84835,1,8,0:2:0:0:
84,36,84924,1,8,0:1:0:0:
64,34,85013,6,0,P|42:39|16:59,1,49.5000015106202,10|0,0:1|0:0,0:0:0:0:
26,160,85190,2,0,P|13:206|21:278,1,99.0000030212403,10|8,0:0|0:1,0:0:0:0:
22,275,85456,1,8,0:1:0:0:
30,292,85545,2,0,P|43:305|71:317,1,49.5000015106202,10|0,0:0|0:0,0:0:0:0:
182,358,85723,5,8,0:1:0:0:
210,335,85811,1,8,0:1:0:0:
249,325,85900,1,8,0:2:0:0:
285,334,85989,1,8,0:1:0:0:
315,355,86078,1,8,0:1:0:0:
345,376,86166,1,8,0:1:0:0:
383,384,86255,1,8,0:2:0:0:
419,374,86344,1,8,0:1:0:0:
449,351,86433,5,10,0:1:0:0:
441,341,86521,1,10,0:1:0:0:
435,330,86610,1,10,0:2:0:0:
433,318,86699,1,10,0:1:0:0:
407,303,86788,5,8,0:3:0:0:
425,280,86876,1,8,0:3:0:0:
430,250,86965,1,8,0:3:0:0:
424,220,87054,1,8,0:3:0:0:
405,196,87143,5,14,0:1:0:0:
287,113,87320,2,0,L|365:106,1,67.5000025749208,10|4,0:1|0:3,0:0:0:0:
354,106,87587,1,4,0:3:0:0:
354,106,87675,1,4,0:3:0:0:
236,11,87853,5,14,0:0:0:0:
196,140,88030,1,10,0:1:0:0:
207,158,88119,2,0,P|220:167|251:174,1,33.7500012874604,8|8,0:0|0:1,0:0:0:0:
156,57,88297,1,8,0:0:0:0:
131,33,88385,1,8,0:0:0:0:
97,28,88474,1,8,0:0:0:0:
64,38,88563,6,0,P|53:55|47:89,1,49.5000015106202,14|0,0:1|0:0,0:0:0:0:
160,171,88740,2,0,L|220:155,1,49.5000015106202,10|0,0:0|0:0,0:0:0:0:
50,254,88918,2,0,L|-10:270,1,49.5000015106202,10|8,0:1|0:1,0:0:0:0:
180,324,89095,5,10,0:0:0:0:
197,341,89184,2,0,P|227:350|261:339,2,49.5000015106202,2|8|0,0:0|0:1|0:0,0:0:0:0:
141,194,89450,5,10,0:0:0:0:
160,171,89539,1,2,0:0:0:0:
162,141,89628,2,0,P|162:115|154:92,1,49.5000015106202,8|8,0:1|0:1,0:0:0:0:
261,8,89805,5,10,0:0:0:0:
276,27,89894,1,2,0:0:0:0:
298,37,89983,2,0,P|328:33|365:10,1,49.5000015106202,10|0,0:1|0:0,0:0:0:0:
468,99,90160,2,0,P|461:74|437:42,1,49.5000015106202,10|0,0:2|0:0,0:0:0:0:
344,152,90338,2,0,P|337:175|337:200,1,49.5000015106202,10|8,0:1|0:1,0:0:0:0:
427,304,90516,5,10,0:0:0:0:
437,314,90604,2,0,P|461:316|481:304,1,49.5000015106202,2|8,0:0|0:1,0:0:0:0:
319,333,90782,1,2,0:0:0:0:
311,345,90871,2,0,P|316:368|335:384,1,49.5000015106202,10|0,0:0|0:0,0:0:0:0:
243,244,91048,2,0,P|222:255|213:278,1,49.5000015106202,10|8,0:1|0:1,0:0:0:0:
359,150,91226,6,0,P|365:126|361:102,1,49.5000015106202,10|0,0:0|0:0,0:0:0:0:
271,12,91403,2,0,L|222:2,1,49.5000015106202,10|0,0:1|0:0,0:0:0:0:
135,102,91581,1,10,0:0:0:0:
142,112,91669,1,2,0:0:0:0:
149,122,91758,2,0,L|197:112,1,49.5000015106202,10|8,0:1|0:1,0:0:0:0:
29,203,91936,5,10,0:0:0:0:
18,213,92024,1,2,0:0:0:0:
11,226,92113,2,0,P|6:251|20:298,1,49.5000015106202,10|0,0:1|0:0,0:0:0:0:
84,374,92291,1,10,0:0:0:0:
104,361,92379,1,2,0:0:0:0:
128,366,92468,2,0,P|159:362|192:348,1,49.5000015106202,10|8,0:1|0:1,0:0:0:0:
269,266,92646,5,10,0:0:0:0:
246,247,92734,1,2,0:0:0:0:
239,217,92823,2,0,P|237:192|244:169,1,49.5000015106202,10|0,0:1|0:0,0:0:0:0:
369,134,93001,2,0,P|391:144|407:162,1,49.5000015106202,10|0,0:0|0:0,0:0:0:0:
376,288,93178,2,0,P|355:301|331:306,1,49.5000015106202,10|8,0:1|0:1,0:0:0:0:
222,150,93356,5,10,0:0:0:0:
258,124,93444,1,10,0:0:0:0:
268,81,93533,2,0,B|275:52|275:52|262:17,1,62.9999980773926,14|0,0:1|0:0,0:0:0:0:
85,6,93711,5,10,0:0:0:0:
54,46,93800,1,10,0:0:0:0:
47,93,93888,2,0,B|53:138|53:138|44:161|44:161|53:219,1,125.999996154785,14|8,0:1|0:0,0:0:0:0:
226,335,94243,6,0,L|282:329,1,49.5000015106202,14|0,0:1|0:0,0:0:0:0:
133,245,94421,2,0,L|77:239,1,49.5000015106202,10|0,0:0|0:0,0:0:0:0:
222,150,94598,2,0,L|278:144,1,49.5000015106202,10|8,0:1|0:1,0:0:0:0:
382,75,94776,5,2,0:0:0:0:
399,85,94865,2,0,P|412:57|402:24,2,49.5000015106202,2|8|0,0:0|0:1|0:0,0:0:0:0:
281,168,95131,1,10,0:0:0:0:
269,190,95220,1,2,0:0:0:0:
268,214,95308,2,0,P|267:238|279:259,1,49.5000015106202,10|8,0:1|0:1,0:0:0:0:
402,344,95486,5,10,0:0:0:0:
419,335,95575,1,2,0:0:0:0:
438,333,95663,2,0,P|461:337|504:320,1,49.5000015106202,10|0,0:1|0:0,0:0:0:0:
397,217,95841,2,0,P|375:205|350:203,1,49.5000015106202,10|0,0:0|0:0,0:0:0:0:
301,346,96018,2,0,P|279:357|254:359,1,49.5000015106202,10|8,0:1|0:1,0:0:0:0:
138,284,96196,5,10,0:0:0:0:
161,245,96285,1,10,0:0:0:0:
164,200,96373,6,0,L|154:175,1,24.7500007553101,10|0,0:1|0:0,0:0:0:0:
78,114,96551,6,0,L|66:84,1,29.2499986610413,10|0,0:1|0:0,0:0:0:0:
183,31,96729,6,0,L|169:-1,1,33.7500012874604,10|0,0:1|0:0,0:0:0:0:
300,93,96906,5,8,0:0:0:0:
342,107,96995,1,8,0:0:0:0:
383,91,97084,6,0,P|392:71|392:42,1,49.5000015106202,14|0,0:1|0:0,0:0:0:0:
299,173,97261,2,0,P|298:197|308:220,1,49.5000015106202,10|0,0:0|0:0,0:0:0:0:
420,297,97439,2,0,L|477:305,1,49.5000015106202,10|8,0:1|0:1,0:0:0:0:
294,241,97616,5,10,0:0:0:0:
272,253,97705,1,2,0:0:0:0:
248,262,97794,2,0,L|191:270,1,49.5000015106202,10|0,0:1|0:0,0:0:0:0:
119,173,97971,5,10,0:0:0:0:
136,155,98060,1,2,0:0:0:0:
147,132,98149,2,0,P|151:113|142:80,1,49.5000015106202,10|8,0:1|0:1,0:0:0:0:
30,167,98326,2,0,P|26:191|32:214,1,49.5000015106202,10|0,0:0|0:0,0:0:0:0:
130,308,98504,6,0,P|148:301|180:297,1,49.5000015106202,10|0,0:1|0:0,0:0:0:0:
279,368,98681,2,0,P|297:375|329:379,1,49.5000015106202,10|0,0:0|0:0,0:0:0:0:
435,294,98859,2,0,P|453:287|485:283,1,49.5000015106202,10|8,0:1|0:1,0:0:0:0:
378,148,99036,5,8,0:0:0:0:
351,187,99125,1,8,0:0:0:0:
308,208,99214,2,0,P|278:211|240:193,1,67.5000025749208,14|0,0:1|0:0,0:0:0:0:
169,100,99391,5,8,0:0:0:0:
195,77,99480,1,8,0:0:0:0:
205,43,99569,2,0,B|216:20|216:20|200:-2,1,49.5000015106202,10|8,0:3|0:3,0:0:0:0:
68,96,99746,2,0,B|55:119|55:119|65:139,1,49.5000015106202,6|4,0:3|0:3,0:0:0:0:
165,245,99924,5,14,0:1:0:0:
181,259,100013,1,8,0:1:0:0:
197,273,100101,1,8,0:1:0:0:
106,355,100279,6,0,L|19:364,1,72,10|0,0:0|0:0,0:0:0:0:
197,273,100634,2,0,L|284:264,1,72,10|0,0:1|0:0,0:0:0:0:
104,164,100989,2,0,L|32:172,1,72,10|0,0:0|0:0,0:0:0:0:
248,91,101344,5,8,0:1:0:0:
262,68,101433,1,8,0:1:0:0:
266,41,101521,1,10,0:2:0:0:
165,80,101699,5,8,0:1:0:0:
149,59,101788,1,8,0:1:0:0:
124,46,101876,1,10,0:2:0:0:
131,152,102054,5,8,0:1:0:0:
104,164,102143,1,8,0:1:0:0:
84,182,102231,1,10,0:2:0:0:
188,207,102409,5,8,0:1:0:0:
190,236,102498,1,8,0:1:0:0:
201,260,102587,1,10,0:2:0:0:
275,337,102764,5,10,0:1:0:0:
285,317,102853,1,8,0:1:0:0:
298,300,102942,1,8,0:1:0:0:
444,384,103119,6,0,P|452:351|429:296,1,72,10|0,0:0|0:0,0:0:0:0:
283,216,103474,2,0,L|199:227,1,72,10|0,0:1|0:0,0:0:0:0:
415,127,103829,2,0,L|499:138,1,72,10|0,0:0|0:0,0:0:0:0:
317,52,104184,5,8,0:1:0:0:
298,32,104273,1,8,0:1:0:0:
274,19,104362,1,10,0:2:0:0:
283,216,104539,5,8,0:1:0:0:
310,221,104628,1,8,0:1:0:0:
337,217,104717,1,10,0:2:0:0:
213,62,104894,5,8,0:1:0:0:
189,74,104983,1,8,0:1:0:0:
169,93,105072,1,10,0:2:0:0:
360,145,105249,5,8,0:1:0:0:
372,121,105338,1,8,0:1:0:0:
377,94,105427,1,10,0:2:0:0:
190,181,105604,5,14,0:1:0:0:
193,202,105693,1,8,0:1:0:0:
201,221,105782,1,8,0:2:0:0:
302,279,105959,5,10,0:1:0:0:
168,337,106137,1,8,0:0:0:0:
316,364,106314,5,10,0:1:0:0:
147,342,106492,1,8,0:0:0:0:
321,270,106669,5,10,0:1:0:0:
342,264,106758,1,8,0:1:0:0:
362,256,106847,1,8,0:0:0:0:
285,138,107024,5,10,0:1:0:0:
287,111,107113,1,8,0:1:0:0:
280,85,107202,1,10,0:2:0:0:
144,187,107379,5,8,0:1:0:0:
142,160,107468,1,8,0:1:0:0:
149,134,107557,1,10,0:2:0:0:
244,286,107734,5,8,0:1:0:0:
246,259,107823,1,8,0:1:0:0:
239,233,107912,1,10,0:2:0:0:
98,351,108089,5,8,0:1:0:0:
96,324,108178,1,8,0:1:0:0:
103,298,108267,1,10,0:2:0:0:
239,233,108444,5,10,0:1:0:0:
258,243,108533,1,8,0:1:0:0:
279,242,108622,1,8,0:2:0:0:
410,131,108800,5,10,0:1:0:0:
228,91,108977,1,8,0:0:0:0:
289,20,109155,5,10,0:1:0:0:
353,204,109332,1,8,0:0:0:0:
491,175,109510,5,8,0:1:0:0:
476,151,109598,1,8,0:1:0:0:
485,123,109687,5,8,0:0:0:0:
460,86,109776,1,8,0:0:0:0:
473,44,109865,5,8,0:1:0:0:
289,20,110042,6,0,B|250:12|250:12|222:26|222:26|164:17,1,125.999996154785,14|0,0:1|0:0,0:0:0:0:
369,177,110397,2,0,B|408:169|408:169|436:183|436:183|494:174,1,125.999996154785,14|0,0:1|0:0,0:0:0:0:
340,343,110752,2,0,P|336:302|323:273,1,62.9999980773926,14|0,0:1|0:0,0:0:0:0:
241,197,110930,5,8,0:1:0:0:
206,201,111018,1,8,0:1:0:0:
179,239,111107,5,8,0:0:0:0:
133,252,111196,1,8,0:0:0:0:
97,224,111285,6,0,B|51:195|51:195|1:216,1,107.999996704102,14|8,0:1|0:0,0:0:0:0:
168,370,111640,1,8,0:1:0:0:
168,370,111729,1,8,0:1:0:0:
168,370,111817,2,0,B|217:391|217:391|263:362,1,107.999996704102,10|8,0:0|0:1,0:0:0:0:
353,218,112172,1,8,0:0:0:0:
355,207,112261,1,8,0:1:0:0:
443,366,112439,1,8,0:1:0:0:
448,375,112527,1,8,0:0:0:0:
498,202,112705,6,0,P|508:150|486:101,1,107.999996704102,10|8,0:1|0:0,0:0:0:0:
468,89,112971,1,2,0:0:0:0:
447,81,113060,2,0,L|373:92,1,53.9999983520508,8|8,0:1|0:1,0:0:0:0:
273,151,113237,2,0,P|259:100|276:50,1,107.999996704102,10|8,0:0|0:1,0:0:0:0:
378,226,113592,1,8,0:0:0:0:
384,235,113681,1,8,0:1:0:0:
263,322,113859,1,8,0:1:0:0:
260,332,113947,1,8,0:0:0:0:
105,236,114125,6,0,B|62:232|62:232|48:240|48:240|-15:235,1,107.999996704102,14|8,0:1|0:0,0:0:0:0:
142,384,114480,1,10,0:1:0:0:
142,384,114569,1,8,0:1:0:0:
142,384,114658,1,8,0:0:0:0:
199,218,114835,2,0,B|207:175|207:175|201:159|201:159|210:109,1,107.999996704102,10|8,0:1|0:0,0:0:0:0:
297,146,115101,1,8,0:1:0:0:
312,155,115190,2,0,B|304:112|304:112|309:96|309:96|301:49,1,107.999996704102,10|8,0:1|0:0,0:0:0:0:
53,0,115545,6,0,P|20:59|46:133,1,135.000005149842,14|8,0:0|0:1,0:0:0:0:
149,75,115811,2,0,P|114:16|37:2,1,135.000005149842,10|8,0:0|0:1,0:0:0:0:
118,159,116078,2,0,P|152:163|194:150,1,67.5000025749208,10|0,0:0|0:0,0:0:0:0:
281,75,116255,5,8,0:0:0:0:
307,46,116344,1,8,0:0:0:0:
344,30,116433,1,8,0:0:0:0:
386,33,116521,1,8,0:0:0:0:
422,50,116610,5,8,0:3:0:0:
411,72,116669,1,8,0:3:0:0:
405,95,116729,1,8,0:3:0:0:
404,118,116788,1,8,0:3:0:0:
406,141,116847,1,8,0:3:0:0:
412,164,116906,1,8,0:3:0:0:
423,186,116965,6,0,B|449:233|449:233|431:285,1,107.999996704102,14|8,0:1|0:0,0:0:0:0:
272,384,117320,1,8,0:1:0:0:
272,384,117409,1,8,0:1:0:0:
272,384,117498,2,0,B|246:337|246:337|263:284,1,107.999996704102,10|8,0:0|0:1,0:0:0:0:
334,142,117853,1,8,0:0:0:0:
340,133,117942,1,8,0:1:0:0:
242,22,118119,1,8,0:1:0:0:
238,11,118208,1,8,0:2:0:0:
111,144,118385,6,0,B|64:172|64:172|26:132,1,107.999996704102,10|8,0:1|0:0,0:0:0:0:
15,114,118652,1,2,0:1:0:0:
12,92,118740,2,0,L|32:29,1,53.9999983520508,8|8,0:1|0:1,0:0:0:0:
144,0,118918,2,0,L|160:51,1,53.9999983520508,10|0,0:0|0:0,0:0:0:0:
232,160,119095,1,10,0:1:0:0:
337,42,119273,1,8,0:0:0:0:
346,36,119362,1,10,0:1:0:0:
441,151,119539,1,8,0:1:0:0:
450,154,119628,1,10,0:0:0:0:
391,312,119805,6,0,B|384:270|384:270|374:260|374:260|365:202,1,107.999996704102,10|8,0:1|0:0,0:0:0:0:
352,42,120160,1,10,0:1:0:0:
352,42,120249,1,8,0:1:0:0:
352,42,120338,1,8,0:0:0:0:
172,142,120516,2,0,B|216:135|216:135|233:145|233:145|283:136,1,107.999996704102,10|8,0:1|0:0,0:0:0:0:
227,26,120782,1,8,0:1:0:0:
216,39,120871,2,0,B|172:32|172:32|155:42|155:42|105:33,1,107.999996704102,10|8,0:1|0:0,0:0:0:0:
0,206,121226,5,14,0:1:0:0:
111,319,121403,1,8,0:0:0:0:
147,295,121492,1,8,0:0:0:0:
188,306,121581,5,8,0:3:0:0:
205,323,121640,1,8,0:3:0:0:
225,336,121699,1,8,0:3:0:0:
248,341,121758,1,8,0:3:0:0:
273,341,121817,1,8,0:3:0:0:
295,332,121876,1,8,0:3:0:0:
315,319,121936,2,0,L|328:264,3,53.9999983520508,6|4|4|4,0:3|0:3|0:3|0:3,0:0:0:0:
393,210,122291,5,8,0:0:0:0:
427,236,122379,1,8,0:0:0:0:
471,232,122468,1,8,0:0:0:0:
505,204,122557,1,8,0:0:0:0:
512,160,122646,6,0,L|507:97,1,62.9999980773926,14|0,0:0|0:0,0:0:0:0:
405,252,122823,5,8,0:1:0:0:
405,252,122912,1,8,0:1:0:0:
405,252,123001,2,0,L|410:315,1,62.9999980773926,10|0,0:0|0:0,0:0:0:0:
271,171,123178,5,8,0:1:0:0:
271,171,123267,1,8,0:1:0:0:
271,171,123356,2,0,L|266:108,1,62.9999980773926,10|0,0:0|0:0,0:0:0:0:
188,293,123533,5,8,0:1:0:0:
188,293,123622,1,8,0:1:0:0:
188,293,123711,2,0,L|193:356,1,62.9999980773926,10|0,0:0|0:0,0:0:0:0:
62,205,123888,5,8,0:1:0:0:
62,205,123977,1,8,0:1:0:0:
62,205,124066,2,0,L|-7:197,1,62.9999980773926,10|0,0:0|0:0,0:0:0:0:
203,115,124243,5,8,0:1:0:0:
203,115,124332,1,8,0:1:0:0:
203,115,124421,2,0,L|272:107,1,62.9999980773926,10|0,0:0|0:0,0:0:0:0:
95,288,124598,5,8,0:1:0:0:
95,288,124687,1,8,0:1:0:0:
95,288,124776,2,0,L|26:280,1,62.9999980773926,10|0,0:0|0:0,0:0:0:0:
236,198,124953,5,8,0:1:0:0:
236,198,125042,1,8,0:1:0:0:
236,198,125131,2,0,L|305:190,1,62.9999980773926,10|0,0:0|0:0,0:0:0:0:
366,67,125308,5,8,0:1:0:0:
366,67,125397,1,8,0:1:0:0:
366,67,125486,2,0,B|381:41|381:41|364:7,1,62.9999980773926,14|0,0:0|0:0,0:0:0:0:
203,59,125663,5,8,0:1:0:0:
203,59,125752,1,8,0:1:0:0:
203,59,125841,2,0,B|188:85|188:85|205:119,1,62.9999980773926,10|0,0:0|0:0,0:0:0:0:
399,206,126018,5,8,0:1:0:0:
399,206,126107,1,8,0:1:0:0:
399,206,126196,2,0,B|414:180|414:180|397:146,1,62.9999980773926,10|0,0:0|0:0,0:0:0:0:
236,198,126373,5,8,0:1:0:0:
236,198,126462,1,8,0:1:0:0:
236,198,126551,2,0,B|221:224|221:224|238:258,1,62.9999980773926,10|0,0:0|0:0,0:0:0:0:
376,363,126729,5,8,0:1:0:0:
376,363,126817,1,8,0:1:0:0:
376,363,126906,2,0,L|457:364,1,62.9999980773926,10|0,0:0|0:0,0:0:0:0:
242,260,127084,5,8,0:1:0:0:
242,260,127172,1,8,0:1:0:0:
242,260,127261,2,0,L|161:259,1,62.9999980773926,10|0,0:0|0:0,0:0:0:0:
406,158,127439,5,8,0:1:0:0:
406,158,127527,1,8,0:1:0:0:
406,158,127616,2,0,L|487:159,1,62.9999980773926,10|0,0:0|0:0,0:0:0:0:
295,49,127794,5,8,0:1:0:0:
295,24,127882,1,8,0:1:0:0:
285,0,127971,1,14,0:0:0:0:
132,159,128149,1,8,0:0:0:0:
334,262,128326,5,14,0:1:0:0:
340,224,128415,1,0,0:1:0:0:
327,189,128504,1,8,0:2:0:0:
299,163,128592,1,0,0:1:0:0:
262,157,128681,1,8,0:1:0:0:
227,169,128770,1,0,0:1:0:0:
202,196,128859,1,8,0:2:0:0:
194,234,128947,1,0,0:1:0:0:
206,270,129036,1,8,0:1:0:0:
218,306,129125,1,0,0:1:0:0:
211,343,129214,1,8,0:2:0:0:
185,371,129302,1,0,0:1:0:0:
150,384,129391,1,8,0:1:0:0:
114,377,129480,1,0,0:1:0:0:
85,351,129569,1,8,0:2:0:0:
72,316,129658,1,0,0:1:0:0:
80,279,129746,5,10,0:1:0:0:
104,251,129835,1,0,0:2:0:0:
123,219,129924,1,8,0:2:0:0:
135,184,130013,1,0,0:2:0:0:
140,147,130101,1,8,0:1:0:0:
137,110,130190,1,0,0:2:0:0:
127,74,130279,1,8,0:2:0:0:
111,41,130368,1,0,0:2:0:0:
88,12,130456,1,8,0:1:0:0:
64,40,130545,1,0,0:2:0:0:
45,72,130634,1,8,0:2:0:0:
33,107,130723,1,0,0:2:0:0:
28,144,130811,1,8,0:1:0:0:
31,181,130900,1,0,0:2:0:0:
41,217,130989,1,8,0:2:0:0:
57,250,131078,1,0,0:2:0:0:
80,279,131166,5,14,0:1:0:0:
86,234,131255,1,0,0:2:0:0:
121,205,131344,1,8,0:2:0:0:
166,208,131433,1,0,0:2:0:0:
195,241,131521,1,8,0:1:0:0:
195,286,131610,1,0,0:2:0:0:
225,319,131699,1,8,0:2:0:0:
270,324,131788,1,0,0:2:0:0:
308,300,131876,1,8,0:1:0:0:
322,256,131965,1,0,0:2:0:0:
308,212,132054,1,8,0:2:0:0:
326,170,132143,1,0,0:2:0:0:
369,159,132231,1,8,0:1:0:0:
411,175,132320,1,0,0:2:0:0:
427,217,132409,1,8,0:2:0:0:
410,259,132498,1,0,0:2:0:0:
369,278,132587,5,10,0:1:0:0:
333,237,132675,1,0,0:2:0:0:
278,240,132764,1,8,0:2:0:0:
243,281,132853,1,0,0:2:0:0:
250,334,132942,1,8,0:1:0:0:
213,373,133030,1,0,0:2:0:0:
161,362,133119,6,0,L|74:343,1,67.5000025749208,10|0,0:2|0:2,0:0:0:0:
267,251,133297,2,0,L|354:232,1,67.5000025749208,10|0,0:2|0:2,0:0:0:0:
155,141,133474,2,0,L|68:122,1,67.5000025749208,10|0,0:2|0:2,0:0:0:0:
271,29,133652,5,14,0:1:0:0:
273,42,134007,5,8,0:1:0:0:
275,55,134362,5,8,0:1:0:0:
277,68,134717,5,10,0:1:0:0:
279,81,134894,1,8,0:1:0:0:
281,94,135072,5,8,0:0:0:0:
283,107,135160,1,8,0:0:0:0:
285,120,135249,1,8,0:0:0:0:
287,133,135338,1,8,0:0:0:0:
289,146,135427,6,0,L|273:212,1,51.7500009870529,14|0,0:1|0:0,0:0:0:0:
204,320,135604,2,0,L|191:269,1,51.7500009870529,8|0,0:0|0:0,0:0:0:0:
114,178,135782,1,8,0:1:0:0:
100,185,135871,1,8,0:1:0:0:
85,188,135959,1,8,0:2:0:0:
69,187,136048,1,8,0:1:0:0:
53,184,136137,6,0,P|42:162|53:123,1,51.7500009870529,10|0,0:1|0:0,0:0:0:0:
104,52,136314,2,0,P|166:65|209:35,1,103.500001974106,10|8,0:0|0:1,0:0:0:0:
216,36,136581,1,8,0:1:0:0:
234,27,136669,2,0,P|280:6|328:21,1,103.500001974106,10|8,0:0|0:1,0:0:0:0:
422,122,137024,5,8,0:0:0:0:
439,133,137113,1,8,0:1:0:0:
459,136,137202,1,8,0:1:0:0:
479,132,137291,1,8,0:1:0:0:
497,122,137379,2,0,P|508:99|498:56,1,51.7500009870529,8|0,0:0|0:0,0:0:0:0:
382,192,137557,5,10,0:1:0:0:
388,227,137646,1,10,0:1:0:0:
409,255,137734,2,0,P|429:267|466:268,1,51.7500009870529,10|0,0:0|0:0,0:0:0:0:
311,245,137912,5,10,0:1:0:0:
297,282,138001,1,10,0:1:0:0:
298,320,138089,2,0,P|304:338|326:363,1,51.7500009870529,10|0,0:0|0:0,0:0:0:0:
200,242,138267,6,0,P|179:227|153:222,1,51.7500009870529,10|0,0:1|0:0,0:0:0:0:
281,159,138444,2,0,P|306:153|327:138,1,51.7500009870529,8|0,0:2|0:2,0:0:0:0:
208,65,138622,1,8,0:1:0:0:
195,48,138711,1,8,0:1:0:0:
178,35,138800,1,8,0:2:0:0:
159,26,138888,1,8,0:1:0:0:
139,19,138977,6,0,P|107:18|79:31,1,51.7500009870529,10|0,0:1|0:0,0:0:0:0:
25,103,139155,2,0,B|13:212,1,103.500001974106,10|8,0:0|0:1,0:0:0:0:
15,226,139421,1,8,0:1:0:0:
18,246,139510,2,0,L|27:307,1,51.7500009870529,10|0,0:0|0:0,0:0:0:0:
94,371,139687,5,8,0:1:0:0:
115,339,139776,1,8,0:1:0:0:
150,323,139865,1,8,0:2:0:0:
188,327,139953,1,8,0:1:0:0:
219,350,140042,1,8,0:1:0:0:
248,372,140131,1,8,0:1:0:0:
287,376,140220,1,8,0:2:0:0:
321,359,140308,1,8,0:1:0:0:
343,328,140397,6,0,L|335:275,1,51.7500009870529,10|8,0:1|0:1,0:0:0:0:
268,157,140575,2,0,L|260:208,1,51.7500009870529,10|8,0:0|0:1,0:0:0:0:
178,283,140752,5,8,0:1:0:0:
151,287,140841,1,8,0:1:0:0:
125,294,140930,2,0,L|65:280,1,51.7500009870529,14|8,0:2|0:1,0:0:0:0:
0,170,141107,6,0,P|-3:140|12:108,1,51.7500009870529,14|0,0:1|0:0,0:0:0:0:
64,30,141285,2,0,L|124:16,1,51.7500009870529,8|0,0:0|0:0,0:0:0:0:
195,76,141462,1,8,0:1:0:0:
215,82,141551,1,8,0:1:0:0:
238,84,141640,1,8,0:2:0:0:
258,84,141729,1,8,0:1:0:0:
279,79,141817,6,0,P|303:64|327:59,1,51.7500009870529,10|0,0:1|0:0,0:0:0:0:
399,133,141995,2,0,P|378:182|395:245,1,103.500001974106,10|8,0:0|0:1,0:0:0:0:
398,246,142261,1,8,0:1:0:0:
409,263,142350,2,0,B|446:269|446:269|458:291|458:291|508:302,1,103.500001974106,10|8,0:0|0:1,0:0:0:0:
323,384,142705,5,8,0:2:0:0:
307,367,142794,1,8,0:1:0:0:
287,361,142882,1,8,0:1:0:0:
265,360,142971,1,8,0:1:0:0:
244,366,143060,2,0,P|217:372|179:362,1,51.7500009870529,8|0,0:0|0:0,0:0:0:0:
105,326,143237,5,10,0:1:0:0:
139,307,143326,1,10,0:1:0:0:
148,268,143415,2,0,P|150:249|141:218,1,51.7500009870529,10|0,0:0|0:0,0:0:0:0:
71,139,143592,5,10,0:1:0:0:
36,152,143681,1,10,0:1:0:0:
0,132,143770,2,0,P|-4:105|6:67,1,51.7500009870529,10|0,0:0|0:0,0:0:0:0:
108,12,143947,6,0,L|166:3,1,51.7500009870529,10|0,0:1|0:0,0:0:0:0:
209,114,144125,2,0,L|267:123,1,51.7500009870529,8|0,0:0|0:0,0:0:0:0:
357,88,144302,1,8,0:1:0:0:
364,68,144391,1,8,0:1:0:0:
377,53,144480,1,8,0:2:0:0:
394,43,144569,1,8,0:1:0:0:
413,35,144658,6,0,P|435:33|469:45,1,51.7500009870529,10|0,0:1|0:0,0:0:0:0:
503,146,144835,2,0,P|513:196|511:248,1,103.500001974106,10|8,0:0|0:1,0:0:0:0:
504,267,145101,1,8,0:1:0:0:
496,286,145190,2,0,P|484:303|453:327,1,51.7500009870529,10|0,0:0|0:0,0:0:0:0:
332,375,145368,5,8,0:1:0:0:
305,346,145456,1,8,0:1:0:0:
272,330,145545,1,8,0:2:0:0:
235,332,145634,1,8,0:1:0:0:
202,346,145723,1,8,0:1:0:0:
168,362,145811,1,8,0:1:0:0:
132,361,145900,1,8,0:2:0:0:
98,346,145989,1,8,0:1:0:0:
74,318,146078,5,10,0:1:0:0:
84,311,146166,1,10,0:1:0:0:
94,305,146255,1,10,0:2:0:0:
103,296,146344,1,10,0:1:0:0:
108,285,146433,5,10,0:0:0:0:
81,240,146521,5,10,0:0:0:0:
72,190,146610,5,10,0:0:0:0:
80,139,146699,5,10,0:0:0:0:
106,94,146788,6,0,P|115:77|100:33,1,45,14|0,0:1|0:0,0:0:0:0:
201,194,146965,2,0,P|199:216|208:236,1,45,10|0,0:0|0:0,0:0:0:0:
302,120,147143,1,10,0:1:0:0:
302,120,147231,1,10,0:1:0:0:
302,120,147320,2,0,P|311:99|309:77,1,45,10|0,0:0|0:0,0:0:0:0:
239,25,147498,6,0,L|179:10,1,45,10|0,0:1|0:0,0:0:0:0:
302,120,147675,2,0,L|362:135,1,45,10|0,0:0|0:0,0:0:0:0:
477,112,147853,5,10,0:1:0:0:
490,88,147942,1,10,0:1:0:0:
488,61,148030,2,0,P|484:35|466:13,1,45,10|0,0:0|0:0,0:0:0:0:
354,144,148208,6,0,P|346:156|340:207,1,45,10|0,0:1|0:0,0:0:0:0:
410,283,148385,2,0,L|459:275,1,45,10|0,0:0|0:0,0:0:0:0:
328,369,148563,5,10,0:1:0:0:
313,340,148652,1,10,0:1:0:0:
282,331,148740,2,0,L|217:315,1,45,10|0,0:0|0:0,0:0:0:0:
173,256,148918,5,10,0:1:0:0:
201,233,149007,1,2,0:0:0:0:
215,200,149095,1,10,0:0:0:0:
220,164,149184,2,0,L|205:104,1,45,2|8,0:0|0:1,0:0:0:0:
158,49,149362,5,10,0:1:0:0:
128,76,149450,1,10,0:0:0:0:
88,86,149539,1,2,0:0:0:0:
47,80,149628,2,0,P|35:69|6:55,1,45,10|0,0:1|0:0,0:0:0:0:
76,180,149805,5,10,0:0:0:0:
46,201,149894,1,2,0:0:0:0:
26,231,149983,2,0,P|19:254|21:291,1,45,10|8,0:1|0:1,0:0:0:0:
91,350,150160,5,10,0:0:0:0:
119,336,150249,1,2,0:0:0:0:
148,347,150338,2,0,P|175:354|218:352,1,45,10|0,0:1|0:0,0:0:0:0:
289,324,150516,5,10,0:0:0:0:
269,294,150604,1,2,0:0:0:0:
273,258,150693,2,0,P|285:240|293:204,1,45,10|8,0:1|0:1,0:0:0:0:
259,129,150871,5,10,0:0:0:0:
224,149,150959,1,2,0:0:0:0:
183,146,151048,2,0,P|156:129|111:117,1,45,10|0,0:1|0:0,0:0:0:0:
291,217,151226,2,0,P|312:210|332:199,1,45,10|0,0:0|0:0,0:0:0:0:
415,118,151403,5,10,0:1:0:0:
389,92,151492,1,10,0:1:0:0:
377,56,151581,2,0,P|380:24|395:-1,1,45,10|0,0:0|0:0,0:0:0:0:
498,117,151758,2,0,P|495:149|480:174,1,45,10|0,0:1|0:0,0:0:0:0:
415,272,151936,2,0,L|351:256,1,45,10|0,0:0|0:0,0:0:0:0:
264,200,152113,5,8,0:1:0:0:
273,171,152202,1,8,0:1:0:0:
259,129,152291,5,8,0:0:0:0:
285,95,152379,1,8,0:0:0:0:
276,48,152468,5,14,0:1:0:0:
135,0,152646,5,10,0:0:0:0:
123,30,152734,1,2,0:0:0:0:
95,47,152823,2,0,P|68:45|45:31,1,53.9999983520508,10|8,0:1|0:1,0:0:0:0:
151,106,153001,5,10,0:0:0:0:
173,136,153089,1,2,0:0:0:0:
209,144,153178,2,0,P|235:142|258:128,1,53.9999983520508,10|0,0:1|0:0,0:0:0:0:
152,217,153356,5,10,0:0:0:0:
129,253,153444,1,2,0:0:0:0:
88,269,153533,2,0,P|61:267|38:253,1,53.9999983520508,10|8,0:1|0:1,0:0:0:0:
199,373,153711,5,10,0:0:0:0:
214,350,153800,1,2,0:0:0:0:
240,343,153888,2,0,P|262:340|291:310,1,53.9999983520508,10|0,0:1|0:0,0:0:0:0:
351,234,154066,5,10,0:0:0:0:
325,205,154155,1,2,0:0:0:0:
329,167,154243,2,0,P|349:138|345:93,1,53.9999983520508,10|8,0:1|0:1,0:0:0:0:
279,13,154421,5,10,0:0:0:0:
252,46,154510,1,2,0:0:0:0:
210,58,154598,2,0,P|190:47|157:39,1,53.9999983520508,10|0,0:1|0:0,0:0:0:0:
352,120,154776,2,0,P|378:113|402:101,1,53.9999983520508,10|0,0:0|0:0,0:0:0:0:
249,181,154953,6,0,P|206:247|228:296,1,107.999996704102,10|8,0:1|0:0,0:0:0:0:
337,383,155308,5,10,0:1:0:0:
347,377,155368,1,2,0:0:0:0:
358,372,155427,1,2,0:0:0:0:
370,369,155486,1,10,0:0:0:0:
381,367,155545,1,2,0:0:0:0:
393,366,155604,1,2,0:0:0:0:
405,367,155663,5,10,3:1:0:0:
430,375,155752,1,0,3:0:0:0:
456,378,155841,1,8,3:2:0:0:
481,370,155930,1,0,3:0:0:0:
498,349,156018,5,10,3:1:0:0:
466,327,156107,1,0,3:0:0:0:
452,291,156196,1,8,3:2:0:0:
463,254,156285,1,0,3:0:0:0:
493,232,156373,5,10,3:1:0:0:
480,273,156462,1,0,3:0:0:0:
443,295,156551,1,8,3:2:0:0:
401,282,156640,1,0,3:0:0:0:
380,243,156729,5,10,3:1:0:0:
391,218,156817,1,0,3:0:0:0:
394,191,156906,1,8,3:2:0:0:
387,164,156995,1,0,3:0:0:0:
371,141,157084,5,10,3:1:0:0:
358,170,157172,1,0,3:0:0:0:
331,189,157261,1,8,3:2:0:0:
298,186,157350,1,0,3:0:0:0:
272,165,157439,5,10,0:0:0:0:
295,122,157527,5,8,0:0:0:0:
293,73,157616,5,8,0:0:0:0:
254,42,157705,5,8,0:0:0:0:
205,49,157794,5,10,0:0:0:0:
183,91,157882,5,8,0:0:0:0:
197,137,157971,5,8,0:0:0:0:
179,182,158060,5,8,0:0:0:0:
132,198,158149,6,0,B|104:183|104:183|73:187,1,62.9999980773926,14|0,0:1|0:0,0:0:0:0:
224,312,158326,2,0,B|252:327|252:327|282:322,1,62.9999980773926,10|0,0:2|0:2,0:0:0:0:
130,217,158504,2,0,B|102:202|102:202|71:206,1,62.9999980773926,10|0,0:1|0:0,0:0:0:0:
222,331,158681,2,0,B|250:346|250:346|280:341,1,62.9999980773926,10|0,0:2|0:0,0:0:0:0:
442,294,158859,5,10,0:1:0:0:
420,255,158947,1,2,0:2:0:0:
413,215,159036,1,10,0:2:0:0:
427,176,159125,1,2,0:2:0:0:
455,143,159214,1,10,0:1:0:0:
479,114,159302,1,2,0:2:0:0:
491,75,159391,1,10,0:2:0:0:
486,33,159480,1,2,0:2:0:0:
467,0,159569,6,0,B|439:0|439:0|428:5|428:5|372:1,1,62.9999980773926,10|0,0:1|0:0,0:0:0:0:
288,143,159746,2,0,B|311:141|311:141|322:147|322:147|371:146,1,62.9999980773926,10|2,0:2|0:2,0:0:0:0:
174,59,159924,6,0,P|176:20|149:-17,1,62.9999980773926,10|0,0:1|0:0,0:0:0:0:
31,146,160101,2,0,P|27:176|38:205,1,62.9999980773926,10|0,0:2|0:0,0:0:0:0:
120,319,160279,5,10,0:1:0:0:
142,280,160368,1,2,0:0:0:0:
177,253,160456,1,10,0:2:0:0:
221,248,160545,1,2,0:0:0:0:
262,259,160634,5,10,2:1:0:0:
253,277,160693,1,2,2:0:0:0:
250,298,160752,1,2,2:0:0:0:
253,319,160811,1,10,2:2:0:0:
262,338,160871,1,2,2:0:0:0:
277,353,160930,1,2,2:0:0:0:
295,363,160989,6,0,L|360:360,1,62.9999980773926,10|0,0:1|0:0,0:0:0:0:
464,285,161166,1,10,0:2:0:0:
464,285,161255,1,2,0:0:0:0:
464,285,161344,2,0,L|434:199,1,62.9999980773926,10|0,0:1|0:0,0:0:0:0:
314,140,161521,6,0,B|281:140|281:140|307:117,1,62.9999980773926,10|0,0:2|0:0,0:0:0:0:
457,208,161699,2,0,B|473:236|473:236|440:225,1,62.9999980773926,10|0,0:1|0:0,0:0:0:0:
444,51,161876,2,0,B|460:22|460:22|467:56,1,62.9999980773926,10|0,0:2|0:0,0:0:0:0:
348,231,162054,5,10,0:1:0:0:
348,231,162143,1,2,0:2:0:0:
348,231,162231,2,0,B|313:238|313:238|283:213,1,62.9999980773926,10|0,0:2|0:0,0:0:0:0:
185,70,162409,6,0,B|197:37|197:37|182:6,1,67.5000025749208,14|0,0:1|0:0,0:0:0:0:
45,200,162587,5,10,0:2:0:0:
27,222,162675,1,2,0:1:0:0:
16,195,162764,2,0,B|3:163|3:163|19:128,1,72,14|0,0:1|0:0,0:0:0:0:
258,296,162942,5,10,0:2:0:0:
279,321,163030,1,2,0:1:0:0:
292,290,163119,2,0,B|307:254|307:254|288:213,1,76.5000014591217,14|0,0:1|0:0,0:0:0:0:
197,36,163297,5,10,0:2:0:0:
185,70,163385,1,2,0:0:0:0:
157,93,163474,2,0,B|120:106|120:106|80:73,1,80.9999975280763,14|8,0:1|0:2,0:0:0:0:
263,0,163829,5,14,0:1:0:0:
267,26,163918,1,0,0:0:0:0:
278,50,164007,1,8,0:2:0:0:
299,65,164095,1,0,0:0:0:0:
325,71,164184,1,8,0:1:0:0:
352,69,164273,1,0,0:0:0:0:
377,59,164362,1,8,0:2:0:0:
392,37,164450,1,0,0:0:0:0:
399,10,164539,5,10,0:1:0:0:
371,39,164628,1,0,0:0:0:0:
360,78,164717,1,8,0:2:0:0:
373,115,164805,1,0,0:0:0:0:
402,143,164894,1,8,0:1:0:0:
403,183,164983,1,0,0:0:0:0:
387,220,165072,1,8,0:2:0:0:
351,238,165160,1,0,0:0:0:0:
311,228,165249,5,10,0:1:0:0:
279,197,165338,1,0,0:0:0:0:
235,196,165427,1,8,0:2:0:0:
203,226,165516,1,0,0:0:0:0:
200,270,165604,1,8,0:1:0:0:
227,304,165693,1,0,0:0:0:0:
271,309,165782,5,10,0:2:0:0:
289,269,165871,1,0,0:0:0:0:
329,249,165959,1,8,0:1:0:0:
372,258,166048,1,0,0:0:0:0:
400,293,166137,1,8,0:2:0:0:
401,337,166226,1,0,0:0:0:0:
374,372,166314,5,10,0:1:0:0:
368,360,166403,1,0,0:0:0:0:
361,347,166492,1,8,0:2:0:0:
354,335,166581,1,0,0:0:0:0:
348,323,166669,5,10,0:1:0:0:
314,345,166758,1,0,0:0:0:0:
273,338,166847,1,8,0:2:0:0:
251,303,166936,1,0,0:0:0:0:
262,263,167024,5,10,0:1:0:0:
304,242,167113,1,0,0:0:0:0:
319,197,167202,1,8,0:2:0:0:
299,153,167291,1,0,0:0:0:0:
253,139,167379,5,10,0:1:0:0:
250,152,167468,1,0,0:0:0:0:
246,165,167557,1,8,0:2:0:0:
239,176,167646,1,0,0:0:0:0:
231,187,167734,5,10,0:1:0:0:
210,152,167823,1,0,0:0:0:0:
172,136,167912,1,8,0:2:0:0:
133,149,168001,1,0,0:0:0:0:
113,184,168089,5,10,2:2:0:0:
139,223,168178,5,10,2:2:0:0:
116,264,168267,5,10,2:2:0:0:
144,301,168356,5,10,2:2:0:0:
120,341,168444,5,10,2:2:0:0:
93,305,168533,5,10,2:2:0:0:
116,264,168622,5,10,2:2:0:0:
88,226,168711,5,10,2:2:0:0:
113,184,168800,6,0,B|130:166|122:139|122:139|109:152|115:163,1,67.5,14|0,0:1|0:0,0:0:0:0:
180,234,169155,6,0,P|237:242|267:227,1,67.5000025749208,10|0,0:1|0:0,0:0:0:0:
333,130,169510,5,14,0:1:0:0:
325,112,169598,1,10,0:1:0:0:
325,93,169687,1,10,0:1:0:0:
436,16,169865,6,0,B|466:13|466:13|473:19|473:19|522:14,1,76.5000014591217,10|0,0:0|0:0,0:0:0:0:
325,93,170220,2,0,B|295:90|295:90|288:96|288:96|239:91,1,76.5000014591217,10|0,0:1|0:0,0:0:0:0:
439,191,170575,2,0,B|469:188|469:188|476:194|476:194|525:189,1,76.5000014591217,10|0,0:0|0:0,0:0:0:0:
379,384,170930,5,8,0:1:0:0:
382,356,171018,1,8,0:1:0:0:
375,328,171107,1,10,0:2:0:0:
255,320,171285,5,8,0:1:0:0:
252,292,171373,1,8,0:1:0:0:
259,264,171462,1,10,0:2:0:0:
420,247,171640,5,8,0:1:0:0:
423,219,171729,1,8,0:1:0:0:
416,191,171817,1,10,0:2:0:0:
267,163,171995,5,8,0:1:0:0:
264,135,172084,1,8,0:1:0:0:
271,107,172172,1,10,0:2:0:0:
367,3,172350,5,10,0:1:0:0:
363,21,172439,1,8,0:1:0:0:
366,39,172527,1,8,0:1:0:0:
437,114,172705,6,0,L|515:104,1,76.5000014591217,10|0,0:0|0:0,0:0:0:0:
292,13,173060,2,0,L|370:3,1,76.5000014591217,10|0,0:1|0:0,0:0:0:0:
252,177,173415,2,0,L|330:167,1,76.5000014591217,10|0,0:0|0:0,0:0:0:0:
164,71,173770,5,8,0:1:0:0:
156,45,173859,1,8,0:1:0:0:
135,27,173947,1,10,0:2:0:0:
72,143,174125,5,8,0:1:0:0:
45,136,174214,1,8,0:1:0:0:
19,146,174302,1,10,0:2:0:0:
87,258,174480,5,8,0:1:0:0:
68,278,174569,1,8,0:1:0:0:
64,305,174658,1,10,0:2:0:0:
194,302,174835,5,8,0:1:0:0:
202,328,174924,1,8,0:1:0:0:
224,345,175013,1,10,0:2:0:0:
342,259,175190,5,14,0:1:0:0:
342,239,175279,1,8,0:1:0:0:
350,221,175368,1,8,0:2:0:0:
476,145,175545,5,10,0:1:0:0:
510,299,175723,1,8,0:0:0:0:
461,130,175900,5,10,0:1:0:0:
431,323,176078,1,8,0:0:0:0:
382,111,176255,5,10,0:1:0:0:
383,91,176344,1,8,0:1:0:0:
390,73,176433,1,8,0:0:0:0:
246,146,176610,5,10,0:1:0:0:
252,173,176699,1,8,0:1:0:0:
270,195,176788,1,10,0:2:0:0:
390,73,176965,5,8,0:1:0:0:
384,46,177054,1,8,0:1:0:0:
366,24,177143,1,10,0:2:0:0:
270,195,177320,5,8,0:1:0:0:
296,203,177409,1,8,0:1:0:0:
324,198,177498,1,10,0:2:0:0:
366,24,177675,5,8,0:1:0:0:
339,15,177764,1,8,0:1:0:0:
311,20,177853,1,10,0:2:0:0:
396,151,178030,5,10,0:1:0:0:
418,147,178119,1,8,0:1:0:0:
440,141,178208,1,8,0:2:0:0:
311,20,178385,5,10,0:1:0:0:
324,198,178563,1,8,0:0:0:0:
264,116,178740,5,10,0:1:0:0:
236,314,178918,1,8,0:0:0:0:
126,384,179095,5,8,0:1:0:0:
112,355,179184,1,8,0:1:0:0:
125,328,179273,5,8,0:0:0:0:
107,288,179362,1,8,0:0:0:0:
122,246,179450,5,8,0:1:0:0:
113,89,179628,6,0,B|60:132|60:132|2:98,1,135.000005149842,14|0,0:1|0:0,0:0:0:0:
202,246,179983,2,0,B|255:289|255:289|312:255,1,135.000005149842,14|0,0:1|0:0,0:0:0:0:
455,184,180338,2,0,B|448:170|448:170|451:153|451:153|437:120,1,67.5000025749208,14|0,0:1|0:0,0:0:0:0:
358,32,180516,5,8,0:1:0:0:
319,23,180604,1,8,0:1:0:0:
298,56,180693,5,8,0:0:0:0:
250,75,180782,1,8,0:0:0:0:
206,50,180871,6,0,P|151:20|85:39,1,116.999994644165,14|8,0:1|0:0,0:0:0:0:
194,235,181226,1,8,0:1:0:0:
194,235,181314,1,8,0:1:0:0:
194,235,181403,2,0,P|250:242|300:213,1,116.999994644165,10|8,0:0|0:1,0:0:0:0:
407,90,181758,1,8,0:0:0:0:
414,80,181847,1,8,0:1:0:0:
498,216,182024,1,8,0:1:0:0:
505,225,182113,1,8,0:0:0:0:
411,351,182291,6,0,B|369:344|369:344|346:360|346:360|288:353,1,116.999994644165,10|8,0:1|0:0,0:0:0:0:
281,339,182557,1,2,0:0:0:0:
264,322,182646,2,0,L|256:249,1,58.4999973220826,8|8,0:1|0:1,0:0:0:0:
335,156,182823,2,0,B|377:149|377:149|400:165|400:165|458:158,1,116.999994644165,10|8,0:0|0:1,0:0:0:0:
306,22,183178,1,8,0:0:0:0:
298,13,183267,1,8,0:1:0:0:
229,169,183444,1,8,0:1:0:0:
224,179,183533,1,8,0:0:0:0:
123,41,183711,6,0,B|89:18|89:18|-7:39,1,116.999994644165,14|8,0:1|0:0,0:0:0:0:
115,156,184066,1,10,0:1:0:0:
115,156,184155,1,8,0:1:0:0:
115,156,184243,1,8,0:0:0:0:
44,309,184421,2,0,P|24:253|71:187,1,116.999994644165,10|8,0:1|0:0,0:0:0:0:
115,156,184687,1,8,0:1:0:0:
135,167,184776,2,0,B|173:174|173:174|185:187|185:187|253:198,1,116.999994644165,10|8,0:1|0:0,0:0:0:0:
485,316,185131,6,0,P|518:257|477:169,1,144,14|8,0:0|0:1,0:0:0:0:
379,239,185397,2,0,P|412:297|509:306,1,144,10|8,0:0|0:1,0:0:0:0:
424,177,185663,2,0,P|392:164|346:169,1,72,10|0,0:0|0:0,0:0:0:0:
215,264,185841,5,8,0:0:0:0:
186,294,185930,1,8,0:0:0:0:
145,313,186018,1,8,0:0:0:0:
99,309,186107,1,8,0:0:0:0:
60,290,186196,5,8,0:3:0:0:
71,266,186255,1,8,0:3:0:0:
78,241,186314,1,8,0:3:0:0:
79,215,186373,1,8,0:3:0:0:
77,190,186433,1,8,0:3:0:0:
70,165,186492,1,8,0:3:0:0:
59,141,186551,6,0,P|41:86|60:31,1,116.999994644165,14|8,0:1|0:0,0:0:0:0:
302,0,186906,1,8,0:1:0:0:
302,0,186995,1,8,0:1:0:0:
302,0,187084,2,0,P|319:54|300:109,1,116.999994644165,10|8,0:0|0:1,0:0:0:0:
187,228,187439,1,8,0:0:0:0:
178,236,187527,1,8,0:1:0:0:
306,352,187705,1,8,0:1:0:0:
311,362,187794,1,8,0:2:0:0:
450,267,187971,6,0,B|467:210|467:210|440:156,1,116.999994644165,10|8,0:1|0:0,0:0:0:0:
425,140,188237,1,2,0:1:0:0:
405,126,188326,2,0,L|340:120,1,58.4999973220826,8|8,0:1|0:1,0:0:0:0:
312,258,188504,2,0,L|253:263,1,58.4999973220826,10|0,0:0|0:0,0:0:0:0:
155,140,188681,1,10,0:1:0:0:
109,290,188859,1,8,0:0:0:0:
104,300,188947,1,10,0:1:0:0:
27,154,189125,1,8,0:1:0:0:
21,143,189214,1,10,0:0:0:0:
178,43,189391,6,0,B|132:36|132:36|119:20|119:20|70:13,1,116.999994644165,10|8,0:1|0:0,0:0:0:0:
169,184,189746,1,10,0:1:0:0:
169,184,189835,1,8,0:1:0:0:
169,184,189924,1,8,0:0:0:0:
318,106,190101,2,0,B|339:77|339:77|315:0,1,116.999994644165,10|8,0:1|0:0,0:0:0:0:
231,95,190368,1,8,0:1:0:0:
217,108,190456,2,0,B|196:137|196:137|219:214,1,116.999994644165,10|8,0:1|0:0,0:0:0:0:
337,384,190811,5,14,0:1:0:0:
468,286,190989,1,8,0:0:0:0:
472,241,191078,1,8,0:0:0:0:
446,206,191166,5,8,0:3:0:0:
425,214,191226,1,8,0:3:0:0:
400,217,191285,1,8,0:3:0:0:
378,210,191344,1,8,0:3:0:0:
356,199,191403,1,8,0:3:0:0:
340,181,191462,1,8,0:3:0:0:
329,161,191521,2,0,P|333:133|321:94,3,58.4999973220826,6|4|4|4,0:3|0:3|0:3|0:3,0:0:0:0:
244,45,191876,5,8,0:0:0:0:
220,83,191965,1,8,0:0:0:0:
180,105,192054,1,8,0:0:0:0:
134,104,192143,1,8,0:0:0:0:
95,80,192231,6,0,B|102:47|102:47|85:16,1,67.5000025749208,14|0,0:0|0:0,0:0:0:0:
9,203,192409,5,8,0:1:0:0:
9,203,192498,1,8,0:1:0:0:
9,203,192587,2,0,B|2:236|2:236|18:266,1,67.5000025749208,10|0,0:0|0:0,0:0:0:0:
229,145,192764,5,8,0:1:0:0:
229,145,192853,1,8,0:1:0:0:
229,145,192942,2,0,B|236:112|236:112|219:81,1,67.5000025749208,10|0,0:0|0:0,0:0:0:0:
143,268,193119,5,8,0:1:0:0:
143,268,193208,1,8,0:1:0:0:
143,268,193297,2,0,B|136:301|136:301|152:331,1,67.5000025749208,10|0,0:0|0:0,0:0:0:0:
286,384,193474,5,8,0:1:0:0:
286,384,193563,1,8,0:1:0:0:
286,384,193652,2,0,L|355:380,1,67.5000025749208,10|0,0:0|0:0,0:0:0:0:
153,278,193829,5,8,0:1:0:0:
153,278,193918,1,8,0:1:0:0:
153,278,194007,2,0,L|84:282,1,67.5000025749208,10|0,0:0|0:0,0:0:0:0:
295,185,194184,5,8,0:1:0:0:
295,185,194273,1,8,0:1:0:0:
295,185,194362,2,0,L|364:181,1,67.5000025749208,10|0,0:0|0:0,0:0:0:0:
176,89,194539,5,8,0:1:0:0:
176,89,194628,1,8,0:1:0:0:
176,89,194717,2,0,L|107:93,1,67.5000025749208,10|0,0:0|0:0,0:0:0:0:
333,53,194894,5,8,0:1:0:0:
333,53,194983,1,8,0:1:0:0:
333,53,195072,2,0,B|347:21|347:21|333:-7,1,67.5000025749208,14|0,0:0|0:0,0:0:0:0:
186,99,195249,5,8,0:1:0:0:
186,99,195338,1,8,0:1:0:0:
186,99,195427,2,0,B|172:131|172:131|185:159,1,67.5000025749208,10|0,0:0|0:0,0:0:0:0:
362,242,195604,5,8,0:1:0:0:
362,242,195693,1,8,0:1:0:0:
362,242,195782,2,0,B|376:210|376:210|362:181,1,67.5000025749208,10|0,0:0|0:0,0:0:0:0:
215,288,195959,5,8,0:1:0:0:
215,288,196048,1,8,0:1:0:0:
215,288,196137,2,0,B|201:320|201:320|214:348,1,67.5000025749208,10|0,0:0|0:0,0:0:0:0:
372,384,196314,5,8,0:1:0:0:
372,384,196403,1,8,0:1:0:0:
372,384,196492,2,0,L|458:376,1,67.5000025749208,10|0,0:0|0:0,0:0:0:0:
469,227,196669,5,8,0:1:0:0:
469,227,196758,1,8,0:1:0:0:
469,227,196847,2,0,L|524:160,1,67.5000025749208,10|0,0:0|0:0,0:0:0:0:
369,82,197024,5,8,0:1:0:0:
369,82,197113,1,8,0:1:0:0:
369,82,197202,2,0,L|361:-4,1,67.5000025749208,10|0,0:0|0:0,0:0:0:0:
235,131,197379,5,8,0:1:0:0:
231,151,197468,1,8,0:1:0:0:
227,170,197557,1,14,0:0:0:0:
155,0,197734,1,8,0:0:0:0:
79,169,197912,5,14,0:1:0:0:
84,129,198001,1,0,0:1:0:0:
109,98,198089,1,8,0:2:0:0:
147,83,198178,1,0,0:1:0:0:
185,90,198267,1,8,0:1:0:0:
216,114,198356,1,0,0:1:0:0:
231,151,198444,1,8,0:2:0:0:
226,191,198533,1,0,0:1:0:0:
201,223,198622,1,8,0:1:0:0:
176,255,198711,1,0,0:1:0:0:
169,294,198800,1,8,0:2:0:0:
184,331,198888,1,0,0:1:0:0:
214,357,198977,1,8,0:1:0:0:
254,363,199066,1,0,0:1:0:0:
291,348,199155,1,8,0:2:0:0:
317,317,199243,1,0,0:1:0:0:
321,277,199332,5,10,0:1:0:0:
304,240,199421,1,0,0:2:0:0:
296,201,199510,1,8,0:2:0:0:
295,162,199598,1,0,0:2:0:0:
303,124,199687,1,8,0:1:0:0:
318,88,199776,1,0,0:2:0:0:
341,55,199865,1,8,0:2:0:0:
370,28,199953,1,0,0:2:0:0:
403,8,200042,1,8,0:1:0:0:
418,43,200131,1,0,0:2:0:0:
427,82,200220,1,8,0:2:0:0:
428,121,200308,1,0,0:2:0:0:
419,159,200397,1,8,0:1:0:0:
404,195,200486,1,0,0:2:0:0:
381,228,200575,1,8,0:2:0:0:
352,255,200663,1,0,0:2:0:0:
321,276,200752,5,14,0:1:0:0:
348,235,200841,1,0,0:2:0:0:
348,188,200930,1,8,0:2:0:0:
322,146,201018,1,0,0:2:0:0:
278,127,201107,1,8,0:1:0:0:
230,136,201196,1,0,0:2:0:0:
196,168,201285,1,8,0:2:0:0:
185,215,201373,1,0,0:2:0:0:
201,260,201462,1,8,0:1:0:0:
248,255,201551,1,0,0:2:0:0:
286,227,201640,1,8,0:2:0:0:
303,182,201729,1,0,0:2:0:0:
293,135,201817,1,8,0:1:0:0:
257,103,201906,1,0,0:2:0:0:
209,94,201995,1,8,0:2:0:0:
166,114,202084,1,0,0:2:0:0:
144,154,202172,5,10,0:1:0:0:
152,99,202261,1,0,0:2:0:0:
119,56,202350,1,8,0:2:0:0:
65,49,202439,1,0,0:2:0:0:
22,84,202527,1,8,0:1:0:0:
18,138,202616,1,0,0:2:0:0:
54,179,202705,6,0,B|81:174|81:174|89:178|89:178|136:170,1,72,10|0,0:2|0:2,0:0:0:0:
219,22,202882,2,0,B|246:17|246:17|254:21|254:21|301:13,1,72,10|0,0:2|0:2,0:0:0:0:
346,218,203060,2,0,B|373:213|373:213|381:217|381:217|428:209,1,72,10|0,0:2|0:2,0:0:0:0:
506,20,203237,5,14,0:1:0:0:
504,33,203592,5,8,0:1:0:0:
502,46,203947,5,8,0:1:0:0:
501,59,204302,5,10,0:1:0:0:
499,73,204480,1,8,0:1:0:0:
498,85,204658,5,8,0:0:0:0:
496,98,204746,1,8,0:0:0:0:
494,111,204835,1,8,0:0:0:0:
491,125,204924,1,8,0:0:0:0:
489,137,205013,6,0,L|479:209,1,53.9999983520508,14|0,0:1|0:0,0:0:0:0:
382,72,205190,2,0,L|374:18,1,53.9999983520508,8|0,0:0|0:0,0:0:0:0:
288,135,205368,1,8,0:1:0:0:
272,142,205456,1,8,0:1:0:0:
255,146,205545,1,8,0:2:0:0:
237,145,205634,1,8,0:1:0:0:
219,141,205723,6,0,P|190:125|158:121,1,53.9999983520508,10|0,0:1|0:0,0:0:0:0:
81,202,205900,2,0,P|61:247|88:332,1,107.999996704102,10|8,0:0|0:1,0:0:0:0:
78,323,206166,1,8,0:1:0:0:
95,334,206255,2,0,B|142:339|142:339|156:350|156:350|213:356,1,107.999996704102,10|8,0:0|0:1,0:0:0:0:
385,358,206610,5,8,0:0:0:0:
379,337,206699,1,8,0:1:0:0:
382,315,206788,1,8,0:1:0:0:
388,294,206876,1,8,0:1:0:0:
401,277,206965,2,0,P|412:254|406:207,1,53.9999983520508,8|0,0:0|0:0,0:0:0:0:
339,149,207143,5,10,0:1:0:0:
306,168,207231,1,10,0:1:0:0:
269,159,207320,2,0,P|253:130|260:89,1,53.9999983520508,10|0,0:0|0:0,0:0:0:0:
316,21,207498,5,10,0:1:0:0:
351,41,207587,1,10,0:1:0:0:
390,33,207675,2,0,P|415:20|452:13,1,53.9999983520508,10|0,0:0|0:0,0:0:0:0:
512,115,207853,6,0,P|512:141|493:191,1,53.9999983520508,10|0,0:1|0:0,0:0:0:0:
428,244,208030,2,0,P|395:231|362:228,1,53.9999983520508,8|0,0:2|0:2,0:0:0:0:
288,286,208208,1,8,0:1:0:0:
275,303,208297,1,8,0:1:0:0:
259,317,208385,1,8,0:2:0:0:
241,327,208474,1,8,0:1:0:0:
221,335,208563,6,0,P|193:339|155:322,1,53.9999983520508,10|0,0:1|0:0,0:0:0:0:
94,269,208740,2,0,B|86:239|86:239|92:215|92:215|79:159,1,107.999996704102,10|8,0:0|0:1,0:0:0:0:
71,144,209007,1,8,0:1:0:0:
70,122,209095,2,0,L|79:61,1,53.9999983520508,10|0,0:0|0:0,0:0:0:0:
180,10,209273,5,8,0:1:0:0:
202,43,209362,1,8,0:1:0:0:
239,59,209450,1,8,0:2:0:0:
280,54,209539,1,8,0:1:0:0:
312,28,209628,1,8,0:1:0:0:
343,4,209717,1,8,0:1:0:0:
385,0,209805,1,8,0:2:0:0:
421,17,209894,1,8,0:1:0:0:
446,49,209983,6,0,L|438:111,1,53.9999983520508,10|8,0:1|0:1,0:0:0:0:
356,221,210160,2,0,L|349:167,1,53.9999983520508,10|8,0:0|0:1,0:0:0:0:
263,79,210338,5,8,0:1:0:0:
237,87,210427,1,8,0:1:0:0:
211,78,210516,2,0,P|183:63|151:57,1,53.9999983520508,14|8,0:2|0:1,0:0:0:0:
36,121,210693,6,0,L|47:190,1,53.9999983520508,14|0,0:1|0:0,0:0:0:0:
139,263,210871,2,0,L|148:208,1,53.9999983520508,8|0,0:0|0:0,0:0:0:0:
225,104,211048,1,8,0:1:0:0:
244,114,211137,1,8,0:1:0:0:
265,116,211226,1,8,0:2:0:0:
287,116,211314,1,8,0:1:0:0:
305,106,211403,6,0,P|309:73|322:38,1,53.9999983520508,10|0,0:1|0:0,0:0:0:0:
424,170,211581,2,0,P|444:217|440:296,1,107.999996704102,10|8,0:0|0:1,0:0:0:0:
437,293,211847,1,8,0:1:0:0:
423,310,211936,2,0,B|385:306|385:306|367:321|367:321|318:315,1,107.999996704102,10|8,0:0|0:1,0:0:0:0:
222,211,212291,5,8,0:2:0:0:
237,188,212379,1,8,0:1:0:0:
247,162,212468,1,8,0:1:0:0:
248,134,212557,1,8,0:1:0:0:
244,106,212646,2,0,P|236:81|218:52,1,53.9999983520508,8|0,0:0|0:0,0:0:0:0:
128,7,212823,5,10,0:1:0:0:
105,37,212912,1,10,0:1:0:0:
73,58,213001,2,0,P|43:65|8:58,1,53.9999983520508,10|0,0:0|0:0,0:0:0:0:
155,162,213178,5,10,0:1:0:0:
182,195,213267,1,10,0:1:0:0:
222,211,213356,2,0,P|258:219|300:211,1,53.9999983520508,10|0,0:0|0:0,0:0:0:0:
381,130,213533,6,0,P|384:107|391:76,1,53.9999983520508,10|0,0:1|0:0,0:0:0:0:
480,167,213711,2,0,P|486:193|489:220,1,53.9999983520508,8|0,0:0|0:0,0:0:0:0:
439,322,213888,1,8,0:1:0:0:
424,303,213977,1,8,0:1:0:0:
405,291,214066,1,8,0:2:0:0:
383,286,214155,1,8,0:1:0:0:
361,284,214243,6,0,L|291:296,1,53.9999983520508,10|0,0:1|0:0,0:0:0:0:
240,228,214421,2,0,P|250:178|240:123,1,107.999996704102,10|8,0:0|0:1,0:0:0:0:
229,103,214687,1,8,0:1:0:0:
212,88,214776,2,0,L|138:77,1,53.9999983520508,10|0,0:0|0:0,0:0:0:0:
57,104,214953,5,8,0:1:0:0:
33,137,215042,1,8,0:1:0:0:
27,176,215131,1,8,0:2:0:0:
39,213,215220,1,8,0:1:0:0:
61,242,215308,1,8,0:1:0:0:
87,272,215397,1,8,0:1:0:0:
95,309,215486,1,8,0:2:0:0:
89,348,215575,1,8,0:1:0:0:
68,378,215663,5,10,0:1:0:0:
63,368,215752,1,10,0:1:0:0:
58,358,215841,1,10,0:2:0:0:
54,347,215930,1,10,0:1:0:0:
51,336,216018,5,10,0:0:0:0:
76,295,216107,5,10,0:0:0:0:
122,310,216196,5,10,0:0:0:0:
160,279,216285,5,10,0:0:0:0:
152,229,216373,5,8,0:3:0:0:
122,204,216462,1,8,0:3:0:0:
109,168,216551,1,8,0:3:0:0:
117,131,216640,1,8,0:3:0:0:
144,104,216729,1,4,0:3:0:0:
180,97,216817,1,4,0:3:0:0:
214,113,216906,1,4,0:3:0:0:
233,145,216995,1,4,0:3:0:0:
269,156,217084,6,0,B|289:174|317:159|317:159|287:135,1,67.5000025749208,14|0,0:0|0:0,0:0:0:0:
121,35,217261,6,0,B|70:13|70:13|16:29|4:97|29:137,1,202.500007724762,14|0,0:0|0:0,0:0:0:0:
156,311,217616,5,14,0:1:0:0:
