osu file format v14

[General]
AudioFilename: audio.mp3
AudioLeadIn: 0
PreviewTime: 188768
Countdown: 1
SampleSet: None
StackLeniency: 0.3
Mode: 0
LetterboxInBreaks: 0
WidescreenStoryboard: 0

[Editor]
Bookmarks: 13389,39872,66354,106079,159044,188837,215320,271657
DistanceSpacing: 1.2
BeatDivisor: 4
GridSize: 4
TimelineZoom: 1.4

[Metadata]
Title:Toki Hatsuru Yume
TitleUnicode:時果つる夢
Artist:Denkishiki Karen Ongaku Shuudan
ArtistUnicode:電気式華憐音楽集団
Creator:toybot
Version:Reverie
Source:ゴア・スクリーミング・ショウ
Tags:denkare gore screaming show 華憐 華憐的音楽集 青盤 visual novel ost guitar
BeatmapID:1304055
BeatmapSetID:618647

[Difficulty]
HPDrainRate:6
CircleSize:5
OverallDifficulty:8
ApproachRate:9.2
SliderMultiplier:2.1
SliderTickRate:1

[Events]
//Background and Video events
0,0,"wallpaper.jpg",0,0
//Break Periods
//Storyboard Layer 0 (Background)
//Storyboard Layer 1 (Fail)
//Storyboard Layer 2 (Pass)
//Storyboard Layer 3 (Foreground)
//Storyboard Sound Samples

[TimingPoints]
148,827.586206896552,4,2,20,30,1,0
148,-200,4,2,20,30,0,0
561,-200,4,2,24,20,0,0
975,-200,4,2,23,20,0,0
1389,-200,4,2,22,25,0,0
3458,-200,4,2,20,30,0,0
3872,-200,4,2,24,20,0,0
4285,-200,4,2,23,20,0,0
4699,-200,4,2,21,30,0,0
6768,-200,4,2,20,30,0,0
7182,-200,4,2,24,20,0,0
7596,-200,4,2,23,20,0,0
8010,-200,4,2,22,25,0,0
10079,-200,4,2,20,30,0,0
10492,-200,4,2,24,20,0,0
10906,-200,4,2,23,20,0,0
11320,-200,4,2,21,30,0,0
12148,-200,4,2,25,30,0,0
12768,-200,4,2,26,30,0,0
13389,-166.666666666667,4,2,1,30,0,0
39044,-166.666666666667,4,2,1,10,0,0
39872,-133.333333333333,4,2,3,35,0,0
66354,-133.333333333333,4,2,1,50,0,0
78975,-100,4,2,1,50,0,0
79596,-133.333333333333,4,2,1,50,0,0
106079,-133.333333333333,4,2,2,50,0,0
131734,-133.333333333333,4,2,1,50,0,0
132561,-133.333333333333,4,2,2,50,0,0
145596,-133.333333333333,4,2,1,50,0,0
145803,-133.333333333333,4,2,2,50,0,0
171872,-133.333333333333,4,2,1,50,0,0
172285,-133.333333333333,4,2,2,50,0,0
181803,-133.333333333333,4,2,1,50,0,0
182216,-133.333333333333,4,2,2,50,0,0
187182,-200,4,2,1,50,0,0
188010,-200,4,2,1,20,0,0
188630,-200,4,2,1,5,0,0
188837,-200,4,2,1,40,0,0
213665,-80,4,3,1,60,0,0
215320,413.793103448276,4,3,2,70,1,1
215320,-90.9090909090909,4,3,2,70,0,1
227733,-80,4,3,2,80,0,1
228561,-90.9090909090909,4,3,2,70,0,1
240975,-80,4,3,2,80,0,1
241802,-80,4,3,2,70,0,1
254216,-80,4,3,2,80,0,1
255044,-80,4,3,2,70,0,1
265388,-100,4,3,2,70,0,1
266009,-90.9090909090909,4,3,2,70,0,1
266216,-66.6666666666667,4,3,2,70,0,1
266630,-142.857142857143,4,3,2,70,0,1
269940,-142.857142857143,4,2,1,5,0,0
271657,857.142857142857,4,2,30,30,1,0
271657,-133.333333333333,4,2,30,30,0,0
272085,-133.333333333333,4,2,31,25,0,0
272299,-133.333333333333,4,2,32,30,0,0
272942,-133.333333333333,4,2,33,25,0,0
273371,-133.333333333333,4,2,32,30,0,0
273799,-133.333333333333,4,2,33,25,0,0
274014,-133.333333333333,4,2,34,30,0,0
274657,-133.333333333333,4,2,33,25,0,0
275085,-133.333333333333,4,2,32,30,0,0
275728,-133.333333333333,4,2,34,30,0,0
276371,-133.333333333333,4,2,35,30,0,0
276799,-133.333333333333,4,2,34,30,0,0
277228,-133.333333333333,4,2,41,20,0,0
277657,-133.333333333333,4,2,33,30,0,0
278085,-133.333333333333,4,2,42,20,0,0
278514,-133.333333333333,4,2,30,30,0,0
278942,-133.333333333333,4,2,31,25,0,0
279157,-133.333333333333,4,2,32,30,0,0
279371,-133.333333333333,4,2,43,25,0,0
279799,-133.333333333333,4,2,33,30,0,0
280228,-133.333333333333,4,2,32,30,0,0
280657,-133.333333333333,4,2,33,25,0,0
280871,-133.333333333333,4,2,34,30,0,0
281085,-133.333333333333,4,2,44,25,0,0
281514,-133.333333333333,4,2,31,30,0,0
281942,-133.333333333333,4,2,30,30,0,0
282799,-133.333333333333,4,2,36,30,0,0
283657,-133.333333333333,4,2,37,30,0,0
284514,-133.333333333333,4,2,40,25,0,0
285371,-133.333333333333,4,2,30,30,0,0
285799,-133.333333333333,4,2,31,25,0,0
286014,-133.333333333333,4,2,32,30,0,0
286657,-133.333333333333,4,2,33,25,0,0
287085,-133.333333333333,4,2,32,30,0,0
287514,-133.333333333333,4,2,33,25,0,0
287728,-133.333333333333,4,2,34,30,0,0
288371,-133.333333333333,4,2,33,30,0,0
288799,-133.333333333333,4,2,32,30,0,0
289228,-133.333333333333,4,2,41,25,0,0
289442,-133.333333333333,4,2,34,30,0,0
289657,-133.333333333333,4,2,45,20,0,0
290085,-133.333333333333,4,2,36,30,0,0
290514,-133.333333333333,4,2,30,30,0,0
291371,-133.333333333333,4,2,31,30,0,0
292228,-133.333333333333,4,2,30,30,0,0
292657,-133.333333333333,4,2,31,25,0,0
292871,-133.333333333333,4,2,32,30,0,0
293514,-133.333333333333,4,2,33,25,0,0
293942,-133.333333333333,4,2,32,30,0,0
294371,-133.333333333333,4,2,33,25,0,0
294585,-133.333333333333,4,2,34,30,0,0
295228,-133.333333333333,4,2,31,25,0,0
295733,521.739130434783,4,2,32,30,1,0
296254,606.060606060606,4,2,41,25,1,0
296860,681.818181818182,4,2,34,30,1,0
297541,779.220779220779,4,2,35,30,1,0
298320,-1000,4,2,38,20,0,0
299099,-1000,4,2,38,10,0,0
299878,-1000,4,2,38,5,0,0
300657,-1000,4,2,39,5,0,0

[Colours]
Combo1 : 22,131,167
Combo2 : 216,175,233
Combo3 : 170,0,170
Combo4 : 179,102,125
Combo5 : 137,169,152
Combo6 : 224,224,224

[HitObjects]
64,104,148,6,0,L|120:100,1,52.5,6|4,0:0|0:0,0:0:0:0:
164,152,975,2,0,L|220:148,1,52.5,4|6,0:0|0:0,0:0:0:0:
448,104,3458,6,0,L|392:100,1,52.5,6|4,0:0|0:0,0:0:0:0:
295,148,4285,2,0,L|348:152,1,52.5,4|6,0:0|0:0,0:0:0:0:
395,283,6768,6,0,L|448:280,1,52.5,6|4,0:0|0:0,0:0:0:0:
295,235,7596,2,0,L|352:232,1,52.5,4|6,0:0|0:0,0:0:0:0:
116,283,10079,6,0,L|64:280,1,52.5,6|4,0:0|0:0,0:0:0:0:
164,232,10906,2,0,L|216:235,1,52.5,4|6,0:0|0:0,0:0:0:0:
224,244,12148,1,4,0:0:0:0:
184,88,12768,1,4,0:0:0:0:
191,96,13389,6,0,B|263:108|235:60|319:72,1,125.999996154785,2|0,0:0|0:0,0:0:0:0:
372,104,14630,1,0,0:0:0:0:
376,176,15044,2,0,P|348:200|304:192,1,62.9999980773926,2|0,0:0|0:0,0:0:0:0:
444,192,15872,2,0,P|454:221|478:240,1,62.9999980773926
376,176,16699,6,0,P|356:140|420:80,1,125.999996154785,2|0,0:0|0:0,0:0:0:0:
472,84,17941,1,0,0:0:0:0:
508,144,18354,2,0,B|496:275,1,125.999996154785,2|0,0:0|0:0,0:0:0:0:
304,344,20010,6,0,P|280:312|352:296,1,125.999996154785,2|0,0:0|0:0,0:0:0:0:
376,340,21251,1,0,0:0:0:0:
267,262,21665,2,0,P|252:234|254:203,1,62.9999980773926,2|0,0:0|0:0,0:0:0:0:
214,316,22492,2,0,P|184:305|154:312,1,62.9999980773926
184,196,23320,6,0,B|256:208|232:160|312:172,1,125.999996154785,2|0,0:0|0:0,0:0:0:0:
368,200,24561,1,0,0:0:0:0:
426,159,24975,2,0,P|413:104|346:99,1,125.999996154785,2|0,0:0|0:0,0:0:0:0:
284,296,26630,6,0,L|384:284,1,94.499997116089,2|0,0:0|0:0,0:0:0:0:
440,304,27458,2,0,P|452:336|444:372,1,62.9999980773926
377,284,28285,2,0,L|383:213,1,62.9999980773926,2|0,0:0|0:0,0:0:0:0:
458,163,29113,2,0,L|452:234,1,62.9999980773926
292,164,29941,6,0,P|248:160|212:204,1,94.499997116089,2|0,0:0|0:0,0:0:0:0:
207,259,30768,2,0,P|220:288|246:305,1,62.9999980773926
336,236,31596,2,0,L|256:244,2,62.9999980773926,2|0|0,0:0|0:0|0:0,0:0:0:0:
209,143,32837,2,0,L|207:175,1,31.4999990386963
152,212,33251,6,0,L|296:200,1,125.999996154785,2|0,0:0|0:0,0:0:0:0:
340,156,34492,1,0,0:0:0:0:
340,156,34699,1,0,0:0:0:0:
340,156,34906,2,0,P|340:120|300:88,1,62.9999980773926,2|0,0:0|0:0,0:0:0:0:
392,208,35734,2,0,P|424:207|450:223,1,62.9999980773926
320,227,36561,6,0,P|292:312|356:376,1,188.999994232178,2|0,0:0|0:0,0:0:0:0:
472,304,38216,2,0,B|492:232|444:256|468:168,1,125.999996154785,2|0,0:0|0:0,0:0:0:0:
456,172,39872,6,0,P|408:192|344:140,1,118.125004506111,2|0,0:0|0:0,0:0:0:0:
332,100,40699,2,0,P|341:62|374:44,1,78.7500030040742,8|0,0:0|0:0,0:0:0:0:
440,60,41320,1,0,0:0:0:0:
440,60,41527,2,0,L|448:112,1,39.3750015020371,0|2,0:0|0:0,0:0:0:0:
354,237,42148,1,0,0:0:0:0:
388,300,42354,2,0,L|404:168,1,118.125004506111,8|0,0:0|0:0,0:0:0:0:
350,132,43182,6,0,P|328:185|353:237,1,118.125004506111,2|0,0:0|0:0,0:0:0:0:
424,248,44010,2,0,L|508:240,1,78.7500030040742,8|0,0:0|0:0,0:0:0:0:
508,328,44630,1,0,0:0:0:0:
508,328,44837,2,0,L|456:324,1,39.3750015020371,0|2,0:0|0:0,0:0:0:0:
256,292,45458,1,0,0:0:0:0:
309,246,45665,2,0,P|325:282|313:334,1,78.7500030040742,8|0,0:0|0:0,0:0:0:0:
256,292,46285,1,0,0:0:0:0:
264,360,46492,6,0,P|197:327|198:253,1,157.500006008148,2|8,0:0|0:0,0:0:0:0:
228,153,47734,2,0,L|220:197,1,39.3750015020371
198,253,48148,2,0,P|162:268|124:261,1,78.7500030040742,2|0,0:0|0:0,0:0:0:0:
44,180,48975,2,0,L|60:96,1,78.7500030040742,8|0,0:0|0:0,0:0:0:0:
120,72,49596,1,0,0:0:0:0:
120,72,49803,6,0,B|188:52|164:108|256:84,1,118.125004506111,2|2,0:0|0:0,0:0:0:0:
296,64,50630,2,0,P|308:24|292:-12,1,78.7500030040742,8|0,0:0|0:0,0:0:0:0:
200,156,51458,2,0,P|216:204|320:208,1,157.500006008148,2|8,0:0|0:0,0:0:0:0:
324,220,53113,6,0,B|315:62,1,157.500006008148,2|8,0:0|0:0,0:0:0:0:
460,28,54354,2,0,L|456:80,1,39.3750015020371
500,140,54768,1,0,0:0:0:0:
500,140,54975,2,0,P|460:132|412:176,1,78.7500030040742,2|0,0:0|0:0,0:0:0:0:
392,204,55596,2,0,L|398:289,1,78.7500030040742,8|0,0:0|0:0,0:0:0:0:
364,344,56216,1,0,0:0:0:0:
364,344,56423,6,0,P|324:360|264:312,1,118.125004506111,2|0,0:0|0:0,0:0:0:0:
256,252,57251,1,8,0:0:0:0:
316,160,57665,2,0,L|308:104,1,39.3750015020371
276,60,58079,1,0,0:0:0:0:
276,60,58285,2,0,P|236:48|188:72,1,78.7500030040742,2|0,0:0|0:0,0:0:0:0:
168,120,58906,2,0,L|181:206,1,78.7500030040742,8|0,0:0|0:0,0:0:0:0:
144,256,59527,1,0,0:0:0:0:
144,256,59734,6,0,P|68:280|12:200,1,157.500006008148,2|8,0:0|0:0,0:0:0:0:
80,172,60975,2,0,L|84:211,1,39.3750015020371
30,124,61389,2,0,P|64:105|102:106,1,78.7500030040742,2|0,0:0|0:0,0:0:0:0:
180,140,62216,1,8,0:0:0:0:
204,212,62630,1,2,0:0:0:0:
208,236,62837,1,0,0:0:0:0:
204,260,63044,6,0,B|288:240|260:312|352:288,1,157.500006008148,2|0,0:0|0:0,0:0:0:0:
484,220,64285,2,0,P|460:172|364:168,1,157.500006008148,2|0,0:0|0:0,0:0:0:0:
320,220,65527,1,0,0:0:0:0:
320,220,66354,6,0,L|328:64,1,118.125004506111,4|0,1:2|0:0,0:0:0:0:
300,40,67182,1,8,0:0:0:0:
346,282,67596,1,0,0:0:0:0:
436,160,68010,2,0,L|444:224,1,39.3750015020371
480,252,68423,1,0,1:0:0:0:
396,107,68837,1,8,0:0:0:0:
346,282,69251,1,0,0:0:0:0:
248,100,69665,6,0,P|296:100|336:156,1,118.125004506111,0|0,1:0|0:0,0:0:0:0:
312,215,70492,2,0,P|276:231|238:224,1,78.7500030040742,8|0,0:0|0:0,0:0:0:0:
144,108,71320,2,0,L|149:68,1,39.3750015020371
124,8,71734,1,0,1:0:0:0:
169,168,72148,1,8,0:0:0:0:
29,252,72561,1,0,0:0:0:0:
0,164,72975,6,0,L|92:176,1,78.7500030040742,0|0,1:0|0:0,0:0:0:0:
124,228,73596,1,0,0:0:0:0:
112,296,73803,1,8,0:0:0:0:
80,88,74216,1,0,0:0:0:0:
200,232,74630,2,0,L|192:184,1,39.3750015020371
269,133,75044,2,0,L|262:171,1,39.3750015020371,0|0,1:0|0:0,0:0:0:0:
200,232,75458,1,8,0:0:0:0:
326,210,75872,2,0,L|333:249,1,39.3750015020371
269,133,76285,6,0,L|281:37,1,78.7500030040742,0|0,1:0|0:0,0:0:0:0:
332,8,76906,1,0,0:0:0:0:
394,36,77113,2,0,P|416:67|412:105,1,78.7500030040742,8|0,0:0|0:0,0:0:0:0:
216,232,77941,2,0,P|193:200|197:162,1,78.7500030040742,0|0,0:0|1:0,0:0:0:0:
197,162,78768,5,8,0:0:0:0:
172,284,78975,2,0,L|304:264,1,105,4|0,1:2|0:0,0:0:0:0:
340,288,79596,6,0,P|360:328|348:372,1,78.7500030040742,4|0,1:2|0:0,0:0:0:0:
392,244,80216,1,0,0:0:0:0:
392,244,80423,2,0,L|404:148,1,78.7500030040742,8|0,0:0|0:0,0:0:0:0:
173,74,81251,6,0,P|196:104|233:116,1,78.7500030040742,0|0,0:0|1:0,0:0:0:0:
278,64,81872,1,0,0:0:0:0:
344,76,82079,2,0,P|362:41|359:3,1,78.7500030040742,8|0,0:0|0:0,0:0:0:0:
160,188,82906,6,0,L|172:272,1,78.7500030040742,0|0,1:0|0:0,0:0:0:0:
136,324,83527,1,0,0:0:0:0:
136,324,83734,2,0,P|88:332|56:300,1,78.7500030040742,8|0,0:0|0:0,0:0:0:0:
236,216,84561,6,0,P|269:197|306:208,1,78.7500030040742,0|0,0:0|1:0,0:0:0:0:
360,252,85182,1,0,0:0:0:0:
368,320,85389,2,0,L|352:376,1,39.3750015020371,8|0,0:0|0:0,0:0:0:0:
428,192,85803,1,0,0:0:0:0:
436,212,86010,1,0,0:0:0:0:
444,232,86216,6,0,L|436:100,1,118.125004506111,0|0,1:0|0:0,0:0:0:0:
460,52,87044,1,8,0:0:0:0:
304,256,87458,2,0,L|312:196,1,39.3750015020371
240,228,87872,1,0,0:0:0:0:
373,244,88285,1,0,1:0:0:0:
196,168,88699,1,8,0:0:0:0:
384,264,89113,1,0,0:0:0:0:
216,96,89527,6,0,P|240:48|320:64,1,118.125004506111,0|0,1:0|0:0,0:0:0:0:
356,84,90354,2,0,L|368:180,1,78.7500030040742,8|0,0:0|0:0,0:0:0:0:
404,224,90975,1,0,0:0:0:0:
404,224,91182,6,0,P|440:224|464:208,1,59.0625022530557,0|0,1:0|1:0,0:0:0:0:
472,224,91596,2,0,L|476:164,1,39.3750015020371,8|8,0:0|3:0,0:0:0:0:
475,174,91906,1,8,3:0:0:0:
475,163,92010,1,4,3:0:0:0:
367,295,92216,1,8,3:0:0:0:
370,306,92320,1,8,3:0:0:0:
373,317,92423,5,4,3:0:0:0:
347,330,92527,1,4,3:0:0:0:
317,331,92630,1,4,3:0:0:0:
291,320,92734,1,4,3:0:0:0:
271,298,92837,6,0,L|280:216,1,78.7500030040742,4|0,1:2|0:0,0:0:0:0:
349,213,93458,1,0,0:0:0:0:
248,160,93665,2,0,P|200:156|168:184,1,78.7500030040742,8|0,0:0|0:0,0:0:0:0:
32,288,94492,1,0,0:0:0:0:
92,160,94906,2,0,L|100:216,1,39.3750015020371,0|0,1:0|0:0,0:0:0:0:
148,256,95320,2,0,L|136:340,1,78.7500030040742,8|0,0:0|0:0,0:0:0:0:
288,276,96148,6,0,P|304:228|256:172,1,118.125004506111,0|0,1:0|0:0,0:0:0:0:
200,184,96975,2,0,P|179:218|184:255,1,78.7500030040742,8|0,0:0|0:0,0:0:0:0:
348,320,97803,1,0,0:0:0:0:
224,120,98216,1,0,1:0:0:0:
148,312,98630,2,0,P|192:320|231:303,1,78.7500030040742,8|0,0:0|0:0,0:0:0:0:
284,340,99251,1,0,0:0:0:0:
276,222,99458,6,0,L|268:126,1,78.7500030040742,4|0,1:2|0:0,0:0:0:0:
315,91,100079,1,0,0:0:0:0:
315,91,100285,2,0,P|355:83|395:123,1,78.7500030040742,8|0,0:0|0:0,0:0:0:0:
411,167,100906,1,0,0:0:0:0:
480,272,101113,6,0,L|492:180,1,78.7500030040742,4|0,0:0|1:0,0:0:0:0:
408,288,101734,1,0,0:0:0:0:
392,360,101941,2,0,L|452:356,1,39.3750015020371,8|0,0:0|0:0,0:0:0:0:
352,240,102354,2,0,L|292:236,1,39.3750015020371
136,200,102768,5,4,1:2:0:0:
136,200,102975,1,8,3:0:0:0:
204,232,103389,5,4,3:0:0:0:
210,213,103492,1,4,3:0:0:0:
212,193,103595,1,8,0:0:0:0:
120,124,103803,1,0,0:0:0:0:
88,292,104010,5,8,3:0:0:0:
84,282,104113,1,8,3:0:0:0:
83,271,104216,1,4,3:0:0:0:
200,364,104423,6,0,B|220:343|216:309|216:309|234:335|279:346|316:316,1,157.500006008148,4|0,0:0|0:0,0:0:0:0:
268,267,106079,6,0,L|257:181,1,78.7500030040742,0|0,1:0|0:0,0:0:0:0:
300,136,106699,1,0,0:0:0:0:
300,136,106906,2,0,P|333:126|380:157,1,78.7500030040742,8|0,0:0|0:0,0:0:0:0:
404,228,107527,1,0,0:0:0:0:
457,182,107734,1,0,0:0:0:0:
417,296,108148,1,0,1:0:0:0:
338,204,108561,1,8,0:0:0:0:
417,296,108975,1,0,0:0:0:0:
457,182,109389,6,0,L|466:98,1,78.7500030040742,0|0,1:0|0:0,0:0:0:0:
426,50,110010,1,0,0:0:0:0:
426,50,110216,2,0,P|392:45|353:84,1,78.7500030040742,8|0,0:0|0:0,0:0:0:0:
320,156,110837,1,0,0:0:0:0:
274,209,111044,2,0,P|247:216|199:179,1,78.7500030040742,0|0,0:0|1:0,0:0:0:0:
92,120,111872,2,0,L|170:130,1,78.7500030040742,8|0,0:0|0:0,0:0:0:0:
352,80,112699,6,0,L|235:90,1,118.125004506111,0|0,1:0|0:0,0:0:0:0:
170,130,113527,1,8,0:0:0:0:
361,192,113941,2,0,L|372:151,1,39.3750015020371
285,193,114354,2,0,L|303:277,1,78.7500030040742,0|0,0:0|1:0,0:0:0:0:
231,331,115182,2,0,P|203:338|162:312,1,78.7500030040742,8|0,0:0|0:0,0:0:0:0:
285,193,116010,6,0,B|369:170|345:247|442:219,1,157.500006008148,0|8,1:0|0:0,0:0:0:0:
502,124,117251,1,0,0:0:0:0:
433,134,117458,1,0,0:0:0:0:
380,91,117665,2,0,L|368:9,1,78.7500030040742,0|0,0:0|1:0,0:0:0:0:
336,176,118492,1,8,0:0:0:0:
272,24,118906,2,0,L|263:72,1,39.3750015020371
213,107,119320,6,0,P|183:116|118:65,1,118.125004506111,4|0,1:2|0:0,0:0:0:0:
213,107,120148,2,0,P|228:143|220:189,1,78.7500030040742,8|0,0:0|0:0,0:0:0:0:
174,230,120768,1,0,0:0:0:0:
103,239,120975,1,0,0:0:0:0:
103,239,121389,2,0,L|178:246,1,39.3750015020371,0|0,1:0|0:0,0:0:0:0:
283,284,121803,2,0,L|205:295,1,78.7500030040742,8|0,0:0|0:0,0:0:0:0:
99,161,122630,6,0,P|134:126|206:139,1,118.125004506111,0|0,1:0|0:0,0:0:0:0:
250,178,123458,2,0,L|242:232,1,39.3750015020371,8|0,0:0|0:0,0:0:0:0:
298,74,123872,2,0,L|290:20,1,39.3750015020371
403,50,124285,1,0,0:0:0:0:
403,50,124699,2,0,L|364:55,1,39.3750015020371,0|0,1:0|0:0,0:0:0:0:
229,75,125113,1,8,0:0:0:0:
426,154,125527,1,0,0:0:0:0:
426,154,125734,1,0,0:0:0:0:
426,154,125941,6,0,B|370:145|370:145|336:168|336:168|270:155,1,157.500006008148,0|8,1:0|0:0,0:0:0:0:
145,108,127182,1,0,0:0:0:0:
180,168,127389,1,0,0:0:0:0:
145,228,127596,2,0,P|109:239|64:216,1,78.7500030040742,0|0,0:0|1:0,0:0:0:0:
249,168,128423,2,0,P|276:193|279:244,1,78.7500030040742,8|0,0:0|0:0,0:0:0:0:
180,169,129044,1,0,0:0:0:0:
145,108,129251,6,0,P|183:44|255:60,1,157.500006008148,0|8,1:0|0:0,0:0:0:0:
340,138,130492,2,0,L|382:132,1,39.3750015020371,0|8,0:0|0:0,0:0:0:0:
435,93,130906,1,0,0:0:0:0:
247,210,131320,2,0,L|296:216,1,39.3750015020371,0|0,1:0|0:0,0:0:0:0:
348,249,131734,5,4,0:0:0:0:
279,326,131941,1,8,3:0:0:0:
260,329,132044,1,8,3:0:0:0:
241,327,132148,1,4,3:0:0:0:
177,280,132354,1,4,3:0:0:0:
81,230,132561,6,0,P|32:257|41:312,1,118.125004506111,4|0,1:2|0:0,0:0:0:0:
152,260,133389,2,0,L|145:175,1,78.7500030040742,8|0,0:0|0:0,0:0:0:0:
108,126,134010,1,0,0:0:0:0:
137,63,134216,1,0,0:0:0:0:
238,206,134630,2,0,L|244:160,1,39.3750015020371,0|0,1:0|0:0,0:0:0:0:
300,130,135044,2,0,L|386:119,1,78.7500030040742,8|0,0:0|0:0,0:0:0:0:
437,251,135872,6,0,L|358:260,1,78.7500030040742,0|0,1:0|0:0,0:0:0:0:
294,237,136492,1,0,0:0:0:0:
173,203,136699,2,0,P|205:182|243:187,1,78.7500030040742,8|0,0:0|0:0,0:0:0:0:
294,237,137320,1,0,0:0:0:0:
294,237,137527,2,0,L|284:330,1,78.7500030040742,0|0,0:0|1:0,0:0:0:0:
306,128,138354,1,8,0:0:0:0:
382,178,138768,2,0,L|343:186,1,39.3750015020371
340,66,139182,6,0,L|418:79,2,78.7500030040742,0|0|8,1:0|0:0|0:0,0:0:0:0:
177,29,140423,1,0,0:0:0:0:
204,88,140630,1,0,0:0:0:0:
175,147,140837,2,0,P|138:159|102:143,1,78.7500030040742,0|0,0:0|1:0,0:0:0:0:
214,206,141665,2,0,L|305:201,1,78.7500030040742,8|0,0:0|0:0,0:0:0:0:
191,273,142492,6,0,P|134:265|93:305,1,118.125004506111,0|0,1:0|0:0,0:0:0:0:
104,369,143320,2,0,P|136:392|174:386,1,78.7500030040742,8|0,0:0|0:0,0:0:0:0:
266,311,144148,1,0,0:0:0:0:
142,140,144561,1,0,1:0:0:0:
66,315,144975,2,0,P|99:323|147:295,1,78.7500030040742,8|0,0:0|0:0,0:0:0:0:
184,249,145596,1,8,3:0:0:0:
233,302,145803,6,0,L|219:178,1,118.125004506111,4|0,1:2|0:0,0:0:0:0:
263,134,146630,2,0,L|272:46,1,78.7500030040742,8|0,0:0|0:0,0:0:0:0:
196,92,147251,1,0,0:0:0:0:
196,92,147458,1,0,0:0:0:0:
340,216,147872,1,0,1:0:0:0:
156,282,148285,2,0,L|147:194,1,78.7500030040742,8|0,0:0|0:0,0:0:0:0:
36,104,149113,6,0,P|84:124|140:79,1,118.125004506111,0|0,1:0|0:0,0:0:0:0:
155,25,149941,1,8,0:0:0:0:
269,128,150354,2,0,L|275:75,1,39.3750015020371
227,37,150768,1,0,0:0:0:0:
315,179,151182,1,0,1:0:0:0:
375,11,151596,2,0,L|388:98,1,78.7500030040742,8|0,0:0|0:0,0:0:0:0:
428,146,152216,1,0,0:0:0:0:
428,146,152423,6,0,P|463:149|502:120,1,78.7500030040742,0|0,1:0|0:0,0:0:0:0:
315,179,153251,2,0,P|280:176|241:205,1,78.7500030040742,8|0,0:0|0:0,0:0:0:0:
209,258,153872,1,0,0:0:0:0:
232,321,154079,2,0,L|317:331,1,78.7500030040742,0|0,0:0|1:0,0:0:0:0:
156,211,154906,1,8,0:0:0:0:
95,342,155320,2,0,L|142:350,1,39.3750015020371,0|8,0:0|0:0,0:0:0:0:
201,333,155734,6,0,P|218:289|154:210,1,157.500006008148,4|8,1:2|0:0,0:0:0:0:
29,87,156975,1,8,0:0:0:0:
95,106,157182,1,8,0:0:0:0:
149,66,157389,2,0,B|231:50|206:117|299:98,1,157.500006008148,4|0,1:2|0:0,0:0:0:0:
296,98,159044,5,4,1:2:0:0:
407,17,159458,2,0,L|415:61,1,39.3750015020371
429,122,159872,2,0,L|437:166,1,39.3750015020371,8|0,0:0|0:0,0:0:0:0:
451,227,160285,2,0,L|459:271,1,39.3750015020371
490,364,160699,6,0,P|453:374|410:349,1,78.7500030040742,0|0,0:0|1:0,0:0:0:0:
374,305,161320,1,0,0:0:0:0:
316,267,161527,2,0,L|274:274,1,39.3750015020371,8|0,0:0|0:0,0:0:0:0:
188,361,161941,2,0,L|149:354,1,39.3750015020371
101,268,162354,6,0,L|88:182,1,78.7500030040742,0|0,1:0|0:0,0:0:0:0:
153,132,162975,1,0,0:0:0:0:
153,132,163182,2,0,P|161:149|163:169,1,39.3750015020371,8|0,0:0|0:0,0:0:0:0:
9,192,163596,2,0,P|4:172|7:153,1,39.3750015020371
89,190,164010,6,0,L|100:267,1,78.7500030040742,0|0,0:0|1:0,0:0:0:0:
58,322,164630,1,0,0:0:0:0:
112,285,164836,1,8,0:0:0:0:
179,284,165043,1,0,1:0:0:0:
236,320,165250,1,0,0:0:0:0:
263,381,165457,1,0,0:0:0:0:
356,330,165665,5,0,1:0:0:0:
356,330,166079,2,0,L|350:290,1,39.3750015020371
327,128,166492,2,0,L|333:168,1,39.3750015020371,8|0,0:0|0:0,0:0:0:0:
380,225,166906,2,0,P|407:225|432:214,1,39.3750015020371
305,233,167320,6,0,P|276:228|221:251,1,78.7500030040742,0|0,0:0|1:0,0:0:0:0:
187,297,167941,1,0,0:0:0:0:
180,362,168148,2,0,L|174:318,1,39.3750015020371,8|0,0:0|0:0,0:0:0:0:
95,137,168561,2,0,L|89:176,1,39.3750015020371
32,213,168975,6,0,L|114:206,1,78.7500030040742,0|0,1:0|0:0,0:0:0:0:
170,167,169596,1,0,0:0:0:0:
234,195,169803,1,8,0:0:0:0:
294,156,170010,1,0,0:0:0:0:
358,184,170216,1,0,0:0:0:0:
418,145,170423,1,0,0:0:0:0:
360,196,170630,5,0,0:0:0:0:
237,73,171044,1,0,1:0:0:0:
297,44,171250,1,0,0:0:0:0:
360,68,171457,1,8,0:0:0:0:
385,130,171664,1,0,0:0:0:0:
295,237,171872,5,4,3:0:0:0:
181,148,172079,1,4,3:0:0:0:
363,201,172285,5,4,1:2:0:0:
363,201,172699,1,0,0:0:0:0:
374,272,172906,1,0,0:0:0:0:
325,325,173113,2,0,P|306:318|286:316,1,39.3750015020371,8|0,0:0|0:0,0:0:0:0:
439,232,173527,2,0,P|457:225|477:223,1,39.3750015020371
294,163,173941,6,0,P|255:159|222:179,1,78.7500030040742,0|0,0:0|1:0,0:0:0:0:
177,233,174561,1,0,0:0:0:0:
172,303,174768,1,8,0:0:0:0:
140,241,174975,1,0,0:0:0:0:
79,210,175182,1,0,0:0:0:0:
10,214,175389,1,0,0:0:0:0:
91,138,175596,6,0,L|100:45,2,78.7500030040742,0|0|8,1:0|0:0|0:0,0:0:0:0:
180,312,176837,2,0,L|228:307,1,39.3750015020371
280,259,177251,2,0,L|296:352,1,78.7500030040742,0|0,0:0|1:0,0:0:0:0:
339,206,178079,1,8,0:0:0:0:
339,206,178285,2,0,L|250:173,1,78.7500030040742,0|0,1:0|0:0,0:0:0:0:
355,283,178906,6,0,L|399:277,1,39.3750015020371,0|0,1:0|0:0,0:0:0:0:
449,230,179320,2,0,L|460:179,1,39.3750015020371
358,125,179734,2,0,L|314:119,1,39.3750015020371,8|0,0:0|0:0,0:0:0:0:
264,72,180148,2,0,L|253:21,1,39.3750015020371
168,21,180561,5,0,0:0:0:0:
159,146,180768,1,0,0:0:0:0:
382,108,180975,5,0,1:0:0:0:
326,0,181182,1,0,0:0:0:0:
195,86,181389,5,8,0:0:0:0:
320,69,181596,1,0,0:0:0:0:
278,237,181803,5,8,3:0:0:0:
246,4,182010,1,4,3:0:0:0:
142,208,182216,6,0,L|46:198,1,78.7500030040742,4|0,1:2|0:0,0:0:0:0:
212,215,182837,1,0,0:0:0:0:
212,215,183044,1,8,0:0:0:0:
41,112,183458,1,0,0:0:0:0:
106,132,183665,1,0,0:0:0:0:
164,95,183872,6,0,P|190:91|220:97,1,39.3750015020371
314,161,184285,2,0,P|326:184|331:214,1,39.3750015020371,0|0,1:0|0:0,0:0:0:0:
225,228,184699,1,8,0:0:0:0:
225,228,184906,2,0,P|220:209|221:190,1,39.3750015020371
248,125,185320,5,0,0:0:0:0:
256,117,185423,1,0,0:0:0:0:
265,111,185527,2,0,P|339:122|355:195,1,157.500006008148,4|0,1:2|0:0,0:0:0:0:
201,323,186768,1,2,0:0:0:0:
172,251,187182,6,0,B|264:227|243:307|351:279,1,183.75,4|0,1:2|0:0,0:0:0:0:
395,232,188837,6,0,L|388:147,2,78.75,2|0|0,0:3|0:0|0:0,0:0:0:0:
444,311,190492,1,0,0:0:0:0:
314,204,191320,1,0,0:0:0:0:
439,98,192148,6,0,P|471:76|509:77,2,78.75,2|0|0,0:0|0:0|0:0,0:0:0:0:
388,153,193803,1,0,0:0:0:0:
501,306,194630,1,0,0:0:0:0:
256,338,195458,6,0,L|264:257,2,78.75,2|0|0,0:0|0:0|0:0,0:0:0:0:
331,306,197113,2,0,L|390:301,1,52.5
198,220,197941,2,0,L|139:215,1,52.5
328,123,198768,6,0,L|412:114,2,78.75,2|0|0,0:0|0:0|0:0,0:0:0:0:
257,94,200423,1,0,0:0:0:0:
245,100,202079,6,0,L|252:42,1,52.5,2|0,0:0|0:0,0:0:0:0:
192,11,202699,2,0,L|109:6,1,78.75
307,197,203734,2,0,L|300:139,1,52.5
360,108,204354,1,0,0:0:0:0:
415,151,204561,2,0,L|498:146,1,78.75
465,79,205389,5,2,0:0:0:0:
378,240,205803,2,0,L|382:274,1,26.25
432,310,206216,2,0,L|485:315,1,52.5
200,168,207044,2,0,L|194:221,1,52.5
144,265,207665,1,0,0:0:0:0:
144,265,207872,2,0,L|81:274,1,52.5
49,331,208492,1,0,0:0:0:0:
106,370,208699,5,2,0:0:0:0:
4,209,209113,1,0,0:0:0:0:
125,62,209527,1,0,0:0:0:0:
302,132,209940,1,0,0:0:0:0:
247,225,210148,1,0,0:0:0:0:
290,322,210354,6,0,L|353:314,1,52.5,2|0,0:0|0:0,0:0:0:0:
342,315,210975,1,0,0:0:0:0:
299,231,211182,2,0,L|246:224,1,52.5
77,177,212010,6,0,P|101:144|213:158,1,157.5,2|0,0:0|0:0,0:0:0:0:
245,208,213458,1,0,0:0:0:0:
220,273,213665,5,0,3:0:0:0:
248,257,213768,1,0,3:0:0:0:
281,254,213872,1,4,3:0:0:0:
312,264,213975,1,0,3:0:0:0:
336,285,214079,1,4,3:0:0:0:
356,317,214182,6,0,L|358:343,2,16.40625,8|0|0,1:3|0:0|0:0,0:0:0:0:
414,270,214389,1,8,3:0:0:0:
415,261,214492,6,0,L|418:228,3,21.875,8|0|0|0,1:3|0:0|0:0|0:0,0:0:0:0:
471,320,214803,1,8,3:0:0:0:
472,329,214906,6,0,L|478:376,2,43.75,8|0|0,1:3|0:0|0:0,0:0:0:0:
400,360,215320,6,0,L|336:352,1,57.7500017623902,4|0,0:0|0:0,0:0:0:0:
204,164,215526,2,0,B|264:152|248:196|324:180,1,115.50000352478,8|0,0:0|0:0,0:0:0:0:
376,144,215837,1,0,0:0:0:0:
376,144,215940,2,0,P|384:184|380:212,1,57.7500017623902,8|0,0:0|0:0,0:0:0:0:
252,308,216147,6,0,P|244:268|248:240,1,57.7500017623902
440,244,216354,2,0,P|400:272|328:252,1,115.50000352478,8|0,0:0|0:0,0:0:0:0:
256,174,216664,1,0,0:0:0:0:
256,174,216768,2,0,L|314:181,1,57.7500017623902,8|0,0:0|0:0,0:0:0:0:
368,356,216975,6,0,L|310:362,1,57.7500017623902
113,243,217182,2,0,P|113:306|171:328,1,115.50000352478,8|0,0:0|0:0,0:0:0:0:
224,308,217492,1,0,0:0:0:0:
224,308,217595,2,0,L|228:236,1,57.7500017623902,8|0,0:0|0:0,0:0:0:0:
112,68,217802,6,0,L|108:140,1,57.7500017623902
160,176,218009,2,0,P|196:184|256:124,1,115.50000352478,8|0,0:0|0:0,0:0:0:0:
360,92,218320,1,0,0:0:0:0:
360,92,218423,2,0,P|324:92|292:72,1,57.7500017623902,8|0,0:0|0:0,0:0:0:0:
96,0,218630,6,0,P|132:0|164:20,1,57.7500017623902
236,124,218837,2,0,L|225:8,1,115.50000352478,8|0,0:0|0:0,0:0:0:0:
144,144,219147,1,0,0:0:0:0:
144,144,219251,2,0,L|140:212,1,57.7500017623902,8|0,0:0|0:0,0:0:0:0:
56,300,219457,6,0,L|52:242,1,57.7500017623902
212,196,219664,2,0,P|248:220|244:300,1,115.50000352478,8|0,0:0|0:0,0:0:0:0:
196,332,219975,1,0,0:0:0:0:
195,332,220078,2,0,P|223:324|252:325,1,57.7500017623902,8|0,0:0|0:0,0:0:0:0:
368,180,220285,6,0,P|340:187|311:186,1,57.7500017623902
408,120,220492,2,0,L|416:236,1,115.50000352478,8|0,0:0|0:0,0:0:0:0:
484,152,220802,1,0,0:0:0:0:
484,152,220906,2,0,L|478:84,1,57.7500017623902,8|0,0:0|0:0,0:0:0:0:
283,15,221113,6,0,L|277:72,1,57.7500017623902
341,116,221320,2,0,P|366:66|420:53,1,115.50000352478,8|0,0:0|0:0,0:0:0:0:
301,177,221630,1,0,0:0:0:0:
301,177,221733,2,0,P|269:185|235:171,1,57.7500017623902,8|0,0:0|0:0,0:0:0:0:
70,71,221940,6,0,P|102:63|136:77,1,57.7500017623902
160,154,222147,2,0,B|96:145|120:192|47:179,1,115.50000352478,8|0,0:0|0:0,0:0:0:0:
152,225,222457,1,0,0:0:0:0:
221,218,222561,2,0,L|231:150,1,57.7500017623902,8|0,0:0|0:0,0:0:0:0:
107,281,222768,6,0,L|115:338,1,57.7500017623902
286,255,222975,2,0,L|299:139,1,115.50000352478,8|0,0:0|0:0,0:0:0:0:
239,38,223285,1,0,0:0:0:0:
239,38,223388,2,0,P|236:71|253:103,1,57.7500017623902,8|0,0:0|0:0,0:0:0:0:
396,75,223595,6,0,P|399:42|382:10,1,57.7500017623902
384,94,223802,2,0,L|455:87,1,57.7500017623902,8|0,0:0|0:0,0:0:0:0:
174,186,224009,2,0,P|171:153|188:121,1,57.7500017623902
186,205,224216,2,0,L|115:198,1,57.7500017623902,8|0,0:0|0:0,0:0:0:0:
375,282,224423,6,0,L|446:275,1,57.7500017623902
489,315,224630,2,0,P|495:351|481:376,1,57.7500017623902,8|0,0:0|0:0,0:0:0:0:
242,166,224837,2,0,L|171:159,1,57.7500017623902
128,199,225044,2,0,P|122:235|136:260,1,57.7500017623902,8|0,0:0|0:0,0:0:0:0:
297,211,225251,5,0,0:0:0:0:
223,36,225457,2,0,L|218:110,1,57.7500017623902,8|0,0:0|0:0,0:0:0:0:
292,118,225664,1,0,0:0:0:0:
358,108,225768,1,0,0:0:0:0:
424,98,225871,2,0,L|429:172,1,57.7500017623902,8|0,0:0|0:0,0:0:0:0:
224,215,226078,6,0,L|219:289,1,57.7500017623902
286,305,226285,2,0,L|410:287,1,115.50000352478,8|0,0:0|0:0,0:0:0:0:
237,360,226595,1,0,0:0:0:0:
237,360,226699,2,0,L|172:350,1,57.7500017623902,8|0,0:0|0:0,0:0:0:0:
139,145,226906,6,0,P|152:180|147:219,1,57.7500017623902
40,226,227113,2,0,P|63:197|100:182,1,57.7500017623902,8|0,0:0|0:0,0:0:0:0:
160,272,227320,1,0,0:0:0:0:
160,272,227423,1,0,0:0:0:0:
160,272,227526,2,0,P|123:265|91:241,1,57.7500017623902,8|0,0:0|0:0,0:0:0:0:
71,60,227733,5,0,0:0:0:0:
139,73,227837,2,0,B|189:65|189:65|196:61|196:61|206:63|206:63|295:53,1,131.25,8|8,0:0|0:0,0:0:0:0:
341,22,228147,6,0,L|335:97,1,65.625
195,201,228354,2,0,L|190:136,1,65.625,8|0,0:0|0:0,0:0:0:0:
343,219,228561,6,0,P|392:215|443:269,1,115.50000352478,4|8,0:0|0:0,0:0:0:0:
461,331,228871,1,0,0:0:0:0:
461,331,228975,2,0,L|376:321,1,57.7500017623902
422,152,229182,2,0,L|507:162,1,57.7500017623902,8|0,0:0|0:0,0:0:0:0:
337,351,229388,6,0,P|330:323|333:294,1,57.7500017623902
457,233,229595,2,0,L|337:218,1,115.50000352478,8|0,0:0|0:0,0:0:0:0:
261,145,229906,1,0,0:0:0:0:
261,145,230009,2,0,P|288:136|317:138,1,57.7500017623902,8|0,0:0|0:0,0:0:0:0:
332,294,230216,6,0,P|304:302|275:300,1,57.7500017623902
146,209,230423,2,0,B|208:196|192:240|263:223,1,115.50000352478,8|0,0:0|0:0,0:0:0:0:
317,138,230733,1,0,0:0:0:0:
317,138,230837,2,0,L|309:81,1,57.7500017623902,8|0,0:0|0:0,0:0:0:0:
396,40,231044,6,0,L|388:97,1,57.7500017623902
232,116,231251,2,0,P|212:76|252:12,1,115.50000352478,8|0,0:0|0:0,0:0:0:0:
252,12,231561,1,0,0:0:0:0:
263,10,231664,2,0,P|229:20|189:16,1,57.7500017623902,8|0,0:0|0:0,0:0:0:0:
92,221,231871,6,0,P|119:211|147:209,1,57.7500017623902
220,240,232078,2,0,P|252:285|241:341,1,115.50000352478,8|0,0:0|0:0,0:0:0:0:
128,294,232388,1,0,0:0:0:0:
128,294,232492,2,0,L|186:301,1,57.7500017623902,8|0,0:0|0:0,0:0:0:0:
331,185,232699,6,0,L|273:191,1,57.7500017623902
109,191,232906,2,0,P|155:199|206:146,1,115.50000352478,8|0,0:0|0:0,0:0:0:0:
138,77,233216,1,0,0:0:0:0:
138,77,233320,2,0,P|134:106|141:134,1,57.7500017623902,8|0,0:0|0:0,0:0:0:0:
276,247,233526,6,0,P|280:218|273:190,1,57.7500017623902
213,87,233733,2,0,L|284:76,1,57.7500017623902,8|0,0:0|0:0,0:0:0:0:
158,250,233940,1,0,0:0:0:0:
158,250,234044,1,0,0:0:0:0:
158,250,234147,6,0,L|36:233,1,115.50000352478,8|0,0:0|0:0,0:0:0:0:
2,181,234457,1,0,0:0:0:0:
30,120,234561,2,0,P|57:110|85:112,1,57.7500017623902,8|0,0:0|0:0,0:0:0:0:
161,95,234768,2,0,L|155:152,1,57.7500017623902
158,250,234975,2,0,P|185:259|213:257,1,57.7500017623902,8|0,0:0|0:0,0:0:0:0:
289,275,235182,6,0,L|283:217,1,57.7500017623902
341,48,235388,2,0,L|336:164,1,115.50000352478,8|0,0:0|0:0,0:0:0:0:
412,129,235699,1,0,0:0:0:0:
412,129,235802,2,0,P|445:126|477:140,1,57.7500017623902,8|0,0:0|0:0,0:0:0:0:
310,345,236009,6,0,P|277:348|245:334,1,57.7500017623902
377,307,236216,2,0,L|382:364,1,57.7500017623902,8|0,0:0|0:0,0:0:0:0:
197,292,236423,1,0,0:0:0:0:
176,254,236526,1,0,0:0:0:0:
177,211,236629,1,8,0:0:0:0:
200,175,236733,1,0,0:0:0:0:
238,156,236837,6,0,L|312:150,1,57.7500017623902
323,82,237044,2,0,L|314:139,1,57.7500017623902,8|0,0:0|0:0,0:0:0:0:
176,254,237251,2,0,L|102:248,1,57.7500017623902
90,180,237458,2,0,L|99:236,1,57.7500017623902,8|0,0:0|0:0,0:0:0:0:
323,357,237664,6,0,L|332:300,1,57.7500017623902
246,373,237871,2,0,L|320:366,1,57.7500017623902,8|0,0:0|0:0,0:0:0:0:
90,225,238078,2,0,L|80:168,1,57.7500017623902
167,241,238285,2,0,L|93:234,1,57.7500017623902,8|0,0:0|0:0,0:0:0:0:
251,88,238492,6,0,L|374:68,1,115.50000352478,0|8,0:0|0:0,0:0:0:0:
431,109,238802,1,0,0:0:0:0:
431,109,238906,2,0,P|440:136|439:164,1,57.7500017623902
276,246,239113,2,0,P|266:218|267:190,1,57.7500017623902,8|0,0:0|0:0,0:0:0:0:
355,163,239320,6,0,L|360:220,1,57.7500017623902
370,307,239526,2,0,L|364:249,1,57.7500017623902,8|0,0:0|0:0,0:0:0:0:
495,260,239733,2,0,P|466:261|440:272,1,57.7500017623902
211,178,239940,2,0,P|240:179|267:190,1,57.7500017623902,8|0,0:0|0:0,0:0:0:0:
383,75,240147,6,0,P|415:59|503:67,1,115.50000352478,0|8,0:0|0:0,0:0:0:0:
503,67,240457,1,0,0:0:0:0:
511,73,240561,2,0,L|503:9,1,57.7500017623902
347,220,240768,2,0,L|355:156,1,57.7500017623902,8|0,0:0|0:0,0:0:0:0:
300,25,240975,5,0,0:0:0:0:
362,59,241078,2,0,B|320:61|320:61|314:66|314:66|305:62|305:62|205:69,1,131.25,8|8,0:0|0:0,0:0:0:0:
163,36,241388,6,0,P|156:67|163:99,1,65.625
260,257,241595,2,0,P|266:225|259:193,1,65.625,8|0,0:0|0:0,0:0:0:0:
96,131,241802,6,0,P|54:127|5:209,1,131.25,4|8,0:0|0:0,0:0:0:0:
31,255,242113,1,0,0:0:0:0:
31,255,242216,2,0,L|104:246,1,65.625
184,175,242423,6,0,L|171:317,1,131.25,8|0,0:0|0:0,0:0:0:0:
232,347,242733,1,0,0:0:0:0:
296,308,242837,2,0,L|285:239,1,65.625,8|0,0:0|0:0,0:0:0:0:
349,87,243044,2,0,P|360:128|350:169,1,65.625
184,175,243251,2,0,P|172:133|182:92,1,65.625,8|0,0:0|0:0,0:0:0:0:
278,57,243457,6,0,L|201:46,1,65.625
42,166,243664,1,8,0:0:0:0:
42,166,243768,1,0,0:0:0:0:
42,166,243871,2,0,L|119:155,1,65.625
305,263,244078,6,0,L|174:247,1,131.25,8|0,0:0|0:0,0:0:0:0:
117,288,244388,1,0,0:0:0:0:
117,288,244492,2,0,P|112:325|133:360,1,65.625,8|0,0:0|0:0,0:0:0:0:
266,190,244699,2,0,P|271:153|250:118,1,65.625
195,89,244906,2,0,L|116:101,1,65.625,8|0,0:0|0:0,0:0:0:0:
344,159,245113,6,0,P|389:148|445:207,1,131.25,0|8,0:0|0:0,0:0:0:0:
349,298,245423,1,0,0:0:0:0:
349,298,245526,2,0,P|340:266|345:234,1,65.625
486,304,245733,6,0,L|422:314,1,65.625,8|0,0:0|0:0,0:0:0:0:
207,218,245940,2,0,L|271:227,1,65.625
360,164,246147,1,8,0:0:0:0:
352,97,246251,1,0,0:0:0:0:
344,30,246354,2,0,L|279:39,1,65.625
161,82,246561,2,0,P|150:112|156:144,1,65.625,8|0,0:0|0:0,0:0:0:0:
365,267,246768,6,0,P|397:214|360:164,1,131.25,0|8,0:0|0:0,0:0:0:0:
290,154,247078,1,0,0:0:0:0:
290,154,247182,2,0,L|209:163,1,65.625
177,289,247388,2,0,L|242:296,1,65.625,8|0,0:0|0:0,0:0:0:0:
141,196,247595,5,0,0:0:0:0:
107,173,247698,1,0,0:0:0:0:
67,172,247801,1,8,0:0:0:0:
33,195,247905,1,0,0:0:0:0:
18,232,248009,2,0,P|55:234|85:210,1,65.625
145,112,248216,2,0,P|145:79|131:50,1,65.625,8|0,0:0|0:0,0:0:0:0:
13,28,248423,6,0,L|32:162,1,131.25,4|8,0:0|0:0,0:0:0:0:
71,285,248733,1,0,0:0:0:0:
71,285,248837,2,0,L|78:219,1,65.625
287,105,249044,6,0,B|210:122|235:60|165:77,1,131.25,8|0,0:0|0:0,0:0:0:0:
116,151,249354,1,0,0:0:0:0:
116,151,249457,2,0,P|152:153|182:144,1,65.625,8|0,0:0|0:0,0:0:0:0:
165,7,249664,2,0,P|129:5|99:14,1,65.625
62,204,249871,2,0,P|98:223|144:222,1,65.625,8|0,0:0|0:0,0:0:0:0:
300,152,250078,6,0,P|299:89|243:63,1,131.25,0|8,0:0|0:0,0:0:0:0:
172,79,250388,1,0,0:0:0:0:
172,79,250492,2,0,L|180:156,1,65.625
378,232,250699,6,0,L|388:92,1,131.25,8|0,0:0|0:0,0:0:0:0:
299,224,251009,1,0,0:0:0:0:
299,224,251113,2,0,L|309:301,1,65.625,8|0,0:0|0:0,0:0:0:0:
468,152,251320,1,0,0:0:0:0:
468,152,251423,1,0,0:0:0:0:
468,152,251526,2,0,L|464:229,1,65.625,8|0,0:0|0:0,0:0:0:0:
272,48,251733,6,0,L|276:125,1,65.625
367,177,251940,2,0,B|317:171|317:171|289:187|289:187|229:180,1,131.25,8|0,0:0|0:0,0:0:0:0:
172,220,252251,1,0,0:0:0:0:
172,220,252354,2,0,L|168:143,1,65.625,8|0,0:0|0:0,0:0:0:0:
60,96,252561,6,0,P|91:90|122:100,1,65.625
232,260,252768,2,0,P|184:292|108:256,1,131.25,8|0,0:0|0:0,0:0:0:0:
168,154,253078,1,0,0:0:0:0:
168,154,253182,2,0,L|171:219,1,65.625,8|0,0:0|0:0,0:0:0:0:
21,299,253388,6,0,L|24:233,1,65.625
169,323,253595,1,8,0:0:0:0:
169,323,253699,1,0,0:0:0:0:
169,323,253802,2,0,L|110:352,1,65.625
116,183,254009,2,0,L|171:218,1,65.625,8|0,0:0|0:0,0:0:0:0:
21,299,254216,5,0,0:0:0:0:
24,233,254320,2,0,B|25:193|25:193|28:184|28:184|27:176|27:176|32:85,1,131.25,8|8,0:0|0:0,0:0:0:0:
3,36,254630,6,0,B|36:32|36:32|68:39,1,65.625
171,218,254837,2,0,B|203:225|203:225|235:222,1,65.625,8|0,0:0|0:0,0:0:0:0:
324,28,255044,6,0,L|184:40,1,131.25,4|8,0:0|0:0,0:0:0:0:
148,100,255354,1,0,0:0:0:0:
148,100,255457,2,0,P|176:115|208:113,1,65.625
323,28,255664,2,0,P|296:45|281:73,1,65.625,8|0,0:0|0:0,0:0:0:0:
298,215,255871,6,0,P|296:183|279:156,1,65.625
111,216,256078,2,0,P|113:248|130:275,1,65.625,8|0,0:0|0:0,0:0:0:0:
279,156,256285,1,0,0:0:0:0:
211,148,256388,1,0,0:0:0:0:
143,140,256492,2,0,L|63:132,1,65.625,8|0,0:0|0:0,0:0:0:0:
0,320,256699,6,0,L|80:312,1,65.625
228,248,256906,1,8,0:0:0:0:
228,248,257009,1,0,0:0:0:0:
228,248,257113,2,0,P|200:284|208:320,1,65.625
40,172,257320,6,0,P|101:181|124:239,1,131.25,8|0,0:0|0:0,0:0:0:0:
104,304,257630,1,0,0:0:0:0:
40,336,257733,2,0,P|28:296|40:256,1,65.625,8|0,0:0|0:0,0:0:0:0:
184,112,257940,2,0,P|196:152|184:192,1,65.625
128,212,258147,2,0,L|56:204,1,65.625,8|0,0:0|0:0,0:0:0:0:
268,120,258354,6,0,L|408:104,1,131.25,0|8,0:0|0:0,0:0:0:0:
458,143,258664,1,0,0:0:0:0:
458,143,258768,2,0,L|447:209,1,65.625
303,319,258975,6,0,P|268:266|285:205,1,131.25,8|0,0:0|0:0,0:0:0:0:
401,259,259285,1,0,0:0:0:0:
401,259,259388,2,0,L|336:256,1,65.625,8|0,0:0|0:0,0:0:0:0:
176,148,259595,2,0,L|241:144,1,65.625
300,92,259802,1,8,0:0:0:0:
192,284,260009,6,0,L|56:272,1,131.25,0|8,0:0|0:0,0:0:0:0:
8,220,260320,1,0,0:0:0:0:
7,219,260423,2,0,P|0:188|5:156,1,65.625
176,148,260630,2,0,P|183:179|178:211,1,65.625,8|0,0:0|0:0,0:0:0:0:
92,168,260837,6,0,B|68:96|124:116|88:28,1,131.25,0|8,0:0|0:0,0:0:0:0:
164,31,261147,1,0,0:0:0:0:
164,31,261251,2,0,P|196:27|227:37,1,65.625
288,88,261457,2,0,P|302:117|301:149,1,65.625,8|0,0:0|0:0,0:0:0:0:
268,224,261664,6,0,L|132:212,1,131.25,4|8,0:0|0:0,0:0:0:0:
84,256,261975,1,0,0:0:0:0:
124,316,262078,2,0,P|156:309|200:304,1,65.625
56,148,262285,2,0,P|45:179|28:219,1,65.625,8|0,0:0|0:0,0:0:0:0:
236,176,262492,2,0,P|213:151|187:116,1,65.625
132,172,262699,6,0,L|144:248,1,65.625,8|0,0:0|0:0,0:0:0:0:
32,300,262906,2,0,P|72:296|128:368,1,131.25,0|8,0:0|0:0,0:0:0:0:
256,320,263216,1,0,0:0:0:0:
256,320,263320,6,0,L|188:312,1,65.625
66,179,263526,1,8,0:0:0:0:
66,179,263630,1,0,0:0:0:0:
66,179,263733,2,0,L|134:171,1,65.625
184,24,263940,6,0,P|195:54|194:87,1,65.625,8|0,0:0|0:0,0:0:0:0:
102,108,264147,2,0,P|150:104|202:172,1,131.25,0|8,0:0|0:0,0:0:0:0:
132,310,264457,1,0,0:0:0:0:
132,310,264561,2,0,P|120:279|121:246,1,65.625
323,217,264768,2,0,P|334:247|333:280,1,65.625,8|0,0:0|0:0,0:0:0:0:
272,329,264975,6,0,L|200:324,1,65.625
272,55,265182,2,0,L|206:59,1,65.625,8|0,0:0|0:0,0:0:0:0:
256,304,265388,6,0,L|203:300,1,52.5
256,80,265595,2,0,L|203:83,1,52.5,8|0,0:0|0:0,0:0:0:0:
296,192,265802,5,0,0:0:0:0:
284,192,265906,1,0,0:0:0:0:
272,192,266009,2,0,L|188:192,1,57.7500017623902,8|0,0:0|0:0,0:0:0:0:
360,152,266216,6,0,P|372:193|362:226,1,78.7500030040742
152,230,266423,2,0,P|140:189|149:155,1,78.7500030040742,8|0,0:0|0:0,0:0:0:0:
256,24,266630,5,4,0:0:0:0:
256,192,266733,12,0,269940,0:0:0:0:
56,367,271657,6,0,L|138:364,1,78.7500030040742,2|2,0:0|0:0,0:0:0:0:
199,330,272299,2,0,P|211:280|167:226,1,118.125004506111,2|2,0:0|0:0,0:0:0:0:
63,192,273371,2,0,L|69:98,1,78.7500030040742,2|2,0:0|0:0,0:0:0:0:
115,65,274014,2,0,P|154:50|213:94,1,118.125004506111,2|2,0:0|0:0,0:0:0:0:
289,162,275085,6,0,L|423:143,2,118.125004506111,2|2|2,0:0|0:0|0:0,0:0:0:0:
198,175,276799,1,2,0:0:0:0:
158,237,277228,1,2,0:0:0:0:
222,344,277657,1,2,0:0:0:0:
262,282,278086,1,2,0:0:0:0:
153,318,278514,6,0,P|113:325|64:295,1,78.7500030040742,2|2,0:0|0:0,0:0:0:0:
40,252,279157,1,2,0:0:0:0:
40,252,279371,2,0,L|46:167,1,78.7500030040742,2|2,0:0|0:0,0:0:0:0:
150,86,280228,2,0,P|190:79|239:109,1,78.7500030040742,2|2,0:0|0:0,0:0:0:0:
275,142,280871,1,2,0:0:0:0:
343,150,281085,2,0,L|429:141,1,78.7500030040742,2|2,0:0|0:0,0:0:0:0:
485,63,281942,5,2,0:0:0:0:
240,198,282799,1,2,0:0:0:0:
480,344,283657,1,2,0:0:0:0:
384,268,284514,1,2,0:0:0:0:
290,349,285371,6,0,P|251:353|215:337,1,78.7500030040742,2|2,0:0|0:0,0:0:0:0:
150,367,286014,2,0,P|130:332|166:249,1,118.125004506111,2|2,0:0|0:0,0:0:0:0:
275,199,287085,2,0,P|313:194|349:210,1,78.7500030040742,2|2,0:0|0:0,0:0:0:0:
415,181,287728,2,0,P|435:216|399:299,1,118.125004506111,2|2,0:0|0:0,0:0:0:0:
194,194,288799,6,0,P|192:156|184:104,1,78.7500030040742,2|2,0:0|0:0,0:0:0:0:
172,44,289442,1,2,0:0:0:0:
244,60,289657,2,0,P|280:67|329:74,1,78.7500030040742,2|2,0:0|0:0,0:0:0:0:
440,180,290514,1,2,0:0:0:0:
336,148,291371,1,2,0:0:0:0:
256,228,292228,6,0,P|248:266|262:302,1,78.7500030040742,2|2,0:0|0:0,0:0:0:0:
325,335,292871,2,0,L|451:321,1,118.125004506111,2|2,0:0|0:0,0:0:0:0:
240,193,293942,2,0,L|158:183,1,78.7500030040742,2|2,0:0|0:0,0:0:0:0:
99,215,294585,2,0,P|82:253|120:332,1,118.125004506111,2|2,0:0|0:0,0:0:0:0:
324,325,295733,5,2,0:0:0:0:
375,103,296254,1,2,0:0:0:0:
257,262,296860,5,2,0:0:0:0:
265,123,297541,1,2,0:0:0:0:
171,234,298320,6,0,L|165:171,1,63,2|0,0:0|0:0,0:0:0:0:
