osu file format v14

[General]
AudioFilename: audio.mp3
AudioLeadIn: 0
PreviewTime: 66354
Countdown: 1
SampleSet: Normal
StackLeniency: 0.7
Mode: 0
LetterboxInBreaks: 0
WidescreenStoryboard: 0

[Editor]
Bookmarks: 159044,241802,300657,300706,300755,300803,300852,300901,300950,300998,301047,301096,301144,301193,301242,301437,301534,301680,301875,301924,302021,302167,302265,302362,302459,302605,302752,302898,302946,303044,303141,303190,303336,303385,303482,303628,303774,303823,303920,303969,304066,304164,304213,304407,304553,304602
DistanceSpacing: 1
BeatDivisor: 4
GridSize: 32
TimelineZoom: 1.1

[Metadata]
Title:Toki Hatsuru Yume
TitleUnicode:時果つる夢
Artist:Denkishiki Karen Ongaku Shuudan
ArtistUnicode:電気式華憐音楽集団
Creator:Alphabet
Version:Forgotten Memory
Source:ゴア・スクリーミング・ショウ
Tags:Visual Novel Gore Screaming Show Yui Itsuki 華憐 華憐的音楽集
BeatmapID:1406861
BeatmapSetID:664758

[Difficulty]
HPDrainRate:5.4
CircleSize:4.5
OverallDifficulty:8.3
ApproachRate:8.8
SliderMultiplier:2
SliderTickRate:1

[Events]
//Background and Video events
0,0,"calmbg.jpg",0,0
//Break Periods
//Storyboard Layer 0 (Background)
//Storyboard Layer 1 (Fail)
//Storyboard Layer 2 (Pass)
//Storyboard Layer 3 (Foreground)
//Storyboard Sound Samples

[TimingPoints]
148,827.586206896552,4,2,57,40,1,0
148,-200,4,2,57,40,0,0
561,-200,4,2,19,40,0,0
975,-200,4,2,31,40,0,0
1389,-200,4,2,54,40,0,0
3458,-200,4,2,57,40,0,0
3872,-200,4,2,19,40,0,0
4285,-200,4,2,31,40,0,0
4699,-200,4,2,59,40,0,0
6768,-200,4,2,57,40,0,0
7182,-200,4,2,19,40,0,0
7596,-200,4,2,31,40,0,0
8010,-200,4,2,54,40,0,0
10079,-200,4,2,57,40,0,0
10492,-200,4,2,19,40,0,0
10906,-200,4,2,31,40,0,0
11320,-200,4,2,59,40,0,0
12148,-200,4,2,69,40,0,0
12768,-200,4,2,62,40,0,0
13389,-133.333333333333,4,2,1,40,0,0
17320,-133.333333333333,4,2,1,10,0,0
17527,-133.333333333333,4,2,1,40,0,0
20630,-133.333333333333,4,2,1,10,0,0
20837,-133.333333333333,4,2,1,40,0,0
27251,-133.333333333333,4,2,1,10,0,0
27458,-133.333333333333,4,2,1,40,0,0
30561,-133.333333333333,4,2,1,10,0,0
30768,-133.333333333333,4,2,1,40,0,0
33872,-133.333333333333,4,2,1,10,0,0
34079,-133.333333333333,4,2,1,40,0,0
38216,-200,4,2,1,40,0,0
39044,-200,4,2,1,20,0,0
39872,-125,4,2,1,40,0,0
42561,-125,4,2,1,30,0,0
42768,-125,4,2,1,20,0,0
42975,-125,4,2,1,10,0,0
43182,-125,4,2,1,40,0,0
45872,-125,4,2,1,20,0,0
46079,-125,4,2,1,40,0,0
64079,-125,4,2,1,30,0,0
64285,-125,4,2,1,20,0,0
64492,-125,4,2,1,10,0,0
64699,-200,4,2,1,25,0,0
66148,-200,4,2,1,15,0,0
66354,-100,4,1,1,55,0,0
91182,-76.9230769230769,4,1,1,55,0,0
92837,-100,4,1,1,55,0,0
104423,-200,4,1,1,55,0,0
105251,-200,4,1,1,20,0,0
105872,-200,4,1,1,15,0,0
106079,-125,4,1,1,40,0,0
113320,-125,4,1,1,10,0,0
113527,-125,4,1,1,40,0,0
116630,-125,4,1,1,15,0,0
116837,-125,4,1,1,40,0,0
129872,-125,4,1,1,15,0,0
130079,-125,4,1,1,40,0,0
140010,-125,4,1,1,40,0,0
153251,-125,4,1,1,40,0,0
157389,-200,4,1,1,40,0,0
158216,-200,4,1,1,20,0,0
158837,-200,4,1,1,15,0,0
159044,-100,4,1,1,50,0,0
187182,-133.333333333333,4,1,1,50,0,0
188010,-133.333333333333,4,1,1,20,0,0
188630,-133.333333333333,4,1,1,15,0,0
188837,-200,4,2,67,40,0,0
189458,-200,4,2,66,40,0,0
190079,-200,4,2,57,40,0,0
190492,-250,4,2,59,40,0,0
192148,-200,4,2,67,40,0,0
192768,-200,4,2,66,40,0,0
193389,-200,4,2,67,40,0,0
193803,-200,4,2,69,40,0,0
195458,-200,4,2,67,40,0,0
196079,-200,4,2,66,40,0,0
196699,-200,4,2,57,40,0,0
197113,-200,4,2,59,40,0,0
197527,-200,4,2,64,40,0,0
197941,-200,4,2,66,40,0,0
198354,-200,4,2,67,40,0,0
198768,-200,4,2,69,40,0,0
199389,-200,4,2,67,40,0,0
200010,-200,4,2,66,40,0,0
200423,-200,4,2,67,40,0,0
202079,-200,4,2,64,40,0,0
202492,-200,4,2,63,40,0,0
202699,-200,4,2,64,40,0,0
203320,-200,4,2,66,40,0,0
203734,-200,4,2,67,40,0,0
205389,-200,4,2,64,40,0,0
205803,-200,4,2,63,40,0,0
206010,-200,4,2,64,40,0,0
206630,-200,4,2,66,40,0,0
207044,-200,4,2,67,40,0,0
208699,-200,4,2,58,40,0,0
209113,-200,4,2,55,40,0,0
209527,-200,4,2,61,40,0,0
209941,-200,4,2,58,40,0,0
210148,-200,4,2,1,20,0,0
210354,-200,4,2,64,40,0,0
210768,-200,4,2,61,40,0,0
211182,-200,4,2,67,40,0,0
211596,-200,4,2,1,20,0,0
212010,-142.857142857143,4,2,1,20,0,0
213251,-100,4,2,1,20,0,0
213665,-83.3333333333333,4,1,1,50,0,0
215320,413.793103448276,4,1,1,80,1,1
215320,-100,4,1,1,80,0,1
269940,-100,4,1,1,80,0,0
271657,857.142857142857,4,2,67,40,1,0
271657,-200,4,2,67,40,0,0
272085,-200,4,2,66,40,0,0
272299,-200,4,2,64,40,0,0
272942,-200,4,2,62,40,0,0
273371,-200,4,2,64,40,0,0
273799,-200,4,2,62,40,0,0
274014,-200,4,2,59,40,0,0
274657,-200,4,2,62,40,0,0
275085,-200,4,2,64,40,0,0
275728,-200,4,2,59,40,0,0
276371,-200,4,2,57,40,0,0
276799,-200,4,2,59,40,0,0
277657,-200,4,2,62,40,0,0
278514,-200,4,2,67,40,0,0
278942,-200,4,2,66,40,0,0
279157,-200,4,2,64,40,0,0
279799,-200,4,2,62,40,0,0
280228,-200,4,2,64,40,0,0
280657,-200,4,2,62,40,0,0
280871,-200,4,2,59,40,0,0
281514,-200,4,2,66,40,0,0
281942,-200,4,2,67,40,0,0
282799,-200,4,2,69,40,0,0
283657,-200,4,2,71,40,0,0
284514,-200,4,2,1,10,0,0
285371,-200,4,2,67,40,0,0
285799,-200,4,2,66,40,0,0
286014,-200,4,2,64,40,0,0
286657,-200,4,2,62,40,0,0
287085,-200,4,2,64,40,0,0
287514,-200,4,2,62,40,0,0
287728,-200,4,2,59,40,0,0
288371,-200,4,2,62,40,0,0
288799,-200,4,2,67,40,0,0
289442,-200,4,2,59,40,0,0
290085,-200,4,2,69,40,0,0
290514,-200,4,2,67,40,0,0
291371,-200,4,2,62,40,0,0
292228,-200,4,2,67,40,0,0
292657,-200,4,2,66,40,0,0
292871,-200,4,2,64,40,0,0
293514,-200,4,2,62,40,0,0
293942,-200,4,2,64,40,0,0
294371,-200,4,2,62,40,0,0
294585,-200,4,2,59,40,0,0
295228,-200,4,2,66,40,0,0
295733,521.739130434783,4,2,64,40,1,0
295733,-200,4,2,64,40,0,0
296254,606.060606060606,4,2,47,40,1,0
296254,-200,4,2,47,40,0,0
296860,681.818181818182,4,2,59,40,1,0
296860,-200,4,2,59,40,0,0
297541,779.220779220779,4,2,57,40,1,0
297541,-200,4,2,57,40,0,0
298320,-200,4,2,56,40,0,0
298709,-100,4,2,1,30,0,0
298904,-100,4,2,1,25,0,0
299099,-100,4,2,1,10,0,0
299294,-100,4,2,1,15,0,0
299489,-100,4,2,1,10,0,0
299683,-100,4,2,1,9,0,0
299878,-100,4,2,1,5,0,0
300073,-100,4,2,1,7,0,0
300268,-100,4,2,1,6,0,0
300463,-100,4,2,1,5,0,0
300657,-100,4,2,1,5,0,0

[Colours]
Combo1 : 0,185,185
Combo2 : 103,0,206
Combo3 : 0,0,193
Combo4 : 0,128,0
Combo5 : 128,128,64
Combo6 : 83,255,126
SliderTrackOverride : 45,22,76
SliderBorder : 182,182,182

[HitObjects]
107,242,148,5,6,0:0:0:0:
176,270,561,1,2,0:0:0:0:
240,231,975,1,2,0:0:0:0:
172,197,1389,1,2,0:0:0:0:
107,242,3458,5,2,0:0:0:0:
176,270,3872,1,2,0:0:0:0:
240,231,4286,1,2,0:0:0:0:
241,156,4699,1,2,0:0:0:0:
407,81,6768,5,2,0:0:0:0:
380,151,7182,1,2,0:0:0:0:
384,225,7596,1,2,0:0:0:0:
448,187,8010,1,2,0:0:0:0:
407,81,10079,5,2,0:0:0:0:
380,151,10493,1,2,0:0:0:0:
384,225,10907,1,2,0:0:0:0:
421,290,11320,1,2,0:0:0:0:
295,160,12148,37,2,0:0:0:0:
290,234,12768,1,2,0:0:0:0:
296,246,13389,6,0,P|247:239|211:246,1,75.0000028610231,6|0,0:0|0:0,0:0:0:0:
138,214,14216,2,0,P|89:221|53:214,1,75.0000028610231,2|0,0:0|0:0,0:0:0:0:
25,193,14837,1,0,0:0:0:0:
25,193,15044,2,0,L|23:102,1,75.0000028610231,2|0,0:0|0:0,0:0:0:0:
81,49,15872,1,2,0:0:0:0:
133,122,16285,1,0,0:0:0:0:
229,25,16699,6,0,P|290:16|370:37,1,112.500004291535,2|0,0:0|0:0,0:0:0:0:
375,50,17527,2,0,P|373:96|381:149,1,75.0000028610231,2|0,0:0|0:0,0:0:0:0:
389,167,18148,1,0,0:0:0:0:
389,167,18354,2,0,P|391:213|383:266,1,75.0000028610231,2|0,0:0|0:0,0:0:0:0:
340,318,19182,1,2,0:0:0:0:
251,299,19596,1,0,0:0:0:0:
106,340,20010,6,0,P|115:293|106:217,1,112.500004291535,2|0,0:0|0:0,0:0:0:0:
89,188,20837,2,0,L|193:194,1,75.0000028610231,2|0,0:0|0:0,0:0:0:0:
208,185,21458,1,0,0:0:0:0:
208,185,21665,2,0,L|312:179,1,75.0000028610231,2|0,0:0|0:0,0:0:0:0:
372,172,22492,1,2,0:0:0:0:
247,90,22906,1,0,0:0:0:0:
198,198,23320,38,0,L|197:295,1,75.0000028610231,2|0,0:0|0:0,0:0:0:0:
282,243,24148,2,0,L|281:340,1,75.0000028610231,2|0,0:0|0:0,0:0:0:0:
284,362,24768,1,0,0:0:0:0:
284,362,24975,2,0,P|331:370|380:360,1,75.0000028610231,2|0,0:0|0:0,0:0:0:0:
422,295,25803,2,0,P|374:290|329:268,1,75.0000028610231,2|0,0:0|0:0,0:0:0:0:
236,165,26630,6,0,P|283:153|362:177,1,112.500004291535,2|0,0:0|0:0,0:0:0:0:
383,189,27458,2,0,P|371:142|377:104,1,75.0000028610231,2|0,0:0|0:0,0:0:0:0:
391,74,28079,1,0,0:0:0:0:
391,74,28285,2,0,P|345:65|296:75,1,75.0000028610231,2|0,0:0|0:0,0:0:0:0:
230,93,29113,1,2,0:0:0:0:
221,100,29527,1,0,0:0:0:0:
118,55,29941,6,0,P|107:110|123:177,1,112.500004291535,2|0,0:0|0:0,0:0:0:0:
136,205,30768,2,0,P|146:244|143:292,1,75.0000028610231,2|0,0:0|0:0,0:0:0:0:
131,321,31389,1,0,0:0:0:0:
131,321,31596,2,0,P|170:311|218:314,1,75.0000028610231,2|0,0:0|0:0,0:0:0:0:
277,376,32423,1,2,0:0:0:0:
284,266,32837,1,0,0:0:0:0:
284,266,33044,1,0,0:0:0:0:
284,266,33251,6,0,P|329:277|416:260,1,112.500004291535,2|0,0:0|0:0,0:0:0:0:
440,221,34079,2,0,P|445:175|441:142,1,75.0000028610231,2|0,0:0|0:0,0:0:0:0:
417,108,34699,1,0,0:0:0:0:
379,83,34906,2,0,L|286:80,1,75.0000028610231,2|0,0:0|0:0,0:0:0:0:
231,27,35734,1,2,0:0:0:0:
154,74,36148,1,0,0:0:0:0:
74,32,36561,38,0,P|66:95|81:134,1,75.0000028610231,2|0,0:0|0:0,0:0:0:0:
122,188,37389,2,0,P|185:196|224:181,1,75.0000028610231,2|0,0:0|0:0,0:0:0:0:
165,126,38216,6,0,L|164:237,1,100,2|0,0:0|0:0,0:0:0:0:
160,233,39872,6,0,P|215:228|266:245,1,80,6|0,0:0|0:0,0:0:0:0:
321,308,40699,2,0,L|323:216,1,80,2|0,0:0|0:0,0:0:0:0:
362,209,41320,1,0,0:0:0:0:
362,209,41527,2,0,L|360:117,1,80,2|0,0:0|0:0,0:0:0:0:
293,49,42354,2,0,P|266:53|235:49,3,40,2|0|0|0,0:0|0:0|0:0|0:0,0:0:0:0:
203,36,43182,6,0,P|158:29|106:45,1,80,2|0,0:0|0:0,0:0:0:0:
34,88,44010,2,0,P|42:148|39:174,1,80,2|0,0:0|0:0,0:0:0:0:
23,216,44630,1,0,0:0:0:0:
23,216,44837,2,0,L|128:210,1,80,2|0,0:0|0:0,0:0:0:0:
206,205,45665,2,0,P|208:237|206:260,1,40,2|0,0:0|0:0,0:0:0:0:
180,289,46079,2,0,P|178:321|180:344,1,40,2|0,0:0|0:0,0:0:0:0:
211,369,46492,38,0,P|266:362|316:373,1,80,2|0,0:0|0:0,0:0:0:0:
393,379,47320,1,2,0:0:0:0:
333,261,47734,2,0,L|337:213,1,40,2|0,0:0|0:0,0:0:0:0:
378,190,48148,2,0,P|329:198|290:183,1,80,2|0,0:0|0:0,0:0:0:0:
268,79,48975,1,2,0:0:0:0:
200,122,49389,1,2,0:0:0:0:
243,248,49803,6,0,P|186:239|135:254,1,80,2|0,0:0|0:0,0:0:0:0:
121,269,50423,2,0,P|107:227|112:173,1,80,2|0,0:0|0:0,0:0:0:0:
119,117,51044,2,0,P|150:118|170:125,1,40,2|0,0:0|0:0,0:0:0:0:
235,189,51458,2,0,P|288:205|333:193,1,80,2|0,0:0|0:0,0:0:0:0:
412,176,52285,2,0,P|396:229|408:274,1,80,2|0,0:0|0:0,0:0:0:0:
485,346,53113,6,0,P|439:338|385:349,1,80,6|0,0:0|0:0,0:0:0:0:
304,364,53941,2,0,P|308:324|302:279,1,80,2|0,0:0|0:0,0:0:0:0:
279,238,54561,1,0,0:0:0:0:
279,238,54768,2,0,L|168:242,1,80,2|0,0:0|0:0,0:0:0:0:
106,289,55596,1,2,0:0:0:0:
122,186,56010,1,0,0:0:0:0:
154,354,56423,6,0,P|92:368|48:348,1,80,2|0,0:0|0:0,0:0:0:0:
9,285,57251,2,0,P|-5:223|15:179,1,80,2|0,0:0|0:0,0:0:0:0:
22,161,57872,1,0,0:0:0:0:
22,161,58079,2,0,L|121:158,1,80,2|0,0:0|0:0,0:0:0:0:
171,81,58906,1,2,0:0:0:0:
216,194,59320,2,0,L|213:243,1,40,2|0,0:0|0:0,0:0:0:0:
210,306,59734,37,2,0:0:0:0:
309,274,60148,1,0,0:0:0:0:
408,304,60561,1,2,0:0:0:0:
474,224,60975,1,2,0:0:0:0:
474,224,61182,1,0,0:0:0:0:
474,224,61389,2,0,P|483:169|474:116,1,80,2|0,0:0|0:0,0:0:0:0:
423,50,62216,1,2,0:0:0:0:
416,66,62630,2,0,L|422:118,1,40,2|0,0:0|0:0,0:0:0:0:
378,174,63044,6,0,P|320:186|275:168,1,80,2|0,0:0|0:0,0:0:0:0:
208,132,63872,2,0,P|203:99|209:69,1,40,2|0,0:0|0:0,0:0:0:0:
169,52,64285,2,0,P|159:69|153:88,1,40,2|0,0:0|0:0,0:0:0:0:
140,212,64699,6,0,B|182:190|224:208|224:208|282:230|326:196,1,175
350,148,66354,6,0,L|346:256,1,100,6|0,0:0|0:0,0:0:0:0:
357,263,67182,2,0,P|317:257|250:263,1,100,8|0,0:0|0:0,0:0:0:0:
197,310,67803,1,0,0:0:0:0:
216,193,68010,1,0,0:0:0:0:
116,254,68423,1,2,0:0:0:0:
257,261,68837,1,8,0:0:0:0:
129,277,69251,1,0,0:0:0:0:
51,155,69665,38,0,L|49:54,1,100,2|0,0:0|0:0,0:0:0:0:
38,37,70492,2,0,P|92:51|154:34,1,100,8|0,0:0|0:0,0:0:0:0:
198,0,71113,1,0,0:0:0:0:
162,114,71320,1,0,0:0:0:0:
316,92,71734,2,0,L|372:89,1,50,2|0,0:0|0:0,0:0:0:0:
266,153,72148,2,0,P|210:143|162:153,1,100,8|0,0:0|0:0,0:0:0:0:
26,215,72975,6,0,P|47:266|20:356,1,150,2|0,0:0|0:0,0:0:0:0:
2,376,73803,2,0,P|70:372|114:392,1,100,8|0,0:0|0:0,0:0:0:0:
151,233,74630,1,0,0:0:0:0:
214,285,75044,2,0,L|203:408,2,100,2|8|0,0:0|0:0|0:0,0:0:0:0:
258,135,76285,6,0,P|312:127|380:154,1,100,2|0,0:0|0:0,0:0:0:0:
372,124,77113,2,0,L|374:223,1,100,8|0,0:0|0:0,0:0:0:0:
375,297,77734,1,0,0:0:0:0:
303,203,77941,1,0,0:0:0:0:
450,279,78354,1,2,0:0:0:0:
317,360,78768,1,8,0:0:0:0:
303,203,78975,2,0,P|252:193|181:228,1,100,4|0,0:0|0:0,0:0:0:0:
174,234,79596,6,0,P|179:174|170:126,1,100,6|0,0:0|0:0,0:0:0:0:
192,119,80423,2,0,L|92:114,1,100,8|0,0:0|0:0,0:0:0:0:
91,188,81044,1,0,0:0:0:0:
102,41,81251,1,0,0:0:0:0:
20,221,81665,1,2,0:0:0:0:
189,191,82079,2,0,P|140:183|82:190,1,100,8|0,0:0|0:0,0:0:0:0:
29,300,82906,38,0,P|85:292|139:310,1,100,2|0,0:0|0:0,0:0:0:0:
223,345,83527,1,0,0:0:0:0:
121,332,83734,2,0,L|128:209,1,100,8|0,0:0|0:0,0:0:0:0:
133,131,84561,1,0,0:0:0:0:
113,241,84975,2,0,L|46:236,1,50,2|0,0:0|0:0,0:0:0:0:
143,140,85389,2,0,P|193:132|265:158,1,100,8|0,0:0|0:0,0:0:0:0:
297,193,86010,1,0,0:0:0:0:
305,206,86216,6,0,B|291:166|306:128|306:128|320:89|305:42,1,150,2|0,0:0|0:0,0:0:0:0:
300,43,87044,1,8,0:0:0:0:
370,166,87458,2,0,P|407:169|445:162,1,50
483,122,87872,1,0,0:0:0:0:
312,108,88285,1,2,0:0:0:0:
393,238,88699,2,0,L|390:343,1,100,8|0,0:0|0:0,0:0:0:0:
271,353,89527,6,0,P|279:302|270:231,1,100,2|0,0:0|0:0,0:0:0:0:
290,240,90354,2,0,P|241:245|182:234,1,100,8|0,0:0|0:0,0:0:0:0:
130,166,90975,1,0,0:0:0:0:
203,96,91182,6,0,B|210:129|210:129|203:185,1,64.9999970245363,2|0,0:0|0:0,0:0:0:0:
206,160,91492,1,2,0:0:0:0:
207,161,91596,1,8,0:0:0:0:
95,101,91803,1,2,0:0:0:0:
78,99,91906,1,2,0:0:0:0:
61,97,92010,1,2,0:0:0:0:
22,206,92216,2,0,L|30:252,1,32.4999985122681,8|8,0:0|0:0,0:0:0:0:
106,325,92423,1,2,0:0:0:0:
109,299,92527,1,2,0:0:0:0:
112,273,92630,1,2,0:0:0:0:
217,174,92837,38,0,P|272:163|328:177,1,100,6|0,0:0|0:0,0:0:0:0:
404,238,93458,1,0,0:0:0:0:
339,184,93665,2,0,P|345:121|341:66,1,100,8|0,0:0|0:0,0:0:0:0:
260,25,94492,1,0,0:0:0:0:
123,48,94906,2,0,L|56:52,1,50,2|0,0:0|0:0,0:0:0:0:
182,3,95320,2,0,P|196:56|175:108,1,100,8|0,0:0|0:0,0:0:0:0:
115,175,96148,6,0,P|97:232|115:308,1,100,2|0,0:0|0:0,0:0:0:0:
114,309,96768,1,0,0:0:0:0:
114,309,96975,2,0,P|166:300|223:321,1,100,8|0,0:0|0:0,0:0:0:0:
278,381,97596,1,0,0:0:0:0:
263,263,97803,1,0,0:0:0:0:
388,360,98216,1,2,0:0:0:0:
196,309,98630,2,0,P|185:256|207:205,1,100,8|0,0:0|0:0,0:0:0:0:
300,145,99458,6,0,L|420:155,1,100,6|0,0:0|0:0,0:0:0:0:
475,138,100079,1,0,0:0:0:0:
409,181,100285,2,0,P|400:134|425:72,1,100,8|0,0:0|0:0,0:0:0:0:
479,215,101113,6,0,L|486:319,1,100,4|2,0:0|0:0,0:0:0:0:
402,322,101734,1,0,0:0:0:0:
502,327,101941,2,0,P|449:319|381:328,1,100,8|0,0:0|0:0,0:0:0:0:
258,360,102768,37,6,0:0:0:0:
267,349,102975,2,0,B|280:304|280:304|270:240,1,100,2|2,0:0|0:0,0:0:0:0:
271,251,103492,1,2,0:0:0:0:
271,251,103596,1,8,0:0:0:0:
194,290,103803,1,2,0:0:0:0:
354,296,104010,1,8,0:0:0:0:
362,270,104113,1,2,0:0:0:0:
361,242,104216,1,2,0:0:0:0:
256,140,104423,6,0,B|208:114|158:142|158:142|124:121|80:136,1,175,6|0,0:0|0:0,0:0:0:0:
88,133,106079,6,0,P|80:186|90:228,1,80,6|0,0:0|0:0,0:0:0:0:
178,285,106906,1,8,0:0:0:0:
187,272,107320,2,0,L|236:276,1,40
292,326,107734,2,0,P|307:281|294:231,1,80,0|2,0:0|0:0,0:0:0:0:
231,138,108561,2,0,P|216:93|229:43,1,80,8|0,0:0|0:0,0:0:0:0:
236,38,109182,1,0,0:0:0:0:
263,30,109389,6,0,L|366:35,1,80,2|0,0:0|0:0,0:0:0:0:
448,109,110216,2,0,L|345:114,1,80,8|0,0:0|0:0,0:0:0:0:
340,117,110837,1,0,0:0:0:0:
315,131,111044,2,0,P|306:173|317:223,1,80,0|2,0:0|0:0,0:0:0:0:
397,301,111872,2,0,P|439:310|489:299,1,80,8|0,0:0|0:0,0:0:0:0:
311,209,112699,38,0,P|269:200|186:209,1,120,2|0,0:0|0:0,0:0:0:0:
168,220,113527,1,8,0:0:0:0:
160,232,113941,2,0,L|169:297,1,40
204,153,114354,1,0,0:0:0:0:
63,176,114768,1,2,0:0:0:0:
168,220,115182,2,0,P|217:226|265:200,1,80,8|0,0:0|0:0,0:0:0:0:
350,265,116010,6,0,P|362:223|344:141,1,120
330,127,116837,2,0,P|380:136|422:126,1,80,8|0,0:0|0:0,0:0:0:0:
433,118,117458,1,0,0:0:0:0:
448,94,117665,1,0,0:0:0:0:
296,53,118079,1,2,0:0:0:0:
399,204,118492,2,0,L|391:297,1,80,8|0,0:0|0:0,0:0:0:0:
337,336,119113,1,0,0:0:0:0:
288,279,119320,6,0,B|183:275,1,80,6|0,0:0|0:0,0:0:0:0:
111,326,120148,1,8,0:0:0:0:
122,343,120561,2,0,L|125:280,1,40
85,229,120975,2,0,P|128:235|174:226,1,80,0|2,0:0|0:0,0:0:0:0:
190,219,121596,1,0,0:0:0:0:
215,207,121803,2,0,P|254:201|293:207,1,80,8|0,0:0|0:0,0:0:0:0:
394,282,122630,6,0,L|391:178,1,80,2|0,0:0|0:0,0:0:0:0:
296,127,123458,2,0,L|293:206,1,80,8|0,0:0|0:0,0:0:0:0:
287,234,124079,1,0,0:0:0:0:
269,255,124285,2,0,P|231:267|177:255,1,80,0|2,0:0|0:0,0:0:0:0:
78,185,125113,2,0,P|116:173|170:185,1,80,8|2,0:0|0:0,0:0:0:0:
178,75,125941,38,0,P|226:88|315:63,1,120,2|0,0:0|0:0,0:0:0:0:
317,59,126768,2,0,L|313:141,1,80,8|0,0:0|0:0,0:0:0:0:
320,165,127389,1,0,0:0:0:0:
338,185,127596,2,0,P|386:195|429:185,1,80,0|2,0:0|0:0,0:0:0:0:
380,107,128423,1,8,0:0:0:0:
286,258,128837,1,0,0:0:0:0:
338,185,129251,6,0,P|286:174|210:202,1,120,2|0,0:0|0:0,0:0:0:0:
205,214,130079,2,0,P|208:254|203:298,1,80,8|0,0:0|0:0,0:0:0:0:
150,344,130699,1,2,0:0:0:0:
94,297,130906,2,0,B|101:251|101:251|95:201,1,80,0|2,0:0|0:0,0:0:0:0:
34,131,131734,1,12,0:0:0:0:
136,77,131941,1,2,0:0:0:0:
134,90,132044,1,2,0:0:0:0:
132,103,132148,1,2,0:0:0:0:
215,158,132354,1,2,0:0:0:0:
290,104,132561,6,0,P|344:96|375:108,1,80,6|0,0:0|0:0,0:0:0:0:
436,166,133389,2,0,L|428:263,1,80,8|0,0:0|0:0,0:0:0:0:
427,273,134010,1,0,0:0:0:0:
424,300,134216,1,0,0:0:0:0:
330,217,134630,1,2,0:0:0:0:
248,301,135044,2,0,P|214:309|143:296,1,80,8|0,0:0|0:0,0:0:0:0:
52,227,135872,6,0,P|55:182|50:127,1,80,2|0,0:0|0:0,0:0:0:0:
116,61,136699,1,8,0:0:0:0:
125,74,137113,2,0,L|174:76,1,40
261,83,137527,1,0,0:0:0:0:
174,165,137941,2,0,P|134:159|67:166,1,80,0|8,0:0|0:0,0:0:0:0:
196,250,138768,1,0,0:0:0:0:
196,250,138975,1,0,0:0:0:0:
196,250,139182,38,0,P|249:241|282:248,1,80,2|0,0:0|0:0,0:0:0:0:
368,270,140010,2,0,P|360:222|370:180,1,80,8|0,0:0|0:0,0:0:0:0:
405,123,140630,1,0,0:0:0:0:
428,113,140837,1,0,0:0:0:0:
474,199,141251,1,2,0:0:0:0:
429,281,141665,1,8,0:0:0:0:
479,353,142079,1,0,0:0:0:0:
436,264,142492,6,0,L|305:257,1,120,2|0,0:0|0:0,0:0:0:0:
286,251,143320,1,8,0:0:0:0:
246,337,143734,1,0,0:0:0:0:
343,183,144148,2,0,P|293:166|238:179,1,80,0|2,0:0|0:0,0:0:0:0:
173,241,144975,2,0,P|133:241|96:226,1,80,8|2,0:0|0:0,0:0:0:0:
49,168,145596,1,2,0:0:0:0:
75,98,145803,6,0,L|174:94,1,80,6|0,0:0|0:0,0:0:0:0:
241,147,146630,1,8,0:0:0:0:
257,162,147044,2,0,L|306:160,1,40
372,117,147458,2,0,P|365:169|384:216,1,80,0|2,0:0|0:0,0:0:0:0:
448,272,148285,2,0,P|396:265|349:284,1,80,8|0,0:0|0:0,0:0:0:0:
226,274,149113,6,0,L|235:368,1,80,2|0,0:0|0:0,0:0:0:0:
295,255,149941,1,8,0:0:0:0:
301,239,150354,2,0,L|297:193,1,40
288,118,150768,1,0,0:0:0:0:
196,176,151182,2,0,P|145:183|94:169,1,80,2|8,0:0|0:0,0:0:0:0:
43,85,152010,1,0,0:0:0:0:
43,85,152216,1,0,0:0:0:0:
43,85,152423,38,0,L|40:174,1,80,2|0,0:0|0:0,0:0:0:0:
41,257,153251,2,0,P|78:269|131:257,1,80,8|0,0:0|0:0,0:0:0:0:
158,237,153872,1,0,0:0:0:0:
198,211,154079,2,0,P|237:205|275:217,1,80,0|2,0:0|0:0,0:0:0:0:
339,296,154906,2,0,L|335:389,1,80,8|0,0:0|0:0,0:0:0:0:
416,367,155527,1,0,0:0:0:0:
410,291,155734,6,0,L|406:211,1,80,6|0,0:0|0:0,0:0:0:0:
365,109,156561,1,8,0:0:0:0:
354,99,156768,1,0,0:0:0:0:
284,80,156975,1,8,0:0:0:0:
213,96,157182,1,8,0:0:0:0:
168,158,157389,6,0,B|192:200|171:244|171:244|220:227|265:257,1,175,6|0,0:0|0:0,0:0:0:0:
311,307,159044,5,6,0:0:0:0:
298,315,159458,1,0,0:0:0:0:
383,287,159665,1,0,0:0:0:0:
435,213,159872,1,8,0:0:0:0:
318,191,160079,1,0,0:0:0:0:
383,287,160285,1,0,0:0:0:0:
465,140,160492,1,0,0:0:0:0:
298,209,160699,38,0,P|239:218|187:201,1,100,0|2,0:0|0:0,0:0:0:0:
162,137,161320,1,0,0:0:0:0:
107,196,161527,2,0,L|112:264,1,50,8|0,0:0|0:0,0:0:0:0:
164,335,161941,2,0,L|167:285,1,50
205,194,162354,5,2,0:0:0:0:
210,207,162768,1,0,0:0:0:0:
293,240,162975,1,0,0:0:0:0:
382,232,163182,1,8,0:0:0:0:
444,181,163389,1,0,0:0:0:0:
470,138,163596,1,0,0:0:0:0:
478,104,163803,1,0,0:0:0:0:
334,29,164010,6,0,L|252:34,1,50
223,131,164423,1,2,0:0:0:0:
186,0,164630,1,0,0:0:0:0:
150,109,164837,2,0,P|148:150|159:183,1,50,8|2,0:0|0:0,0:0:0:0:
224,274,165251,2,0,P|226:233|215:200,1,50
149,158,165665,6,0,P|97:151|17:165,1,100,2|0,0:0|0:0,0:0:0:0:
2,226,166285,1,0,0:0:0:0:
69,285,166492,1,8,0:0:0:0:
152,250,166699,1,0,0:0:0:0:
215,341,166906,1,0,0:0:0:0:
279,231,167113,1,0,0:0:0:0:
336,362,167320,38,0,P|389:370|450:344,1,100,0|2,0:0|0:0,0:0:0:0:
472,295,167941,1,0,0:0:0:0:
434,233,168148,2,0,P|431:202|435:173,1,50,8|0,0:0|0:0,0:0:0:0:
369,106,168561,2,0,P|372:137|368:166,1,50
287,244,168975,6,0,P|232:254|154:225,1,100,2|0,0:0|0:0,0:0:0:0:
130,176,169596,1,0,0:0:0:0:
131,85,169803,1,8,0:0:0:0:
194,21,170010,1,0,0:0:0:0:
243,115,170216,1,0,0:0:0:0:
131,85,170423,1,0,0:0:0:0:
289,41,170630,6,0,L|400:48,1,100,0|2,0:0|0:0,0:0:0:0:
454,88,171251,1,0,0:0:0:0:
485,158,171458,2,0,P|490:185|483:229,1,50,8|0,0:0|0:0,0:0:0:0:
444,294,171872,1,2,0:0:0:0:
449,307,172079,1,2,0:0:0:0:
380,185,172285,6,0,P|316:173|261:193,1,100,6|0,0:0|0:0,0:0:0:0:
224,250,172906,1,0,0:0:0:0:
194,164,173113,1,8,0:0:0:0:
153,284,173320,1,0,0:0:0:0:
116,153,173527,1,0,0:0:0:0:
83,311,173734,1,0,0:0:0:0:
39,141,173941,38,0,L|36:36,1,100,0|2,0:0|0:0,0:0:0:0:
109,9,174561,1,0,0:0:0:0:
174,55,174768,2,0,P|182:85|177:121,1,50,8|0,0:0|0:0,0:0:0:0:
133,223,175182,2,0,P|125:193|130:157,1,50
201,92,175596,6,0,P|246:86|317:96,1,100,2|0,0:0|0:0,0:0:0:0:
402,182,176423,2,0,P|357:176|286:186,1,100,8|0,0:0|0:0,0:0:0:0:
302,181,177044,1,0,0:0:0:0:
301,272,177251,6,0,L|297:389,1,100,0|2,0:0|0:0,0:0:0:0:
179,266,178079,1,8,0:0:0:0:
98,305,178285,1,2,0:0:0:0:
24,253,178492,1,0,0:0:0:0:
38,238,178906,6,0,P|47:196|37:146,1,50,2|0,0:0|0:0,0:0:0:0:
102,138,179320,2,0,P|112:160|118:184,1,50
196,229,179734,2,0,P|205:187|195:137,1,50,8|0,0:0|0:0,0:0:0:0:
293,122,180148,2,0,P|303:144|309:168,1,50
295,293,180561,37,0,0:0:0:0:
211,325,180768,1,0,0:0:0:0:
123,301,180975,1,2,0:0:0:0:
85,219,181182,1,0,0:0:0:0:
204,179,181389,1,8,0:0:0:0:
123,301,181596,1,0,0:0:0:0:
105,124,181803,1,0,0:0:0:0:
231,247,182010,1,0,0:0:0:0:
41,73,182216,6,0,P|93:45|146:54,1,100,6|0,0:0|0:0,0:0:0:0:
232,123,183044,2,0,P|281:124|323:98,1,100,8|0,0:0|0:0,0:0:0:0:
372,42,183665,1,0,0:0:0:0:
403,109,183872,1,0,0:0:0:0:
346,221,184285,1,2,0:0:0:0:
232,123,184699,2,0,B|286:113|286:113|348:134,1,100,8|0,0:0|0:0,0:0:0:0:
439,207,185320,1,0,0:0:0:0:
439,207,185423,1,0,0:0:0:0:
439,207,185527,6,0,L|445:317,1,100,6|0,0:0|0:0,0:0:0:0:
350,360,186354,2,0,L|355:260,1,100
298,188,187182,6,0,B|242:158|190:191|190:191|137:140|74:187|112:243|139:237|162:208,1,262.500010013581,4|0,0:0|0:0,0:0:0:0:
145,222,188837,38,0,P|150:177|143:141,2,75,6|2|2,0:0|0:0|0:0,0:0:0:0:
102,279,190492,2,0,P|97:324|105:355,2,60,2|0|0,0:0|0:0|0:0,0:0:0:0:
145,222,192148,5,2,0:0:0:0:
252,253,192768,1,2,0:0:0:0:
341,185,193389,1,2,0:0:0:0:
276,146,193803,5,2,0:0:0:0:
341,185,194423,1,0,0:0:0:0:
414,168,195044,1,0,0:0:0:0:
426,154,195458,6,0,P|420:198|424:243,2,75,2|2|2,0:0|0:0|0:0,0:0:0:0:
453,84,197113,2,0,P|421:80|388:75,1,50,2|2,0:0|0:0,0:0:0:0:
334,48,197941,2,0,P|302:51|269:57,1,50,2|2,0:0|0:0,0:0:0:0:
240,114,198768,38,0,P|232:157|237:195,2,75,2|2|2,0:0|0:0|0:0,0:0:0:0:
284,53,200423,1,2,0:0:0:0:
284,53,202079,6,0,L|220:49,1,50,6|2,0:0|0:0,0:0:0:0:
202,69,202699,1,2,0:0:0:0:
202,69,202906,2,0,L|138:65,1,50,0|2,0:0|0:0,0:0:0:0:
81,90,203734,2,0,P|85:117|83:148,1,50,2|0,0:0|0:0,0:0:0:0:
71,174,204354,1,0,0:0:0:0:
71,174,204561,2,0,P|67:201|69:232,1,50
122,275,205389,6,0,L|186:280,1,50,2|2,0:0|0:0,0:0:0:0:
201,302,206010,1,2,0:0:0:0:
201,302,206216,2,0,L|265:297,1,50,0|2,0:0|0:0,0:0:0:0:
323,276,207044,6,0,P|317:233|323:205,1,50,2|0,0:0|0:0,0:0:0:0:
337,194,207665,1,0,0:0:0:0:
337,194,207872,2,0,P|343:151|337:123,1,50
325,111,208492,1,0,0:0:0:0:
293,90,208699,38,0,L|221:88,1,50,2|2,0:0|0:0,0:0:0:0:
168,79,209527,1,2,0:0:0:0:
193,149,209941,2,0,P|194:183|192:196,1,25,2|0,0:0|0:0,0:0:0:0:
181,208,210354,2,0,L|250:206,1,50,2|2,0:0|0:0,0:0:0:0:
293,248,211182,1,2,0:0:0:0:
374,191,211596,1,2,0:0:0:0:
279,112,212010,38,0,B|246:101|208:113|208:113|166:128|123:99,1,139.999995727539,2|0,0:0|0:0,0:0:0:0:
122,93,213251,2,0,B|125:121|125:121|117:164,1,50,2|0,0:0|0:0,0:0:0:0:
71,230,213665,5,2,0:0:0:0:
71,230,213768,1,2,0:0:0:0:
71,230,213872,2,0,L|129:235,1,29.9999990844727,10|2,0:0|0:0,0:0:0:0:
164,298,214079,2,0,L|162:315,4,14.9999995422363,8|2|2|0|2,0:0|0:0|0:0|0:0|0:0,0:0:0:0:
233,239,214389,1,2,0:0:0:0:
233,239,214492,6,0,L|277:242,1,29.9999990844727,2|2,0:0|0:0,0:0:0:0:
316,303,214699,2,0,L|360:300,1,29.9999990844727,10|2,0:0|0:0,0:0:0:0:
403,241,214906,2,0,L|428:244,1,14.9999995422363,2|2,0:0|0:0,0:0:0:0:
408,220,215010,2,0,L|433:223,1,14.9999995422363,2|2,0:0|0:0,0:0:0:0:
413,199,215113,2,0,L|438:202,1,14.9999995422363,2|2,0:0|0:0,0:0:0:0:
418,178,215216,2,0,L|443:181,1,14.9999995422363,2|2,0:0|0:0,0:0:0:0:
423,156,215320,70,0,P|384:137|325:134,1,100,6|8,0:0|0:0,0:0:0:0:
232,199,215733,1,2,0:0:0:0:
232,199,215837,1,2,0:0:0:0:
232,199,215940,1,8,0:0:0:0:
353,212,216147,1,2,0:0:0:0:
227,104,216354,1,8,0:0:0:0:
227,104,216457,2,0,P|187:111|105:91,1,100,2|0,0:0|0:0,0:0:0:0:
110,91,216768,1,8,0:0:0:0:
53,202,216975,6,0,L|58:313,1,100,2|8,0:0|0:0,0:0:0:0:
155,360,217388,1,2,0:0:0:0:
180,362,217492,1,2,0:0:0:0:
204,364,217595,1,8,0:0:0:0:
323,302,217802,1,2,0:0:0:0:
246,182,218009,1,8,0:0:0:0:
246,182,218113,2,0,P|232:219|242:293,1,100,2|0,0:0|0:0,0:0:0:0:
245,301,218423,1,8,0:0:0:0:
374,240,218630,70,0,L|494:254,1,100,2|8,0:0|0:0,0:0:0:0:
434,160,219044,1,2,0:0:0:0:
434,160,219147,1,2,0:0:0:0:
434,160,219251,1,8,0:0:0:0:
407,336,219457,1,2,0:0:0:0:
301,195,219664,1,8,0:0:0:0:
301,195,219768,2,0,P|292:141|310:92,1,100,2|0,0:0|0:0,0:0:0:0:
324,81,220078,1,8,0:0:0:0:
179,208,220285,6,0,B|126:215|126:215|58:206,1,100,2|8,0:0|0:0,0:0:0:0:
14,93,220699,1,2,0:0:0:0:
11,68,220802,1,2,0:0:0:0:
7,43,220906,1,8,0:0:0:0:
125,84,221113,1,2,0:0:0:0:
13,172,221320,1,8,0:0:0:0:
13,172,221423,2,0,P|3:223|28:268,1,100,2|0,0:0|0:0,0:0:0:0:
46,275,221733,1,8,0:0:0:0:
199,218,221940,70,0,L|201:93,1,100,2|8,0:0|0:0,0:0:0:0:
287,220,222354,1,2,0:0:0:0:
287,220,222457,1,2,0:0:0:0:
287,220,222561,1,8,0:0:0:0:
119,146,222768,1,2,0:0:0:0:
266,71,222975,1,8,0:0:0:0:
266,71,223078,2,0,P|322:66|381:78,1,100
388,82,223388,1,8,0:0:0:0:
461,176,223595,5,2,0:0:0:0:
307,212,223802,1,8,0:0:0:0:
307,212,223906,1,0,0:0:0:0:
307,212,224009,1,2,0:0:0:0:
431,289,224216,1,8,0:0:0:0:
246,154,224423,2,0,P|229:195|244:260,1,100,2|8,0:0|0:0,0:0:0:0:
249,270,224733,2,0,P|266:311|251:376,1,100,2|0,0:0|0:0,0:0:0:0:
236,379,225044,1,8,0:0:0:0:
47,260,225251,70,0,L|40:139,1,100,2|8,0:0|0:0,0:0:0:0:
148,91,225664,1,2,0:0:0:0:
143,120,225768,1,2,0:0:0:0:
138,149,225871,1,8,0:0:0:0:
124,282,226078,1,2,0:0:0:0:
239,209,226285,1,8,0:0:0:0:
239,209,226388,2,0,B|291:222|291:222|371:202,1,100
363,197,226699,1,8,0:0:0:0:
306,89,226906,5,2,0:0:0:0:
278,76,227009,1,0,0:0:0:0:
248,69,227113,1,8,0:0:0:0:
218,70,227216,1,0,0:0:0:0:
190,82,227320,1,2,0:0:0:0:
165,98,227423,1,2,0:0:0:0:
137,110,227527,1,8,0:0:0:0:
107,111,227630,1,0,0:0:0:0:
77,104,227733,1,2,0:0:0:0:
42,74,227837,70,0,L|45:140,1,50,8|0,0:0|0:0,0:0:0:0:
118,259,228044,1,0,0:0:0:0:
140,239,228147,2,0,L|142:189,1,50,2|2,0:0|0:0,0:0:0:0:
2,233,228354,2,0,L|0:282,1,50,8|0,0:0|0:0,0:0:0:0:
147,358,228561,6,0,P|209:368|251:351,1,100,6|8,0:0|0:0,0:0:0:0:
266,336,228871,1,0,0:0:0:0:
275,307,228975,2,0,L|267:240,1,50,2|2,0:0|0:0,0:0:0:0:
319,151,229182,2,0,L|327:218,1,50,8|0,0:0|0:0,0:0:0:0:
403,327,229388,69,2,0:0:0:0:
408,297,229492,1,0,0:0:0:0:
414,267,229595,1,8,0:0:0:0:
420,237,229699,1,2,0:0:0:0:
426,207,229802,2,0,L|437:137,1,50
383,34,230009,2,0,L|374:106,1,50,8|0,0:0|0:0,0:0:0:0:
244,188,230216,6,0,P|203:195|140:168,1,100,2|8,0:0|0:0,0:0:0:0:
132,150,230526,1,0,0:0:0:0:
124,120,230630,2,0,P|121:82|126:54,1,50,2|2,0:0|0:0,0:0:0:0:
259,24,230837,2,0,P|262:62|257:90,1,50,8|0,0:0|0:0,0:0:0:0:
229,202,231044,69,2,0:0:0:0:
213,227,231147,1,0,0:0:0:0:
189,245,231251,1,8,0:0:0:0:
161,256,231354,1,2,0:0:0:0:
131,259,231457,2,0,L|57:251,1,50
203,334,231664,2,0,L|277:342,1,50,8|0,0:0|0:0,0:0:0:0:
402,303,231871,6,0,P|415:259|404:204,1,100,2|8,0:0|0:0,0:0:0:0:
383,184,232182,1,0,0:0:0:0:
359,165,232285,2,0,L|265:171,1,50,2|2,0:0|0:0,0:0:0:0:
448,96,232492,2,0,L|542:102,1,50,8|0,0:0|0:0,0:0:0:0:
363,26,232699,69,2,0:0:0:0:
333,29,232802,1,0,0:0:0:0:
303,32,232906,1,8,0:0:0:0:
273,35,233009,1,2,0:0:0:0:
243,39,233113,2,0,L|161:49,1,50
56,113,233320,2,0,L|138:123,1,50,8|0,0:0|0:0,0:0:0:0:
210,193,233526,6,0,P|219:243|203:299,1,100,2|8,0:0|0:0,0:0:0:0:
184,309,233837,1,0,0:0:0:0:
156,320,233940,2,0,L|75:324,1,50,2|2,0:0|0:0,0:0:0:0:
38,196,234147,2,0,L|119:200,1,50,8|0,0:0|0:0,0:0:0:0:
254,265,234354,69,2,0:0:0:0:
283,270,234457,1,0,0:0:0:0:
313,270,234561,1,8,0:0:0:0:
342,265,234664,1,2,0:0:0:0:
369,252,234768,1,0,0:0:0:0:
397,224,234871,1,0,0:0:0:0:
415,188,234975,1,8,0:0:0:0:
420,148,235078,1,0,0:0:0:0:
414,108,235182,6,0,P|362:121|290:97,1,100,2|8,0:0|0:0,0:0:0:0:
290,97,235492,1,0,0:0:0:0:
261,87,235595,2,0,P|230:82|201:88,1,50,2|2,0:0|0:0,0:0:0:0:
103,153,235802,1,8,0:0:0:0:
185,257,236009,69,2,0:0:0:0:
126,74,236216,1,8,0:0:0:0:
126,74,236320,2,0,P|87:73|22:125,1,100,2|0,0:0|0:0,0:0:0:0:
22,130,236630,1,8,0:0:0:0:
144,327,236837,6,0,P|204:334|253:310,1,100,2|8,0:0|0:0,0:0:0:0:
260,298,237147,1,0,0:0:0:0:
270,269,237251,2,0,L|266:196,1,50,2|2,0:0|0:0,0:0:0:0:
189,93,237457,2,0,L|193:166,1,50,8|0,0:0|0:0,0:0:0:0:
351,296,237664,70,0,L|347:223,1,50,2|0,0:0|0:0,0:0:0:0:
276,75,237871,2,0,L|280:148,1,50,8|2,0:0|0:0,0:0:0:0:
438,315,238078,2,0,L|434:242,1,50
359,61,238284,2,0,L|363:134,1,50,8|0,0:0|0:0,0:0:0:0:
254,320,238492,6,0,P|197:329|120:290,1,100,2|8,0:0|0:0,0:0:0:0:
133,298,238802,1,0,0:0:0:0:
118,271,238906,1,2,0:0:0:0:
116,241,239009,1,2,0:0:0:0:
124,212,239113,1,8,0:0:0:0:
142,188,239216,1,0,0:0:0:0:
157,162,239320,69,2,0:0:0:0:
161,132,239423,1,0,0:0:0:0:
155,102,239526,1,8,0:0:0:0:
139,76,239630,1,2,0:0:0:0:
112,62,239733,2,0,P|85:55|41:58,1,50
0,204,239940,2,0,P|27:211|71:208,1,50,8|0,0:0|0:0,0:0:0:0:
244,157,240147,5,2,0:0:0:0:
289,135,240251,1,0,0:0:0:0:
338,132,240354,1,8,0:0:0:0:
385,145,240457,1,0,0:0:0:0:
417,183,240561,1,2,0:0:0:0:
432,230,240664,1,2,0:0:0:0:
430,280,240768,1,8,0:0:0:0:
404,322,240871,1,0,0:0:0:0:
360,347,240975,69,2,0:0:0:0:
331,306,241078,1,0,0:0:0:0:
325,256,241182,1,8,0:0:0:0:
338,207,241285,1,2,0:0:0:0:
374,173,241388,1,2,0:0:0:0:
404,121,241492,1,2,0:0:0:0:
395,61,241595,1,2,0:0:0:0:
353,17,241699,1,2,0:0:0:0:
293,12,241802,6,0,L|187:10,1,100,4|8,0:0|0:0,0:0:0:0:
169,22,242113,1,0,0:0:0:0:
169,22,242216,1,2,0:0:0:0:
32,90,242423,1,8,0:0:0:0:
195,237,242630,1,2,0:0:0:0:
242,119,242837,1,8,0:0:0:0:
242,119,242940,2,0,P|188:109|135:125,1,100,2|0,0:0|0:0,0:0:0:0:
126,137,243251,1,8,0:0:0:0:
31,234,243457,70,0,L|45:347,1,100,2|8,0:0|0:0,0:0:0:0:
49,352,243768,1,0,0:0:0:0:
49,352,243871,1,2,0:0:0:0:
193,217,244078,1,8,0:0:0:0:
257,333,244285,1,2,0:0:0:0:
120,266,244491,1,8,0:0:0:0:
120,266,244595,2,0,P|109:226|123:163,1,100,2|0,0:0|0:0,0:0:0:0:
135,149,244906,1,8,0:0:0:0:
252,91,245113,6,0,L|360:97,1,100,2|8,0:0|0:0,0:0:0:0:
376,101,245423,1,0,0:0:0:0:
376,101,245526,1,2,0:0:0:0:
265,196,245733,1,8,0:0:0:0:
331,0,245940,1,2,0:0:0:0:
479,149,246147,1,8,0:0:0:0:
479,149,246251,2,0,P|484:201|472:253,1,100,2|0,0:0|0:0,0:0:0:0:
461,269,246561,1,8,0:0:0:0:
248,187,246768,70,0,P|197:182|123:193,1,100,2|8,0:0|0:0,0:0:0:0:
127,200,247078,1,0,0:0:0:0:
116,222,247182,1,2,0:0:0:0:
302,269,247388,1,8,0:0:0:0:
194,102,247595,1,2,0:0:0:0:
69,297,247802,1,8,0:0:0:0:
69,297,247906,2,0,P|125:307|179:286,1,100,2|0,0:0|0:0,0:0:0:0:
183,276,248216,1,8,0:0:0:0:
361,153,248423,6,0,L|360:36,1,100,6|8,0:0|0:0,0:0:0:0:
348,30,248733,1,0,0:0:0:0:
348,30,248837,1,2,0:0:0:0:
269,155,249044,1,8,0:0:0:0:
462,84,249251,1,2,0:0:0:0:
201,100,249457,1,8,0:0:0:0:
201,100,249561,2,0,P|185:144|200:212,1,100,2|0,0:0|0:0,0:0:0:0:
204,217,249871,1,8,0:0:0:0:
332,298,250078,70,0,L|446:291,1,100,2|8,0:0|0:0,0:0:0:0:
454,281,250388,1,0,0:0:0:0:
454,281,250492,1,2,0:0:0:0:
332,198,250699,1,8,0:0:0:0:
243,346,250906,1,2,0:0:0:0:
94,265,251113,1,8,0:0:0:0:
94,265,251216,2,0,P|87:210|101:153,1,100,2|0,0:0|0:0,0:0:0:0:
110,146,251526,1,8,0:0:0:0:
209,64,251733,6,0,B|260:72|260:72|314:64,1,100,2|8,0:0|0:0,0:0:0:0:
331,56,252044,1,0,0:0:0:0:
355,52,252147,1,2,0:0:0:0:
379,56,252251,1,2,0:0:0:0:
400,67,252354,1,8,0:0:0:0:
417,85,252457,1,0,0:0:0:0:
427,107,252561,70,0,P|432:134|432:177,1,50,2|0,0:0|0:0,0:0:0:0:
350,238,252768,1,8,0:0:0:0:
314,220,252871,1,2,0:0:0:0:
275,209,252975,1,0,0:0:0:0:
234,214,253078,1,2,0:0:0:0:
196,234,253182,1,8,0:0:0:0:
173,266,253285,1,0,0:0:0:0:
167,305,253388,6,0,L|176:368,1,50,2|0,0:0|0:0,0:0:0:0:
283,382,253595,1,8,0:0:0:0:
283,382,253699,1,0,0:0:0:0:
283,382,253802,2,0,L|274:319,1,50,2|2,0:0|0:0,0:0:0:0:
95,335,254009,2,0,L|103:385,1,50,8|0,0:0|0:0,0:0:0:0:
0,279,254216,69,2,0:0:0:0:
0,279,254320,2,0,L|7:208,1,50,8|0,0:0|0:0,0:0:0:0:
38,116,254526,1,2,0:0:0:0:
77,147,254630,1,2,0:0:0:0:
124,161,254733,1,2,0:0:0:0:
174,160,254837,1,8,0:0:0:0:
221,145,254940,1,8,0:0:0:0:
265,117,255044,5,6,0:0:0:0:
278,149,255147,1,0,0:0:0:0:
287,182,255251,1,8,0:0:0:0:
289,216,255354,1,2,0:0:0:0:
287,250,255457,1,2,0:0:0:0:
278,284,255561,1,0,0:0:0:0:
261,314,255664,1,8,0:0:0:0:
232,334,255768,1,0,0:0:0:0:
199,346,255871,1,2,0:0:0:0:
163,346,255975,1,0,0:0:0:0:
132,328,256078,1,8,0:0:0:0:
110,300,256182,1,2,0:0:0:0:
109,262,256285,1,0,0:0:0:0:
121,229,256388,1,0,0:0:0:0:
150,209,256492,1,8,0:0:0:0:
184,209,256595,1,0,0:0:0:0:
216,223,256699,69,2,0:0:0:0:
242,245,256802,1,0,0:0:0:0:
272,261,256906,1,8,0:0:0:0:
305,269,257009,1,2,0:0:0:0:
340,270,257113,1,2,0:0:0:0:
374,266,257216,1,0,0:0:0:0:
407,256,257320,1,8,0:0:0:0:
435,235,257423,1,0,0:0:0:0:
453,205,257526,1,2,0:0:0:0:
462,171,257630,1,0,0:0:0:0:
458,136,257733,1,8,0:0:0:0:
447,102,257837,1,2,0:0:0:0:
423,75,257940,1,0,0:0:0:0:
390,61,258044,1,0,0:0:0:0:
355,62,258147,1,8,0:0:0:0:
328,84,258251,1,0,0:0:0:0:
313,115,258354,6,0,P|310:142|319:180,1,50,2|0,0:0|0:0,0:0:0:0:
374,266,258561,1,8,0:0:0:0:
374,266,258664,1,0,0:0:0:0:
374,266,258768,2,0,P|377:239|368:201,1,50,2|2,0:0|0:0,0:0:0:0:
221,114,258975,2,0,P|218:141|227:179,3,50,8|0|2|0,0:0|0:0|0:0|0:0,0:0:0:0:
167,51,259388,1,8,0:0:0:0:
167,51,259492,1,2,0:0:0:0:
167,51,259595,2,0,P|139:47|102:56,1,50,0|2,0:0|0:0,0:0:0:0:
27,128,259802,2,0,P|24:155|32:193,1,50,8|0,0:0|0:0,0:0:0:0:
110,269,260009,69,2,0:0:0:0:
144,260,260113,1,0,0:0:0:0:
178,258,260216,1,8,0:0:0:0:
212,262,260320,1,2,0:0:0:0:
245,271,260423,1,2,0:0:0:0:
273,290,260526,1,0,0:0:0:0:
304,305,260630,1,8,0:0:0:0:
337,313,260733,1,0,0:0:0:0:
372,314,260837,6,0,P|398:313|430:302,1,50,2|0,0:0|0:0,0:0:0:0:
337,193,261044,1,8,0:0:0:0:
337,193,261147,1,2,0:0:0:0:
337,193,261251,2,0,P|311:194|279:205,1,50,0|2,0:0|0:0,0:0:0:0:
204,368,261457,2,0,P|230:367|262:356,1,50,8|0,0:0|0:0,0:0:0:0:
475,235,261664,69,6,0:0:0:0:
495,194,261768,1,0,0:0:0:0:
504,150,261871,1,8,0:0:0:0:
493,106,261975,1,2,0:0:0:0:
468,68,262078,1,2,0:0:0:0:
427,46,262182,1,2,0:0:0:0:
382,42,262285,1,8,0:0:0:0:
339,55,262388,1,0,0:0:0:0:
307,87,262492,1,2,0:0:0:0:
277,120,262595,1,0,0:0:0:0:
238,143,262699,1,8,0:0:0:0:
194,153,262802,1,2,0:0:0:0:
148,150,262906,1,0,0:0:0:0:
108,128,263009,1,0,0:0:0:0:
93,85,263113,1,8,0:0:0:0:
107,42,263216,1,0,0:0:0:0:
148,24,263320,5,2,0:0:0:0:
190,38,263423,1,0,0:0:0:0:
217,73,263526,1,8,0:0:0:0:
227,116,263630,1,2,0:0:0:0:
224,160,263733,1,2,0:0:0:0:
202,199,263837,1,0,0:0:0:0:
162,219,263940,1,8,0:0:0:0:
123,242,264044,1,0,0:0:0:0:
99,280,264147,1,2,0:0:0:0:
103,324,264251,1,0,0:0:0:0:
130,359,264354,1,8,0:0:0:0:
172,372,264457,1,2,0:0:0:0:
216,366,264561,1,0,0:0:0:0:
251,339,264664,1,0,0:0:0:0:
284,308,264768,1,8,0:0:0:0:
326,295,264871,1,0,0:0:0:0:
368,311,264975,69,2,0:0:0:0:
347,254,265078,1,0,0:0:0:0:
343,193,265182,1,8,0:0:0:0:
359,135,265285,1,0,0:0:0:0:
405,97,265388,5,2,0:0:0:0:
419,102,265492,1,2,0:0:0:0:
434,106,265595,2,0,L|437:160,1,50,10|0,0:0|0:0,0:0:0:0:
337,264,265802,70,0,P|306:268|275:269,1,50,2|0,0:0|0:0,0:0:0:0:
171,178,266009,2,0,P|166:147|166:116,1,50,12|0,0:0|0:0,0:0:0:0:
290,45,266216,1,0,0:0:0:0:
292,75,266320,1,2,0:0:0:0:
287,104,266423,1,2,0:0:0:0:
177,295,266630,5,6,0:0:0:0:
256,192,266837,12,0,269940,0:0:0:0:
89,259,271657,6,0,L|159:264,1,50,6|2,0:0|0:0,0:0:0:0:
163,266,272299,1,2,0:0:0:0:
187,271,272514,2,0,P|198:238|198:204,1,50,0|2,0:0|0:0,0:0:0:0:
186,135,273371,6,0,L|259:139,1,50,2|2,0:0|0:0,0:0:0:0:
255,153,274014,1,2,0:0:0:0:
276,165,274228,2,0,L|349:161,1,50,0|2,0:0|0:0,0:0:0:0:
432,122,275085,6,0,P|440:168|435:200,2,75,2|2|2,0:0|0:0|0:0,0:0:0:0:
374,74,276799,1,2,0:0:0:0:
306,54,277657,1,2,0:0:0:0:
234,94,278514,6,0,P|239:125|237:156,1,50,2|2,0:0|0:0,0:0:0:0:
231,167,279157,1,2,0:0:0:0:
218,188,279371,2,0,P|218:212|222:237,1,50,0|2,0:0|0:0,0:0:0:0:
300,295,280228,2,0,P|337:292|365:298,1,50,2|2,0:0|0:0,0:0:0:0:
371,305,280871,1,2,0:0:0:0:
389,321,281085,2,0,L|387:253,1,50,0|2,0:0|0:0,0:0:0:0:
383,197,281942,37,2,0:0:0:0:
449,122,282799,1,2,0:0:0:0:
386,44,283657,2,0,L|276:49,1,100,2|0,0:0|0:0,0:0:0:0:
186,56,285371,6,0,P|191:96|187:127,1,50,2|2,0:0|0:0,0:0:0:0:
182,129,286014,1,2,0:0:0:0:
170,151,286228,2,0,P|130:156|99:152,1,50,0|2,0:0|0:0,0:0:0:0:
71,232,287085,2,0,P|111:227|142:231,1,50,2|2,0:0|0:0,0:0:0:0:
143,236,287728,1,2,0:0:0:0:
161,252,287942,2,0,L|162:324,1,50,0|2,0:0|0:0,0:0:0:0:
200,371,288799,6,0,P|169:378|112:366,2,75,2|2|2,0:0|0:0|0:0,0:0:0:0:
241,316,290514,1,2,0:0:0:0:
334,350,291371,1,2,0:0:0:0:
420,300,292228,6,0,L|423:242,1,50,2|2,0:0|0:0,0:0:0:0:
419,225,292871,1,2,0:0:0:0:
408,202,293085,2,0,P|375:192|345:199,1,50,0|2,0:0|0:0,0:0:0:0:
271,235,293942,2,0,P|246:235|223:226,1,50,2|2,0:0|0:0,0:0:0:0:
207,206,294585,1,2,0:0:0:0:
196,183,294799,2,0,L|200:117,1,50,0|2,0:0|0:0,0:0:0:0:
258,70,295733,37,2,0:0:0:0:
179,104,296254,1,2,0:0:0:0:
97,68,296860,1,2,0:0:0:0:
72,151,297541,1,2,0:0:0:0:
130,232,298320,6,0,B|177:257|230:236|230:236|279:216|326:236|326:236|377:217|437:242,1,300,6|0,0:0|0:0,0:0:0:0:
