osu file format v14

[General]
AudioFilename: audio.mp3
AudioLeadIn: 0
PreviewTime: 40303
Countdown: 0
SampleSet: Soft
StackLeniency: 0.4
Mode: 0
LetterboxInBreaks: 0
WidescreenStoryboard: 1

[Editor]
DistanceSpacing: 1
BeatDivisor: 4
GridSize: 32
TimelineZoom: 1.8

[Metadata]
Title:Silver Orbit
TitleUnicode:Silver Orbit
Artist:Denkishiki Karen Ongaku Shuudan
ArtistUnicode:電気式華憐音楽集団
Creator:Lasse
Version:Normal
Source:
Tags:denkare Carnaval The Abyss japanese electronic metal rock
BeatmapID:2225507
BeatmapSetID:1062758

[Difficulty]
HPDrainRate:4
CircleSize:3.4
OverallDifficulty:5
ApproachRate:6
SliderMultiplier:1.1
SliderTickRate:1

[Events]
//Background and Video events
0,0,"bg.jpg",0,0
//Break Periods
//Storyboard Layer 0 (Background)
//Storyboard Layer 1 (Fail)
//Storyboard Layer 2 (Pass)
//Storyboard Layer 3 (Foreground)
//Storyboard Layer 4 (Overlay)
//Storyboard Sound Samples

[TimingPoints]
345,333.333333333333,4,2,1,50,1,0
345,-133.333333333333,4,2,1,50,0,0
4344,-114.942528735632,4,2,1,60,0,0
5678,-100,4,2,1,70,0,0
16344,-133.333333333333,4,2,1,50,0,0
17511,-133.333333333333,4,2,1,45,0,0
17678,-200,4,2,1,40,0,0
18011,-200,4,2,1,20,0,0
18344,-200,4,2,1,50,0,0
19011,-111.111111111111,4,2,1,70,0,0
23011,-111.111111111111,4,2,1,55,0,0
24344,-111.111111111111,4,2,1,70,0,0
25844,-125,4,2,1,60,0,0
27011,-111.111111111111,4,2,1,70,0,0
28344,-111.111111111111,4,2,1,55,0,0
29678,-111.111111111111,4,2,1,70,0,0
30344,-111.111111111111,4,2,1,60,0,0
31011,-111.111111111111,4,2,1,70,0,0
31678,-111.111111111111,4,2,1,60,0,0
32011,-111.111111111111,4,2,1,65,0,0
32344,-100,4,2,1,60,0,0
35011,-111.111111111111,4,2,1,70,0,0
35678,-111.111111111111,4,2,1,60,0,0
36344,-111.111111111111,4,2,1,70,0,0
37011,-111.111111111111,4,2,1,60,0,0
37344,-133.333333333333,4,2,1,60,0,0
37511,-133.333333333333,4,2,1,55,0,0
37678,-100,4,2,1,70,0,0
40344,-90.9090909090909,4,2,1,80,0,1
43011,333.333333333333,6,2,1,80,1,1
43011,-90.9090909090909,6,2,1,80,0,1
47011,333.333333333333,4,2,1,80,1,1
47011,-90.9090909090909,6,2,1,80,0,1
51010,-100,4,2,1,70,0,0
52344,-100,4,2,1,70,0,0
55010,-114.942528735632,4,2,1,55,0,0
57677,-100,4,2,1,70,0,0
60344,-114.942528735632,4,2,1,60,0,0
64344,-114.942528735632,4,2,1,65,0,0
65677,-100,4,2,1,70,0,0
71010,-100,4,2,1,55,0,0
72344,-111.111111111111,4,2,1,65,0,0
77010,-125,4,2,1,60,0,0
77344,-166.666666666667,4,2,1,55,0,0
77677,-100,4,2,1,65,0,0
80928,-100,4,2,1,60,0,0
81677,-100,4,2,1,65,0,0
83010,-111.111111111111,4,2,1,70,0,0
83677,-111.111111111111,4,2,1,60,0,0
84344,-111.111111111111,4,2,1,70,0,0
85011,-111.111111111111,4,2,1,60,0,0
85344,-111.111111111111,4,2,1,65,0,0
85677,-125,4,2,1,55,0,0
88344,-111.111111111111,4,2,1,70,0,0
89011,-111.111111111111,4,2,1,60,0,0
89678,-111.111111111111,4,2,1,70,0,0
90344,-111.111111111111,4,2,1,60,0,0
90678,-111.111111111111,4,2,1,60,0,0
90844,-111.111111111111,4,2,1,55,0,0
91010,-100,4,2,1,70,0,0
93677,-90.9090909090909,4,2,1,80,0,1
96344,333.333333333333,6,2,1,80,1,1
96344,-90.9090909090909,6,2,1,80,0,1
100344,333.333333333333,4,2,1,80,1,1
100344,-90.9090909090909,6,2,1,80,0,1
105677,-117.647058823529,4,2,1,60,0,0
106011,-117.647058823529,4,2,1,55,0,0
108343,-111.111111111111,4,2,1,60,0,0
113677,-100,4,2,1,70,0,0
117677,-100,4,2,1,60,0,0
119010,-142.857142857143,4,2,1,40,0,0
119344,-142.857142857143,4,2,1,5,0,0
119511,-142.857142857143,4,2,1,40,0,0
119844,-142.857142857143,4,2,1,5,0,0
120011,-142.857142857143,4,2,1,40,0,0
122011,-142.857142857143,4,2,1,5,0,0
122178,-142.857142857143,4,2,1,40,0,0
122511,-142.857142857143,4,2,1,5,0,0
122678,-142.857142857143,4,2,1,40,0,0
122761,-200,4,2,1,20,0,0
123011,-200,4,2,1,24,0,0
123178,-200,4,2,1,26,0,0
123344,-200,4,2,1,28,0,0
123511,-200,4,2,1,30,0,0
123678,-200,4,2,1,32,0,0
123844,-200,4,2,1,34,0,0
124011,-200,4,2,1,36,0,0
124178,-200,4,2,1,5,0,0
124343,-111.111111111111,4,2,1,50,0,0
128343,-100,4,2,1,55,0,0
128844,-100,4,2,1,60,0,0
129677,-90.9090909090909,4,2,1,80,0,1
140343,-100,4,2,1,56,0,0
141677,-100,4,2,1,58,0,0
143011,-100,4,2,1,62,0,0
144344,-100,4,2,1,64,0,0
145677,-111.111111111111,4,2,1,70,0,0
151010,-100,4,2,1,74,0,0
152344,-100,4,2,1,78,0,0
153678,-100,4,2,1,60,0,0
156343,-111.111111111111,4,2,1,60,0,0
157678,-111.111111111111,4,2,1,62,0,0
159011,-111.111111111111,4,2,1,64,0,0
160344,-111.111111111111,4,2,1,66,0,0
161678,-111.111111111111,4,2,1,68,0,0
162678,-111.111111111111,4,2,1,60,0,0
162761,-111.111111111111,4,2,1,50,0,0
163011,-142.857142857143,4,2,2,42,0,0
163261,-142.857142857143,4,2,1,42,0,0
164344,-142.857142857143,4,2,2,42,0,0
164594,-142.857142857143,4,2,1,42,0,0
166011,-142.857142857143,4,2,1,20,0,0
166344,-142.857142857143,4,2,1,42,0,0
167344,-142.857142857143,4,2,1,20,0,0
167677,-142.857142857143,4,2,1,42,0,0
168344,-142.857142857143,4,2,2,42,0,0
168594,-142.857142857143,4,2,1,42,0,0
169678,-142.857142857143,4,2,2,42,0,0
169928,-142.857142857143,4,2,1,42,0,0
171010,-133.333333333333,4,2,2,48,0,0
171094,-133.333333333333,4,2,2,5,0,0
173344,-133.333333333333,4,2,2,40,0,0
173677,-125,4,2,2,50,0,0
173761,-125,4,2,2,5,0,0
175011,-125,4,2,1,40,0,0
175094,-125,4,2,2,5,0,0
176343,-125,4,2,2,30,0,0
177677,-90.9090909090909,4,2,1,80,0,1
180344,333.333333333333,6,2,1,80,1,1
180344,-90.9090909090909,6,2,1,80,0,1
184344,333.333333333333,4,2,1,80,1,1
184344,-90.9090909090909,6,2,1,80,0,1
187011,-90.9090909090909,4,2,1,80,0,1
188178,-90.9090909090909,4,2,1,80,0,1
188344,-100,4,2,1,70,0,0
189677,-100,4,2,1,70,0,0
192344,-114.942528735632,4,2,1,55,0,0
195010,-100,4,2,1,70,0,0
197677,-111.111111111111,4,2,1,65,0,0
203010,-100,4,2,1,70,0,0

[Colours]
Combo1 : 250,190,230
Combo2 : 130,200,230
Combo3 : 255,230,140
Combo4 : 170,245,170

[HitObjects]
120,304,345,6,0,P|67:319|-11:309,2,123.750004720688,10|2|10,0:1|0:0|0:0,0:0:0:0:
189,259,1678,2,0,P|185:217|193:161,1,82.5000031471254,10|8,0:1|0:0,0:0:0:0:
275,36,2678,1,10,0:0:0:0:
327,99,3011,2,0,P|389:112|447:94,2,123.750004720688,10|2|10,0:1|0:0|0:0,0:0:0:0:
253,45,4344,6,0,P|211:22|163:16,1,95.7000008031464,10|8,0:1|0:0,0:0:0:0:
117,27,4844,2,0,L|86:121,1,95.7000008031464,8|8,0:1|0:1,0:0:0:0:
54,153,5344,1,8,0:0:0:0:
109,249,5678,5,14,0:1:0:0:
200,191,6011,1,8,0:0:0:0:
200,191,6178,2,0,B|239:187|239:187|260:196|260:196|319:192,1,110,2|10,0:0|0:1,0:0:0:0:
342,149,6678,1,8,0:0:0:0:
356,40,7011,1,10,0:1:0:0:
465,54,7344,1,8,0:0:0:0:
465,54,7511,1,2,0:0:0:0:
451,163,7844,1,10,0:1:0:0:
451,163,8011,1,8,0:0:0:0:
512,263,8344,5,10,0:1:0:0:
430,336,8678,1,8,0:0:0:0:
430,336,8844,2,0,P|395:319|319:309,1,110,2|10,0:0|0:1,0:0:0:0:
279,338,9344,1,8,0:0:0:0:
172,281,9678,2,0,P|116:273|86:268,2,73.3333333333333,10|10|10,0:1|0:1|0:2,0:0:0:0:
240,243,10344,2,0,L|326:230,2,73.3333333333333,10|10|10,0:1|0:2|0:1,0:0:0:0:
176,204,11011,5,14,0:1:0:0:
254,127,11344,1,8,0:0:0:0:
254,127,11511,2,0,P|266:89|229:26,1,110,2|10,0:0|0:1,0:0:0:0:
183,9,12011,1,8,0:0:0:0:
74,27,12344,1,10,0:1:0:0:
38,130,12678,1,8,0:0:0:0:
38,130,12844,1,2,0:0:0:0:
83,230,13178,1,10,0:1:0:0:
83,230,13344,1,8,0:0:0:0:
191,215,13678,5,10,0:1:0:0:
254,304,14011,1,8,0:0:0:0:
254,304,14178,2,0,B|267:337|267:337|345:352,1,110,2|10,0:0|0:1,0:0:0:0:
393,363,14678,1,8,0:0:0:0:
482,298,15011,2,0,L|492:223,2,73.3333333333333,10|10|10,0:1|0:1|0:1,0:0:0:0:
408,267,15678,2,0,L|398:192,2,73.3333333333333,10|10|10,0:1|0:2|0:1,0:0:0:0:
344,313,16344,5,14,0:1:0:0:
0,338,19011,6,0,L|105:328,1,98.9999969787599,14|8,0:1|0:0,0:0:0:0:
188,370,19678,1,2,0:0:0:0:
251,294,20011,1,8,0:0:0:0:
251,294,20178,1,2,0:0:0:0:
195,212,20511,1,10,0:1:0:0:
195,212,20678,2,0,P|178:172|202:108,1,98.9999969787599,8|2,0:0|0:0,0:0:0:0:
262,51,21344,1,8,0:0:0:0:
262,51,21511,1,2,0:0:0:0:
337,114,21844,5,10,0:1:0:0:
337,114,22011,2,0,P|354:154|330:218,1,98.9999969787599,8|0,0:0|0:0,0:0:0:0:
317,249,22511,2,0,P|303:295|320:341,1,98.9999969787599,10|0,0:1|0:0,0:0:0:0:
358,372,23011,1,14,0:1:0:0:
512,198,24344,6,0,L|505:85,1,98.9999969787599,12|8,2:1|0:0,0:0:0:0:
440,24,25011,1,2,0:0:0:0:
361,83,25344,1,8,0:0:0:0:
361,83,25511,1,2,0:0:0:0:
270,43,25844,2,0,P|195:32|126:29,2,132,2|10|2,0:0|0:1|0:0,0:0:0:0:
300,82,27011,6,0,P|294:125|312:188,1,98.9999969787599,14|8,0:1|0:0,0:0:0:0:
365,258,27678,1,2,0:0:0:0:
460,227,28011,1,8,0:0:0:0:
459,127,28344,1,14,0:1:0:0:
272,41,29678,6,0,L|182:33,1,74.2499977340699,14|10,0:1|0:1,0:0:0:0:
125,60,30178,2,0,P|116:75|113:107,1,49.4999984893799,10|8,0:1|3:2,0:0:0:0:
285,203,31011,2,0,L|375:195,1,74.2499977340699,14|10,0:1|0:1,0:0:0:0:
432,222,31511,2,0,P|441:237|444:269,1,49.4999984893799,10|8,0:1|3:2,0:0:0:0:
240,352,32344,6,0,L|142:358,1,82.5,14|10,0:1|0:1,0:0:0:0:
83,337,32844,1,2,0:0:0:0:
83,337,33011,2,0,P|67:301|76:261,1,82.5,10|8,0:1|0:1,0:0:0:0:
134,201,33511,1,2,0:0:0:0:
134,201,33678,2,0,L|216:195,1,82.5,10|10,0:1|0:1,0:0:0:0:
289,156,34178,1,2,0:0:0:0:
289,156,34344,2,0,P|307:109|269:44,1,110,10|8,1:1|1:1,0:0:0:0:
192,12,35011,6,0,L|107:12,1,74.2499977340699,14|10,0:1|0:1,0:0:0:0:
48,45,35511,2,0,P|33:63|26:88,1,49.4999984893799,10|8,0:1|3:2,0:0:0:0:
87,276,36344,2,0,L|172:276,1,74.2499977340699,14|10,0:1|0:1,0:0:0:0:
229,316,36844,2,0,L|286:329,1,49.4999984893799,10|8,0:1|3:2,0:0:0:0:
488,263,37678,6,0,P|507:207|489:156,1,110,14|8,0:1|0:0,0:0:0:0:
456,118,38178,1,10,0:1:0:0:
456,118,38344,2,0,L|334:100,1,110,8|10,0:1|0:0,0:0:0:0:
263,173,39011,2,0,L|141:155,1,110,10|8,0:1|0:0,0:0:0:0:
62,218,39678,1,10,0:1:0:0:
0,127,40011,1,10,0:0:0:0:
92,36,40344,6,0,L|200:25,1,90.7500027694703,14|2,0:1|0:1,0:0:0:0:
252,76,40844,1,2,0:0:0:0:
368,21,41178,1,10,0:1:0:0:
368,21,41344,1,8,0:0:0:0:
468,88,41678,2,0,P|480:131|467:182,1,90.7500027694703,10|2,0:1|0:1,0:0:0:0:
413,239,42178,1,8,0:0:0:0:
413,239,42344,2,0,L|289:230,1,121.000003692627,10|8,2:1|2:2,0:0:0:0:
188,152,43011,6,0,P|200:104|163:35,1,121.000003692627,14|8,0:1|0:0,0:0:0:0:
119,9,43511,1,10,0:1:0:0:
4,44,43844,1,10,0:1:0:0:
4,44,44011,2,0,L|12:124,1,60.5000018463135,10|2,0:1|0:0,0:0:0:0:
28,223,44511,1,10,0:1:0:0:
28,223,44677,1,8,0:2:0:0:
132,304,45011,6,0,B|176:311|176:311|193:330|193:330|258:348,1,121.000003692627,12|8,0:1|0:0,0:0:0:0:
300,326,45511,1,10,0:1:0:0:
415,379,45844,1,10,0:1:0:0:
415,379,46011,1,8,0:1:0:0:
507,301,46344,1,10,0:1:0:0:
393,259,46677,1,10,0:0:0:0:
469,149,47011,6,0,P|483:100|455:50,1,90.7500027694703,14|2,0:1|0:1,0:0:0:0:
411,5,47511,1,2,0:0:0:0:
318,82,47844,1,10,0:1:0:0:
318,82,48011,1,8,0:0:0:0:
208,31,48344,2,0,P|168:18|107:26,1,90.7500027694703,10|2,0:1|0:1,0:0:0:0:
57,77,48844,1,8,0:1:0:0:
57,77,49011,2,0,L|66:204,1,121.000003692627,2|10,0:0|2:2,0:0:0:0:
77,330,49677,5,14,0:1:0:0:
77,330,49844,1,10,0:1:0:0:
190,372,50177,1,10,0:1:0:0:
190,372,50344,2,0,L|253:357,1,60.5000018463135,8|10,0:0|0:1,0:0:0:0:
365,325,50844,2,0,L|423:339,1,60.5000018463135,10|8,0:1|0:1,0:0:0:0:
512,142,52344,5,14,0:1:0:0:
512,142,52510,1,8,0:1:0:0:
429,78,52844,1,8,0:1:0:0:
429,78,53010,2,0,L|353:68,1,55,10|8,0:0|0:1,0:0:0:0:
266,93,53510,1,8,0:1:0:0:
266,93,53677,2,0,L|190:68,1,55,10|8,0:1|0:1,0:0:0:0:
118,20,54177,1,8,0:1:0:0:
118,20,54344,2,0,P|126:68|96:140,1,110,10|10,0:0|0:0,0:0:0:0:
35,193,55010,6,0,P|11:232|25:339,2,143.55000120472,14|2|2,0:1|3:0|1:0,0:0:0:0:
113,137,56344,2,0,L|226:133,1,95.7000008031464,10|0,0:1|1:0,0:0:0:0:
266,210,57010,2,0,L|379:206,1,95.7000008031464,2|2,3:0|1:0,0:0:0:0:
467,150,57677,5,14,0:1:0:0:
467,150,57844,1,8,0:1:0:0:
508,258,58177,1,8,0:1:0:0:
508,258,58344,2,0,L|489:316,1,55,10|8,0:0|0:1,0:0:0:0:
396,366,58844,1,8,0:1:0:0:
396,366,59010,2,0,L|331:350,1,55,10|8,0:1|0:1,0:0:0:0:
232,361,59510,1,8,0:1:0:0:
232,361,59677,2,0,L|216:231,1,110,10|10,0:0|0:0,0:0:0:0:
280,166,60344,6,0,P|291:119|268:71,1,95.7000008031464,14|0,0:1|0:1,0:0:0:0:
236,46,60844,1,2,0:0:0:0:
236,46,61010,2,0,L|133:37,1,95.7000008031464,8|8,0:1|2:1,0:0:0:0:
97,63,61510,1,2,0:0:0:0:
97,63,61677,2,0,P|70:101|71:148,1,95.7000008031464,10|8,0:1|0:1,0:0:0:0:
116,232,62344,2,0,L|228:245,1,95.7000008031464,10|2,0:1|3:0,0:0:0:0:
271,317,63010,6,0,L|383:330,1,95.7000008031464,10|8,0:1|0:1,0:0:0:0:
418,329,63510,1,2,0:0:0:0:
418,329,63677,2,0,P|438:287|430:240,1,95.7000008031464,8|10,0:1|2:1,0:0:0:0:
390,152,64344,2,0,L|411:66,2,63.8000005354309,10|10|10,0:1|0:1|0:2,0:0:0:0:
320,182,65010,2,0,L|299:268,2,63.8000005354309,10|10|10,0:1|0:2|0:1,0:0:0:0:
293,108,65677,5,14,0:1:0:0:
214,40,66010,1,8,0:0:0:0:
214,40,66177,2,0,P|164:24|97:37,1,110,2|10,0:0|0:1,0:0:0:0:
62,63,66677,1,8,0:0:0:0:
106,163,67010,1,10,0:1:0:0:
33,245,67344,1,8,0:0:0:0:
33,245,67510,1,2,0:0:0:0:
80,344,67844,1,8,0:1:0:0:
80,344,68010,1,8,0:0:0:0:
190,304,68344,5,10,0:1:0:0:
289,363,68677,1,8,0:0:0:0:
289,363,68844,2,0,B|326:355|326:355|352:365|352:365|409:355,1,110,2|8,0:0|0:1,0:0:0:0:
443,329,69344,1,8,0:0:0:0:
497,232,69677,2,0,L|512:161,2,73.3333333333333,10|10|10,0:1|0:1|0:1,0:0:0:0:
421,201,70344,2,0,L|420:123,2,73.3333333333333,10|10|10,0:1|0:2|0:1,0:0:0:0:
357,250,71010,5,10,0:1:0:0:
212,375,72344,6,0,L|199:272,1,98.9999969787599,14|8,0:1|1:1,0:0:0:0:
170,244,72844,1,2,0:0:0:0:
170,244,73010,2,0,B|129:240|129:240|112:247|112:247|59:242,1,98.9999969787599,10|10,0:1|1:1,0:0:0:0:
1,173,73677,2,0,P|-3:129|28:74,1,98.9999969787599,8|10,0:1|1:1,0:0:0:0:
59,49,74177,1,2,0:0:0:0:
59,49,74344,1,10,0:1:0:0:
139,106,74677,1,10,1:1:0:0:
231,54,75010,6,0,P|267:40|339:45,1,98.9999969787599,8|10,0:1|1:0,0:0:0:0:
371,74,75510,1,2,0:0:0:0:
371,74,75677,2,0,L|393:184,1,98.9999969787599,10|10,0:1|1:1,0:0:0:0:
465,235,76344,2,0,L|452:312,1,74.2499977340699,14|10,0:1|0:1,0:0:0:0:
400,367,76844,1,10,0:1:0:0:
400,367,77010,2,0,B|366:354|366:354|349:360|349:360|299:347,1,88,10|2,0:1|0:0,0:0:0:0:
264,243,77677,6,0,P|284:199|263:129,1,110,14|0,0:1|1:0,0:0:0:0:
239,103,78177,1,2,3:0:0:0:
239,103,78344,2,0,L|120:92,1,110,14|0,0:1|1:0,0:0:0:0:
28,160,79010,2,0,P|8:204|29:274,1,110,14|0,0:1|1:0,0:0:0:0:
65,304,79510,1,2,3:0:0:0:
65,304,79677,2,0,B|107:310|107:310|121:323|121:323|184:334,1,110,14|0,0:1|1:0,0:0:0:0:
278,384,80344,6,0,B|285:342|285:342|282:324|282:324|297:253,1,110,14|0,0:1|1:0,0:0:0:0:
219,193,81010,1,10,0:1:0:0:
301,120,81344,1,2,1:0:0:0:
373,201,81677,2,0,P|424:221|475:203,1,110,14|0,0:1|1:0,0:0:0:0:
493,94,82344,2,0,P|449:62|395:66,1,110,2|2,3:0|1:0,0:0:0:0:
301,120,83010,6,0,P|275:122|225:98,1,74.2499977340699,14|10,0:1|0:1,0:0:0:0:
176,48,83510,2,0,P|152:33|124:29,1,49.4999984893799,10|8,0:1|3:2,0:0:0:0:
2,179,84344,2,0,L|8:273,1,74.2499977340699,14|10,0:1|0:1,0:0:0:0:
52,318,84844,2,0,P|81:324|110:323,1,49.4999984893799,10|8,0:1|3:2,0:0:0:0:
237,212,85677,6,0,P|213:141|260:51,1,176,10|2,0:1|0:0,0:0:0:0:
412,73,87010,2,0,P|436:144|389:234,1,176,10|2,0:1|2:0,0:0:0:0:
249,331,88344,6,0,L|164:331,1,74.2499977340699,14|10,0:1|0:1,0:0:0:0:
97,329,88844,2,0,L|76:281,1,49.4999984893799,10|8,0:1|3:2,0:0:0:0:
88,85,89677,2,0,L|163:59,1,74.2499977340699,14|10,0:1|0:1,0:0:0:0:
234,74,90177,2,0,L|249:122,1,49.4999984893799,10|8,0:1|3:2,0:0:0:0:
349,317,91010,6,0,B|399:343|399:343|444:314,1,110,14|8,0:1|0:0,0:0:0:0:
489,281,91510,1,10,0:1:0:0:
489,281,91677,2,0,L|495:163,1,110,8|10,0:1|0:0,0:0:0:0:
447,71,92344,2,0,B|402:42|402:42|352:68,1,110,10|8,0:1|0:0,0:0:0:0:
271,143,93010,1,10,0:1:0:0:
309,246,93344,1,10,0:0:0:0:
233,358,93677,6,0,P|194:370|133:343,1,90.7500027694703,14|2,0:1|0:1,0:0:0:0:
70,321,94177,1,2,0:0:0:0:
154,233,94510,1,10,0:1:0:0:
154,233,94677,1,8,0:0:0:0:
52,166,95010,2,0,P|40:123|66:72,1,90.7500027694703,10|2,0:1|0:1,0:0:0:0:
125,30,95510,1,8,0:0:0:0:
125,30,95677,2,0,L|248:26,1,121.000003692627,10|8,2:1|2:2,0:0:0:0:
349,110,96344,6,0,P|368:150|340:224,1,121.000003692627,14|8,0:1|0:0,0:0:0:0:
299,259,96844,1,10,0:1:0:0:
363,360,97177,1,10,0:1:0:0:
363,360,97344,2,0,L|440:355,1,60.5000018463135,10|2,0:1|0:0,0:0:0:0:
504,265,97844,1,10,0:1:0:0:
504,265,98010,1,8,0:2:0:0:
419,165,98344,6,0,B|403:142|403:142|410:82|410:82|388:40,1,121.000003692627,12|8,0:1|0:0,0:0:0:0:
353,8,98844,1,10,0:1:0:0:
235,35,99177,1,10,0:1:0:0:
235,35,99344,1,8,0:1:0:0:
220,154,99677,1,10,0:1:0:0:
288,253,100010,1,10,0:0:0:0:
197,349,100344,6,0,B|154:368|154:368|111:355,1,90.7500027694703,14|2,0:1|0:1,0:0:0:0:
35,322,100844,1,2,0:0:0:0:
7,204,101177,1,10,0:1:0:0:
7,204,101344,1,8,0:0:0:0:
61,96,101677,2,0,B|101:72|101:72|144:80,1,90.7500027694703,10|2,0:1|0:1,0:0:0:0:
215,137,102177,1,8,0:1:0:0:
215,137,102344,2,0,P|263:162|338:133,1,121.000003692627,2|10,0:0|2:2,0:0:0:0:
416,48,103010,5,14,0:1:0:0:
416,48,103177,1,8,0:1:0:0:
502,142,103510,1,8,0:1:0:0:
502,142,103677,2,0,L|498:208,1,60.5000018463135,10|8,0:0|0:1,0:0:0:0:
475,321,104177,1,8,0:1:0:0:
475,321,104344,2,0,L|401:341,1,60.5000018463135,10|8,0:1|0:1,0:0:0:0:
303,379,104844,1,8,0:1:0:0:
303,379,105010,2,0,B|297:342|297:342|303:313|303:313|294:259,1,121.000003692627,10|2,0:0|0:0,0:0:0:0:
221,182,105677,6,0,B|142:156|157:210|76:186,2,140.250002675057,14|2|0,0:1|3:0|1:0,0:0:0:0:
292,242,107010,2,0,P|316:258|392:258,1,93.500001783371,8|0,0:1|1:0,0:0:0:0:
418,237,107510,2,0,L|444:140,1,93.500001783371,2|0,3:0|3:0,0:0:0:0:
480,119,108010,1,0,1:0:0:0:
411,36,108343,6,0,P|372:10|315:12,1,98.9999969787599,14|8,0:1|0:1,0:0:0:0:
281,37,108843,1,2,0:0:0:0:
281,37,109010,2,0,L|247:142,1,98.9999969787599,8|8,0:1|0:1,0:0:0:0:
261,184,109510,1,2,0:0:0:0:
261,184,109677,2,0,L|227:289,1,98.9999969787599,8|8,0:1|0:1,0:0:0:0:
155,342,110343,2,0,P|106:342|65:315,1,98.9999969787599,8|10,0:1|0:1,0:0:0:0:
19,216,111010,6,0,L|13:101,1,98.9999969787599,14|8,0:1|0:1,0:0:0:0:
22,71,111510,1,2,0:0:0:0:
22,71,111677,2,0,P|54:48|125:48,1,98.9999969787599,8|8,0:1|0:1,0:0:0:0:
207,71,112343,2,0,P|253:85|301:74,2,98.9999969787599,10|8|10,0:1|0:1|0:1,0:0:0:0:
118,26,113343,1,10,0:1:0:0:
13,94,113677,5,14,0:1:0:0:
55,201,114010,1,8,0:0:0:0:
55,201,114177,2,0,B|68:238|68:238|65:272|65:272|80:312,1,110,2|10,0:0|0:1,0:0:0:0:
101,355,114677,1,8,0:0:0:0:
207,380,115010,1,10,0:1:0:0:
264,286,115343,1,8,0:0:0:0:
264,286,115510,1,2,0:0:0:0:
184,209,115843,1,10,0:1:0:0:
184,209,116010,1,8,0:0:0:0:
272,126,116343,5,10,0:1:0:0:
346,214,116677,1,8,0:0:0:0:
346,214,116843,2,0,P|396:230|443:204,1,110,2|10,0:0|0:1,0:0:0:0:
484,168,117343,1,8,0:0:0:0:
468,59,117677,1,14,0:1:0:0:
158,58,119010,6,0,L|41:47,2,115.49999647522,2|2|2,0:0|0:0|0:0,0:0:0:0:
384,198,121677,2,0,L|501:209,2,115.49999647522,2|2|2,0:0|0:0|0:0,0:0:0:0:
70,328,124343,6,0,P|41:276|76:182,2,148.49999546814,14|2|10,0:1|3:0|0:1,0:0:0:0:
156,376,125677,2,0,L|263:368,1,98.9999969787599,10|10,0:1|2:1,0:0:0:0:
343,325,126343,1,10,3:1:0:0:
308,232,126677,1,10,0:1:0:0:
386,153,127010,6,0,P|411:84|389:15,2,148.49999546814,10|2|10,0:1|3:0|0:1,0:0:0:0:
308,232,128343,2,0,P|264:218|190:240,1,110,10|10,0:1|1:1,0:0:0:0:
158,263,128843,2,0,P|105:276|52:262,1,110,2|0,1:2|1:0,0:0:0:0:
6,231,129343,1,10,1:1:0:0:
25,99,129677,6,0,B|79:70|79:70|145:92,1,121.000003692627,14|10,3:1|0:0,0:0:0:0:
183,125,130177,1,2,0:0:0:0:
183,125,130343,1,2,3:0:0:0:
275,47,130677,1,10,3:2:0:0:
332,153,131010,2,0,B|349:296,1,121.000003692627,10|10,0:1|0:0,0:0:0:0:
413,373,131677,1,2,3:2:0:0:
512,302,132010,1,10,0:0:0:0:
445,202,132343,6,0,B|428:59,1,121.000003692627,10|10,2:1|2:2,0:0:0:0:
390,36,132843,1,2,3:2:0:0:
390,36,133010,2,0,B|338:15|338:15|265:33,1,121.000003692627,2|10,3:2|0:0,0:0:0:0:
223,140,133677,2,0,B|206:283,1,121.000003692627,10|10,0:1|0:0,0:0:0:0:
198,319,134177,1,2,0:0:0:0:
198,319,134343,1,2,3:0:0:0:
91,377,134677,1,10,3:2:0:0:
0,278,135010,6,0,B|17:135,1,121.000003692627,14|10,0:1|0:0,0:0:0:0:
29,99,135510,1,2,0:0:0:0:
29,99,135677,1,10,0:1:0:0:
140,53,136010,1,10,0:0:0:0:
207,153,136343,2,0,B|190:296,1,121.000003692627,10|10,0:1|0:0,0:0:0:0:
218,334,136843,1,2,3:0:0:0:
218,334,137010,2,0,B|268:362|268:362|333:350,1,121.000003692627,2|8,3:0|0:0,0:0:0:0:
390,330,137510,5,2,0:0:0:0:
390,330,137677,2,0,B|407:187,1,121.000003692627,10|10,0:1|0:0,0:0:0:0:
485,106,138343,2,0,B|456:130|456:130|367:112,1,121.000003692627,2|8,3:0|0:2,0:0:0:0:
265,65,139010,2,0,B|214:32|214:32|136:50,1,121.000003692627,10|10,0:1|0:0,0:0:0:0:
103,71,139510,1,10,0:1:0:0:
103,71,139677,1,10,0:0:0:0:
130,186,140010,1,10,0:0:0:0:
23,253,140343,5,14,0:1:0:0:
253,381,141677,1,10,0:1:0:0:
486,258,143010,1,10,0:1:0:0:
256,130,144343,1,10,0:1:0:0:
85,326,145677,5,14,0:1:0:0:
85,326,145843,1,10,0:1:0:0:
3,269,146177,1,2,0:0:0:0:
3,269,146343,2,0,L|-1:167,1,98.9999969787599,2|10,0:0|0:0,0:0:0:0:
41,80,147010,2,0,P|77:60|142:66,1,98.9999969787599,10|10,0:1|0:0,0:0:0:0:
181,90,147510,1,8,0:1:0:0:
181,90,147677,2,0,P|224:111|273:107,1,98.9999969787599,2|10,0:0|0:1,0:0:0:0:
370,48,148343,5,10,0:1:0:0:
370,48,148510,1,2,0:1:0:0:
445,118,148843,1,2,0:0:0:0:
445,118,149010,2,0,L|437:233,1,98.9999969787599,2|10,0:0|0:0,0:0:0:0:
390,304,149677,2,0,P|344:313|286:272,1,98.9999969787599,10|10,0:1|0:0,0:0:0:0:
275,252,150177,1,8,0:1:0:0:
275,252,150343,2,0,L|267:137,1,98.9999969787599,2|10,0:0|0:1,0:0:0:0:
209,49,151010,5,14,0:1:0:0:
209,49,151177,1,10,0:1:0:0:
109,91,151510,1,10,0:1:0:0:
109,91,151677,2,0,L|96:202,1,110,10|10,0:0|0:0,0:0:0:0:
30,288,152343,1,10,0:0:0:0:
91,379,152677,1,10,0:0:0:0:
192,335,153010,1,10,0:0:0:0:
297,366,153343,1,10,0:0:0:0:
399,304,153677,5,14,0:1:0:0:
488,373,156343,6,0,P|501:325|479:264,1,98.9999969787599,10|8,0:1|1:1,0:0:0:0:
452,245,156843,2,0,L|349:233,1,98.9999969787599,2|0,3:0|3:0,0:0:0:0:
312,205,157343,1,8,1:1:0:0:
245,131,157677,2,0,P|257:75|228:32,1,98.9999969787599,10|10,0:1|1:1,0:0:0:0:
193,18,158177,1,2,3:0:0:0:
193,18,158343,2,0,L|89:31,1,98.9999969787599,8|10,3:1|1:1,0:0:0:0:
18,109,159010,6,0,P|15:166|51:203,1,98.9999969787599,10|8,0:1|1:1,0:0:0:0:
84,219,159510,2,0,L|193:224,1,98.9999969787599,2|0,3:0|3:0,0:0:0:0:
224,250,160010,1,10,1:1:0:0:
313,208,160343,2,0,L|328:99,1,98.9999969787599,10|2,0:1|1:1,0:0:0:0:
344,65,160843,1,2,3:0:0:0:
344,65,161010,2,0,P|388:48|455:62,1,98.9999969787599,8|10,3:1|1:1,0:0:0:0:
500,146,161677,6,0,L|487:249,1,98.9999969787599,10|10,0:1|1:1,0:0:0:0:
436,328,162343,2,0,L|433:389,2,49.4999984893799,10|10|10,3:1|3:1|0:1,0:0:0:0:
383,243,163010,5,2,0:2:0:0:
198,353,164343,1,2,0:2:0:0:
15,241,165677,6,0,P|-2:179|30:89,1,153.999995300293,2|2,0:2|0:0,0:0:0:0:
116,38,167010,2,0,B|216:17|166:80|274:56,1,153.999995300293,2|2,0:3|0:0,0:0:0:0:
371,13,168343,5,2,0:2:0:0:
473,202,169677,1,2,0:2:0:0:
257,365,171010,6,0,B|349:288|441:65|320:-46|114:36|182:191,1,577.500022029878,2|0,0:2|0:0,0:0:0:0:
217,258,173677,6,0,P|331:328|478:192,2,352,2|2|4,0:2|0:0|0:2,0:0:0:0:
97,54,177677,6,0,L|201:37,1,90.7500027694703,14|2,0:1|0:1,0:0:0:0:
268,15,178177,1,2,0:0:0:0:
352,101,178510,1,10,0:1:0:0:
352,101,178677,1,8,0:0:0:0:
287,203,179010,2,0,P|271:244|285:298,1,90.7500027694703,10|2,0:1|0:1,0:0:0:0:
341,355,179510,1,8,0:0:0:0:
341,355,179677,2,0,P|410:365|456:331,1,121.000003692627,10|8,2:1|2:2,0:0:0:0:
502,216,180344,6,0,L|484:74,1,121.000003692627,14|8,0:1|0:0,0:0:0:0:
470,37,180844,1,10,0:1:0:0:
350,18,181177,1,10,0:1:0:0:
350,18,181344,2,0,L|275:36,1,60.5000018463135,10|2,0:1|0:0,0:0:0:0:
170,21,181844,1,10,0:1:0:0:
170,21,182010,1,8,0:2:0:0:
78,101,182344,6,0,P|49:148|78:222,1,121.000003692627,12|8,0:1|0:0,0:0:0:0:
104,254,182844,1,10,0:1:0:0:
216,210,183177,1,10,0:1:0:0:
216,210,183344,1,8,0:1:0:0:
262,321,183677,1,10,0:1:0:0:
150,365,184010,1,10,0:0:0:0:
87,247,184344,6,0,B|70:219|70:219|82:144,1,90.7500027694703,14|2,0:1|0:1,0:0:0:0:
104,81,184844,1,2,0:0:0:0:
199,7,185177,1,10,0:1:0:0:
199,7,185344,1,8,0:0:0:0:
257,112,185677,2,0,L|272:214,1,90.7500027694703,10|2,0:1|0:1,0:0:0:0:
307,284,186177,1,8,0:1:0:0:
307,284,186344,2,0,P|363:307|436:288,1,121.000003692627,2|10,0:0|2:2,0:0:0:0:
512,200,187010,5,14,0:1:0:0:
512,200,187177,1,10,0:1:0:0:
460,97,187510,1,10,0:1:0:0:
460,97,187677,2,0,L|439:33,1,60.5000018463135,8|10,0:0|0:1,0:0:0:0:
322,14,188177,2,0,L|303:71,1,60.5000018463135,10|8,0:1|0:1,0:0:0:0:
4,245,189677,5,14,0:1:0:0:
4,245,189844,1,8,0:1:0:0:
81,323,190177,1,8,0:1:0:0:
81,323,190344,2,0,L|148:311,1,55,10|8,0:0|0:1,0:0:0:0:
211,233,190844,1,8,0:1:0:0:
211,233,191010,2,0,L|211:159,1,55,10|8,0:1|0:1,0:0:0:0:
263,80,191510,1,8,0:1:0:0:
263,80,191677,2,0,P|304:63|380:69,1,110,10|10,0:0|0:0,0:0:0:0:
461,139,192344,6,0,B|469:183|469:183|458:224|458:224|471:281,2,143.55000120472,10|2|2,0:1|3:0|1:0,0:0:0:0:
399,65,193677,2,0,P|351:45|287:56,1,95.7000008031464,10|0,0:1|1:0,0:0:0:0:
236,119,194344,2,0,L|242:230,1,95.7000008031464,2|2,3:0|1:0,0:0:0:0:
202,327,195010,5,14,0:1:0:0:
202,327,195177,1,8,0:1:0:0:
92,313,195510,1,8,0:1:0:0:
92,313,195677,2,0,L|73:255,1,55,10|8,0:0|0:1,0:0:0:0:
3,176,196177,1,8,0:1:0:0:
3,176,196344,2,0,L|13:120,1,55,10|8,0:1|0:1,0:0:0:0:
86,39,196844,1,8,0:1:0:0:
86,39,197010,2,0,B|127:40|127:40|149:52|149:52|206:57,1,110,10|10,0:0|0:0,0:0:0:0:
300,37,197677,6,0,P|353:22|413:27,1,98.9999969787599,14|8,0:1|0:1,0:0:0:0:
445,50,198177,1,2,0:0:0:0:
445,50,198343,2,0,L|459:156,1,98.9999969787599,8|8,0:1|0:1,0:0:0:0:
487,195,198843,1,2,0:0:0:0:
487,195,199010,2,0,L|501:301,1,98.9999969787599,10|10,0:1|0:1,0:0:0:0:
449,378,199677,2,0,P|399:378|352:364,1,98.9999969787599,10|10,0:1|3:1,0:0:0:0:
266,302,200343,6,0,P|284:243|268:198,1,98.9999969787599,10|8,0:1|0:1,0:0:0:0:
248,166,200843,1,2,0:0:0:0:
248,166,201010,2,0,P|230:120|239:72,1,98.9999969787599,8|10,0:1|0:1,0:0:0:0:
321,17,201677,2,0,L|400:4,2,65.9999979858399,10|10|10,0:1|0:1|0:2,0:0:0:0:
349,95,202343,2,0,L|428:108,2,65.9999979858399,10|10|10,0:1|0:2|0:1,0:0:0:0:
278,132,203010,5,14,0:1:0:0:
203,59,203343,1,8,0:0:0:0:
203,59,203510,2,0,B|161:30|161:30|83:46,1,110,2|10,0:0|0:1,0:0:0:0:
52,63,204010,1,8,0:0:0:0:
88,166,204343,1,10,0:1:0:0:
16,249,204677,1,8,0:0:0:0:
16,249,204843,1,0,0:0:0:0:
69,345,205177,1,10,0:1:0:0:
69,345,205343,1,8,0:0:0:0:
178,294,205677,5,10,0:1:0:0:
271,352,206010,1,8,0:0:0:0:
271,352,206177,2,0,B|324:360|324:360|384:343,1,110,2|10,0:0|0:1,0:0:0:0:
430,327,206677,1,8,0:0:0:0:
491,236,207010,2,0,L|503:164,2,73.3333333333333,8|10|10,0:1|0:1|0:1,0:0:0:0:
414,206,207677,2,0,L|402:134,2,73.3333333333333,10|10|14,0:1|0:1|0:0,0:0:0:0:
