osu file format v14

[General]
AudioFilename: audio.mp3
AudioLeadIn: 0
PreviewTime: 40303
Countdown: 0
SampleSet: Soft
StackLeniency: 0.7
Mode: 0
LetterboxInBreaks: 0
WidescreenStoryboard: 1

[Editor]
Bookmarks: 197677,203343
DistanceSpacing: 0.5
BeatDivisor: 4
GridSize: 32
TimelineZoom: 1.8

[Metadata]
Title:Silver Orbit
TitleUnicode:Silver Orbit
Artist:Denkishiki Karen Ongaku Shuudan
ArtistUnicode:電気式華憐音楽集団
Creator:Lasse
Version:Hard
Source:
Tags:denkare Carnaval The Abyss japanese electronic metal rock
BeatmapID:2225506
BeatmapSetID:1062758

[Difficulty]
HPDrainRate:5
CircleSize:3.8
OverallDifficulty:6.8
ApproachRate:7.8
SliderMultiplier:1.38
SliderTickRate:1

[Events]
//Background and Video events
0,0,"bg.jpg",0,0
//Break Periods
//Storyboard Layer 0 (Background)
//Storyboard Layer 1 (Fail)
//Storyboard Layer 2 (Pass)
//Storyboard Layer 3 (Foreground)
//Storyboard Layer 4 (Overlay)
//Storyboard Sound Samples

[TimingPoints]
345,333.333333333333,4,2,1,50,1,0
345,-133.333333333333,4,2,1,50,0,0
4344,-117.647058823529,4,2,1,60,0,0
5678,-100,4,2,1,70,0,0
16344,-133.333333333333,4,2,1,50,0,0
17511,-133.333333333333,4,2,1,45,0,0
17678,-200,4,2,1,40,0,0
18011,-200,4,2,1,20,0,0
18344,-200,4,2,1,50,0,0
19011,-100,4,2,1,70,0,0
23011,-133.333333333333,4,2,1,55,0,0
24344,-100,4,2,1,70,0,0
25844,-133.333333333333,4,2,1,60,0,0
27011,-100,4,2,1,70,0,0
28344,-133.333333333333,4,2,1,55,0,0
29678,-100,4,2,1,70,0,0
30344,-100,4,2,1,60,0,0
31011,-100,4,2,1,70,0,0
31678,-100,4,2,1,60,0,0
32011,-100,4,2,1,65,0,0
32344,-111.111111111111,4,2,1,60,0,0
35011,-100,4,2,1,70,0,0
35678,-100,4,2,1,60,0,0
36344,-100,4,2,1,70,0,0
37011,-100,4,2,1,60,0,0
37344,-111.111111111111,4,2,1,60,0,0
37511,-133.333333333333,4,2,1,55,0,0
37678,-100,4,2,1,70,0,0
40344,-83.3333333333333,4,2,1,80,0,1
43011,333.333333333333,6,2,1,80,1,1
43011,-83.3333333333333,4,2,1,80,0,1
47011,333.333333333333,4,2,1,80,1,1
47011,-83.3333333333333,4,2,1,80,0,1
51010,-100,4,2,1,70,0,0
55010,-133.333333333333,4,2,1,55,0,0
57677,-100,4,2,1,70,0,0
60344,-133.333333333333,4,2,1,60,0,0
64344,-133.333333333333,4,2,1,65,0,0
65677,-100,4,2,1,70,0,0
71010,-133.333333333333,4,2,1,55,0,0
72344,-111.111111111111,4,2,1,65,0,0
77010,-166.666666666667,4,2,1,60,0,0
77344,-166.666666666667,4,2,1,55,0,0
77677,-100,4,2,1,65,0,0
80927,-100,4,2,1,60,0,0
81677,-100,4,2,1,65,0,0
83010,-100,4,2,1,70,0,0
83677,-100,4,2,1,60,0,0
84344,-100,4,2,1,70,0,0
85010,-100,4,2,1,60,0,0
85344,-100,4,2,1,65,0,0
85677,-133.333333333333,4,2,1,55,0,0
88344,-100,4,2,1,70,0,0
89010,-100,4,2,1,60,0,0
89677,-100,4,2,1,70,0,0
90344,-100,4,2,1,60,0,0
90677,-133.333333333333,4,2,1,60,0,0
90844,-133.333333333333,4,2,1,55,0,0
91010,-100,4,2,1,70,0,0
93677,-83.3333333333333,4,2,1,80,0,1
96344,333.333333333333,6,2,1,80,1,1
96344,-83.3333333333333,4,2,1,80,0,1
100344,333.333333333333,4,2,1,80,1,1
100344,-83.3333333333333,4,2,1,80,0,1
105677,-133.333333333333,4,2,1,60,0,0
106010,-133.333333333333,4,2,1,55,0,0
108343,-114.942528735632,4,2,1,60,0,0
113677,-100,4,2,1,70,0,0
117677,-200,4,2,1,60,0,0
119010,-200,4,2,1,40,0,0
122760,-200,4,2,1,20,0,0
123011,-200,4,2,1,24,0,0
123178,-200,4,2,1,26,0,0
123344,-200,4,2,1,28,0,0
123511,-200,4,2,1,30,0,0
123678,-200,4,2,1,32,0,0
123844,-200,4,2,1,34,0,0
124011,-200,4,2,1,36,0,0
124178,-200,4,2,1,5,0,0
124343,-125,4,2,1,50,0,0
128343,-100,4,2,1,55,0,0
128843,-100,4,2,1,60,0,0
129677,-83.3333333333333,4,2,1,80,0,1
140343,-133.333333333333,4,2,1,56,0,0
141677,-133.333333333333,4,2,1,58,0,0
143010,-133.333333333333,4,2,1,62,0,0
144343,-133.333333333333,4,2,1,64,0,0
145677,-111.111111111111,4,2,1,70,0,0
151010,-90.9090909090909,4,2,1,74,0,0
152343,-90.9090909090909,4,2,1,78,0,0
153677,-133.333333333333,4,2,1,60,0,0
156343,-100,4,2,1,60,0,0
157677,-100,4,2,1,62,0,0
159010,-90.9090909090909,4,2,1,64,0,0
160343,-90.9090909090909,4,2,1,66,0,0
161677,-90.9090909090909,4,2,1,68,0,0
162677,-90.9090909090909,4,2,1,60,0,0
162760,-90.9090909090909,4,2,1,50,0,0
163010,-200,4,2,2,42,0,0
163260,-200,4,2,1,42,0,0
164343,-200,4,2,2,42,0,0
164593,-200,4,2,1,42,0,0
166010,-200,4,2,1,5,0,0
166177,-200,4,2,1,36,0,0
166343,-200,4,2,1,42,0,0
166677,-200,4,2,1,5,0,0
166844,-200,4,2,1,36,0,0
167010,-200,4,2,1,42,0,0
167343,-200,4,2,1,5,0,0
167677,-200,4,2,1,42,0,0
168343,-200,4,2,2,42,0,0
168593,-200,4,2,1,42,0,0
169677,-200,4,2,2,42,0,0
169927,-200,4,2,1,42,0,0
171010,-175.438596491228,4,2,2,48,0,0
171093,-186.915887850467,4,2,2,5,0,0
173343,-186.915887850467,4,2,2,40,0,0
173677,-166.666666666667,4,2,2,50,0,0
173761,-166.666666666667,4,2,2,5,0,0
175010,-166.666666666667,4,2,1,40,0,0
175094,-166.666666666667,4,2,2,5,0,0
176343,-166.666666666667,4,2,2,30,0,0
177677,-83.3333333333333,4,2,1,80,0,1
180344,333.333333333333,6,2,1,80,1,1
180344,-83.3333333333333,4,2,1,80,0,1
184344,333.333333333333,4,2,1,80,1,1
184344,-83.3333333333333,4,2,1,80,0,1
188344,-100,4,2,1,70,0,0
192344,-133.333333333333,4,2,1,55,0,0
195010,-100,4,2,1,70,0,0
197677,-111.111111111111,4,2,1,65,0,0
203010,-100,4,2,1,70,0,0

[Colours]
Combo1 : 250,190,230
Combo2 : 130,200,230
Combo3 : 255,230,140
Combo4 : 170,245,170

[HitObjects]
0,333,345,6,0,P|59:336|112:302,1,103.500003948212,10|8,0:1|0:0,0:0:0:0:
138,250,844,2,0,P|137:186|162:140,1,103.500003948212,2|8,0:0|0:1,0:0:0:0:
222,115,1344,1,10,0:0:0:0:
222,115,1678,6,0,L|347:107,1,103.500003948212,10|8,0:1|0:0,0:0:0:0:
388,62,2178,2,0,P|374:129|400:173,1,103.500003948212,2|8,0:0|0:1,0:0:0:0:
452,214,2678,1,10,0:0:0:0:
452,214,2844,1,2,0:0:0:0:
377,277,3011,6,0,L|252:267,1,103.500003948212,10|8,0:1|0:0,0:0:0:0:
202,300,3511,2,0,L|77:290,1,103.500003948212,2|8,0:0|0:1,0:0:0:0:
26,312,4011,1,10,0:0:0:0:
26,312,4344,6,0,L|11:181,1,117.30000223732,10|8,0:1|0:0,0:0:0:0:
64,136,4844,1,8,0:1:0:0:
64,136,4928,2,0,P|105:135|144:100,1,87.97500167799,8|8,0:0|0:1,0:0:0:0:
150,26,5344,2,0,L|85:16,1,58.65000111866,8|0,0:0|0:0,0:0:0:0:
162,115,5678,6,0,L|238:101,1,69,14|8,0:1|0:1,0:0:0:0:
309,124,6011,1,8,0:0:0:0:
351,53,6178,1,2,0:0:0:0:
474,163,6511,1,10,0:1:0:0:
509,88,6678,2,0,L|492:10,1,69,8|0,0:0|0:0,0:0:0:0:
474,163,7011,6,0,L|491:241,1,69,10|8,0:1|0:1,0:0:0:0:
481,313,7344,1,8,0:0:0:0:
406,350,7511,2,0,P|352:336|270:335,1,138,2|10,0:0|0:1,0:0:0:0:
197,374,8011,1,8,0:2:0:0:
197,374,8178,1,0,0:0:0:0:
134,291,8344,6,0,P|148:244|148:207,1,69,10|8,0:1|0:1,0:0:0:0:
103,154,8678,1,8,0:0:0:0:
32,196,8844,1,2,0:0:0:0:
96,49,9178,1,10,0:1:0:0:
173,76,9344,2,0,P|220:71|250:57,1,69,8|0,0:0|0:0,0:0:0:0:
340,15,9678,6,0,P|387:9|450:21,2,92,10|10|10,0:1|0:1|0:2,0:0:0:0:
250,78,10344,1,10,0:1:0:0:
320,163,10567,1,10,0:2:0:0:
238,236,10789,1,10,0:1:0:0:
325,335,11011,6,0,L|406:327,1,69,14|8,0:1|0:1,0:0:0:0:
460,377,11344,1,8,0:0:0:0:
507,308,11511,1,2,0:0:0:0:
495,142,11844,1,10,0:1:0:0:
425,186,12011,2,0,L|344:178,1,69,8|0,0:0|0:0,0:0:0:0:
274,102,12344,6,0,P|278:66|256:19,1,69,10|8,0:1|0:1,0:0:0:0:
192,1,12678,1,8,0:0:0:0:
130,56,12844,2,0,P|113:110|142:199,1,138,2|10,0:0|0:1,0:0:0:0:
197,248,13344,1,8,0:0:0:0:
197,248,13511,1,0,0:0:0:0:
142,330,13678,6,0,P|113:342|57:337,1,69,10|8,0:1|0:1,0:0:0:0:
7,294,14011,1,8,0:0:0:0:
36,217,14178,1,2,0:0:0:0:
197,248,14511,1,10,0:1:0:0:
209,166,14678,2,0,L|197:76,1,69,8|0,0:0|0:0,0:0:0:0:
106,24,15011,6,0,B|76:19|76:19|53:28|53:28|-8:20,2,92,10|10|10,0:1|0:1|0:1,0:0:0:0:
201,79,15678,1,10,0:1:0:0:
299,27,15900,1,10,0:2:0:0:
384,97,16122,1,10,0:1:0:0:
497,33,16344,6,0,P|480:68|479:137,1,103.500003948212,14|0,0:1|1:0,0:0:0:0:
508,210,16844,1,2,3:0:0:0:
508,210,16928,2,0,P|512:254|497:285,1,77.6250029611589,0|8,3:0|3:1,0:0:0:0:
434,327,17344,2,0,P|410:315|379:307,1,51.7500019741059,2|0,1:0|1:0,0:0:0:0:
311,334,17678,6,0,P|276:353|170:355,1,138,10|0,0:1|1:0,0:0:0:0:
0,195,19011,6,0,L|79:188,1,69,14|8,0:1|0:1,0:0:0:0:
149,95,19344,2,0,L|70:88,1,69,8|0,0:0|0:0,0:0:0:0:
179,186,19678,2,0,P|173:216|191:268,1,69,2|8,0:0|0:1,0:0:0:0:
284,327,20011,1,8,0:0:0:0:
351,257,20178,2,0,P|359:223|353:190,1,69,2|8,0:0|0:1,0:0:0:0:
288,72,20511,5,10,0:1:0:0:
288,72,20594,1,8,0:1:0:0:
288,72,20678,2,0,P|279:38|285:5,1,69,8|0,0:0|0:0,0:0:0:0:
388,52,21011,2,0,P|397:86|391:119,1,69,2|8,0:0|0:1,0:0:0:0:
272,178,21344,1,8,0:0:0:0:
195,118,21511,2,0,P|162:104|116:99,1,69,2|8,0:0|0:1,0:0:0:0:
0,145,21844,5,10,0:1:0:0:
87,175,22011,1,8,0:0:0:0:
129,98,22178,2,0,P|141:63|137:18,1,69,2|0,0:0|0:0,0:0:0:0:
87,175,22511,1,10,0:1:0:0:
133,251,22678,2,0,P|162:268|196:274,1,69,8|0,0:0|0:0,0:0:0:0:
292,206,23011,6,0,L|320:85,1,103.500003948212,14|0,0:1|1:0,0:0:0:0:
362,18,23511,1,2,3:0:0:0:
362,18,23594,2,0,P|373:50|416:77,1,77.6250029611589,0|0,3:0|3:0,0:0:0:0:
497,62,24011,2,0,P|508:38|508:13,1,51.7500019741059,0|0,3:0|3:0,0:0:0:0:
406,94,24344,6,0,P|398:135|422:175,1,69,12|10,2:1|0:1,0:0:0:0:
416,174,24594,1,8,0:1:0:0:
428,185,24678,2,0,L|525:203,1,69,8|0,0:0|0:0,0:0:0:0:
422,291,25011,2,0,L|325:309,1,69,2|8,0:0|0:1,0:0:0:0:
262,378,25344,1,8,0:0:0:0:
199,302,25511,2,0,P|207:270|197:210,1,69,2|8,0:0|0:1,0:0:0:0:
131,145,25844,5,2,0:0:0:0:
131,145,25928,1,2,0:0:0:0:
131,145,26011,2,0,L|57:130,1,51.7500019741059,10|2,0:1|0:0,0:0:0:0:
51,61,26344,2,0,L|100:4,1,51.7500019741059,10|2,0:1|0:0,0:0:0:0:
163,33,26678,2,0,L|187:104,1,51.7500019741059,10|2,0:1|0:0,0:0:0:0:
190,88,26928,1,2,0:0:0:0:
199,93,27011,6,0,P|237:100|281:81,1,69,14|8,0:1|0:1,0:0:0:0:
373,31,27344,2,0,P|343:14|309:12,1,69,8|0,0:0|0:0,0:0:0:0:
402,131,27678,1,2,0:0:0:0:
326,177,27844,1,8,0:1:0:0:
373,253,28011,2,0,P|402:269|436:271,1,69,8|0,0:0|0:0,0:0:0:0:
294,307,28344,6,0,P|255:285|207:286,1,77.6250029611589,14|8,0:1|0:1,0:0:0:0:
214,289,28678,2,0,L|203:351,1,51.7500019741059,8|8,0:0|0:1,0:0:0:0:
72,384,29178,2,0,L|62:333,1,51.7500019741059,8|8,3:2|3:1,0:0:0:0:
113,175,29678,6,0,B|63:197|63:197|-4:160,1,103.5,14|10,0:1|0:1,0:0:0:0:
132,87,30178,1,10,0:1:0:0:
131,87,30344,2,0,P|169:32|235:34,1,138,8|0,3:2|3:0,0:0:0:0:
326,166,31011,6,0,L|342:297,1,103.5,14|10,0:1|0:1,0:0:0:0:
439,360,31511,1,10,0:1:0:0:
439,360,31678,2,0,L|454:247,1,103.5,8|0,3:2|3:0,0:0:0:0:
462,245,32011,2,0,L|520:232,1,46,0|0,1:0|1:0,0:0:0:0:
389,142,32344,6,0,P|356:122|312:116,1,62.0999981048585,14|0,0:1|0:0,0:0:0:0:
317,118,32594,1,10,0:1:0:0:
302,123,32678,2,0,P|268:137|237:136,1,62.0999981048585,8|2,0:1|0:0,0:0:0:0:
144,100,33011,2,0,P|115:87|85:85,1,62.0999981048585,10|8,0:1|0:1,0:0:0:0:
70,90,33261,1,10,0:1:0:0:
58,99,33344,2,0,P|39:124|31:160,1,62.0999981048585,8|2,0:1|0:0,0:0:0:0:
58,267,33678,6,0,L|138:257,1,62.0999981048585,10|0,0:1|0:0,0:0:0:0:
132,268,33928,1,10,0:1:0:0:
144,276,34011,2,0,L|224:266,1,62.0999981048585,8|2,0:1|0:0,0:0:0:0:
284,336,34344,2,0,L|302:205,1,124.199996209717,10|8,1:1|1:1,0:0:0:0:
463,100,35011,6,0,B|414:114|414:114|364:75,1,103.5,14|10,0:1|0:1,0:0:0:0:
256,0,35511,1,10,0:1:0:0:
256,0,35678,2,0,P|281:41|247:126,1,138,8|0,3:2|3:0,0:0:0:0:
54,205,36344,6,0,P|98:178|149:180,1,103.5,14|10,0:1|0:1,0:0:0:0:
241,281,36844,1,10,0:1:0:0:
241,281,37011,2,0,P|280:306|340:297,1,103.5,8|0,3:2|3:0,0:0:0:0:
369,281,37344,2,0,L|387:211,1,62.0999981048585,0|0,1:0|1:0,0:0:0:0:
473,149,37678,6,0,P|427:143|387:115,1,69,14|10,0:1|0:1,0:0:0:0:
394,121,37928,1,8,0:1:0:0:
382,107,38011,2,0,P|355:85|322:74,1,69,8|10,0:0|0:1,0:0:0:0:
305,77,38261,1,8,0:1:0:0:
289,85,38344,2,0,P|257:99|223:101,1,69,8|8,0:1|0:1,0:0:0:0:
153,33,38678,2,0,P|121:19|87:16,1,69,10|8,0:0|0:1,0:0:0:0:
0,110,39011,6,0,L|11:178,1,69,10|8,0:1|0:1,0:0:0:0:
76,249,39344,2,0,L|87:317,1,69,8|8,0:0|0:1,0:0:0:0:
171,366,39678,1,10,0:1:0:0:
246,306,39844,1,8,0:1:0:0:
332,349,40011,1,10,0:0:0:0:
497,226,40344,6,0,P|505:169|491:128,1,82.7999974731446,14|8,0:1|0:1,0:0:0:0:
499,145,40594,1,10,0:1:0:0:
499,145,40678,1,8,0:0:0:0:
424,67,40844,2,0,P|380:98|273:63,1,165.599994946289,2|10,0:0|0:1,0:0:0:0:
198,0,41344,1,8,0:0:0:0:
198,0,41511,1,2,0:0:0:0:
85,79,41678,6,0,L|91:190,1,82.7999974731446,10|8,0:1|0:1,0:0:0:0:
89,161,41928,1,10,0:1:0:0:
89,161,42011,1,8,0:0:0:0:
135,274,42178,1,8,0:0:0:0:
222,199,42344,2,0,P|296:172|389:164,1,165.599994946289,10|8,2:1|2:2,0:0:0:0:
512,363,43011,6,0,P|478:340|438:329,1,82.7999974731446,14|10,0:1|0:1,0:0:0:0:
417,328,43261,1,8,0:1:0:0:
396,330,43344,1,8,0:0:0:0:
300,374,43511,2,0,P|258:373|219:360,1,82.7999974731446,10|8,0:1|0:0,0:0:0:0:
139,282,43844,5,10,0:1:0:0:
215,231,44011,1,8,0:1:0:0:
133,191,44177,2,0,P|120:158|132:84,1,82.7999974731446,2|8,0:0|0:1,0:0:0:0:
171,35,44511,1,10,0:1:0:0:
256,67,44677,1,8,0:2:0:0:
475,22,45011,6,0,P|446:15|389:34,1,82.7999974731446,12|10,0:1|0:1,0:0:0:0:
382,46,45261,1,8,0:1:0:0:
371,63,45344,1,8,0:0:0:0:
338,169,45511,2,0,L|346:263,1,82.7999974731446,10|8,0:1|0:0,0:0:0:0:
401,351,45844,1,10,0:1:0:0:
496,301,46011,2,0,L|503:218,1,82.7999974731446,8|0,0:1|0:0,0:0:0:0:
458,113,46344,5,10,0:1:0:0:
232,173,46677,1,10,0:0:0:0:
79,18,47011,6,0,L|184:5,1,82.7999974731446,14|8,0:1|0:1,0:0:0:0:
161,7,47261,1,10,0:1:0:0:
161,7,47344,1,8,0:0:0:0:
276,53,47511,2,0,P|259:99|360:153,1,165.599994946289,2|10,0:0|0:1,0:0:0:0:
435,115,48011,1,8,0:0:0:0:
435,115,48177,1,2,0:0:0:0:
499,228,48344,6,0,P|501:271|467:319,1,82.7999974731446,10|8,0:1|0:1,0:0:0:0:
482,305,48594,1,10,0:1:0:0:
482,305,48677,1,8,0:0:0:0:
399,368,48844,1,8,0:1:0:0:
312,303,49011,2,0,P|264:278|225:284,1,82.7999974731446,2|8,0:0|0:1,0:0:0:0:
162,358,49344,2,0,P|127:380|86:381,1,82.7999974731446,10|0,3:2|2:2,0:0:0:0:
0,269,49677,5,14,0:1:0:0:
0,269,49844,2,0,L|18:175,1,82.7999974731446,10|8,0:1|0:0,0:0:0:0:
142,219,50177,5,10,0:1:0:0:
142,219,50344,1,8,0:0:0:0:
142,219,50510,2,0,L|124:125,1,82.7999974731446,10|0,0:1|0:0,0:0:0:0:
257,186,50844,6,0,L|275:92,1,82.7999974731446,10|8,0:1|0:1,0:0:0:0:
0,23,52344,5,14,0:1:0:0:
24,100,52510,1,8,0:1:0:0:
165,44,52844,5,8,0:1:0:0:
152,118,53010,1,10,0:0:0:0:
139,192,53177,1,8,0:1:0:0:
282,143,53510,5,8,0:1:0:0:
293,217,53677,1,10,0:1:0:0:
304,291,53844,1,8,0:1:0:0:
433,370,54177,5,8,0:1:0:0:
486,315,54344,2,0,P|502:269|496:240,1,69,10|8,0:0|0:1,0:0:0:0:
461,182,54677,2,0,P|445:136|451:107,1,69,10|8,0:0|0:1,0:0:0:0:
512,36,55010,6,0,B|491:48|491:48|394:28,1,103.500003948212,14|0,0:1|1:0,0:0:0:0:
317,11,55510,1,2,3:0:0:0:
317,11,55594,2,0,P|336:49|328:87,1,77.6250029611589,0|0,3:0|3:0,0:0:0:0:
281,145,56010,2,0,L|221:155,1,51.7500019741059,2|0,1:0|1:0,0:0:0:0:
142,109,56344,6,0,P|116:78|37:78,1,103.500003948212,10|0,0:1|1:0,0:0:0:0:
0,125,56844,1,2,3:0:0:0:
0,125,56927,2,0,L|8:216,1,77.6250029611589,0|0,3:0|3:0,0:0:0:0:
41,275,57344,2,0,P|64:266|103:262,1,51.7500019741059,2|0,1:0|1:0,0:0:0:0:
202,264,57677,5,14,0:1:0:0:
162,329,57844,1,8,0:1:0:0:
162,177,58177,5,8,0:1:0:0:
92,146,58344,1,10,0:0:0:0:
54,80,58510,1,8,0:1:0:0:
204,99,58844,5,8,0:1:0:0:
248,37,59010,1,10,0:1:0:0:
325,23,59177,1,8,0:1:0:0:
478,74,59510,5,8,0:1:0:0:
503,145,59677,2,0,L|485:220,1,69,10|8,0:0|0:1,0:0:0:0:
499,287,60010,2,0,L|481:362,1,69,10|8,0:0|0:1,0:0:0:0:
395,384,60344,6,0,P|378:339|315:330,1,103.500003948212,14|0,0:1|0:1,0:0:0:0:
257,358,60844,1,2,0:0:0:0:
257,358,61010,2,0,P|216:365|150:342,1,103.500003948212,8|8,0:1|2:1,0:0:0:0:
94,301,61510,1,2,0:0:0:0:
133,233,61677,2,0,P|145:188|123:112,1,103.500003948212,10|8,0:1|0:1,0:0:0:0:
18,18,62344,2,0,P|6:63|28:139,1,103.500003948212,10|2,0:1|3:0,0:0:0:0:
159,161,63010,6,0,B|200:162|200:162|214:173|214:173|272:191,1,103.500003948212,10|8,0:1|0:1,0:0:0:0:
331,138,63510,1,2,0:0:0:0:
331,138,63677,2,0,P|314:89|339:47,1,103.500003948212,8|10,0:1|2:1,0:0:0:0:
499,148,64344,6,0,L|514:224,2,69.0000026321412,10|10|10,0:1|0:1|0:2,0:0:0:0:
472,47,65010,1,10,0:1:0:0:
388,108,65233,1,10,0:2:0:0:
345,13,65455,1,10,0:1:0:0:
226,81,65677,6,0,P|194:84|150:59,1,69,14|8,0:1|0:1,0:0:0:0:
97,15,66010,1,8,0:0:0:0:
22,51,66177,1,2,0:0:0:0:
17,216,66510,1,10,0:1:0:0:
91,253,66677,2,0,L|163:239,1,69,8|0,0:0|0:0,0:0:0:0:
251,297,67010,6,0,P|251:336|286:374,1,69,10|8,0:1|0:1,0:0:0:0:
345,384,67344,1,8,0:0:0:0:
415,340,67510,2,0,P|432:286|398:200,1,138,2|8,0:0|0:1,0:0:0:0:
349,152,68010,1,8,0:0:0:0:
349,152,68177,1,0,0:0:0:0:
259,207,68344,6,0,L|176:201,1,69,10|8,0:1|0:1,0:0:0:0:
113,169,68677,1,8,0:0:0:0:
49,221,68844,1,2,0:0:0:0:
9,59,69177,1,8,0:1:0:0:
91,64,69344,2,0,L|188:47,1,69,8|0,0:0|0:0,0:0:0:0:
290,15,69677,6,0,B|320:17|320:17|338:29|338:29|401:40,2,92,10|10|10,0:1|0:1|0:1,0:0:0:0:
183,43,70344,1,10,0:1:0:0:
259,123,70566,1,10,0:2:0:0:
156,164,70788,1,10,0:1:0:0:
221,265,71010,6,0,L|339:285,1,103.500003948212,10|0,0:1|1:0,0:0:0:0:
398,321,71510,1,2,3:0:0:0:
398,321,71594,2,0,P|398:286|424:225,1,77.6250029611589,0|0,3:0|3:0,0:0:0:0:
466,191,72010,2,0,P|476:165|479:137,1,51.7500019741059,2|0,1:0|1:0,0:0:0:0:
430,65,72344,6,0,B|389:52|389:52|356:73|356:73|303:83,1,124.199996209717,14|8,0:1|1:1,0:0:0:0:
239,50,72844,1,2,0:0:0:0:
205,127,73010,1,10,0:1:0:0:
205,127,73177,2,0,L|215:193,1,62.0999981048585,2|10,0:0|1:1,0:0:0:0:
242,264,73510,2,0,L|232:330,1,62.0999981048585,2|8,2:0|0:1,0:0:0:0:
149,378,73844,5,2,0:0:0:0:
149,378,73927,1,2,0:0:0:0:
149,378,74010,2,0,L|139:316,1,62.0999981048585,10|2,1:1|0:0,0:0:0:0:
75,270,74344,1,10,0:1:0:0:
75,270,74510,2,0,L|85:208,1,62.0999981048585,2|10,0:0|1:1,0:0:0:0:
21,158,74844,2,0,L|11:96,1,62.0999981048585,2|8,0:0|0:1,0:0:0:0:
75,14,75177,5,2,0:0:0:0:
146,51,75344,2,0,P|178:62|211:58,1,62.0999981048585,10|2,1:0|0:0,0:0:0:0:
284,38,75677,2,0,P|312:27|346:27,1,62.0999981048585,10|2,0:1|0:0,0:0:0:0:
423,42,76010,1,10,1:1:0:0:
423,42,76177,1,2,0:0:0:0:
471,109,76344,6,0,L|446:205,1,93.1499971572877,14|10,0:1|0:1,0:0:0:0:
500,307,76844,1,10,0:1:0:0:
500,307,77010,2,0,P|449:284|409:282,1,82.7999974731446,10|2,0:1|0:0,0:0:0:0:
422,281,77677,6,0,P|363:323|281:329,1,138,14|0,0:1|1:0,0:0:0:0:
227,265,78177,1,0,3:0:0:0:
227,265,78260,1,0,3:0:0:0:
227,265,78344,2,0,P|244:195|221:115,1,138,14|0,0:1|1:0,0:0:0:0:
167,67,78844,1,2,0:0:0:0:
82,149,79010,6,0,P|65:219|88:299,1,138,14|0,0:1|1:0,0:0:0:0:
139,362,79510,1,0,3:0:0:0:
139,362,79594,1,0,3:0:0:0:
139,362,79677,2,0,L|283:348,1,138,14|0,0:1|1:0,0:0:0:0:
359,382,80177,1,2,0:0:0:0:
466,320,80344,6,0,P|488:275|468:181,1,138,14|0,0:1|1:0,0:0:0:0:
412,71,80927,1,8,0:1:0:0:
412,71,81010,2,0,P|383:90|343:81,1,69,10|8,0:1|0:1,0:0:0:0:
264,57,81344,2,0,P|241:31|208:26,1,69,2|0,1:0|1:0,0:0:0:0:
117,81,81677,6,0,L|81:238,2,138,14|0|0,0:1|1:0|3:0,0:0:0:0:
208,26,82510,1,0,1:0:0:0:
237,110,82677,1,2,1:0:0:0:
373,59,83010,6,0,B|418:35|418:35|484:47,1,103.5,14|10,0:1|0:1,0:0:0:0:
383,148,83510,1,10,0:1:0:0:
383,148,83677,2,0,P|421:183|436:282,1,138,8|0,3:2|3:0,0:0:0:0:
278,366,84344,6,0,L|167:349,1,103.5,14|10,0:1|0:1,0:0:0:0:
58,383,84844,1,10,0:1:0:0:
58,383,85010,2,0,P|69:323|53:267,1,103.5,8|0,3:2|3:0,0:0:0:0:
51,267,85344,2,0,L|9:246,1,46,0|0,1:0|1:0,0:0:0:0:
85,134,85677,6,0,P|111:123|134:118,1,51.7500019741059,10|0,0:1|0:0,0:0:0:0:
143,121,85927,1,2,3:0:0:0:
152,126,86010,2,0,P|175:136|200:141,1,51.7500019741059,0|0,1:0|0:0,0:0:0:0:
273,107,86344,2,0,P|273:83|285:52,1,51.7500019741059,2|8,0:0|3:1,0:0:0:0:
290,50,86594,1,2,3:0:0:0:
299,45,86677,2,0,L|362:36,1,51.7500019741059,0|0,1:0|0:0,0:0:0:0:
422,96,87010,6,0,P|422:121|445:164,1,51.7500019741059,10|0,0:1|0:0,0:0:0:0:
437,154,87260,1,2,3:0:0:0:
443,161,87344,2,0,P|451:185|451:211,1,51.7500019741059,0|8,1:0|2:1,0:0:0:0:
399,275,87677,2,0,L|289:297,1,103.500003948212,2|8,1:0|0:1,0:0:0:0:
201,159,88344,6,0,B|217:111|217:111|183:47,1,103.5,14|10,0:1|0:1,0:0:0:0:
85,1,88844,1,10,0:1:0:0:
85,1,89010,2,0,L|65:143,1,138,8|0,3:2|3:0,0:0:0:0:
2,305,89677,6,0,P|46:278|98:286,1,103.5,14|10,0:1|0:1,0:0:0:0:
200,350,90177,1,10,0:1:0:0:
200,350,90344,2,0,P|248:363|297:331,1,103.5,8|0,3:2|3:0,0:0:0:0:
302,323,90677,2,0,L|316:253,1,51.7500019741059,0|0,1:0|3:0,0:0:0:0:
235,176,91010,6,0,B|208:169|208:169|199:173|199:173|167:168,1,69,14|10,0:1|0:1,0:0:0:0:
151,165,91260,1,8,0:1:0:0:
134,160,91344,2,0,P|113:131|113:90,1,69,8|10,0:0|0:1,0:0:0:0:
120,84,91594,1,8,0:1:0:0:
132,71,91677,2,0,B|159:64|159:64|168:68|168:68|199:63,1,69,8|8,0:1|0:1,0:0:0:0:
285,16,92010,2,0,B|312:9|312:9|321:13|321:13|352:8,1,69,10|8,0:0|0:1,0:0:0:0:
448,86,92344,6,0,P|449:120|461:152,1,69,10|10,0:1|0:1,0:0:0:0:
503,240,92677,2,0,P|501:274|489:306,1,69,8|8,0:0|0:1,0:0:0:0:
421,375,93010,1,10,0:1:0:0:
346,314,93177,1,8,0:1:0:0:
268,371,93344,1,10,0:0:0:0:
50,317,93677,6,0,P|35:268|45:218,1,82.7999974731446,14|8,0:1|0:1,0:0:0:0:
38,237,93927,1,10,0:1:0:0:
38,237,94010,1,8,0:0:0:0:
118,157,94177,2,0,B|172:150|172:150|209:174|209:174|292:165,1,165.599994946289,2|10,0:0|0:1,0:0:0:0:
360,98,94677,1,8,0:0:0:0:
360,98,94844,1,2,0:0:0:0:
250,21,95010,6,0,L|156:9,1,82.7999974731446,10|8,0:1|0:1,0:0:0:0:
167,10,95260,1,10,0:1:0:0:
167,10,95344,1,8,0:0:0:0:
65,55,95510,1,8,0:0:0:0:
118,157,95677,2,0,P|136:213|77:319,1,165.599994946289,10|8,2:1|2:2,0:0:0:0:
95,307,96344,6,0,P|127:286|172:282,1,82.7999974731446,14|10,0:1|0:1,0:0:0:0:
190,286,96594,1,8,0:1:0:0:
206,298,96677,1,8,0:0:0:0:
295,356,96844,2,0,P|332:373|373:371,1,82.7999974731446,10|8,0:1|0:0,0:0:0:0:
477,318,97177,5,10,0:1:0:0:
425,242,97344,1,8,0:1:0:0:
476,166,97510,2,0,P|489:133|467:60,1,82.7999974731446,2|8,0:0|0:1,0:0:0:0:
422,19,97844,1,10,0:1:0:0:
356,82,98010,1,8,0:2:0:0:
156,34,98344,6,0,P|118:19|59:20,1,82.7999974731446,12|10,0:1|0:1,0:0:0:0:
56,23,98594,1,8,0:1:0:0:
38,33,98677,1,8,0:0:0:0:
4,144,98844,2,0,L|18:242,1,82.7999974731446,10|8,0:1|0:0,0:0:0:0:
54,335,99177,1,10,0:1:0:0:
162,293,99344,2,0,P|200:277|241:275,1,82.7999974731446,8|0,0:1|0:0,0:0:0:0:
356,293,99677,5,10,0:1:0:0:
177,181,100010,1,10,0:0:0:0:
386,116,100344,6,0,P|398:82|385:14,1,82.7999974731446,14|8,0:1|0:1,0:0:0:0:
394,35,100594,1,10,0:1:0:0:
394,35,100677,1,8,0:0:0:0:
294,0,100844,2,0,P|267:59|297:176,1,165.599994946289,2|10,0:0|0:1,0:0:0:0:
369,217,101344,1,8,0:0:0:0:
369,217,101510,1,2,0:0:0:0:
271,300,101677,6,0,L|165:288,1,82.7999974731446,10|8,0:1|0:1,0:0:0:0:
188,290,101927,1,10,0:1:0:0:
188,290,102010,1,8,0:0:0:0:
108,366,102177,1,8,0:1:0:0:
25,288,102344,2,0,P|12:258|26:205,1,82.7999974731446,2|8,0:0|0:1,0:0:0:0:
96,123,102677,2,0,L|178:113,1,82.7999974731446,10|0,3:2|2:2,0:0:0:0:
302,35,103010,5,14,0:1:0:0:
302,35,103177,2,0,L|207:23,1,82.7999974731446,8|0,0:1|0:0,0:0:0:0:
314,135,103510,5,8,0:1:0:0:
314,135,103677,1,10,0:0:0:0:
314,135,103844,2,0,L|238:193,1,82.7999974731446,8|0,0:1|0:0,0:0:0:0:
393,197,104177,5,8,0:1:0:0:
393,197,104344,1,10,0:1:0:0:
393,197,104510,2,0,L|380:291,1,82.7999974731446,8|0,0:1|0:0,0:0:0:0:
304,384,104844,5,8,0:1:0:0:
226,335,105010,2,0,B|196:329|196:329|185:336|185:336|130:327,1,82.7999974731446,10|8,0:0|0:1,0:0:0:0:
50,257,105344,2,0,B|80:251|80:251|91:258|91:258|145:249,1,82.7999974731446,2|8,0:0|0:1,0:0:0:0:
33,171,105677,6,0,P|16:122|50:63,1,103.500003948212,14|0,0:1|1:0,0:0:0:0:
98,26,106177,1,2,3:0:0:0:
98,26,106260,2,0,P|128:44|176:37,1,77.6250029611589,0|0,3:0|3:0,0:0:0:0:
240,9,106677,1,0,1:0:0:0:
366,84,107010,6,0,P|384:131|367:178,1,103.500003948212,8|0,0:1|1:0,0:0:0:0:
305,225,107510,1,2,3:0:0:0:
305,225,107593,2,0,L|216:211,1,77.6250029611589,0|0,3:0|3:0,0:0:0:0:
165,259,108010,1,0,1:0:0:0:
256,362,108343,6,0,L|402:355,1,120.060001007584,14|8,0:1|0:1,0:0:0:0:
456,380,108843,1,2,0:0:0:0:
456,380,109010,2,0,L|471:246,1,120.060001007584,8|8,0:1|0:1,0:0:0:0:
475,176,109510,5,2,0:0:0:0:
475,176,109593,1,2,0:0:0:0:
475,176,109677,2,0,P|405:174|346:141,1,120.060001007584,8|8,0:1|0:1,0:0:0:0:
227,50,110343,2,0,P|172:26|112:26,1,120.060001007584,8|10,0:1|0:1,0:0:0:0:
10,160,111010,6,0,L|19:294,1,120.060001007584,14|8,0:1|0:1,0:0:0:0:
69,346,111510,1,2,0:0:0:0:
69,346,111677,2,0,P|132:320|193:323,1,120.060001007584,8|8,0:1|0:1,0:0:0:0:
256,362,112177,1,2,0:0:0:0:
319,307,112343,6,0,L|327:187,1,120.060001007584,10|8,0:1|0:1,0:0:0:0:
260,71,112927,1,8,0:1:0:0:
260,71,113010,2,0,P|226:79|184:73,1,60.0300005037918,10|0,0:1|0:0,0:0:0:0:
321,14,113343,2,0,P|355:6|397:12,1,60.0300005037918,10|2,0:1|0:1,0:0:0:0:
470,64,113677,6,0,L|484:145,1,69,14|8,0:1|0:1,0:0:0:0:
447,207,114010,1,8,0:0:0:0:
500,270,114177,1,2,0:0:0:0:
377,380,114510,1,10,0:1:0:0:
314,326,114677,2,0,P|271:309|234:310,1,69,8|0,0:0|0:0,0:0:0:0:
153,363,115010,6,0,P|118:359|87:345,1,69,10|8,0:1|0:1,0:0:0:0:
26,288,115343,1,8,0:0:0:0:
61,213,115510,2,0,B|89:142|52:155|79:77,1,138,2|10,0:0|0:1,0:0:0:0:
141,23,116010,1,8,0:0:0:0:
141,23,116177,1,0,0:0:0:0:
211,106,116343,6,0,L|231:199,1,69,10|8,0:1|0:1,0:0:0:0:
267,245,116677,1,8,0:0:0:0:
331,193,116843,1,2,0:0:0:0:
434,322,117177,1,10,0:1:0:0:
488,260,117343,2,0,L|504:174,1,69,8|0,0:0|0:0,0:0:0:0:
483,111,117677,5,14,0:1:0:0:
365,379,119010,1,2,0:0:0:0:
352,302,119510,1,2,0:0:0:0:
339,225,120010,1,2,0:0:0:0:
147,379,121677,1,2,0:0:0:0:
160,302,122177,1,2,0:0:0:0:
173,225,122677,1,2,0:0:0:0:
21,377,124343,6,0,P|1:323|24:256,1,110.4,14|8,0:1|0:1,0:0:0:0:
80,225,124843,2,0,L|191:211,1,110.4,2|0,3:0|0:0,0:0:0:0:
260,167,125343,2,0,P|280:113|257:46,2,110.4,10|10|10,0:1|0:1|2:1,0:0:0:0:
116,250,126343,2,0,L|50:243,1,55.2,10|0,3:1|3:0,0:0:0:0:
4,183,126677,2,0,P|-2:149|7:111,1,55.2,10|0,0:1|0:0,0:0:0:0:
47,48,127010,6,0,L|175:28,1,110.4,10|8,0:1|0:1,0:0:0:0:
236,52,127510,2,0,L|364:32,1,110.4,2|0,3:0|0:0,0:0:0:0:
423,60,128010,2,0,P|438:87|437:124,1,55.2,10|0,0:1|0:0,0:0:0:0:
358,185,128343,6,0,L|213:170,1,138,10|10,0:1|1:1,0:0:0:0:
129,204,128843,1,0,1:2:0:0:
129,204,128927,2,0,P|105:241|117:302,1,103.5,0|0,1:0|1:0,0:0:0:0:
189,357,129343,2,0,L|262:352,1,69,10|0,1:1|0:0,0:0:0:0:
382,384,129677,6,0,L|393:282,1,82.7999974731446,14|10,3:1|3:1,0:0:0:0:
407,289,129927,1,2,3:0:0:0:
423,276,130010,2,0,L|434:174,1,82.7999974731446,10|0,0:0|0:0,0:0:0:0:
480,88,130343,2,0,P|460:92|419:90,3,41.3999987365723,2|0|8|0,3:0|3:0|3:1|3:0,0:0:0:0:
396,90,130677,2,0,P|375:85|355:83,3,41.3999987365723,10|0|0|0,3:2|3:0|3:0|3:0,0:0:0:0:
321,107,131010,6,0,B|281:125|281:125|219:90,1,82.7999974731446,10|8,0:1|0:1,0:0:0:0:
144,51,131343,2,0,B|110:31|110:31|70:49,1,82.7999974731446,10|0,0:0|0:0,0:0:0:0:
5,147,131677,2,0,L|13:235,1,82.7999974731446,2|10,3:2|3:1,0:0:0:0:
21,248,131927,1,2,3:2:0:0:
31,265,132010,2,0,B|65:285|65:285|105:267,1,82.7999974731446,10|0,0:0|0:0,0:0:0:0:
202,190,132343,5,10,2:1:0:0:
153,110,132510,1,10,2:1:0:0:
153,110,132593,1,10,2:1:0:0:
153,110,132677,2,0,P|144:61|169:27,1,82.7999974731446,10|2,2:2|3:2,0:0:0:0:
268,10,133010,2,0,L|324:3,2,41.3999987365723,2|2|10,3:2|3:2|3:1,0:0:0:0:
328,110,133343,2,0,L|424:127,1,82.7999974731446,10|8,0:0|0:1,0:0:0:0:
498,209,133677,6,0,B|511:248|511:248|495:285,1,82.7999974731446,10|8,0:1|0:1,0:0:0:0:
485,304,133927,1,8,0:1:0:0:
473,321,134010,2,0,L|382:342,1,82.7999974731446,10|2,0:0|0:0,0:0:0:0:
290,283,134343,2,0,L|281:235,3,41.3999987365723,2|0|8|0,3:0|3:0|3:1|3:0,0:0:0:0:
257,208,134677,2,0,L|248:160,3,41.3999987365723,10|0|0|0,3:2|3:0|3:0|3:0,0:0:0:0:
225,133,135010,6,0,B|190:111|190:111|133:135,1,82.7999974731446,14|8,0:1|2:1,0:0:0:0:
135,140,135260,1,10,2:1:0:0:
120,154,135343,2,0,L|106:256,1,82.7999974731446,10|2,0:0|0:0,0:0:0:0:
153,344,135677,2,0,B|188:366|188:366|245:342,1,82.7999974731446,10|0,0:1|0:0,0:0:0:0:
244,339,135927,1,10,0:1:0:0:
260,326,136010,2,0,B|295:304|295:304|333:320,1,82.7999974731446,10|10,0:0|0:1,0:0:0:0:
456,384,136343,6,0,B|477:208,1,165.599994946289,10|10,0:1|0:0,0:0:0:0:
512,118,136843,1,2,3:0:0:0:
512,118,136927,1,2,3:0:0:0:
512,118,137010,2,0,B|430:147|430:147|356:77,1,165.599994946289,2|8,3:0|0:0,0:0:0:0:
300,9,137510,1,2,0:0:0:0:
247,118,137677,6,0,B|234:174|234:174|238:213|238:213|219:294,1,165.599994946289,10|10,0:1|0:0,0:0:0:0:
188,374,138177,1,2,3:0:0:0:
63,335,138343,2,0,B|27:308|27:308|22:172,1,165.599994946289,2|8,3:0|0:2,0:0:0:0:
140,7,139010,5,10,0:1:0:0:
205,82,139177,1,10,0:1:0:0:
205,82,139260,1,10,0:1:0:0:
205,82,139343,2,0,B|237:105|237:105|278:93,1,82.7999974731446,10|10,0:0|0:1,0:0:0:0:
367,48,139677,2,0,B|399:25|399:25|440:36,1,82.7999974731446,10|10,0:0|0:1,0:0:0:0:
506,110,140010,2,0,L|492:212,1,82.7999974731446,10|10,0:0|0:1,0:0:0:0:
512,289,140343,6,0,P|471:266|409:266,3,103.500003948212,14|8|8|8,0:1|0:1|0:1|0:1,0:0:0:0:
342,337,141677,2,0,P|290:336|245:312,3,103.500003948212,10|8|8|8,0:1|0:1|0:1|0:1,0:0:0:0:
205,216,143010,2,0,P|229:170|229:119,3,103.500003948212,10|8|8|8,0:1|0:1|0:1|0:1,0:0:0:0:
125,86,144343,2,0,P|100:131|100:182,3,103.500003948212,10|8|8|8,0:1|0:1|0:1|0:1,0:0:0:0:
168,314,145677,5,14,0:1:0:0:
168,314,145843,2,0,L|236:301,1,62.0999981048585,10|8,0:1|0:0,0:0:0:0:
307,339,146177,1,2,0:0:0:0:
307,339,146343,2,0,L|375:326,1,62.0999981048585,2|8,0:0|0:1,0:0:0:0:
443,371,146677,1,10,0:0:0:0:
443,371,146843,1,2,0:0:0:0:
506,281,147010,6,0,P|516:241|501:199,1,62.0999981048585,10|8,0:1|0:1,0:0:0:0:
454,156,147343,2,0,L|378:144,1,62.0999981048585,10|8,0:0|0:1,0:0:0:0:
307,168,147677,1,2,0:0:0:0:
262,93,147843,1,8,0:2:0:0:
295,12,148010,1,10,0:1:0:0:
166,129,148343,5,10,0:1:0:0:
166,129,148510,2,0,P|159:86|137:50,1,62.0999981048585,2|8,0:1|0:0,0:0:0:0:
71,19,148843,1,2,0:0:0:0:
71,19,149010,2,0,P|59:47|56:78,1,62.0999981048585,2|8,0:0|0:1,0:0:0:0:
68,164,149343,1,10,0:0:0:0:
68,164,149510,1,2,0:0:0:0:
158,219,149677,6,0,L|233:205,1,62.0999981048585,10|8,0:1|0:1,0:0:0:0:
283,148,150010,2,0,P|281:119|301:66,1,62.0999981048585,10|8,0:0|0:1,0:0:0:0:
374,166,150343,2,0,P|381:195|379:226,1,62.0999981048585,2|8,0:0|0:0,0:0:0:0:
311,292,150677,2,0,L|267:280,2,31.0499990524292,10|8|8,0:1|0:1|0:1,0:0:0:0:
392,361,151010,5,14,0:1:0:0:
392,361,151177,2,0,L|470:346,1,75.9000023162842,10|8,0:1|0:0,0:0:0:0:
511,260,151510,1,10,0:1:0:0:
511,260,151677,2,0,L|488:171,1,75.9000023162842,10|8,0:0|0:1,0:0:0:0:
464,97,152010,1,10,0:0:0:0:
464,97,152177,1,10,0:1:0:0:
364,144,152343,6,0,P|330:143|289:117,1,75.9000023162842,10|10,0:0|0:1,0:0:0:0:
218,45,152677,2,0,P|252:44|293:18,1,75.9000023162842,10|10,0:0|0:1,0:0:0:0:
135,105,153010,2,0,P|135:67|118:33,1,75.9000023162842,10|10,0:0|0:1,0:0:0:0:
31,109,153343,2,0,P|30:146|47:180,1,75.9000023162842,10|10,0:0|0:1,0:0:0:0:
135,260,153677,5,14,0:1:0:0:
298,167,154177,1,8,0:1:0:0:
298,167,154343,2,0,P|278:125|286:69,1,103.500003948212,8|8,0:0|0:1,0:0:0:0:
378,15,155010,6,0,L|469:6,2,69.0000026321412,10|8|8,0:1|0:1|0:1,0:0:0:0:
303,57,155677,2,0,B|264:47|264:47|238:54|238:54|198:44,1,103.500003948212,8|8,0:0|0:0,0:0:0:0:
53,76,156343,6,0,P|24:123|39:210,1,138,10|8,0:1|1:1,0:0:0:0:
92,275,156843,1,2,3:0:0:0:
92,275,156927,1,0,3:0:0:0:
92,275,157010,2,0,L|180:267,1,69,8|0,3:1|3:0,0:0:0:0:
230,313,157343,1,8,1:1:0:0:
293,259,157510,1,0,1:0:0:0:
255,166,157677,6,0,P|242:113|277:24,1,138,10|10,0:1|1:1,0:0:0:0:
354,17,158177,1,2,3:0:0:0:
354,17,158260,1,0,3:0:0:0:
354,17,158343,2,0,L|445:22,1,69,8|0,3:1|3:0,0:0:0:0:
496,60,158677,2,0,P|495:114|476:145,1,69,10|0,1:1|0:0,0:0:0:0:
410,197,159010,6,0,L|255:203,1,151.800004632568,10|8,0:1|1:1,0:0:0:0:
178,158,159510,1,2,3:0:0:0:
178,158,159593,1,0,3:0:0:0:
178,158,159677,2,0,P|172:105|157:74,1,75.9000023162842,8|0,3:1|3:0,0:0:0:0:
99,18,160010,1,10,1:1:0:0:
14,52,160177,1,0,1:0:0:0:
16,161,160343,6,0,L|37:326,1,151.800004632568,10|2,0:1|1:1,0:0:0:0:
113,368,160843,1,2,3:0:0:0:
113,368,160927,1,0,3:0:0:0:
113,368,161010,2,0,P|161:346|192:346,1,75.9000023162842,8|0,3:1|3:0,0:0:0:0:
266,363,161343,2,0,P|302:372|339:366,1,75.9000023162842,10|0,1:1|0:0,0:0:0:0:
451,300,161677,6,0,L|477:137,1,151.800004632568,10|10,0:1|1:1,0:0:0:0:
457,58,162177,1,2,3:0:0:0:
457,58,162260,1,2,3:0:0:0:
457,58,162343,2,0,P|413:76|367:64,1,75.9000023162842,10|10,3:1|3:1,0:0:0:0:
296,19,162677,2,0,L|334:9,1,37.9500011581421,10|2,0:1|0:0,0:0:0:0:
231,97,163010,6,0,P|236:129|228:159,2,51.75,2|2|2,0:2|0:3|0:0,0:0:0:0:
69,162,164343,2,0,P|64:194|72:224,2,51.75,2|2|2,0:2|0:2|0:2,0:0:0:0:
216,73,165677,6,0,L|321:60,1,103.5,2|0,0:2|0:0,0:0:0:0:
355,29,166343,2,0,P|360:76|403:117,1,103.5,2|0,0:0|0:0,0:0:0:0:
440,138,167010,2,0,P|476:173|478:265,1,138,2|2,0:3|0:0,0:0:0:0:
309,336,168343,6,0,L|251:329,2,51.75,2|2|2,0:2|0:0|0:0,0:0:0:0:
461,266,169677,2,0,L|519:273,2,51.75,2|2|2,0:2|0:2|0:2,0:0:0:0:
341,154,171010,38,0,B|301:137|256:143|270:155|229:171|177:149|177:149|204:100|201:51|178:18|178:18|134:35|113:69|108:105|108:105|81:63|32:66|32:66|40:82|69:89,1,550.619993278564,2|0,0:2|0:0,0:0:0:0:
61,87,173677,6,0,P|131:233|21:361,2,331.199989892578,2|2|4,0:2|0:0|0:2,0:0:0:0:
62,88,177677,6,0,L|146:77,1,82.7999974731446,14|8,0:1|0:1,0:0:0:0:
144,77,177927,1,10,0:1:0:0:
144,77,178010,1,8,0:0:0:0:
249,11,178177,2,0,P|232:91|279:158,1,165.599994946289,2|10,0:0|0:1,0:0:0:0:
378,209,178677,1,8,0:0:0:0:
378,209,178843,1,2,0:0:0:0:
304,294,179010,6,0,P|260:290|215:299,1,82.7999974731446,10|8,0:1|0:1,0:0:0:0:
222,296,179260,1,10,0:1:0:0:
222,296,179343,1,8,0:0:0:0:
147,384,179510,1,8,0:0:0:0:
57,310,179677,2,0,P|30:236|52:150,1,165.599994946289,10|8,2:1|2:2,0:0:0:0:
219,14,180344,6,0,L|227:96,1,82.7999974731446,14|10,0:1|0:1,0:0:0:0:
230,117,180594,1,8,0:1:0:0:
231,137,180677,1,8,0:0:0:0:
302,227,180844,2,0,P|332:245|384:249,1,82.7999974731446,10|8,0:1|0:0,0:0:0:0:
497,203,181177,5,10,0:1:0:0:
422,150,181344,1,8,0:1:0:0:
505,111,181510,2,0,P|516:82|494:21,1,82.7999974731446,2|8,0:0|0:1,0:0:0:0:
418,0,181844,1,10,0:1:0:0:
362,72,182010,1,8,0:2:0:0:
167,29,182344,6,0,B|127:17|127:17|87:26,1,82.7999974731446,12|10,0:1|0:1,0:0:0:0:
70,38,182594,1,8,0:1:0:0:
53,50,182677,1,8,0:0:0:0:
1,144,182844,2,0,L|9:238,1,82.7999974731446,10|8,0:1|0:0,0:0:0:0:
49,326,183177,1,10,0:1:0:0:
144,276,183344,2,0,L|151:193,1,82.7999974731446,8|0,0:1|0:0,0:0:0:0:
226,102,183677,5,10,0:1:0:0:
298,305,184010,1,10,0:0:0:0:
511,218,184344,6,0,L|498:123,1,82.7999974731446,14|8,0:1|0:1,0:0:0:0:
499,135,184594,1,10,0:1:0:0:
499,135,184677,1,8,0:0:0:0:
442,47,184844,2,0,B|375:95|375:95|298:62,1,165.599994946289,2|10,0:0|0:1,0:0:0:0:
199,12,185344,1,8,0:0:0:0:
199,12,185510,1,2,0:0:0:0:
103,83,185677,6,0,P|88:121|104:182,1,82.7999974731446,10|8,0:1|0:1,0:0:0:0:
92,161,185927,1,10,0:1:0:0:
92,161,186010,1,8,0:0:0:0:
156,251,186177,1,8,0:1:0:0:
248,180,186344,2,0,P|291:161|335:166,1,82.7999974731446,2|8,0:0|0:1,0:0:0:0:
420,234,186677,2,0,L|412:338,1,82.7999974731446,10|0,3:2|2:2,0:0:0:0:
273,384,187010,5,14,0:1:0:0:
273,384,187177,2,0,L|259:289,1,82.7999974731446,10|8,0:1|0:0,0:0:0:0:
150,343,187510,5,10,0:1:0:0:
150,343,187677,1,8,0:0:0:0:
150,343,187844,2,0,L|164:248,1,82.7999974731446,10|0,0:1|0:0,0:0:0:0:
42,322,188177,6,0,L|28:227,1,82.7999974731446,10|8,0:1|0:1,0:0:0:0:
68,10,189677,5,14,0:1:0:0:
30,75,189844,1,8,0:1:0:0:
179,48,190177,5,8,0:1:0:0:
172,123,190344,1,10,0:0:0:0:
165,198,190510,1,8,0:1:0:0:
288,109,190844,5,8,0:1:0:0:
307,181,191010,1,10,0:1:0:0:
326,253,191177,1,8,0:1:0:0:
453,368,191510,5,8,0:1:0:0:
500,308,191677,2,0,L|514:229,1,69,10|8,0:0|0:1,0:0:0:0:
479,171,192010,2,0,L|466:94,1,69,10|8,0:0|0:1,0:0:0:0:
419,32,192344,6,0,P|381:56|311:55,1,103.500003948212,10|0,0:1|1:0,0:0:0:0:
250,35,192844,1,2,3:0:0:0:
250,35,192927,2,0,P|221:23|165:28,1,77.6250029611589,0|0,3:0|3:0,0:0:0:0:
104,60,193344,2,0,L|93:113,1,51.7500019741059,2|0,1:0|1:0,0:0:0:0:
35,185,193677,6,0,P|83:168|134:175,1,103.500003948212,10|0,0:1|1:0,0:0:0:0:
208,215,194177,1,2,3:0:0:0:
208,215,194260,2,0,P|245:229|285:227,1,77.6250029611589,0|0,3:0|3:0,0:0:0:0:
341,179,194677,2,0,L|352:121,1,51.7500019741059,2|0,1:0|1:0,0:0:0:0:
426,54,195010,5,14,0:1:0:0:
446,127,195177,1,8,0:1:0:0:
331,28,195510,5,8,0:1:0:0:
283,87,195677,1,10,0:0:0:0:
210,108,195844,1,8,0:1:0:0:
309,234,196177,5,8,0:1:0:0:
247,277,196344,1,10,0:1:0:0:
171,265,196510,1,8,0:1:0:0:
16,177,196844,5,8,0:1:0:0:
95,200,197010,2,0,L|168:175,1,69,10|8,0:0|0:1,0:0:0:0:
210,108,197344,2,0,P|202:77|214:32,1,69,10|8,0:0|0:1,0:0:0:0:
314,10,197677,6,0,P|336:66|322:127,1,124.199996209717,14|8,0:1|0:1,0:0:0:0:
268,199,198177,1,2,0:0:0:0:
268,199,198343,2,0,P|258:259|282:318,1,124.199996209717,8|8,0:1|0:1,0:0:0:0:
376,369,198843,5,2,0:0:0:0:
376,369,198927,1,2,0:0:0:0:
376,369,199010,2,0,L|513:359,2,124.199996209717,10|10|10,0:1|0:1|0:1,0:0:0:0:
298,328,199843,1,2,0:0:0:0:
338,250,200010,2,0,P|346:205|337:172,1,62.0999981048585,10|0,3:1|3:0,0:0:0:0:
267,107,200343,6,0,L|135:84,1,124.199996209717,10|8,0:1|0:1,0:0:0:0:
58,101,200843,1,2,0:0:0:0:
58,101,201010,2,0,P|29:142|27:235,1,124.199996209717,8|10,0:1|0:1,0:0:0:0:
147,346,201677,6,0,L|235:363,2,82.7999974731446,10|10|10,0:1|0:1|0:2,0:0:0:0:
34,317,202343,1,10,0:1:0:0:
116,234,202566,1,10,0:2:0:0:
147,346,202788,1,10,0:1:0:0:
275,286,203010,6,0,P|287:253|280:208,1,69,14|8,0:1|0:1,0:0:0:0:
251,143,203343,1,8,0:0:0:0:
169,158,203510,1,2,0:0:0:0:
277,33,203843,1,10,0:1:0:0:
347,81,204010,2,0,P|389:93|435:97,1,69,8|0,0:0|0:0,0:0:0:0:
277,33,204343,6,0,P|235:21|189:17,1,69,10|8,0:1|0:1,0:0:0:0:
127,26,204677,1,8,0:0:0:0:
80,94,204843,2,0,L|94:242,1,138,2|10,0:0|0:1,0:0:0:0:
139,309,205343,1,8,0:0:0:0:
139,309,205510,1,0,0:0:0:0:
236,273,205677,6,0,P|270:261|317:262,1,69,10|8,0:1|0:1,0:0:0:0:
379,293,206010,1,8,0:0:0:0:
403,371,206177,1,2,0:0:0:0:
506,241,206510,1,10,0:1:0:0:
494,159,206677,2,0,L|478:68,1,69,8|0,0:0|0:0,0:0:0:0:
384,17,207010,6,0,B|354:12|354:12|331:21|331:21|270:13,2,92,8|10|10,0:1|0:1|0:1,0:0:0:0:
480,71,207677,1,10,0:1:0:0:
390,136,207899,1,10,0:1:0:0:
478,201,208121,1,14,0:0:0:0:
