osu file format v14

[General]
AudioFilename: audio.mp3
AudioLeadIn: 0
PreviewTime: 49897
Countdown: 0
SampleSet: Soft
StackLeniency: 0.7
Mode: 0
LetterboxInBreaks: 0
WidescreenStoryboard: 1

[Editor]
DistanceSpacing: 1
BeatDivisor: 4
GridSize: 32
TimelineZoom: 1.9

[Metadata]
Title:Satsuriku no Keifu
TitleUnicode:殺戮の系譜
Artist:Denkishiki Karen Ongaku Shuudan
ArtistUnicode:電気式華憐音楽集団
Creator:Lasse
Version:Normal
Source:
Tags:denkare japanese rock metal detonator ignition
BeatmapID:2384408
BeatmapSetID:1140608

[Difficulty]
HPDrainRate:3
CircleSize:3.4
OverallDifficulty:5
ApproachRate:6
SliderMultiplier:1
SliderTickRate:1

[Events]
//Background and Video events
0,0,"a1.jpg",0,0
//Break Periods
2,88698,96591
2,164126,171734
//Storyboard Layer 0 (Background)
//Storyboard Layer 1 (Fail)
//Storyboard Layer 2 (Pass)
//Storyboard Layer 3 (Foreground)
//Storyboard Layer 4 (Overlay)
//Storyboard Sound Samples

[TimingPoints]
5070,285.714285714286,4,1,1,65,1,0
5070,-100,4,1,1,65,0,0
14212,-100,4,1,1,70,0,0
17498,-100,4,1,1,70,0,0
17712,-100,4,1,1,50,0,0
17784,-100,4,1,1,70,0,0
22070,-100,4,1,1,70,0,0
22284,-100,4,1,1,50,0,0
22355,-100,4,1,1,70,0,0
23212,-100,4,1,1,64,0,0
23284,-100,4,1,1,62,0,0
23355,-117.647058823529,4,1,1,60,0,0
32498,-111.111111111111,4,1,1,62,0,0
32784,-111.111111111111,4,1,1,62,0,0
41641,-111.111111111111,4,1,1,64,0,0
48498,-100,4,1,1,66,0,0
49070,-100,4,1,1,68,0,0
50212,-100,4,2,1,50,0,0
50498,-100,4,2,1,5,0,0
50641,-100,4,2,1,30,0,0
50784,-90.9090909090909,4,1,1,75,0,1
59355,-90.9090909090909,4,2,2,70,0,0
59927,-90.9090909090909,4,1,1,75,0,1
68498,-90.9090909090909,4,1,1,70,0,1
68784,-90.9090909090909,4,1,1,65,0,1
69070,-111.111111111111,4,1,1,60,0,0
77641,-111.111111111111,4,2,2,58,0,0
77927,-111.111111111111,4,2,2,56,0,0
78212,-111.111111111111,4,1,1,54,0,0
78498,-111.111111111111,4,1,1,50,0,0
78641,-111.111111111111,4,1,1,62,0,0
78927,-111.111111111111,4,1,1,64,0,0
79212,-111.111111111111,4,1,1,66,0,0
79355,-100,4,1,1,68,0,0
79641,-100,4,1,1,70,0,0
82641,-100,4,1,1,70,0,0
82855,-100,4,1,1,50,0,0
82927,-100,4,1,1,70,0,0
87212,-100,4,1,1,70,0,0
87427,-100,4,1,1,50,0,0
87498,-100,4,1,1,70,0,0
88355,-100,4,1,1,68,0,0
88427,-100,4,1,1,66,0,0
88498,-100,4,1,1,64,0,0
97212,-100,4,1,1,58,0,0
97641,-111.111111111111,4,1,1,60,0,0
97927,-111.111111111111,4,1,1,62,0,0
106784,-111.111111111111,4,1,1,64,0,0
113641,-100,4,1,1,66,0,0
114212,-100,4,1,1,68,0,0
115641,-100,4,2,1,50,0,0
115784,-100,4,2,1,70,0,0
115927,-90.9090909090909,4,1,1,75,0,1
124498,-90.9090909090909,4,2,2,70,0,0
125070,-90.9090909090909,4,1,1,75,0,1
133641,-90.9090909090909,4,1,1,70,0,1
133927,-90.9090909090909,4,1,1,65,0,1
134212,-111.111111111111,4,1,1,60,0,0
142784,-111.111111111111,4,2,2,58,0,0
143070,-111.111111111111,4,2,2,56,0,0
143355,-100,4,1,1,60,0,0
152498,-90.9090909090909,4,1,1,68,0,0
157070,-90.9090909090909,4,1,1,70,0,0
161355,-100,4,2,2,68,0,0
161498,-100,4,2,2,66,0,0
161641,-111.111111111111,4,2,1,64,0,0
161855,-111.111111111111,4,2,2,64,0,0
162212,-111.111111111111,4,2,1,62,0,0
162355,-111.111111111111,4,2,1,34,0,0
162426,-111.111111111111,4,2,2,62,0,0
162570,-111.111111111111,4,2,1,34,0,0
162641,-111.111111111111,4,2,2,62,0,0
162784,-111.111111111111,4,2,1,60,0,0
162927,-111.111111111111,4,2,1,34,0,0
162998,-111.111111111111,4,2,2,60,0,0
163141,-111.111111111111,4,2,1,34,0,0
163212,-111.111111111111,4,2,2,60,0,0
163355,-111.111111111111,4,2,1,58,0,0
163569,-111.111111111111,4,2,2,58,0,0
163712,-111.111111111111,4,2,1,40,0,0
163784,-166.666666666667,4,2,1,58,0,0
163927,-166.666666666667,4,2,1,56,0,0
170784,-83.3333333333333,4,2,1,20,0,0
172498,-83.3333333333333,4,2,1,10,0,0
172784,-83.3333333333333,4,2,1,30,0,0
172998,-117.647058823529,4,2,1,30,0,0
174212,-83.3333333333333,4,2,1,20,0,0
174498,-200,4,2,1,30,0,0
174570,-181.818181818181,4,2,1,5,0,0
175212,-181.818181818181,4,2,1,60,0,0
175355,-90.9090909090909,4,1,1,78,0,1
183927,-90.9090909090909,4,2,2,74,0,0
184212,-90.9090909090909,4,2,2,76,0,0
184498,-90.9090909090909,4,1,1,78,0,1
193070,-90.9090909090909,4,1,1,72,0,1
193355,-90.9090909090909,4,1,1,66,0,1
193641,-111.111111111111,4,1,1,60,0,0
202212,-111.111111111111,4,2,2,58,0,0
202498,-111.111111111111,4,2,2,56,0,0
202784,-111.111111111111,4,1,1,54,0,0
203070,-111.111111111111,4,1,1,50,0,0
203212,-111.111111111111,4,1,1,62,0,0
203498,-111.111111111111,4,1,1,64,0,0
203784,-111.111111111111,4,1,1,66,0,0
203927,-100,4,1,1,68,0,0
207212,-83.3333333333333,4,1,1,70,0,0
207427,-83.3333333333333,4,1,1,50,0,0
207498,-100,4,1,1,70,0,0
211784,-100,4,1,1,70,0,0
211998,-100,4,1,1,50,0,0
212070,-100,4,1,1,70,0,0
213070,-90.9090909090909,4,1,1,72,0,0
216355,-90.9090909090909,4,1,1,72,0,0
216570,-90.9090909090909,4,1,1,50,0,0
216641,-90.9090909090909,4,1,1,72,0,0
216927,-90.9090909090909,4,1,1,72,0,0
217641,-90.9090909090909,4,1,1,72,0,0
220927,-90.9090909090909,4,1,1,72,0,0
221141,-90.9090909090909,4,1,1,50,0,0
221212,-90.9090909090909,4,1,1,72,0,0
222212,-135.135135135135,4,1,1,70,0,0
222284,-133.333333333333,4,2,99,50,0,0
223355,-133.333333333333,4,2,99,45,0,0
224498,-133.333333333333,4,2,99,40,0,0
225641,-133.333333333333,4,2,99,35,0,0
226784,-133.333333333333,4,2,1,30,0,0
227927,-133.333333333333,4,2,99,25,0,0
229070,-133.333333333333,4,2,99,20,0,0
230212,-133.333333333333,4,2,99,15,0,0
230784,-133.333333333333,4,2,99,10,0,0
231070,-133.333333333333,4,2,99,5,0,0
231355,-133.333333333333,4,2,99,8,0,0

[Colours]
Combo1 : 250,180,240
Combo2 : 120,200,230
Combo3 : 255,230,130
Combo4 : 160,230,150

[HitObjects]
41,134,5069,6,0,P|36:184|48:236,1,100,6|8,0:1|0:2,0:0:0:0:
87,261,5498,2,0,P|135:250|185:255,1,100,2|0,0:1|0:2,0:0:0:0:
223,287,5927,1,10,0:1:0:0:
406,365,6498,1,10,0:1:0:0:
471,289,6784,1,2,0:1:0:0:
389,231,7070,1,10,0:1:0:0:
447,150,7355,6,0,P|458:109|442:47,1,100,2|8,0:1|0:2,0:0:0:0:
400,32,7784,2,0,L|300:26,1,100,2|2,0:1|0:2,0:0:0:0:
263,59,8212,1,10,0:1:0:0:
263,59,8355,2,0,P|252:100|268:162,1,100,6|2,0:2|0:1,0:0:0:0:
344,282,9070,1,14,0:1:0:0:
286,363,9355,1,8,0:3:0:0:
192,329,9641,6,0,L|71:323,1,100,6|8,0:1|0:2,0:2:0:0:
46,302,10070,2,0,P|39:257|56:198,1,100,2|2,0:1|0:2,0:2:0:0:
88,170,10498,1,10,0:2:0:0:
259,273,11070,1,10,0:1:0:0:
342,217,11355,1,2,0:1:0:0:
429,264,11641,1,10,0:1:0:0:
497,191,11927,6,0,P|508:142|481:81,1,100,2|8,0:1|0:2,0:0:0:0:
456,60,12355,2,0,L|354:52,1,100,2|2,0:1|0:2,0:0:0:0:
318,85,12784,1,10,0:1:0:0:
318,85,12927,2,0,B|264:97|264:97|204:66,1,100,6|0,0:2|0:2,0:0:0:0:
85,18,13641,1,14,0:1:0:0:
14,88,13927,1,8,0:2:0:0:
29,194,14212,6,0,L|44:314,1,100,6|10,0:1|0:2,0:2:0:0:
99,375,14784,1,2,0:2:0:0:
192,338,15070,1,10,0:2:0:0:
284,375,15355,2,0,P|332:380|382:364,1,100,2|10,0:1|0:2,0:2:0:0:
424,339,15784,2,0,L|430:236,1,100,2|2,0:2|0:2,0:2:0:0:
505,173,16355,1,2,0:2:0:0:
505,173,16498,2,0,L|499:70,1,100,2|8,0:1|0:2,0:0:0:0:
406,34,17070,6,0,P|370:48|305:30,1,100,2|8,0:2|0:2,0:2:0:0:
264,19,17498,1,6,0:2:0:0:
194,91,17784,1,10,0:3:0:0:
258,174,18070,1,10,0:3:0:0:
258,174,18212,2,0,P|271:214|252:281,1,100,14|10,0:1|0:1,0:0:0:0:
183,351,18784,6,0,L|82:346,1,100,4|10,0:1|0:2,0:2:0:0:
7,280,19355,2,0,P|1:229|15:183,1,100,2|8,0:2|0:2,0:0:0:0:
50,146,19784,2,0,L|163:137,1,100,2|8,0:2|0:3,0:1:0:0:
187,170,20212,1,10,0:2:0:0:
287,168,20498,1,2,0:2:0:0:
359,237,20784,1,10,0:2:0:0:
453,194,21070,6,0,P|467:154|446:88,1,100,2|8,0:1|0:2,0:0:0:0:
431,54,21498,1,2,0:3:0:0:
333,77,21784,1,2,0:2:0:0:
241,37,22070,2,2,P|186:25|132:31,1,100,6|10,0:2|0:3,0:1:0:0:
61,86,22641,2,0,L|50:250,1,150,8|8,0:3|0:2,0:0:0:0:
75,317,23355,6,0,P|118:308|173:309,1,85.0000016212464,6|2,0:3|0:2,0:2:0:0:
278,365,24070,1,8,0:3:0:0:
278,365,24212,1,8,0:2:0:0:
345,312,24498,2,0,P|355:280|340:222,1,85.0000016212464,2|2,0:3|0:3,0:3:0:0:
288,121,25212,1,8,0:3:0:0:
288,121,25355,1,8,0:2:0:0:
204,167,25641,6,0,P|160:170|118:163,1,85.0000016212464,2|2,0:2|0:2,0:2:0:0:
26,85,26355,1,8,0:3:0:0:
26,85,26498,1,8,0:2:0:0:
87,26,26784,2,0,P|131:23|173:30,1,85.0000016212464,2|2,0:2|0:2,0:2:0:0:
245,133,27498,2,0,L|250:231,1,85.0000016212464,14|8,0:2|0:2,0:2:0:0:
267,256,27927,6,0,P|311:274|347:269,1,85.0000016212464,2|2,0:2|0:2,0:0:0:0:
471,230,28641,1,8,0:3:0:0:
471,230,28784,1,8,0:2:0:0:
446,148,29070,2,0,L|431:62,1,85.0000016212464,2|2,0:2|0:2,0:0:0:0:
318,17,29784,1,8,0:3:0:0:
318,17,29927,1,8,0:2:0:0:
298,99,30212,6,0,L|283:182,1,85.0000016212464,2|2,0:2|0:2,0:0:0:0:
253,307,30927,1,8,0:3:0:0:
253,307,31070,1,8,0:2:0:0:
187,360,31355,2,0,P|143:360|101:350,1,85.0000016212464,2|2,0:2|0:2,0:0:0:0:
7,265,32070,2,0,L|20:172,1,85.0000016212464,14|8,0:2|0:2,0:0:0:0:
49,141,32498,6,0,B|84:139|84:139|94:147|94:147|149:143,1,89.9999972534181,6|10,0:2|0:2,0:0:0:0:
223,111,33070,1,2,0:2:0:0:
223,111,33212,1,0,0:2:0:0:
278,188,33498,1,0,0:2:0:0:
278,188,33641,2,0,P|270:231|281:278,1,89.9999972534181,2|10,0:2|0:2,0:2:0:0:
301,315,34070,1,2,0:2:0:0:
375,364,34355,1,2,0:2:0:0:
479,278,34784,6,0,P|495:206|466:94,1,179.999994506836,2|2,0:2|0:2,0:0:0:0:
411,44,35641,1,10,0:2:0:0:
411,44,35784,2,0,P|368:51|320:41,1,89.9999972534181,2|8,0:2|0:3,0:0:0:0:
280,26,36212,1,10,0:2:0:0:
203,74,36498,1,2,0:2:0:0:
122,33,36784,1,10,0:2:0:0:
49,90,37070,6,0,P|38:123|41:186,1,89.9999972534181,6|10,0:2|0:2,0:0:0:0:
71,261,37641,1,2,0:2:0:0:
71,261,37784,1,2,0:2:0:0:
162,244,38070,1,0,0:2:0:0:
162,244,38212,2,0,L|174:148,1,89.9999972534181,2|10,0:2|0:2,0:2:0:0:
184,110,38641,1,2,0:2:0:0:
259,60,38927,1,2,0:2:0:0:
391,105,39355,6,0,B|431:147|431:147|401:274,1,179.999994506836,2|2,0:2|0:2,0:0:0:0:
349,339,40212,1,10,0:2:0:0:
349,339,40355,2,0,P|300:326|258:326,1,89.9999972534181,2|8,0:2|0:3,0:0:0:0:
219,343,40784,2,0,P|175:355|130:356,1,89.9999972534181,8|8,0:2|0:2,0:2:0:0:
42,336,41355,1,10,0:3:0:0:
4,250,41641,6,0,L|21:175,1,67.4999979400635,6|2,0:1|0:1,0:0:0:0:
70,140,42070,2,0,P|108:145|159:127,1,89.9999972534181,2|0,0:1|0:2,0:0:0:0:
238,88,42641,1,8,0:2:0:0:
238,88,42784,2,2,P|279:72|324:76,1,89.9999972534181,2|0,0:2|0:2,0:1:0:0:
410,102,43355,1,0,0:3:0:0:
431,189,43641,1,0,0:0:0:0:
386,267,43927,6,0,B|340:288|298:284|298:284|304:244|292:194,1,179.999994506836,6|0,0:1|0:2,0:0:0:0:
262,110,44784,1,0,0:0:0:0:
194,49,45070,2,0,P|146:34|83:135,1,179.999994506836,2|0,0:2|0:3,0:1:0:0:
95,215,45927,1,2,0:2:0:0:
171,262,46212,6,0,L|240:253,1,67.4999979400635,6|2,0:1|0:1,0:0:0:0:
301,276,46641,2,0,P|296:316|321:366,1,89.9999972534181,2|0,0:1|0:2,0:0:0:0:
408,348,47212,1,8,0:2:0:0:
408,348,47355,2,2,P|413:308|388:258,1,89.9999972534181,2|2,0:2|0:2,0:1:0:0:
338,191,47927,1,2,0:2:0:0:
385,114,48212,1,2,0:2:0:0:
292,67,48498,6,0,P|244:72|186:57,1,100,6|10,0:2|0:2,0:2:0:0:
101,21,49070,1,10,0:3:0:0:
36,97,49355,1,8,0:3:0:0:
36,97,49498,1,8,0:3:0:0:
34,332,50784,6,0,L|160:319,1,110.000003356934,6|10,0:2|0:2,0:2:0:0:
192,346,51212,2,0,L|318:333,1,110.000003356934,2|2,0:2|0:2,0:2:0:0:
344,370,51641,1,10,0:2:0:0:
409,281,51927,1,2,0:2:0:0:
337,205,52212,1,10,0:2:0:0:
337,205,52355,1,2,0:2:0:0:
418,131,52641,1,2,0:2:0:0:
290,28,53070,6,0,L|62:34,1,220.000006713867,2|0,0:2|0:2,0:1:0:0:
15,129,53927,1,10,0:2:0:0:
15,129,54070,2,0,P|-2:202|28:295,1,165.000005035401,2|8,0:2|0:2,0:2:0:0:
106,358,54784,2,0,L|228:343,1,110.000003356934,0|8,0:0|0:3,0:0:0:0:
257,242,55355,6,0,P|240:195|250:128,1,110.000003356934,6|10,0:2|0:2,0:2:0:0:
272,87,55784,2,0,B|312:80|312:80|330:90|330:90|386:82,1,110.000003356934,2|2,0:2|0:2,0:2:0:0:
425,54,56212,1,10,0:2:0:0:
505,128,56498,1,2,0:2:0:0:
469,234,56784,1,10,0:2:0:0:
469,234,56927,2,0,B|415:250|415:250|367:224,1,110.000003356934,2|0,0:2|0:2,0:2:0:0:
321,195,57355,5,10,0:2:0:0:
321,195,57498,2,0,P|331:132|304:76,1,110.000003356934,2|0,0:2|0:2,0:0:0:0:
281,45,57927,1,10,0:1:0:0:
182,94,58212,1,2,0:1:0:0:
92,39,58498,1,10,0:1:0:0:
92,39,58641,1,2,0:2:0:0:
18,186,59070,1,10,0:2:0:0:
40,293,59355,1,8,2:3:0:0:
40,293,59498,2,0,P|88:275|151:283,1,110.000003356934,8|4,2:3|2:3,0:0:0:0:
187,317,59927,6,0,B|231:343|231:343|293:333,1,110.000003356934,6|10,0:2|0:2,0:2:0:0:
331,299,60355,2,0,P|321:239|340:187,1,110.000003356934,2|2,0:2|0:2,0:2:0:0:
381,161,60784,1,10,0:2:0:0:
486,192,61070,1,2,0:2:0:0:
512,89,61355,1,8,0:2:0:0:
512,89,61498,1,2,0:2:0:0:
406,57,61784,1,2,0:2:0:0:
328,203,62212,6,0,B|257:287|257:287|142:249,1,220.000006713867,2|0,0:2|0:2,0:2:0:0:
56,210,63070,1,10,0:2:0:0:
56,210,63212,2,0,B|72:153|72:153|58:123|58:123|80:47,1,165.000005035401,2|8,0:2|0:2,0:2:0:0:
182,19,63927,2,0,B|225:19|225:19|235:36|235:36|296:44,1,110.000003356934,0|8,0:0|0:3,0:0:0:0:
344,134,64498,6,0,B|388:128|388:128|403:114|403:114|458:109,1,110.000003356934,6|10,0:2|0:2,0:2:0:0:
482,153,64927,2,0,P|496:201|484:264,1,110.000003356934,2|2,0:2|0:2,0:2:0:0:
459,307,65355,1,10,0:2:0:0:
376,380,65641,1,2,0:2:0:0:
280,335,65927,1,10,0:2:0:0:
280,335,66070,2,0,L|266:220,1,110.000003356934,2|0,0:2|0:2,0:2:0:0:
231,190,66498,5,10,0:2:0:0:
231,190,66641,2,0,B|192:184|192:184|172:200|172:200|118:194,1,110.000003356934,2|2,0:2|0:2,0:0:0:0:
82,228,67070,1,10,0:1:0:0:
16,139,67355,1,2,0:1:0:0:
93,61,67641,1,10,0:1:0:0:
93,61,67784,2,0,B|151:52|151:52|174:65|174:65|266:51,1,165.000005035401,2|12,0:1|0:2,0:2:0:0:
327,125,68498,2,0,B|309:175|309:175|329:248,1,110.000003356934,8|8,1:3|1:3,0:0:0:0:
368,316,69070,6,0,B|425:353|425:353|480:310,1,134.999995880127,6|2,0:2|0:2,0:0:0:0:
495,223,69784,2,0,L|496:126,1,89.9999972534181,2|2,0:2|0:2,0:0:0:0:
435,66,70355,2,0,P|396:73|352:47,1,89.9999972534181,8|0,0:3|0:2,0:0:0:0:
322,16,70784,1,2,0:2:0:0:
246,65,71070,1,10,0:2:0:0:
292,141,71355,6,0,P|308:192|280:284,1,134.999995880127,2|2,0:2|0:2,0:0:0:0:
220,327,72070,2,0,L|130:335,1,89.9999972534181,2|2,0:2|0:2,0:0:0:0:
50,293,72641,2,0,P|39:252|47:202,1,89.9999972534181,8|0,0:3|0:2,0:0:0:0:
67,165,73070,1,2,0:2:0:0:
148,126,73355,1,10,0:2:0:0:
213,187,73641,6,0,B|270:218|270:218|340:179,1,134.999995880127,6|2,0:2|0:2,0:0:0:0:
387,113,74355,2,0,P|376:74|396:24,1,89.9999972534181,2|2,0:2|0:2,0:0:0:0:
482,20,74927,2,0,P|502:55|494:108,1,89.9999972534181,8|0,0:3|0:2,0:0:0:0:
480,144,75355,1,2,0:2:0:0:
422,213,75641,1,10,0:2:0:0:
335,189,75927,6,0,B|293:183|293:183|257:199|257:199|196:193,1,134.999995880127,2|2,0:2|0:2,0:0:0:0:
138,131,76641,2,0,P|147:78|128:28,1,89.9999972534181,2|2,0:2|0:2,0:0:0:0:
48,31,77212,2,0,P|23:78|25:132,1,89.9999972534181,8|0,0:3|0:2,0:0:0:0:
27,158,77641,1,8,0:3:0:0:
92,219,77927,1,4,0:3:0:0:
171,177,78212,1,6,0:2:0:0:
171,177,79355,6,0,P|161:127|179:69,1,100,6|10,0:1|0:2,0:0:0:0:
248,14,79927,1,2,0:2:0:0:
348,14,80212,1,10,0:2:0:0:
413,89,80498,2,0,P|423:139|405:197,1,100,2|10,0:1|0:2,0:2:0:0:
378,223,80927,2,0,L|278:231,1,100,2|2,0:2|0:2,0:2:0:0:
186,192,81498,1,2,0:2:0:0:
186,192,81641,2,0,P|192:139|166:88,1,100,2|8,0:1|0:2,0:0:0:0:
73,97,82212,6,0,P|53:146|65:202,1,100,2|10,0:2|0:2,0:0:0:0:
71,240,82641,1,6,0:2:0:0:
133,318,82927,1,10,0:3:0:0:
235,303,83212,1,10,0:3:0:0:
235,303,83355,2,0,B|279:291|279:291|346:314,1,100,14|10,0:1|0:1,0:0:0:0:
428,350,83927,6,0,B|478:363|478:363|506:316,1,100,4|10,0:1|0:2,0:2:0:0:
491,222,84498,2,0,L|474:121,1,100,2|8,0:2|0:2,0:0:0:0:
449,79,84927,2,0,B|415:72|415:72|395:81|395:81|336:70,1,100,2|8,0:2|0:3,0:2:0:0:
307,50,85355,1,10,0:2:0:0:
247,130,85641,1,2,0:2:0:0:
292,218,85927,1,10,0:2:0:0:
223,290,86212,6,0,B|189:283|189:283|169:292|169:292|114:285,1,100,2|8,0:1|0:2,0:0:0:0:
82,312,86641,1,2,0:3:0:0:
2,251,86927,1,2,0:2:0:0:
51,163,87212,2,2,L|72:56,1,100,6|10,0:2|0:3,0:1:0:0:
165,29,87784,2,0,B|254:19|219:72|304:68,1,150,8|8,0:3|0:2,0:0:0:0:
399,36,88498,1,12,0:3:0:0:
28,285,97641,6,0,P|21:223|36:186,1,89.9999972534181,6|10,0:2|0:2,0:0:0:0:
72,118,98212,1,2,0:2:0:0:
72,118,98355,1,2,0:2:0:0:
163,144,98641,1,0,0:2:0:0:
163,144,98784,2,0,P|194:152|252:140,1,89.9999972534181,2|10,0:2|0:2,0:2:0:0:
290,121,99212,1,2,0:2:0:0:
345,50,99498,1,2,0:2:0:0:
472,120,99927,6,0,P|495:205|475:296,1,179.999994506836,2|2,0:2|0:2,0:0:0:0:
409,351,100784,1,10,0:2:0:0:
409,351,100927,2,0,P|365:339|318:341,1,89.9999972534181,2|8,0:2|0:3,0:0:0:0:
282,363,101355,1,10,0:2:0:0:
195,338,101641,1,2,0:2:0:0:
188,248,101927,1,10,0:2:0:0:
257,190,102212,6,0,P|268:157|260:94,1,89.9999972534181,6|10,0:2|0:2,0:0:0:0:
217,25,102784,1,2,0:2:0:0:
217,25,102927,1,2,0:2:0:0:
139,68,103212,1,0,0:2:0:0:
139,68,103355,2,0,P|118:97|110:159,1,89.9999972534181,2|10,0:2|0:2,0:2:0:0:
113,195,103784,1,2,0:2:0:0:
137,281,104070,1,2,0:2:0:0:
256,350,104498,6,0,B|331:339|331:339|355:354|355:354|443:344,1,179.999994506836,2|2,0:2|0:2,0:0:0:0:
495,285,105355,1,10,0:2:0:0:
495,285,105498,2,0,P|499:234|485:185,1,89.9999972534181,2|8,0:2|0:3,0:0:0:0:
464,158,105927,2,0,B|434:154|434:154|414:159|414:159|373:153,1,89.9999972534181,8|8,0:2|0:2,0:2:0:0:
304,208,106498,1,10,0:3:0:0:
248,126,106784,6,0,P|251:82|239:50,1,67.4999979400635,6|2,0:1|0:1,0:0:0:0:
183,30,107212,2,0,L|93:23,1,89.9999972534181,2|0,0:1|0:2,0:0:0:0:
30,87,107784,1,8,0:2:0:0:
30,87,107927,2,2,P|17:126|23:178,1,89.9999972534181,2|0,0:2|0:2,0:1:0:0:
72,248,108498,1,0,0:3:0:0:
157,219,108784,1,0,0:0:0:0:
225,284,109070,6,0,B|231:347|296:360|296:360|321:330|358:317,1,179.999994506836,6|0,0:1|0:2,0:0:0:0:
434,290,109927,1,0,0:0:0:0:
486,217,110212,2,0,P|501:136|452:47,1,179.999994506836,2|0,0:2|0:3,0:1:0:0:
377,11,111070,1,2,0:2:0:0:
334,90,111355,6,0,L|322:171,1,67.4999979400635,6|2,0:1|0:1,0:0:0:0:
306,222,111784,2,0,P|276:233|212:213,1,89.9999972534181,2|0,0:1|0:2,0:0:0:0:
161,160,112355,1,8,0:2:0:0:
161,160,112498,2,2,L|154:69,1,89.9999972534181,2|2,0:2|0:2,0:1:0:0:
74,28,113070,1,2,0:2:0:0:
9,90,113355,1,2,0:2:0:0:
23,188,113641,6,0,B|32:218|32:218|25:248|25:248|37:291,1,100,6|10,0:2|0:2,0:2:0:0:
93,366,114212,1,10,0:3:0:0:
191,338,114498,1,8,0:3:0:0:
191,338,114641,1,8,0:3:0:0:
460,363,115355,6,0,B|461:343|461:343|465:329|465:329|458:317|467:310|467:310|458:291|469:278|469:278|458:261|468:249|468:249|465:231|465:231|463:205,1,150,8|8,0:3|0:3,0:0:0:0:
440,170,115927,6,0,B|399:165|399:165|384:170|384:170|315:161,1,110.000003356934,6|10,0:2|0:2,0:2:0:0:
280,142,116355,2,0,P|298:92|265:26,1,110.000003356934,2|2,0:2|0:2,0:2:0:0:
233,9,116784,1,10,0:2:0:0:
137,63,117070,1,2,0:2:0:0:
185,167,117355,1,10,0:2:0:0:
185,167,117498,1,2,0:2:0:0:
103,240,117784,1,2,0:2:0:0:
227,352,118212,6,0,B|318:345|318:345|343:359|343:359|451:354,1,220.000006713867,2|0,0:2|0:2,0:1:0:0:
500,260,119070,1,10,0:2:0:0:
500,260,119212,2,0,P|511:183|481:92,1,165.000005035401,2|8,0:2|0:2,0:2:0:0:
401,30,119927,2,0,B|359:24|359:24|337:38|337:38|279:27,1,110.000003356934,0|8,0:0|0:3,0:0:0:0:
194,72,120498,6,0,P|174:117|187:186,1,110.000003356934,6|10,0:2|0:2,0:2:0:0:
212,222,120927,2,0,P|220:275|199:325,1,110.000003356934,2|2,0:2|0:2,0:2:0:0:
162,367,121355,1,10,0:2:0:0:
51,364,121641,1,2,0:2:0:0:
17,259,121927,1,10,0:2:0:0:
17,259,122070,2,0,B|29:139,1,110.000003356934,2|0,0:2|0:2,0:2:0:0:
54,103,122498,1,10,0:2:0:0:
54,103,122641,2,0,B|104:125|104:125|167:102,1,110.000003356934,2|0,0:2|0:2,0:0:0:0:
200,73,123070,5,10,0:1:0:0:
289,136,123355,1,2,0:1:0:0:
387,83,123641,1,10,0:1:0:0:
387,83,123784,1,2,0:2:0:0:
500,202,124212,1,10,0:2:0:0:
442,297,124498,1,8,2:3:0:0:
442,297,124641,2,0,B|401:289|401:289|380:296|380:296|331:287,1,110.000003356934,8|4,2:3|2:3,0:0:0:0:
313,236,125070,6,0,B|333:186|333:186|312:115,1,110.000003356934,6|10,0:2|0:2,0:2:0:0:
282,89,125498,2,0,B|238:85|238:85|222:96|222:96|166:90,1,110.000003356934,2|2,0:2|0:2,0:2:0:0:
126,65,125927,1,10,0:2:0:0:
33,124,126212,1,2,0:2:0:0:
110,209,126498,1,8,0:2:0:0:
110,209,126641,1,2,0:2:0:0:
32,286,126927,1,2,0:2:0:0:
192,371,127355,6,0,L|432:358,1,220.000006713867,2|0,0:2|0:2,0:2:0:0:
480,272,128212,1,10,0:2:0:0:
480,272,128355,2,0,B|465:220|465:220|480:175|480:175|456:109,1,165.000005035401,2|8,0:2|0:2,0:2:0:0:
370,48,129070,2,0,L|252:38,1,110.000003356934,0|8,0:0|0:3,0:0:0:0:
171,104,129641,6,0,P|155:142|182:213,1,110.000003356934,6|10,0:2|0:2,0:0:0:0:
225,224,130070,2,0,L|341:210,1,110.000003356934,2|2,0:2|0:2,0:2:0:0:
385,190,130498,1,10,0:2:0:0:
444,282,130784,1,2,0:2:0:0:
357,348,131070,1,10,0:2:0:0:
357,348,131212,2,0,P|310:334|243:329,1,110.000003356934,2|0,0:2|0:2,0:2:0:0:
199,346,131641,5,10,0:2:0:0:
199,346,131784,2,0,P|152:360|86:358,1,110.000003356934,2|2,0:2|0:2,0:0:0:0:
38,343,132212,1,10,0:1:0:0:
6,237,132498,1,2,0:1:0:0:
60,141,132784,1,10,0:1:0:0:
60,141,132927,2,0,B|118:132|118:132|146:157|146:157|218:165,1,165.000005035401,2|12,0:1|0:2,0:2:0:0:
297,237,133641,2,0,B|346:262|346:262|416:230,1,110.000003356934,8|8,1:3|1:3,0:0:0:0:
470,166,134212,6,0,B|455:136|455:136|461:100|461:100|433:29,1,134.999995880127,6|2,0:2|0:2,0:0:0:0:
347,30,134927,2,0,P|320:50|261:56,1,89.9999972534181,2|2,0:2|0:2,0:0:0:0:
179,86,135498,2,0,P|152:66|93:60,1,89.9999972534181,8|0,0:3|0:2,0:0:0:0:
52,67,135927,1,2,0:2:0:0:
3,142,136212,1,10,0:2:0:0:
50,218,136498,6,0,L|202:210,1,134.999995880127,2|2,0:2|0:2,0:0:0:0:
265,252,137212,2,0,P|260:295|280:347,1,89.9999972534181,2|2,0:2|0:2,0:0:0:0:
355,377,137784,2,0,L|449:370,1,89.9999972534181,8|0,0:3|0:2,0:0:0:0:
473,335,138212,1,2,0:2:0:0:
420,262,138498,1,10,0:2:0:0:
478,194,138784,6,0,B|502:135|502:135|470:54,1,134.999995880127,6|2,0:2|0:2,0:0:0:0:
397,24,139498,2,0,B|362:22|362:22|351:28|351:28|306:28,1,89.9999972534181,2|2,0:2|0:2,0:0:0:0:
245,92,140070,2,0,B|234:136|234:136|252:182,1,89.9999972534181,8|0,0:3|0:2,0:0:0:0:
267,219,140498,1,2,0:2:0:0:
321,290,140784,1,10,0:2:0:0:
250,345,141070,6,0,B|203:340|203:340|180:355|180:355|111:349,1,134.999995880127,2|2,0:2|0:2,0:0:0:0:
33,377,141784,2,0,L|28:273,1,89.9999972534181,2|2,0:2|0:2,0:0:0:0:
29,196,142355,2,0,L|34:92,1,89.9999972534181,8|0,0:3|0:2,0:0:0:0:
43,61,142784,1,8,0:3:0:0:
124,97,143070,1,4,0:3:0:0:
211,48,143355,6,0,P|259:30|315:33,1,100,6|10,0:2|0:2,0:2:0:0:
404,72,143927,1,2,0:2:0:0:
404,72,144070,1,2,0:2:0:0:
444,163,144355,2,0,B|457:211|457:211|436:273,1,100,10|2,0:2|0:2,0:0:0:0:
372,331,144927,1,10,0:2:0:0:
372,331,145070,2,0,P|320:314|270:320,1,100,2|10,0:2|0:2,0:0:0:0:
179,361,145641,6,0,P|129:364|82:348,1,100,2|8,0:2|0:2,0:0:0:0:
8,279,146212,1,2,0:2:0:0:
8,279,146355,1,2,0:2:0:0:
36,183,146641,2,0,B|44:153|44:153|40:124|40:124|52:78,1,100,14|2,0:2|0:2,0:0:0:0:
127,22,147212,1,14,0:2:0:0:
127,22,147355,2,0,B|160:17|160:17|182:30|182:30|231:22,1,100,2|8,0:2|0:2,0:0:0:0:
299,88,147927,6,0,P|315:141|293:198,1,100,6|8,0:2|0:2,0:0:0:0:
259,274,148498,1,2,0:2:0:0:
259,274,148641,1,2,0:2:0:0:
321,352,148927,2,0,L|431:348,1,100,10|2,0:2|0:2,0:0:0:0:
494,280,149498,1,10,0:2:0:0:
494,280,149641,2,0,P|500:225|483:169,1,100,2|10,0:2|0:2,0:0:0:0:
416,112,150212,6,0,B|379:109|379:109|364:118|364:118|310:115,1,100,2|8,0:2|0:2,0:0:0:0:
228,69,150784,1,2,0:2:0:0:
228,69,150927,1,2,0:2:0:0:
171,151,151212,2,0,P|159:200|173:251,1,100,14|2,0:2|0:2,0:0:0:0:
242,325,151784,1,14,0:2:0:0:
242,325,151927,2,0,B|283:318|283:318|298:326|298:326|341:323,1,100,2|8,0:2|0:2,0:0:0:0:
441,282,152498,6,0,B|464:235|464:235|439:169,1,110.000003356934,6|10,0:1|0:1,0:0:0:0:
379,91,153070,2,2,B|306:67|306:67|249:96|249:96|159:77,1,220.000006713867,2|0,0:2|0:2,0:1:0:0:
118,64,153784,1,10,0:3:0:0:
32,131,154070,1,2,0:2:0:0:
32,131,154212,2,2,P|9:171|30:250,1,110.000003356934,2|10,0:1|0:1,0:1:0:0:
46,278,154641,5,2,0:2:0:0:
46,278,154784,2,0,P|110:264|176:273,1,110.000003356934,2|10,0:1|0:2,0:0:0:0:
290,360,155498,1,2,0:2:0:0:
290,360,155641,1,10,0:1:0:0:
391,316,155927,2,2,P|407:262|383:197,1,110.000003356934,2|10,0:2|0:1,0:1:0:0:
306,143,156498,2,0,B|257:166|257:166|197:140,1,110.000003356934,2|8,0:1|1:2,0:0:0:0:
108,91,157070,5,6,0:1:0:0:
11,142,157355,1,10,0:2:0:0:
29,250,157641,1,2,0:2:0:0:
137,266,157927,1,10,0:2:0:0:
201,177,158212,2,0,B|190:120|190:120|224:57,1,110.000003356934,2|10,0:1|0:1,0:2:0:0:
258,40,158641,1,10,0:3:0:0:
258,40,158784,2,0,B|302:41|302:41|317:50|317:50|369:48,1,110.000003356934,2|10,0:1|0:2,0:2:0:0:
464,0,159355,5,2,0:1:0:0:
505,101,159641,1,10,0:1:0:0:
447,194,159927,1,2,0:1:0:0:
490,294,160212,1,10,0:1:0:0:
412,372,160498,2,0,L|281:362,1,110.000003356934,2|10,0:1|0:1,0:0:0:0:
247,370,160927,1,0,0:2:0:0:
247,370,161070,2,0,L|240:249,1,110.000003356934,10|10,0:1|0:3,0:0:0:0:
232,170,161641,5,14,0:3:0:0:
101,293,162212,1,10,0:3:0:0:
61,117,162784,1,10,0:2:0:0:
232,170,163355,2,0,B|320:189|320:189|407:150,1,179.999994506836,10|2,0:3|0:2,0:2:0:0:
256,192,172784,12,0,174212,0:2:0:0:
31,355,175355,6,0,B|72:350|72:350|91:359|91:359|153:350,1,110.000003356934,6|10,0:2|0:2,0:2:0:0:
184,322,175784,2,0,B|159:274|159:274|177:209,1,110.000003356934,0|0,0:2|0:2,0:0:0:0:
196,169,176212,1,10,0:2:0:0:
285,233,176498,1,2,0:2:0:0:
397,223,176784,1,10,0:2:0:0:
397,223,176927,1,2,0:2:0:0:
435,119,177212,1,2,0:2:0:0:
293,33,177641,6,0,B|208:26|208:26|169:56|169:56|65:46,1,220.000006713867,2|2,0:2|0:2,0:2:0:0:
21,139,178498,1,10,0:2:0:0:
21,139,178641,2,0,P|4:180|29:320,1,165.000005035401,2|8,0:2|0:2,0:2:0:0:
112,350,179355,2,0,B|153:345|153:345|168:353|168:353|234:347,1,110.000003356934,0|8,0:0|0:3,0:0:0:0:
266,248,179927,6,0,B|245:197|245:197|264:137,1,110.000003356934,6|10,0:2|0:2,0:2:0:0:
295,100,180355,2,0,L|408:85,1,110.000003356934,2|2,0:2|0:2,0:2:0:0:
456,101,180784,1,10,0:2:0:0:
509,197,181070,1,2,0:2:0:0:
461,298,181355,1,10,0:2:0:0:
461,298,181498,2,0,B|419:294|419:294|400:301|400:301|337:290,1,110.000003356934,2|0,0:2|0:2,0:2:0:0:
302,270,181927,1,10,0:2:0:0:
302,270,182070,2,0,B|326:223|326:223|315:147,1,110.000003356934,0|0,0:2|0:2,0:0:0:0:
301,113,182498,5,10,0:1:0:0:
195,142,182784,1,2,0:1:0:0:
115,73,183070,1,10,0:1:0:0:
115,73,183212,1,2,0:2:0:0:
16,205,183641,1,10,0:2:0:0:
64,309,183927,1,8,0:3:0:0:
64,309,184070,2,0,B|114:332|114:332|171:312,1,110.000003356934,8|4,0:3|0:3,0:0:0:0:
209,279,184498,6,0,B|194:231|194:231|213:175,1,110.000003356934,6|10,0:2|0:2,0:2:0:0:
254,138,184927,2,0,B|298:134|298:134|314:143|314:143|370:139,1,110.000003356934,0|0,0:2|0:2,0:0:0:0:
407,108,185355,1,10,0:2:0:0:
489,181,185641,1,2,0:2:0:0:
487,294,185927,1,10,0:2:0:0:
487,294,186070,1,2,0:2:0:0:
399,360,186355,1,2,0:2:0:0:
255,279,186784,6,0,B|230:226|230:226|262:136|262:136|230:59,1,220.000006713867,2|2,0:2|0:2,0:2:0:0:
152,12,187641,1,10,0:2:0:0:
152,12,187784,2,0,B|115:47|115:47|122:104|122:104|69:154,1,165.000005035401,2|8,0:2|0:2,0:2:0:0:
30,240,188498,2,0,B|15:294|15:294|48:364,1,110.000003356934,0|8,0:0|0:3,0:0:0:0:
145,368,189070,6,0,L|263:355,1,110.000003356934,6|10,0:2|0:2,0:0:0:0:
307,372,189498,2,0,L|425:359,1,110.000003356934,2|2,0:2|0:2,0:2:0:0:
470,371,189927,1,10,0:2:0:0:
498,264,190212,1,2,0:2:0:0:
433,174,190498,1,10,0:2:0:0:
433,174,190641,2,0,B|416:136|416:136|419:109|419:109|402:62,1,110.000003356934,2|0,0:2|0:2,0:2:0:0:
357,42,191070,5,10,0:2:0:0:
357,42,191212,2,0,B|312:36|312:36|297:49|297:49|243:44,1,110.000003356934,2|2,0:2|0:2,0:0:0:0:
199,28,191641,1,10,0:1:0:0:
119,103,191927,1,2,0:1:0:0:
211,171,192212,1,10,0:1:0:0:
211,171,192355,2,0,B|274:166|274:166|297:183|297:183|382:176,1,165.000005035401,2|12,0:1|0:2,0:2:0:0:
474,211,193070,2,0,B|501:255|501:255|478:316,1,110.000003356934,8|8,0:3|0:3,0:0:0:0:
398,365,193641,6,0,L|264:356,1,134.999995880127,6|2,0:2|0:2,0:0:0:0:
179,324,194355,2,0,P|194:280|184:233,1,89.9999972534181,2|2,0:2|0:2,0:0:0:0:
137,161,194927,2,0,P|122:117|132:70,1,89.9999972534181,8|0,0:3|0:2,0:0:0:0:
157,39,195355,1,2,0:2:0:0:
242,10,195641,1,10,0:2:0:0:
302,82,195927,6,0,B|293:118|293:118|305:161|305:161|292:224,1,134.999995880127,2|2,0:2|0:2,0:0:0:0:
329,296,196641,2,0,P|372:316|420:311,1,89.9999972534181,2|2,0:2|0:2,0:0:0:0:
490,267,197212,2,0,L|504:176,1,89.9999972534181,8|0,0:3|0:2,0:0:0:0:
510,133,197641,1,2,0:2:0:0:
468,52,197927,1,10,0:2:0:0:
399,110,198212,6,0,B|333:130|333:130|269:90,1,134.999995880127,6|2,0:2|0:2,0:0:0:0:
202,43,198927,2,0,B|159:25|159:25|112:31,1,89.9999972534181,2|2,0:2|0:2,0:0:0:0:
45,87,199498,2,0,B|31:181,1,89.9999972534181,8|0,0:3|0:2,0:0:0:0:
30,220,199927,1,2,0:2:0:0:
59,305,200212,1,10,0:2:0:0:
131,358,200498,6,0,B|181:353|181:353|202:367|202:367|270:362,1,134.999995880127,2|2,0:2|0:2,0:0:0:0:
342,323,201212,2,0,P|357:282|333:234,1,89.9999972534181,2|2,0:2|0:2,0:0:0:0:
281,171,201784,2,0,P|264:130|279:88,1,89.9999972534181,8|0,0:3|0:2,0:0:0:0:
304,51,202212,1,8,0:3:0:0:
384,10,202498,1,4,0:3:0:0:
459,59,202784,1,6,0:2:0:0:
459,59,203927,6,0,B|476:108|476:108|456:168,1,100,6|10,0:1|0:2,0:0:0:0:
388,223,204498,1,2,0:2:0:0:
454,297,204784,1,10,0:2:0:0:
379,363,205070,2,0,B|346:356|346:356|328:366|328:366|274:355,1,100,2|10,0:1|0:2,0:2:0:0:
233,362,205498,2,0,P|248:308|221:258,1,100,2|2,0:2|0:2,0:2:0:0:
161,205,206070,1,2,0:2:0:0:
161,205,206212,2,0,B|127:202|127:202|109:216|109:216|64:214,1,100,2|8,0:1|3:2,0:0:0:0:
2,136,206784,6,0,P|-11:88|7:43,1,100,2|10,0:2|0:2,0:0:0:0:
57,9,207212,1,6,0:2:0:0:
136,69,207498,1,10,0:3:0:0:
232,35,207784,1,8,0:3:0:0:
232,35,207927,2,0,B|279:21|279:21|343:39,1,100,14|8,0:1|0:3,0:0:0:0:
416,82,208498,6,0,B|401:194,1,100,6|10,0:1|0:2,0:2:0:0:
305,206,209070,2,0,B|261:186|261:186|201:199,1,100,2|8,0:2|0:2,0:0:0:0:
173,230,209498,2,0,B|151:278|151:278|171:320,1,100,2|8,0:2|0:3,0:2:0:0:
203,363,209927,1,10,0:2:0:0:
299,338,210212,1,2,0:2:0:0:
391,376,210498,1,10,0:2:0:0:
473,319,210784,6,0,B|494:274|494:274|472:226,1,100,2|8,0:1|0:2,0:0:0:0:
443,187,211212,1,2,0:2:0:0:
354,233,211498,1,2,0:2:0:0:
290,155,211784,2,2,B|308:111|308:111|284:47,1,100,6|10,0:2|0:3,0:1:0:0:
197,24,212355,2,0,B|146:24|146:24|121:60|121:60|48:64,1,150,8|8,0:3|0:3,0:0:0:0:
24,165,213070,6,0,B|3:218|3:218|25:283,1,110.000003356934,6|10,0:1|0:2,0:2:0:0:
79,360,213641,1,2,0:2:0:0:
190,338,213927,1,10,0:2:0:0:
190,338,214070,2,0,B|236:335|236:335|252:344|252:344|320:337,1,110.000003356934,2|8,0:2|0:3,0:2:0:0:
403,369,214641,1,0,0:2:0:0:
403,369,214784,2,0,P|413:313|391:260,1,110.000003356934,2|10,0:2|0:2,0:0:0:0:
300,207,215355,6,0,P|272:225|197:210,1,110.000003356934,2|8,0:1|0:2,0:0:0:0:
113,143,215927,1,2,0:1:0:0:
176,54,216212,1,10,0:2:0:0:
176,54,216355,2,2,B|216:46|216:46|235:52|235:52|292:41,1,110.000003356934,6|10,0:1|0:3,0:1:0:0:
392,79,216927,1,8,0:3:0:0:
392,79,217070,2,0,B|421:124|421:124|399:202,1,110.000003356934,14|10,0:1|0:2,0:0:0:0:
329,257,217641,6,0,P|279:235|225:243,1,110.000003356934,6|8,0:1|0:2,0:0:0:0:
185,280,218070,1,2,0:2:0:0:
185,280,218212,2,0,P|135:301|81:293,1,110.000003356934,2|10,0:2|0:2,0:0:0:0:
30,270,218641,1,2,0:2:0:0:
3,163,218927,1,8,0:3:0:0:
42,63,219212,1,0,0:2:0:0:
42,63,219355,2,0,B|81:57|81:57|107:67|107:67|172:57,1,110.000003356934,2|10,0:2|0:2,0:0:0:0:
188,99,219784,2,0,L|256:104,1,55.0000016784668,0|2,0:2|0:1,0:0:0:0:
292,206,220212,5,10,0:2:0:0:
292,206,220355,2,0,P|270:249|302:318,1,110.000003356934,2|2,0:1|0:1,0:0:0:0:
384,358,220927,2,2,B|437:363|437:363|470:300,1,110.000003356934,6|10,0:1|0:3,0:1:0:0:
487,205,221498,1,8,0:3:0:0:
487,205,221641,2,0,L|465:89,1,110.000003356934,8|10,0:3|0:2,0:0:0:0:
408,24,222212,6,0,B|356:112|266:127|203:87|192:75|179:61|179:-90|-82:-32|-168:227|45:365|224:316|210:207|220:198|232:191|243:47|402:101|502:285|444:358|386:426|242:387|205:365|203:351|202:344|148:241|14:345,2,1184.00002890625,6|2|0,0:2|0:0|0:2,0:2:0:0:
