osu file format v14

[General]
AudioFilename: audio.mp3
AudioLeadIn: 0
PreviewTime: 49897
Countdown: 0
SampleSet: Soft
StackLeniency: 0.7
Mode: 0
LetterboxInBreaks: 0
WidescreenStoryboard: 1

[Editor]
DistanceSpacing: 1.3
BeatDivisor: 4
GridSize: 16
TimelineZoom: 1.9

[Metadata]
Title:Satsuriku no Keifu
TitleUnicode:殺戮の系譜
Artist:Denkishiki Karen Ongaku Shuudan
ArtistUnicode:電気式華憐音楽集団
Creator:Lasse
Version:Insane
Source:
Tags:denkare japanese rock metal detonator ignition
BeatmapID:2384149
BeatmapSetID:1140608

[Difficulty]
HPDrainRate:6
CircleSize:4
OverallDifficulty:8
ApproachRate:9
SliderMultiplier:1.6
SliderTickRate:1

[Events]
//Background and Video events
0,0,"a1.jpg",0,0
//Break Periods
2,88698,96612
2,164126,170184
//Storyboard Layer 0 (Background)
//Storyboard Layer 1 (Fail)
//Storyboard Layer 2 (Pass)
//Storyboard Layer 3 (Foreground)
//Storyboard Layer 4 (Overlay)
//Storyboard Sound Samples

[TimingPoints]
5070,285.714285714286,4,1,1,65,1,0
5070,-100,4,1,1,65,0,0
14212,-100,4,1,1,70,0,0
17498,-83.3333333333333,4,1,1,70,0,0
17712,-83.3333333333333,4,1,1,50,0,0
17784,-100,4,1,1,70,0,0
22070,-76.9230769230769,4,1,1,70,0,0
22284,-76.9230769230769,4,1,1,50,0,0
22355,-100,4,1,1,70,0,0
23212,-100,4,1,1,64,0,0
23284,-100,4,1,1,62,0,0
23355,-125,4,1,1,60,0,0
32498,-125,4,1,1,62,0,0
32784,-111.111111111111,4,1,1,62,0,0
41641,-142.857142857143,4,1,1,64,0,0
48498,-111.111111111111,4,1,1,66,0,0
49070,-111.111111111111,4,1,1,68,0,0
50212,-181.818181818182,4,2,1,50,0,0
50498,-181.818181818182,4,2,1,5,0,0
50641,-181.818181818182,4,2,1,30,0,0
50784,-90.9090909090909,4,1,1,75,0,1
59355,-90.9090909090909,4,2,2,70,0,0
59927,-90.9090909090909,4,1,1,75,0,1
68498,-90.9090909090909,4,1,1,70,0,1
68784,-90.9090909090909,4,1,1,65,0,1
69070,-125,4,1,1,60,0,0
77641,-125,4,2,2,58,0,0
77927,-125,4,2,2,56,0,0
78212,-200,4,1,1,54,0,0
78498,-200,4,1,1,50,0,0
78641,-200,4,1,1,62,0,0
78927,-200,4,1,1,64,0,0
79212,-200,4,1,1,66,0,0
79355,-100,4,1,1,68,0,0
79641,-100,4,1,1,70,0,0
82641,-83.3333333333333,4,1,1,70,0,0
82855,-83.3333333333333,4,1,1,50,0,0
82927,-100,4,1,1,70,0,0
87212,-76.9230769230769,4,1,1,70,0,0
87427,-76.9230769230769,4,1,1,50,0,0
87498,-100,4,1,1,70,0,0
88355,-100,4,1,1,68,0,0
88427,-100,4,1,1,66,0,0
88498,-100,4,1,1,64,0,0
97212,-100,4,1,1,58,0,0
97641,-100,4,1,1,60,0,0
97927,-111.111111111111,4,1,1,62,0,0
106784,-142.857142857143,4,1,1,64,0,0
113641,-111.111111111111,4,1,1,66,0,0
114212,-111.111111111111,4,1,1,68,0,0
115641,-111.111111111111,4,1,2,70,0,0
115927,-90.9090909090909,4,1,1,75,0,1
124498,-90.9090909090909,4,2,2,70,0,0
125070,-90.9090909090909,4,1,1,75,0,1
133641,-90.9090909090909,4,1,1,70,0,1
133927,-90.9090909090909,4,1,1,65,0,1
134212,-125,4,1,1,60,0,0
142784,-125,4,2,2,58,0,0
143070,-125,4,2,2,56,0,0
143355,-100,4,1,1,60,0,0
152498,-86.9565217391304,4,1,1,68,0,0
157070,-86.9565217391304,4,1,1,70,0,0
161355,-100,4,2,2,68,0,0
161498,-100,4,2,2,66,0,0
161641,-125,4,2,1,64,0,0
161855,-125,4,2,2,64,0,0
162212,-125,4,2,1,62,0,0
162355,-125,4,2,1,34,0,0
162426,-125,4,2,2,62,0,0
162570,-125,4,2,1,34,0,0
162641,-125,4,2,2,62,0,0
162784,-125,4,2,1,60,0,0
162927,-125,4,2,1,34,0,0
162998,-125,4,2,2,60,0,0
163141,-125,4,2,1,34,0,0
163212,-125,4,2,2,60,0,0
163355,-125,4,2,1,58,0,0
163569,-125,4,2,2,58,0,0
163712,-125,4,2,1,40,0,0
163784,-166.666666666667,4,2,1,58,0,0
163927,-166.666666666667,4,2,1,56,0,0
170784,-83.3333333333333,4,2,1,20,0,0
172498,-83.3333333333333,4,2,1,10,0,0
172784,-83.3333333333333,4,2,1,30,0,0
172998,-83.3333333333333,4,2,1,30,0,0
174212,-83.3333333333333,4,2,1,20,0,0
174498,-200,4,2,1,30,0,0
174570,-181.818181818181,4,2,1,5,0,0
175212,-181.818181818181,4,2,1,60,0,0
175355,-83.3333333333333,4,1,1,78,0,1
183927,-83.3333333333333,4,2,2,74,0,0
184212,-83.3333333333333,4,2,2,76,0,0
184498,-83.3333333333333,4,1,1,78,0,1
193070,-83.3333333333333,4,1,1,72,0,1
193355,-83.3333333333333,4,1,1,66,0,1
193641,-125,4,1,1,60,0,0
202212,-125,4,2,2,58,0,0
202498,-125,4,2,2,56,0,0
202784,-200,4,1,1,54,0,0
203070,-200,4,1,1,50,0,0
203212,-200,4,1,1,62,0,0
203498,-200,4,1,1,64,0,0
203784,-200,4,1,1,66,0,0
203927,-100,4,1,1,68,0,0
207212,-83.3333333333333,4,1,1,70,0,0
207427,-83.3333333333333,4,1,1,50,0,0
207498,-100,4,1,1,70,0,0
211784,-76.9230769230769,4,1,1,70,0,0
211998,-76.9230769230769,4,1,1,50,0,0
212070,-100,4,1,1,70,0,0
213070,-90.9090909090909,4,1,1,72,0,0
216355,-68.9655172413793,4,1,1,72,0,0
216570,-68.9655172413793,4,1,1,50,0,0
216641,-74.0740740740741,4,1,1,72,0,0
216927,-80,4,1,1,72,0,0
217641,-86.9565217391304,4,1,1,72,0,0
220927,-66.6666666666667,4,1,1,72,0,0
221141,-66.6666666666667,4,1,1,50,0,0
221212,-74.0740740740741,4,1,1,72,0,0
222212,-340.136054421769,4,1,1,70,0,0
222284,-333.333333333333,4,2,99,50,0,0
223355,-333.333333333333,4,2,99,45,0,0
224498,-333.333333333333,4,2,99,40,0,0
225641,-333.333333333333,4,2,99,35,0,0
226784,-333.333333333333,4,2,99,30,0,0
227927,-333.333333333333,4,2,99,25,0,0
229070,-333.333333333333,4,2,99,20,0,0
230212,-333.333333333333,4,2,99,15,0,0
230784,-333.333333333333,4,2,99,10,0,0
231070,-333.333333333333,4,2,99,5,0,0
231355,-333.333333333333,4,2,99,8,0,0

[Colours]
Combo1 : 250,180,240
Combo2 : 120,200,230
Combo3 : 255,230,130
Combo4 : 160,230,150

[HitObjects]
172,0,5069,6,0,P|162:73|162:176,1,160,6|8,0:1|0:2,0:0:0:0:
169,255,5498,1,2,0:1:0:0:
93,322,5641,2,0,P|55:334|15:341,1,80,2|0,0:2|0:2,0:2:0:0:
202,359,5927,2,0,P|241:365|279:378,1,80,10|2,0:1|0:2,0:0:0:0:
487,201,6355,5,8,0:3:0:0:
487,201,6427,1,8,0:3:0:0:
487,201,6498,2,0,P|447:197|408:188,1,80,10|0,0:1|0:2,0:0:0:0:
334,261,6784,2,0,P|350:297|362:335,1,80,2|0,0:1|0:2,0:2:0:0:
462,364,7070,2,0,P|485:331|512:301,1,80,10|0,0:1|0:2,0:2:0:0:
446,104,7355,6,0,P|422:161|325:150,1,160,2|8,0:1|0:2,0:0:0:0:
222,205,7784,2,0,P|246:262|343:251,1,160,2|0,0:1|0:2,0:0:0:0:
197,103,8212,1,10,0:1:0:0:
128,224,8355,6,0,L|96:303,1,80,6|0,0:2|0:0,0:0:0:0:
109,130,8641,2,0,L|30:98,1,80,2|8,0:1|0:2,0:0:0:0:
204,111,8927,1,8,0:3:0:0:
204,111,8998,1,8,0:3:0:0:
204,111,9070,2,0,L|236:32,1,80,14|8,0:1|0:2,0:0:0:0:
341,2,9355,5,8,0:3:0:0:
355,15,9427,1,8,0:3:0:0:
372,24,9498,1,8,0:3:0:0:
392,27,9570,1,8,0:3:0:0:
412,24,9641,2,0,P|470:21|507:117,1,160,6|8,0:1|0:2,0:2:0:0:
500,206,10070,1,2,0:1:0:0:
403,189,10212,2,0,P|401:149|392:110,1,80,0|2,0:2|0:2,0:0:0:0:
292,181,10498,2,0,P|293:220|302:259,1,80,10|2,0:2|0:2,0:0:0:0:
55,352,10927,5,8,0:3:0:0:
55,352,10998,1,8,0:3:0:0:
55,352,11070,2,0,P|93:355|136:362,1,80,10|0,0:1|0:2,0:0:0:0:
82,229,11355,2,0,P|41:225|3:218,1,80,2|0,0:1|0:2,0:2:0:0:
116,125,11641,2,0,P|154:117|194:114,1,80,10|0,0:1|0:2,0:2:0:0:
348,118,11927,6,0,P|420:125|525:122,1,160,2|8,0:1|0:2,0:0:0:0:
451,26,12355,2,0,P|371:18|291:20,1,160,2|0,0:1|0:2,0:0:0:0:
217,105,12784,1,10,0:1:0:0:
298,211,12927,6,0,P|311:179|311:128,1,80,6|0,0:2|0:0,0:0:0:0:
172,215,13212,2,0,P|172:254|186:292,1,80,0|0,0:2|0:2,0:0:0:0:
299,373,13498,1,8,0:3:0:0:
299,373,13570,1,8,0:3:0:0:
299,373,13641,2,0,L|406:359,1,80,14|8,0:1|0:2,0:0:0:0:
512,251,13927,5,8,0:3:0:0:
512,251,13998,1,8,0:3:0:0:
512,251,14070,1,8,0:3:0:0:
512,251,14141,1,8,0:3:0:0:
512,251,14212,2,0,L|421:236,1,80,6|0,0:1|0:2,0:2:0:0:
316,137,14498,5,10,0:2:0:0:
316,137,14641,1,0,0:2:0:0:
414,81,14784,2,0,P|421:40|422:2,1,80,2|0,0:2|0:2,0:0:0:0:
316,137,15070,2,0,P|309:178|308:216,1,80,10|0,0:2|0:2,0:0:0:0:
389,333,15355,6,0,L|487:350,1,80,2|8,0:1|0:3,0:2:0:0:
467,346,15570,1,8,0:3:0:0:
467,346,15641,1,10,0:2:0:0:
405,246,15784,2,0,P|412:203|410:153,1,80,2|0,0:2|0:2,0:2:0:0:
229,125,16070,2,0,P|222:164|222:204,1,80,2|8,0:2|0:2,0:2:0:0:
62,234,16355,5,2,0:2:0:0:
62,234,16498,2,0,P|72:173|77:62,1,160,2|8,0:1|0:2,0:0:0:0:
171,0,16927,1,2,0:2:0:0:
238,45,17070,2,0,P|226:124|222:203,1,160,2|8,0:2|0:2,0:2:0:0:
325,343,17498,6,2,P|397:348|469:355,1,143.999995605469,6|0,0:2|1:3,0:1:0:0:
469,355,17784,2,2,P|474:309|474:264,1,80,10|8,0:3|0:2,0:1:0:0:
398,106,18070,5,10,0:3:0:0:
398,106,18141,1,8,0:3:0:0:
398,106,18212,2,0,P|354:103|310:97,1,80,14|8,0:1|0:3,0:0:0:0:
225,26,18498,1,10,0:1:0:0:
169,134,18641,1,8,0:3:0:0:
169,134,18712,1,8,0:3:0:0:
169,134,18784,2,0,P|164:173|162:213,1,80,4|0,0:1|0:2,0:2:0:0:
189,364,19070,5,10,0:2:0:0:
189,364,19212,1,0,0:2:0:0:
275,285,19355,2,0,P|348:264|329:184,1,160,2|8,0:2|0:2,0:0:0:0:
177,142,19784,2,0,P|104:121|123:41,1,160,2|8,0:2|0:3,0:1:0:0:
111,50,20141,1,8,0:3:0:0:
111,50,20212,2,0,L|217:37,1,80,10|0,0:2|0:2,0:2:0:0:
271,107,20498,2,0,L|377:120,1,80,2|0,0:2|0:2,0:2:0:0:
407,270,20784,6,0,B|391:306|391:306|405:344,1,80,10|0,0:2|0:2,0:0:0:0:
499,225,21070,1,2,0:1:0:0:
499,225,21141,1,0,0:2:0:0:
499,225,21212,2,0,B|515:189|515:189|500:150,1,80,0|8,0:2|0:2,0:0:0:0:
446,57,21498,1,2,0:3:0:0:
446,57,21641,1,0,0:3:0:0:
340,107,21784,1,2,0:2:0:0:
340,107,21927,1,8,0:2:0:0:
226,39,22070,6,2,L|60:25,1,155.999992858887,6|0,0:2|0:2,0:1:0:0:
70,25,22355,2,2,B|52:63|52:63|67:113,1,80,10|8,0:3|0:2,0:1:0:0:
151,216,22641,1,8,0:3:0:0:
151,216,22712,1,8,0:3:0:0:
151,216,22784,1,8,0:3:0:0:
151,216,22855,1,8,0:3:0:0:
151,216,22927,2,0,L|242:211,1,80,8|8,0:3|0:2,0:0:0:0:
345,263,23212,5,8,0:3:0:0:
345,263,23284,1,8,0:3:0:0:
345,263,23355,2,0,L|338:207,2,32,6|0|0,0:3|0:3|0:3,0:2:0:0:
341,353,23641,2,2,L|348:409,2,32,2|0|0,0:2|0:2|0:2,0:2:0:0:
341,353,24070,5,8,0:3:0:0:
262,302,24212,1,8,0:2:0:0:
262,302,24498,6,0,L|212:305,2,32,2|0|0,0:3|0:3|0:3,0:3:0:0:
161,363,24784,2,0,L|111:360,2,32,2|0|0,0:3|0:3|0:3,0:3:0:0:
161,363,25212,5,8,0:3:0:0:
127,265,25355,1,8,0:2:0:0:
127,265,25641,6,0,L|121:231,2,32,2|0|0,0:2|0:2|0:2,0:2:0:0:
201,201,25927,2,0,L|207:167,2,32,2|0|0,0:2|0:2|0:2,0:2:0:0:
201,201,26355,5,8,0:3:0:0:
121,148,26498,1,8,0:2:0:0:
121,148,26784,6,0,L|79:143,2,32,2|0|0,0:2|0:2|0:2,0:2:0:0:
199,86,27070,2,0,L|241:81,2,32,2|0|0,0:2|0:2|0:2,0:2:0:0:
398,0,27498,6,0,P|380:61|405:134,1,128,14|8,0:2|0:2,0:2:0:0:
481,211,27927,6,0,L|519:204,2,32,2|0|0,0:2|0:2|0:2,0:0:0:0:
429,297,28212,2,0,L|391:304,2,32,2|0|0,0:2|0:2|0:2,0:0:0:0:
429,297,28641,5,8,0:3:0:0:
363,224,28784,1,8,0:2:0:0:
363,224,29070,6,0,L|357:179,2,32,2|0|0,0:2|0:2|0:2,0:0:0:0:
420,125,29355,2,0,L|426:80,2,32,2|0|0,0:2|0:2|0:2,0:0:0:0:
420,125,29784,5,8,0:3:0:0:
341,58,29927,1,8,0:2:0:0:
341,58,30212,6,0,L|308:51,2,32,2|0|0,0:2|0:2|0:2,0:0:0:0:
276,133,30498,2,0,L|243:140,2,32,2|0|0,0:2|0:2|0:2,0:0:0:0:
276,133,30927,5,8,0:3:0:0:
196,71,31070,1,8,0:2:0:0:
196,71,31355,6,0,L|184:29,2,32,2|0|0,0:2|0:2|0:2,0:0:0:0:
175,192,31641,2,0,L|187:234,2,32,2|0|0,0:2|0:2|0:2,0:0:0:0:
61,61,32070,6,0,L|193:40,1,128,14|8,0:2|0:2,0:0:0:0:
287,30,32498,1,6,0:2:0:0:
287,30,32570,1,0,0:2:0:0:
287,30,32641,1,0,0:2:0:0:
361,104,32784,5,10,0:2:0:0:
333,178,32927,1,0,0:2:0:0:
408,206,33070,1,2,0:2:0:0:
435,130,33212,2,0,P|440:100|414:49,1,71.9999978027344,0|8,0:2|0:2,0:2:0:0:
287,30,33498,5,0,0:2:0:0:
243,96,33641,2,0,P|238:126|264:177,1,71.9999978027344,2|0,0:2|0:2,0:2:0:0:
251,164,33855,1,0,0:2:0:0:
251,164,33927,1,10,0:2:0:0:
336,210,34070,2,0,L|415:205,1,71.9999978027344,2|0,0:2|0:2,0:2:0:0:
260,288,34355,2,0,L|181:293,2,71.9999978027344,2|8|0,0:2|0:2|0:2,0:2:0:0:
425,342,34784,6,0,P|435:272|408:205,1,143.999995605469,2|8,0:2|0:2,0:0:0:0:
270,145,35212,2,0,B|214:140|214:140|189:155|189:155|125:148,1,143.999995605469,2|2,0:2|0:2,0:0:0:0:
31,103,35641,1,10,0:2:0:0:
76,4,35784,1,2,0:2:0:0:
206,196,36070,5,8,0:3:0:0:
206,196,36141,1,8,0:3:0:0:
206,196,36212,2,0,P|199:235|194:280,1,71.9999978027344,10|0,0:2|0:2,0:2:0:0:
261,353,36498,2,0,P|265:317|271:281,1,71.9999978027344,2|0,0:2|0:2,0:2:0:0:
365,225,36784,2,0,P|358:264|353:309,1,71.9999978027344,10|0,0:2|0:2,0:2:0:0:
419,384,37070,1,6,0:2:0:0:
419,384,37141,1,0,0:2:0:0:
419,384,37212,1,0,0:2:0:0:
500,299,37355,6,0,P|507:260|512:215,1,71.9999978027344,10|0,0:2|0:2,0:2:0:0:
506,133,37641,1,2,0:2:0:0:
412,131,37784,2,0,P|376:126|340:120,1,71.9999978027344,2|8,0:2|0:2,0:2:0:0:
200,88,38070,5,0,0:2:0:0:
271,137,38212,2,0,P|310:129|345:118,1,71.9999978027344,2|0,0:2|0:2,0:2:0:0:
340,119,38427,1,0,0:2:0:0:
340,119,38498,1,10,0:2:0:0:
244,212,38641,2,0,P|236:238|231:287,1,71.9999978027344,2|0,0:2|0:2,0:2:0:0:
200,88,38927,2,0,P|196:52|186:17,2,71.9999978027344,2|8|0,0:2|0:2|0:2,0:0:0:0:
92,174,39355,6,0,P|23:169|17:235,1,143.999995605469,2|8,0:2|0:2,0:0:0:0:
92,324,39784,2,0,P|180:312|256:311,1,143.999995605469,2|2,0:2|0:2,0:0:0:0:
321,375,40212,1,10,0:2:0:0:
383,286,40355,1,2,0:2:0:0:
248,114,40641,5,8,0:3:0:0:
248,114,40712,1,8,0:3:0:0:
248,114,40784,2,0,L|165:108,1,71.9999978027344,8|0,0:2|0:2,0:2:0:0:
292,19,41070,1,8,0:2:0:0:
292,19,41141,1,8,0:2:0:0:
292,19,41212,1,8,0:2:0:0:
361,91,41355,1,10,0:3:0:0:
427,15,41498,1,10,0:3:0:0:
486,111,41641,6,0,P|484:147|478:201,1,83.9999974365235,6|2,0:1|0:1,0:0:0:0:
419,299,42070,1,2,0:1:0:0:
419,299,42141,1,0,0:3:0:0:
419,299,42212,2,0,P|382:291|352:286,1,55.9999982910157,0|0,0:2|0:2,0:0:0:0:
202,380,42641,5,8,0:2:0:0:
249,317,42784,2,2,B|271:288|271:288|241:206,1,111.999996582031,2|0,0:2|0:2,0:1:0:0:
184,162,43212,1,0,0:3:0:0:
184,162,43284,1,0,0:3:0:0:
184,162,43355,2,0,L|123:155,1,55.9999982910157,2|0,0:2|0:3,0:0:0:0:
243,97,43641,2,0,L|304:90,1,55.9999982910157,2|8,0:2|0:2,0:0:0:0:
160,24,43927,6,0,L|58:11,1,83.9999974365235,6|2,0:1|0:1,0:0:0:0:
7,108,44355,1,2,0:1:0:0:
7,108,44427,1,0,0:2:0:0:
7,108,44498,2,0,P|3:149|3:167,1,55.9999982910157,0|0,0:2|0:2,0:0:0:0:
33,318,44927,5,8,0:2:0:0:
108,339,45070,2,2,B|139:318|139:318|115:229,1,111.999996582031,2|0,0:2|0:2,0:1:0:0:
101,155,45498,5,0,0:3:0:0:
101,155,45570,1,0,0:3:0:0:
101,155,45641,1,0,0:3:0:0:
24,198,45784,1,0,0:3:0:0:
45,91,45927,2,0,L|57:12,1,55.9999982910157,2|8,0:2|0:2,0:0:0:0:
159,0,46212,6,0,L|172:92,1,83.9999974365235,6|2,0:1|0:1,0:0:0:0:
261,178,46641,1,2,0:1:0:0:
261,178,46712,1,0,0:2:0:0:
261,178,46784,2,0,P|289:177|321:178,1,55.9999982910157,0|0,0:2|0:2,0:0:0:0:
443,288,47212,5,8,0:2:0:0:
492,213,47355,2,2,P|496:190|490:148,1,55.9999982910157,2|0,0:2|0:2,0:1:0:0:
450,77,47641,2,0,L|371:68,1,55.9999982910157,2|0,0:2|0:2,0:2:0:0:
383,79,47855,1,0,0:2:0:0:
370,86,47927,2,0,L|291:77,1,55.9999982910157,2|0,0:2|0:2,0:0:0:0:
219,56,48212,2,0,P|223:26|215:-16,1,55.9999982910157,2|0,0:2|0:2,0:2:0:0:
64,93,48498,6,0,P|54:126|70:184,1,71.9999978027344,6|0,0:2|0:2,0:2:0:0:
231,233,48784,2,0,P|241:200|225:142,1,71.9999978027344,10|0,0:2|0:2,0:2:0:0:
51,303,49070,1,10,0:3:0:0:
51,303,49212,1,10,0:3:0:0:
186,376,49355,1,8,0:3:0:0:
203,370,49427,1,8,0:3:0:0:
220,366,49498,1,8,0:3:0:0:
238,364,49570,1,8,0:3:0:0:
256,364,49641,1,12,0:3:0:0:
368,366,50212,6,2,B|432:383|432:383|492:355,1,132.00000402832,0|0,0:2|0:2,0:1:0:0:
491,355,50784,6,0,P|507:270|484:186,1,176.000005371094,6|10,0:2|0:2,0:2:0:0:
313,79,51212,2,0,P|296:164|319:248,1,176.000005371094,2|0,0:2|0:2,0:2:0:0:
411,100,51641,2,0,L|505:78,1,88.000002685547,10|0,0:2|0:2,0:2:0:0:
275,159,51927,6,0,L|181:137,1,88.000002685547,2|8,0:2|0:3,0:0:0:0:
189,138,52141,1,8,0:3:0:0:
189,138,52212,1,10,0:2:0:0:
97,84,52355,2,0,P|104:41|98:-1,1,88.000002685547,2|0,0:2|0:2,0:0:0:0:
11,148,52641,1,2,0:2:0:0:
98,207,52784,1,10,0:2:0:0:
15,272,52927,1,2,0:2:0:0:
116,347,53070,6,0,P|201:350|301:358,2,176.000005371094,2|8|0,0:2|0:2|0:2,0:1:0:0:
116,347,53784,1,0,0:2:0:0:
16,382,53927,1,10,0:2:0:0:
15,272,54070,2,0,P|18:225|26:157,1,88.000002685547,2|0,0:2|0:2,0:2:0:0:
138,49,54355,5,10,0:3:0:0:
138,49,54427,1,8,0:3:0:0:
138,49,54498,1,8,0:2:0:0:
217,102,54641,2,0,B|119:72|152:138|45:107,1,176.000005371094,2|0,0:2|0:2,0:2:0:0:
191,216,55070,5,8,0:3:0:0:
191,216,55141,1,8,0:3:0:0:
191,216,55212,1,8,0:3:0:0:
191,216,55284,1,8,0:3:0:0:
191,216,55355,2,0,P|217:311|287:308,1,176.000005371094,6|10,0:2|0:2,0:2:0:0:
430,240,55784,2,0,P|439:155|446:60,1,176.000005371094,2|0,0:2|0:2,0:2:0:0:
269,0,56212,2,0,P|266:46|256:101,1,88.000002685547,10|0,0:2|0:2,0:2:0:0:
191,216,56498,5,2,0:2:0:0:
123,138,56641,1,8,0:3:0:0:
123,138,56712,1,8,0:3:0:0:
123,138,56784,1,10,0:2:0:0:
20,238,56927,2,0,P|20:175|36:53,1,176.000005371094,2|0,0:2|0:2,0:2:0:0:
181,2,57355,6,0,L|270:-1,1,88.000002685547,10|0,0:2|0:2,0:0:0:0:
389,95,57641,2,0,L|300:92,1,88.000002685547,2|0,0:3|0:2,0:0:0:0:
148,187,57927,5,10,0:1:0:0:
261,259,58070,1,0,0:2:0:0:
240,166,58212,1,2,0:1:0:0:
167,279,58355,1,0,0:2:0:0:
293,354,58498,5,10,0:1:0:0:
293,354,58641,2,0,L|483:333,1,176.000005371094,2|8,0:2|0:3,0:2:0:0:
467,334,58998,1,8,0:3:0:0:
467,334,59070,2,0,L|473:235,1,88.000002685547,10|8,0:2|0:3,0:2:0:0:
392,119,59355,5,8,2:3:0:0:
390,126,59427,1,8,2:3:0:0:
389,134,59498,1,8,2:3:0:0:
387,141,59570,1,8,2:3:0:0:
386,148,59641,1,4,2:3:0:0:
384,156,59712,1,4,2:3:0:0:
382,163,59784,1,4,2:3:0:0:
381,171,59855,1,4,2:3:0:0:
378,178,59927,2,0,P|291:177|204:161,1,176.000005371094,6|10,0:2|0:2,0:2:0:0:
76,32,60355,2,0,P|163:32|250:48,1,176.000005371094,2|0,0:2|0:2,0:2:0:0:
117,208,60784,2,0,P|107:165|113:122,1,88.000002685547,10|0,0:2|0:2,0:2:0:0:
272,254,61070,6,0,P|277:297|267:339,1,88.000002685547,2|8,0:2|0:3,0:0:0:0:
267,339,61284,1,8,0:3:0:0:
267,339,61355,1,8,0:2:0:0:
164,384,61498,2,0,L|61:375,1,88.000002685547,2|0,0:2|0:2,0:0:0:0:
0,284,61784,1,2,0:2:0:0:
77,241,61927,1,10,0:2:0:0:
35,163,62070,1,2,0:2:0:0:
99,70,62212,6,0,B|181:99|181:99|265:46,2,176.000005371094,2|8|0,0:2|0:2|0:2,0:2:0:0:
99,70,62927,1,0,0:2:0:0:
35,163,63070,1,10,0:2:0:0:
129,222,63212,2,0,L|224:215,1,88.000002685547,2|0,0:2|0:2,0:2:0:0:
355,311,63498,5,10,0:3:0:0:
355,311,63570,1,8,0:3:0:0:
355,311,63641,1,8,0:2:0:0:
422,241,63784,2,0,P|452:161|417:71,1,176.000005371094,2|0,0:2|0:2,0:2:0:0:
288,27,64212,5,8,0:3:0:0:
288,27,64284,1,8,0:3:0:0:
288,27,64355,1,8,0:3:0:0:
288,27,64427,1,8,0:3:0:0:
288,27,64498,2,0,B|185:5|219:67|104:34,1,176.000005371094,6|10,0:2|0:2,0:2:0:0:
251,133,64927,2,0,P|221:213|256:303,1,176.000005371094,2|0,0:2|0:2,0:2:0:0:
353,382,65355,2,0,P|402:377|452:373,1,88.000002685547,10|0,0:2|0:2,0:2:0:0:
330,215,65641,5,2,0:2:0:0:
260,306,65784,1,8,0:3:0:0:
260,306,65855,1,8,0:3:0:0:
260,306,65927,1,10,0:2:0:0:
179,224,66070,2,0,L|156:36,1,176.000005371094,2|0,0:2|0:2,0:2:0:0:
0,204,66498,6,0,L|87:193,1,88.000002685547,10|0,0:1|0:2,0:0:0:0:
109,325,66784,1,2,0:2:0:0:
189,311,66927,2,0,L|178:223,1,88.000002685547,2|8,0:1|0:2,0:0:0:0:
307,204,67212,1,2,0:2:0:0:
296,122,67355,2,0,L|208:132,1,88.000002685547,2|0,0:1|0:1,0:1:0:0:
328,4,67641,5,10,0:1:0:0:
409,120,67784,2,0,P|410:181|514:194,1,176.000005371094,2|8,0:1|0:3,0:2:0:0:
507,200,68141,1,8,0:3:0:0:
507,200,68212,2,0,L|513:103,1,88.000002685547,12|8,0:2|0:3,0:2:0:0:
382,0,68498,5,8,1:3:0:0:
382,10,68570,1,8,1:3:0:0:
379,21,68641,1,8,1:3:0:0:
373,30,68712,1,8,1:3:0:0:
365,37,68784,1,8,1:3:0:0:
355,42,68855,1,8,1:3:0:0:
344,43,68927,1,8,1:3:0:0:
333,41,68998,1,8,1:3:0:0:
323,36,69070,6,0,P|288:21|252:25,1,64,6|0,0:2|0:2,0:0:0:0:
244,107,69355,2,0,P|279:122|315:118,1,64,10|0,0:2|0:2,0:0:0:0:
229,275,69784,5,2,0:2:0:0:
180,224,69927,1,8,0:2:0:0:
161,292,70070,1,2,0:2:0:0:
302,361,70355,5,8,0:3:0:0:
302,361,70427,1,8,0:3:0:0:
302,361,70498,2,0,P|336:360|385:357,1,64,10|0,0:2|0:2,0:2:0:0:
443,351,70784,2,0,P|441:319|440:287,1,64,2|0,0:2|0:2,0:2:0:0:
439,209,71070,2,0,P|407:210|375:211,1,64,10|0,0:2|0:2,0:2:0:0:
298,145,71355,6,0,P|299:112|295:75,1,64,2|0,0:2|0:2,0:0:0:0:
207,130,71641,2,0,P|206:163|210:200,1,64,10|0,0:2|0:2,0:0:0:0:
356,240,72070,5,2,0:2:0:0:
421,215,72212,1,8,0:2:0:0:
489,233,72355,1,2,0:2:0:0:
425,85,72641,5,8,0:3:0:0:
425,85,72712,1,8,0:3:0:0:
425,85,72784,2,0,P|425:50|424:18,1,64,10|0,0:2|0:2,0:2:0:0:
341,10,73070,2,0,P|342:41|341:73,1,64,2|0,0:2|0:2,0:2:0:0:
260,90,73355,2,0,P|260:58|259:26,1,64,10|0,0:2|0:2,0:2:0:0:
154,117,73641,6,0,P|150:149|158:196,1,64,6|0,0:2|0:2,0:0:0:0:
228,230,73927,2,0,P|265:222|310:216,1,64,10|0,0:2|0:2,0:0:0:0:
205,338,74355,5,2,0:2:0:0:
142,305,74498,1,8,0:2:0:0:
100,362,74641,1,2,0:2:0:0:
4,266,74927,5,8,0:3:0:0:
4,266,74998,1,8,0:3:0:0:
4,266,75070,2,0,L|11:195,1,64,10|0,0:2|0:2,0:2:0:0:
72,146,75355,2,0,L|143:152,1,64,2|0,0:2|0:2,0:2:0:0:
199,206,75641,2,0,L|270:212,1,64,10|0,0:2|0:2,0:2:0:0:
360,157,75927,6,0,P|357:116|366:83,1,64,2|0,0:2|0:2,0:0:0:0:
463,181,76212,2,0,P|466:222|457:255,1,64,10|0,0:2|0:2,0:0:0:0:
391,369,76641,5,2,0:2:0:0:
370,301,76784,1,8,0:2:0:0:
322,353,76927,1,2,0:2:0:0:
230,246,77212,5,8,0:3:0:0:
230,246,77284,1,8,0:3:0:0:
230,246,77355,2,0,L|220:168,1,64,10|0,0:2|0:2,0:2:0:0:
168,81,77641,6,0,L|132:86,3,32,8|8|8|8,0:3|0:3|0:3|0:3,0:0:0:0:
117,115,77927,2,0,L|85:119,3,32,4|4|4|4,0:3|0:3|0:3|0:3,0:0:0:0:
47,140,78212,2,0,P|32:111|47:51,1,80,6|0,0:2|0:2,0:2:0:0:
136,0,78641,5,8,0:3:0:0:
136,0,78712,1,8,0:3:0:0:
136,0,78784,1,8,0:2:0:0:
168,81,78927,1,8,0:2:0:0:
313,121,79212,5,8,0:2:0:0:
357,47,79355,1,6,0:1:0:0:
357,47,79427,1,0,0:2:0:0:
357,47,79498,1,0,0:2:0:0:
435,106,79641,6,0,P|475:120|518:115,1,80,10|0,0:2|0:2,0:0:0:0:
443,216,79927,2,0,P|461:254|495:281,1,80,2|0,0:2|0:2,0:0:0:0:
370,299,80212,2,0,P|355:339|360:382,1,80,10|0,0:2|0:2,0:0:0:0:
279,222,80498,6,0,P|281:182|268:145,1,80,2|8,0:1|0:3,0:2:0:0:
268,145,80712,1,8,0:3:0:0:
268,145,80784,1,10,0:2:0:0:
185,94,80927,2,0,L|100:89,1,80,2|0,0:2|0:2,0:2:0:0:
262,28,81212,2,0,L|347:23,1,80,2|10,0:2|0:2,0:2:0:0:
457,78,81498,5,2,0:2:0:0:
457,78,81641,2,0,P|450:149|467:248,1,160,2|8,0:1|0:2,0:0:0:0:
410,375,82070,1,2,0:2:0:0:
353,323,82212,2,0,P|359:243|346:164,1,160,2|10,0:2|0:2,0:0:0:0:
209,96,82641,6,2,B|161:90|161:90|130:104|130:104|63:97,1,143.999995605469,6|0,0:2|1:3,0:1:0:0:
68,97,82927,2,2,B|58:59|58:59|74:21,1,80,10|8,0:3|0:2,0:1:0:0:
185,186,83212,5,10,0:3:0:0:
185,186,83284,1,8,0:3:0:0:
185,186,83355,2,0,B|195:224|195:224|178:261,1,80,14|8,0:1|0:3,0:0:0:0:
116,365,83641,1,10,0:1:0:0:
26,301,83784,1,8,0:3:0:0:
26,301,83855,1,8,0:3:0:0:
26,301,83927,2,0,B|34:216,1,80,4|0,0:1|0:2,0:2:0:0:
111,99,84212,5,10,0:2:0:0:
111,99,84355,1,0,0:2:0:0:
185,186,84498,2,0,B|250:229|250:229|320:174,1,160,2|8,0:2|0:2,0:0:0:0:
444,90,84927,2,0,B|379:133|379:133|309:78,1,160,2|8,0:2|0:3,0:2:0:0:
314,82,85284,1,8,0:3:0:0:
314,82,85355,2,0,P|311:39|304:-8,1,80,10|0,0:2|0:2,0:0:0:0:
187,28,85641,2,0,P|189:69|195:107,1,80,2|0,0:2|0:2,0:0:0:0:
105,213,85927,6,0,P|65:215|3:220,1,80,10|0,0:2|0:2,0:0:0:0:
136,311,86212,1,2,0:1:0:0:
136,311,86284,1,0,0:2:0:0:
136,311,86355,2,0,P|181:309|238:304,1,80,0|8,0:2|0:2,0:0:0:0:
327,275,86641,1,2,0:3:0:0:
327,275,86784,1,0,0:3:0:0:
391,372,86927,1,2,0:2:0:0:
391,372,87070,1,8,0:2:0:0:
490,288,87212,6,2,B|513:256|513:256|482:121,1,155.999992858887,6|0,0:2|0:2,0:1:0:0:
486,142,87498,2,2,B|448:156|448:156|412:139,1,80,10|8,0:3|0:2,0:1:0:0:
320,37,87784,1,8,0:3:0:0:
320,37,87855,1,8,0:3:0:0:
320,37,87927,1,8,0:3:0:0:
320,37,87998,1,8,0:3:0:0:
320,37,88070,2,0,L|410:26,1,80,8|8,0:3|0:2,0:0:0:0:
309,147,88355,5,8,0:3:0:0:
309,147,88427,1,8,0:3:0:0:
309,147,88498,1,12,0:3:0:0:
0,112,97212,5,12,0:2:0:0:
27,324,97498,1,8,0:2:0:0:
108,253,97641,5,6,0:2:0:0:
108,253,97712,1,0,0:2:0:0:
108,253,97784,1,0,0:2:0:0:
176,329,97927,5,10,0:2:0:0:
249,299,98070,1,0,0:2:0:0:
316,340,98212,1,2,0:2:0:0:
378,291,98355,2,0,P|385:258|375:206,1,71.9999978027344,2|8,0:2|0:2,0:2:0:0:
307,119,98641,5,0,0:2:0:0:
242,164,98784,2,0,L|161:153,1,71.9999978027344,2|0,0:2|0:2,0:2:0:0:
170,154,98998,1,0,0:2:0:0:
170,154,99070,1,10,0:2:0:0:
122,87,99212,2,0,P|131:52|129:16,1,71.9999978027344,2|0,0:2|0:2,0:2:0:0:
53,141,99498,2,0,P|43:176|45:211,2,71.9999978027344,2|8|0,0:2|0:2|0:2,0:0:0:0:
129,16,99927,6,0,B|183:11|183:11|204:24|204:24|276:21,1,143.999995605469,2|8,0:2|0:2,0:0:0:0:
353,88,100355,2,0,P|341:154|357:238,1,143.999995605469,2|2,0:2|0:2,0:0:0:0:
403,325,100784,1,10,0:2:0:0:
493,266,100927,1,2,0:2:0:0:
309,148,101212,5,8,0:3:0:0:
309,148,101284,1,8,0:3:0:0:
309,148,101355,2,0,L|237:142,1,71.9999978027344,10|0,0:2|0:2,0:2:0:0:
228,235,101641,2,0,L|222:307,1,71.9999978027344,2|0,0:2|0:2,0:2:0:0:
127,304,101927,2,0,L|55:298,1,71.9999978027344,10|0,0:2|0:2,0:2:0:0:
0,213,102212,1,6,0:2:0:0:
0,213,102284,1,0,0:2:0:0:
0,213,102355,1,0,0:2:0:0:
68,134,102498,6,0,L|74:62,1,71.9999978027344,10|0,0:2|0:2,0:2:0:0:
148,4,102784,1,2,0:2:0:0:
203,79,102927,2,0,L|197:151,1,71.9999978027344,2|8,0:2|0:2,0:2:0:0:
247,254,103212,5,0,0:2:0:0:
329,296,103355,2,0,P|367:292|403:277,1,71.9999978027344,2|0,0:2|0:2,0:2:0:0:
398,279,103570,1,0,0:2:0:0:
398,279,103641,1,10,0:2:0:0:
467,216,103784,2,0,P|472:183|484:147,1,71.9999978027344,2|0,0:2|0:2,0:2:0:0:
413,83,104070,2,0,P|408:50|396:14,2,71.9999978027344,2|8|0,0:2|0:2|0:2,0:0:0:0:
330,170,104498,6,0,B|251:144|273:219|184:190,1,143.999995605469,2|8,0:2|0:2,0:0:0:0:
134,102,104927,2,0,P|143:42|74:25,1,143.999995605469,2|2,0:2|0:2,0:0:0:0:
1,104,105355,1,10,0:2:0:0:
47,201,105498,1,2,0:2:0:0:
242,135,105784,5,8,0:3:0:0:
242,135,105855,1,8,0:3:0:0:
242,135,105927,2,0,L|243:49,1,71.9999978027344,8|0,0:2|0:2,0:2:0:0:
330,7,106212,1,8,0:2:0:0:
330,7,106284,1,8,0:2:0:0:
330,7,106355,1,8,0:2:0:0:
384,91,106498,1,10,0:3:0:0:
458,22,106641,1,10,0:3:0:0:
512,137,106784,6,0,P|511:180|504:227,1,83.9999974365235,6|2,0:1|0:1,0:0:0:0:
409,280,107212,1,2,0:1:0:0:
409,280,107284,1,0,0:3:0:0:
409,280,107355,2,0,P|372:272|342:267,1,55.9999982910157,0|0,0:2|0:2,0:0:0:0:
220,204,107784,5,8,0:2:0:0:
281,155,107927,2,2,B|311:113|311:113|273:44,1,111.999996582031,2|0,0:2|0:2,0:1:0:0:
218,17,108355,1,0,0:3:0:0:
218,17,108427,1,0,0:3:0:0:
218,17,108498,2,0,L|157:10,1,55.9999982910157,2|0,0:2|0:3,0:0:0:0:
112,71,108784,2,0,L|56:77,1,55.9999982910157,2|8,0:2|0:2,0:0:0:0:
8,167,109070,6,0,P|-1:209|3:267,1,83.9999974365235,6|2,0:1|0:1,0:0:0:0:
59,362,109498,1,2,0:1:0:0:
59,362,109570,1,0,0:2:0:0:
59,362,109641,2,0,P|86:354|122:349,1,55.9999982910157,0|0,0:2|0:2,0:0:0:0:
266,359,110070,5,8,0:2:0:0:
341,380,110212,2,2,B|371:358|371:358|348:270,1,111.999996582031,2|0,0:2|0:2,0:1:0:0:
289,219,110641,5,0,0:3:0:0:
289,219,110712,1,0,0:3:0:0:
289,219,110784,1,0,0:3:0:0:
218,271,110927,1,0,0:3:0:0:
155,204,111070,2,0,B|151:178|151:178|160:149,1,55.9999982910157,2|8,0:2|0:2,0:0:0:0:
246,92,111355,6,0,P|286:93|343:92,1,83.9999974365235,6|2,0:1|0:1,0:0:0:0:
448,55,111784,1,2,0:1:0:0:
448,55,111855,1,0,0:2:0:0:
448,55,111927,2,0,P|448:33|447:-3,1,55.9999982910157,0|0,0:2|0:2,0:0:0:0:
508,143,112355,5,8,0:2:0:0:
444,189,112498,2,2,L|384:182,1,55.9999982910157,2|0,0:2|0:2,0:1:0:0:
334,111,112784,2,0,P|339:78|333:45,1,55.9999982910157,2|0,0:2|0:2,0:2:0:0:
326,45,112998,1,0,0:2:0:0:
314,36,113070,2,0,L|236:23,1,55.9999982910157,2|0,0:2|0:2,0:0:0:0:
189,99,113355,2,0,P|186:126|191:154,1,55.9999982910157,2|0,0:2|0:2,0:2:0:0:
294,263,113641,6,0,L|378:258,1,71.9999978027344,6|0,0:2|0:2,0:2:0:0:
231,367,113927,2,0,L|147:362,1,71.9999978027344,10|0,0:2|0:2,0:2:0:0:
60,269,114212,1,10,0:3:0:0:
60,269,114355,1,10,0:3:0:0:
154,182,114498,1,8,0:3:0:0:
160,164,114570,1,8,0:3:0:0:
164,148,114641,1,8,0:3:0:0:
166,130,114712,1,8,0:3:0:0:
166,112,114784,1,12,0:3:0:0:
45,49,115355,5,8,0:3:0:0:
45,49,115427,1,8,0:3:0:0:
45,49,115498,1,8,0:3:0:0:
45,49,115570,1,8,0:3:0:0:
45,49,115641,1,8,0:3:0:0:
45,49,115712,1,8,0:3:0:0:
45,49,115784,1,8,0:3:0:0:
45,49,115855,1,8,0:3:0:0:
45,49,115927,2,0,P|135:57|238:39,1,176.000005371094,6|10,0:2|0:2,0:2:0:0:
321,162,116355,2,0,P|231:154|128:172,1,176.000005371094,2|0,0:2|0:2,0:2:0:0:
50,317,116784,2,0,P|59:275|85:228,1,88.000002685547,10|0,0:2|0:2,0:2:0:0:
219,44,117070,6,0,P|223:96|242:136,1,88.000002685547,2|8,0:2|0:3,0:0:0:0:
237,128,117284,1,8,0:3:0:0:
237,128,117355,1,10,0:2:0:0:
346,210,117498,2,0,P|388:186|437:171,1,88.000002685547,2|0,0:2|0:2,0:0:0:0:
512,277,117784,1,2,0:2:0:0:
449,373,117927,1,10,0:2:0:0:
380,293,118070,1,2,0:2:0:0:
279,342,118212,6,0,P|202:342|92:349,2,176.000005371094,2|8|0,0:2|0:2|0:2,0:1:0:0:
279,342,118927,1,0,0:2:0:0:
367,383,119070,1,10,0:2:0:0:
415,296,119212,2,0,P|419:244|420:181,1,88.000002685547,2|0,0:2|0:2,0:2:0:0:
368,73,119498,5,10,0:3:0:0:
368,73,119570,1,8,0:3:0:0:
368,73,119641,1,8,0:2:0:0:
285,133,119784,2,0,B|250:159|203:132|203:132|201:77|153:42,1,176.000005371094,2|0,0:2|0:2,0:2:0:0:
34,124,120212,5,8,0:3:0:0:
34,124,120284,1,8,0:3:0:0:
34,124,120355,1,8,0:3:0:0:
34,124,120427,1,8,0:3:0:0:
34,124,120498,2,0,P|0:199|33:310,1,176.000005371094,6|10,0:2|0:2,0:2:0:0:
125,380,120927,2,0,P|212:371|316:365,1,176.000005371094,2|0,0:2|0:2,0:2:0:0:
421,314,121355,2,0,P|423:271|415:215,1,88.000002685547,10|0,0:2|0:2,0:2:0:0:
304,148,121641,5,2,0:2:0:0:
235,241,121784,1,8,0:3:0:0:
235,241,121855,1,8,0:3:0:0:
235,241,121927,1,10,0:2:0:0:
140,176,122070,2,0,P|122:110|155:3,1,176.000005371094,2|0,0:2|0:2,0:2:0:0:
303,38,122498,6,0,L|397:29,1,88.000002685547,10|0,0:2|0:2,0:0:0:0:
209,102,122784,2,0,L|115:93,1,88.000002685547,2|0,0:3|0:2,0:0:0:0:
0,176,123070,5,10,0:1:0:0:
122,191,123212,1,0,0:2:0:0:
13,268,123355,1,2,0:1:0:0:
135,213,123498,1,0,0:2:0:0:
65,362,123641,5,10,0:1:0:0:
65,362,123784,2,0,P|141:340|255:341,1,176.000005371094,2|8,0:2|0:3,0:2:0:0:
237,338,124141,1,8,0:3:0:0:
237,338,124212,2,0,P|289:349|341:346,1,88.000002685547,10|8,0:2|0:3,0:2:0:0:
458,304,124498,5,8,2:3:0:0:
455,296,124570,1,8,2:3:0:0:
454,288,124641,1,8,2:3:0:0:
453,281,124712,1,8,2:3:0:0:
453,273,124784,1,4,2:3:0:0:
453,265,124855,1,4,2:3:0:0:
454,257,124927,1,4,2:3:0:0:
456,250,124998,1,4,2:3:0:0:
458,242,125070,2,0,P|483:166|452:75,1,176.000005371094,6|10,0:2|0:2,0:2:0:0:
341,160,125498,2,0,P|311:241|337:324,1,176.000005371094,2|0,0:2|0:2,0:2:0:0:
201,384,125927,2,0,P|208:338|200:289,1,88.000002685547,10|0,0:2|0:2,0:2:0:0:
96,226,126212,6,0,L|-20:219,1,88.000002685547,2|8,0:2|0:3,0:0:0:0:
8,220,126427,1,8,0:3:0:0:
8,220,126498,1,8,0:2:0:0:
89,123,126641,2,0,P|91:79|109:38,1,88.000002685547,2|0,0:2|0:2,0:0:0:0:
220,0,126927,1,2,0:2:0:0:
277,66,127070,1,10,0:2:0:0:
349,15,127212,1,2,0:2:0:0:
398,122,127355,6,0,B|446:196|446:196|521:132,2,176.000005371094,2|8|0,0:2|0:2|0:2,0:2:0:0:
398,122,128070,1,0,0:2:0:0:
349,15,128212,1,10,0:2:0:0:
259,88,128355,2,0,P|249:118|259:189,1,88.000002685547,2|0,0:2|0:2,0:2:0:0:
328,290,128641,5,10,0:3:0:0:
328,290,128712,1,8,0:3:0:0:
328,290,128784,1,8,0:2:0:0:
251,360,128927,2,0,B|197:351|197:351|148:375|148:375|51:361,1,176.000005371094,2|0,0:2|0:2,0:2:0:0:
11,262,129355,5,8,0:3:0:0:
11,262,129427,1,8,0:3:0:0:
11,262,129498,1,8,0:3:0:0:
11,262,129570,1,8,0:3:0:0:
11,262,129641,2,0,P|2:174|40:95,1,176.000005371094,6|10,0:2|0:2,0:0:0:0:
164,41,130070,2,0,P|233:71|353:43,1,176.000005371094,2|0,0:2|0:2,0:2:0:0:
462,99,130498,2,0,P|468:55|459:13,1,88.000002685547,10|0,0:2|0:2,0:2:0:0:
276,110,130784,5,2,0:2:0:0:
373,188,130927,1,8,0:3:0:0:
373,188,130998,1,8,0:3:0:0:
373,188,131070,1,10,0:2:0:0:
288,263,131212,2,0,P|202:278|121:247,1,176.000005371094,2|0,0:2|0:2,0:2:0:0:
31,164,131641,5,10,0:1:0:0:
31,164,131784,1,2,0:2:0:0:
126,91,131927,2,0,P|138:56|135:0,1,88.000002685547,2|0,0:1|0:2,0:0:0:0:
31,164,132212,2,0,P|19:199|22:255,1,88.000002685547,10|0,0:1|0:2,0:0:0:0:
94,372,132498,2,0,L|189:363,1,88.000002685547,2|0,0:1|0:2,0:0:0:0:
336,250,132784,5,10,0:1:0:0:
390,352,132927,2,0,P|305:382|254:321,1,176.000005371094,2|8,0:1|0:3,0:2:0:0:
255,325,133284,1,8,0:3:0:0:
255,325,133355,2,0,L|259:231,1,88.000002685547,12|8,0:2|0:3,0:2:0:0:
345,151,133641,5,8,1:3:0:0:
350,159,133712,1,8,1:3:0:0:
358,166,133784,1,8,1:3:0:0:
368,171,133855,1,8,1:3:0:0:
379,172,133927,1,8,1:3:0:0:
390,171,133998,1,8,1:3:0:0:
400,166,134070,1,8,1:3:0:0:
408,158,134141,1,8,1:3:0:0:
414,149,134212,6,0,P|410:118|419:80,1,64,6|0,0:2|0:2,0:0:0:0:
504,140,134498,2,2,P|508:171|499:209,1,64,10|0,0:2|0:2,0:0:0:0:
431,328,134927,5,2,0:2:0:0:
363,307,135070,1,8,0:2:0:0:
304,346,135212,1,2,0:2:0:0:
201,273,135498,5,8,0:3:0:0:
201,273,135570,1,8,0:3:0:0:
201,273,135641,2,0,P|198:235|199:188,1,64,10|0,0:2|0:2,0:2:0:0:
265,170,135927,2,0,P|296:169|328:166,1,64,2|0,0:2|0:2,0:2:0:0:
399,136,136212,2,0,P|398:104|395:72,1,64,10|0,0:2|0:2,0:2:0:0:
312,12,136498,6,0,P|285:16|236:7,1,64,2|0,0:2|0:2,0:0:0:0:
191,86,136784,2,0,P|158:83|115:91,1,64,10|0,0:2|0:2,0:0:0:0:
21,176,137212,5,2,0:2:0:0:
84,210,137355,1,8,0:2:0:0:
23,247,137498,1,2,0:2:0:0:
126,358,137784,5,8,0:3:0:0:
126,358,137855,1,8,0:3:0:0:
126,358,137927,2,0,L|192:354,1,64,10|0,0:2|0:2,0:2:0:0:
256,303,138212,2,0,L|252:239,1,64,2|0,0:2|0:2,0:2:0:0:
201,173,138498,2,0,L|137:176,1,64,10|0,0:2|0:2,0:2:0:0:
53,126,138784,6,0,P|47:93|56:46,1,64,6|0,0:2|0:2,0:0:0:0:
143,17,139070,2,0,P|149:50|140:97,1,64,10|0,0:2|0:2,0:0:0:0:
106,207,139498,5,2,0:2:0:0:
160,256,139641,1,8,0:2:0:0:
116,314,139784,1,2,0:2:0:0:
266,359,140070,5,8,0:3:0:0:
266,359,140141,1,8,0:3:0:0:
266,359,140212,2,0,L|336:353,1,64,10|0,0:2|0:2,0:2:0:0:
406,349,140498,2,0,L|400:279,1,64,2|0,0:2|0:2,0:2:0:0:
392,208,140784,2,0,L|322:214,1,64,10|0,0:2|0:2,0:2:0:0:
243,140,141070,6,0,P|247:108|237:78,1,64,2|0,0:2|0:2,0:0:0:0:
151,119,141355,2,0,P|146:150|156:180,1,64,10|0,0:2|0:2,0:0:0:0:
253,292,141784,5,2,0:2:0:0:
316,257,141927,1,8,0:2:0:0:
370,305,142070,1,2,0:2:0:0:
493,212,142355,5,8,0:3:0:0:
493,212,142427,1,8,0:3:0:0:
493,212,142498,2,0,P|496:175|490:133,1,64,10|0,0:2|0:2,0:2:0:0:
422,66,142784,6,0,L|384:59,3,32,8|8|8|8,0:3|0:3|0:3|0:3,0:0:0:0:
358,82,143070,2,0,L|320:75,3,32,4|4|4|4,0:3|0:3|0:3|0:3,0:0:0:0:
282,93,143355,6,0,B|255:88|255:88|236:99|236:99|178:90,1,80,6|0,0:2|0:2,0:2:0:0:
105,58,143641,2,0,L|71:33,3,40,10|0|0|0,0:2|0:3|0:3|0:3,0:0:0:0:
37,54,143927,2,0,B|21:91|21:91|34:137,1,80,2|2,0:2|0:2,0:2:0:0:
77,299,144355,5,10,0:2:0:0:
154,278,144498,1,2,0:2:0:0:
209,336,144641,1,2,0:2:0:0:
379,379,144927,5,10,0:2:0:0:
450,314,145070,2,0,P|458:269|444:222,1,80,2|2,0:2|0:2,0:0:0:0:
380,169,145355,2,0,B|357:164|357:164|336:170|336:170|296:161,1,80,10|10,0:2|0:2,0:0:0:0:
220,92,145641,6,0,L|217:50,3,40,2|0|0|0,0:2|0:2|0:2|0:2,0:0:0:0:
192,83,145927,2,0,L|189:41,3,40,8|0|0|0,0:2|0:2|0:2|0:2,0:0:0:0:
163,73,146212,2,0,B|129:67|129:67|117:71|117:71|79:64,1,80,2|2,0:2|0:2,0:2:0:0:
2,219,146641,5,14,0:2:0:0:
77,192,146784,1,2,0:2:0:0:
104,267,146927,1,2,0:2:0:0:
255,361,147212,5,14,0:2:0:0:
322,282,147355,2,0,L|314:178,1,80,2|2,0:2|0:2,0:0:0:0:
281,103,147641,1,8,0:2:0:0:
276,111,147712,1,8,0:2:0:0:
268,118,147784,1,8,0:2:0:0:
259,122,147855,1,8,0:2:0:0:
250,123,147927,6,0,L|208:113,3,40,6|0|0|0,0:2|0:2|0:2|0:2,0:0:0:0:
174,129,148212,2,0,L|132:119,3,40,8|0|0|0,0:2|0:2|0:2|0:2,0:0:0:0:
95,124,148498,2,0,P|92:81|117:32,1,80,2|2,0:2|0:2,0:2:0:0:
277,0,148927,5,10,0:2:0:0:
345,42,149070,1,2,0:2:0:0:
420,16,149212,1,2,0:2:0:0:
512,155,149498,5,10,0:2:0:0:
446,219,149641,2,0,P|406:218|354:189,1,80,2|2,0:2|0:2,0:0:0:0:
332,117,149927,2,0,P|347:81|345:41,1,80,10|10,0:2|0:2,0:0:0:0:
231,4,150212,6,0,L|221:45,3,40,2|0|0|0,0:2|0:2|0:2|0:2,0:0:0:0:
191,69,150498,2,0,L|181:110,3,40,8|0|0|0,0:2|0:2|0:2|0:2,0:0:0:0:
155,139,150784,2,0,B|121:143|121:143|111:151|111:151|78:155,1,80,2|2,0:2|0:2,0:2:0:0:
0,315,151212,5,14,0:2:0:0:
79,305,151355,1,2,0:2:0:0:
137,359,151498,1,2,0:2:0:0:
321,327,151784,5,14,0:2:0:0:
287,233,151927,2,0,P|280:176|303:136,1,80,2|2,0:2|0:2,0:0:0:0:
367,95,152212,1,8,0:2:0:0:
380,103,152284,1,8,0:2:0:0:
396,107,152355,1,8,0:2:0:0:
412,108,152427,1,8,0:2:0:0:
427,104,152498,6,0,B|446:60|446:60|423:5,1,92.0000017547608,6|2,0:1|0:2,0:0:0:0:
267,67,152784,2,0,B|248:111|248:111|271:166,1,92.0000017547608,10|2,0:1|0:2,0:0:0:0:
274,172,152998,1,2,0:2:0:0:
285,192,153070,2,2,B|376:188,1,92.0000017547608,2|0,0:2|0:2,0:1:0:0:
462,257,153355,1,10,0:2:0:0:
376,327,153498,2,2,B|285:323,1,92.0000017547608,2|2,0:2|0:2,0:1:0:0:
151,384,153784,5,10,0:3:0:0:
151,384,153855,1,8,0:3:0:0:
151,384,153927,1,8,0:1:0:0:
178,276,154070,1,2,0:2:0:0:
99,199,154212,2,2,B|80:158|80:158|98:114,1,92.0000017547608,2|8,0:1|0:3,0:1:0:0:
112,95,154427,1,8,0:3:0:0:
128,79,154498,2,0,B|160:74|160:74|175:84|175:84|233:82,1,92.0000017547608,10|2,0:1|0:2,0:0:0:0:
327,3,154784,5,2,0:1:0:0:
402,95,154927,1,2,0:2:0:0:
402,95,154998,1,2,0:2:0:0:
402,95,155070,2,2,B|465:141|465:141|520:96|520:96|487:68,1,184.000003509522,10|0,0:2|0:2,0:1:0:0:
373,177,155498,5,2,0:2:0:0:
456,249,155641,1,10,0:1:0:0:
378,327,155784,1,2,0:2:0:0:
378,327,155855,1,2,0:2:0:0:
378,327,155927,2,2,B|340:321|340:321|324:330|324:330|270:321,1,92.0000017547608,2|8,0:2|0:3,0:1:0:0:
266,320,156141,1,8,0:3:0:0:
243,316,156212,2,0,P|237:274|257:221,1,92.0000017547608,10|2,0:1|0:2,0:0:0:0:
373,177,156498,2,0,P|379:135|359:82,1,92.0000017547608,2|2,0:1|0:2,0:0:0:0:
257,18,156784,1,8,1:2:0:0:
237,29,156855,1,8,1:2:0:0:
215,36,156927,1,8,1:2:0:0:
192,38,156998,1,8,1:2:0:0:
169,34,157070,6,0,P|145:18|96:16,3,46.0000008773804,6|0|0|0,0:1|0:2|0:2|0:2,0:0:0:0:
100,81,157355,2,0,P|71:85|34:119,3,46.0000008773804,10|0|0|0,0:2|0:2|0:2|0:2,0:0:0:0:
84,163,157641,2,0,P|67:186|65:236,3,46.0000008773804,2|0|0|0,0:2|0:2|0:2|0:2,0:0:0:0:
130,232,157927,2,0,P|134:260|168:297,3,46.0000008773804,10|0|0|0,0:2|0:2|0:2|0:2,0:0:0:0:
216,332,158212,6,0,P|270:321|320:332,1,92.0000017547608,2|8,0:1|0:3,0:2:0:0:
327,335,158427,1,8,0:3:0:0:
346,347,158498,2,0,P|390:357|435:352,1,92.0000017547608,10|10,0:1|0:3,0:2:0:0:
512,249,158784,2,0,L|492:140,1,92.0000017547608,2|10,0:1|0:2,0:2:0:0:
453,38,159070,5,10,0:2:0:0:
422,68,159165,1,2,0:2:0:0:
380,77,159260,1,2,0:2:0:0:
339,62,159355,2,0,B|297:42|297:42|215:60,1,92.0000017547608,2|0,0:1|0:2,0:2:0:0:
178,142,159641,5,10,0:1:0:0:
175,164,159712,1,0,0:2:0:0:
173,187,159784,1,0,0:2:0:0:
171,210,159855,1,0,0:2:0:0:
168,233,159927,2,0,L|163:280,3,46.0000008773804,2|0|0|0,0:1|0:2|0:2|0:2,0:0:0:0:
113,337,160212,2,0,L|66:332,3,46.0000008773804,10|0|0|0,0:1|0:2|0:2|0:2,0:0:0:0:
9,282,160498,2,0,L|14:235,3,46.0000008773804,2|0|0|0,0:1|0:2|0:2|0:2,0:0:0:0:
64,178,160784,2,0,L|109:182,3,46.0000008773804,10|0|0|0,0:1|0:2|0:2|0:2,0:0:0:0:
189,143,161070,5,10,0:1:0:0:
205,126,161141,1,8,0:2:0:0:
213,105,161212,1,8,0:2:0:0:
212,82,161284,1,8,0:2:0:0:
202,62,161355,2,0,B|175:52|175:52|152:61|152:61|115:54,1,80,10|10,0:3|0:3,0:2:0:0:
222,165,161641,6,0,L|323:177,2,96,14|8|8,0:3|0:3|0:3,0:2:0:0:
117,226,162212,2,0,L|16:238,2,96,10|8|8,0:3|0:3|0:3,0:2:0:0:
231,275,162784,2,0,L|332:287,2,96,10|8|8,0:2|0:3|0:3,0:2:0:0:
113,319,163355,6,0,P|105:272|117:226,1,96,10|2,0:3|0:2,0:2:0:0:
210,118,163784,2,0,L|222:165,1,47.9999985351563,2|2,0:2|0:2,0:0:0:0:
256,192,170784,12,0,172498,0:2:0:0:
210,154,172784,5,2,0:2:0:0:
210,154,172927,1,2,0:2:0:0:
256,192,172998,12,0,174212,0:2:0:0:
256,368,174498,6,0,B|223:270|288:270|256:173,1,200,2|2,0:2|0:2,0:2:0:0:
167,35,175355,6,0,P|139:119|50:113,1,191.999994140625,6|10,0:2|0:2,0:2:0:0:
256,173,175784,2,0,P|283:257|372:251,1,191.999994140625,2|0,0:2|0:2,0:0:0:0:
479,137,176212,2,0,P|474:86|472:31,1,95.9999970703126,10|0,0:2|0:2,0:2:0:0:
306,0,176498,6,0,P|311:51|313:106,1,95.9999970703126,2|8,0:2|0:3,0:0:0:0:
312,95,176712,1,8,0:3:0:0:
312,95,176784,1,10,0:2:0:0:
242,190,176927,2,0,P|199:183|139:183,1,95.9999970703126,2|0,0:2|0:2,0:0:0:0:
39,224,177212,1,2,0:2:0:0:
105,317,177355,1,10,0:2:0:0:
212,275,177498,1,2,0:2:0:0:
146,182,177641,6,0,P|118:97|135:-10,2,191.999994140625,2|8|2,0:2|0:2|0:2,0:2:0:0:
146,182,178355,1,0,0:2:0:0:
212,275,178498,1,10,0:2:0:0:
314,218,178641,2,0,P|399:180|512:189,1,191.999994140625,2|8,0:2|0:3,0:2:0:0:
496,183,178998,1,8,0:3:0:0:
496,183,179070,1,8,0:2:0:0:
478,318,179212,2,0,P|393:356|280:347,1,191.999994140625,2|0,0:2|0:2,0:2:0:0:
212,275,179641,5,8,0:3:0:0:
217,251,179712,1,8,0:3:0:0:
218,227,179784,1,8,0:3:0:0:
213,204,179855,1,8,0:3:0:0:
203,181,179927,2,0,P|189:88|222:0,1,191.999994140625,6|10,0:2|0:2,0:2:0:0:
365,13,180355,2,0,P|379:106|346:195,1,191.999994140625,2|0,0:2|0:2,0:2:0:0:
213,286,180784,5,10,0:2:0:0:
213,286,180927,1,0,0:2:0:0:
297,352,181070,2,0,P|346:347|422:342,1,95.9999970703126,2|8,0:2|0:3,0:0:0:0:
392,343,181284,1,8,0:3:0:0:
392,343,181355,1,10,0:2:0:0:
476,261,181498,2,0,P|509:171|494:78,1,191.999994140625,2|0,0:2|0:2,0:2:0:0:
368,0,181927,6,0,L|355:95,1,95.9999970703126,10|0,0:2|0:2,0:0:0:0:
278,239,182212,2,0,L|265:143,1,95.9999970703126,2|0,0:2|0:2,0:0:0:0:
226,28,182498,5,10,0:1:0:0:
135,113,182641,1,0,0:2:0:0:
226,28,182784,1,2,0:1:0:0:
265,143,182927,1,0,0:2:0:0:
179,243,183070,5,10,0:1:0:0:
179,243,183212,2,0,P|110:221|30:324,1,191.999994140625,2|8,0:2|0:3,0:2:0:0:
30,295,183570,1,8,0:3:0:0:
30,295,183641,2,0,P|76:320|126:308,1,95.9999970703126,10|8,0:2|0:2,0:0:0:0:
277,363,183927,5,8,0:3:0:0:
271,352,183998,1,8,0:3:0:0:
267,341,184070,1,8,0:3:0:0:
265,329,184141,1,8,0:3:0:0:
264,317,184212,1,4,0:3:0:0:
266,305,184284,1,4,0:3:0:0:
270,294,184355,1,4,0:3:0:0:
275,283,184427,1,4,0:3:0:0:
282,273,184498,2,0,B|316:183|316:183|280:80,1,191.999994140625,6|10,0:2|0:2,0:2:0:0:
118,17,184927,2,0,B|84:107|84:107|120:210,1,191.999994140625,2|0,0:2|0:2,0:0:0:0:
284,92,185355,2,0,L|188:105,1,95.9999970703126,10|0,0:2|0:2,0:2:0:0:
333,214,185641,6,0,L|428:227,1,95.9999970703126,2|8,0:2|0:3,0:0:0:0:
428,227,185855,1,8,0:3:0:0:
428,227,185927,1,10,0:2:0:0:
356,384,186070,2,0,B|379:344|379:344|347:284,1,95.9999970703126,2|2,0:2|0:2,0:0:0:0:
244,203,186355,1,2,0:2:0:0:
214,314,186498,1,10,0:2:0:0:
103,284,186641,1,2,0:2:0:0:
133,173,186784,6,0,B|167:147|167:147|187:100|172:41|115:18,2,191.999994140625,2|10|2,0:2|0:2|0:2,0:2:0:0:
133,173,187498,1,0,0:2:0:0:
31,235,187641,1,10,0:2:0:0:
130,305,187784,2,0,P|238:294|349:295,1,191.999994140625,2|8,0:2|0:3,0:2:0:0:
321,293,188141,1,8,0:3:0:0:
321,293,188212,1,8,0:2:0:0:
426,381,188355,2,0,P|432:272|409:157,1,191.999994140625,2|0,0:2|0:2,0:2:0:0:
322,83,188784,5,8,0:3:0:0:
298,88,188855,1,8,0:3:0:0:
274,89,188927,1,8,0:3:0:0:
251,84,188998,1,8,0:3:0:0:
228,74,189070,2,0,B|146:26|146:26|51:47,1,191.999994140625,6|10,0:2|0:2,0:0:0:0:
29,215,189498,2,0,B|111:263|111:263|205:241,1,191.999994140625,2|0,0:2|0:2,0:2:0:0:
347,178,189927,5,10,0:2:0:0:
347,178,190070,1,0,0:2:0:0:
396,278,190212,2,0,P|387:318|403:385,1,95.9999970703126,2|8,0:2|0:3,0:0:0:0:
396,371,190427,1,8,0:3:0:0:
396,371,190498,1,10,0:2:0:0:
489,257,190641,2,0,P|507:142|485:62,1,191.999994140625,2|0,0:2|0:2,0:2:0:0:
362,8,191070,6,0,L|352:113,1,95.9999970703126,10|0,0:1|0:2,0:0:0:0:
339,255,191355,1,2,0:2:0:0:
243,264,191498,2,0,L|233:168,1,95.9999970703126,2|8,0:1|0:2,0:0:0:0:
214,17,191784,1,2,0:2:0:0:
118,9,191927,2,0,L|108:105,1,95.9999970703126,2|0,0:1|0:1,0:1:0:0:
0,204,192212,5,10,0:1:0:0:
88,280,192355,2,0,B|200:245|157:336|291:296,1,191.999994140625,2|8,0:1|0:3,0:2:0:0:
270,301,192712,1,8,0:3:0:0:
270,301,192784,2,0,L|278:200,1,95.9999970703126,12|0,0:2|0:2,0:2:0:0:
311,79,193070,5,8,0:3:0:0:
314,91,193141,1,8,0:3:0:0:
321,104,193212,1,8,0:3:0:0:
332,113,193284,1,8,0:3:0:0:
344,119,193355,1,8,0:3:0:0:
358,122,193427,1,8,0:3:0:0:
372,119,193498,1,8,0:3:0:0:
385,113,193570,1,8,0:3:0:0:
396,103,193641,6,0,P|391:65|396:31,1,64,6|0,0:2|0:2,0:0:0:0:
490,72,193927,2,0,P|494:109|489:143,1,64,10|0,0:2|0:2,0:0:0:0:
396,256,194355,5,2,0:2:0:0:
330,223,194498,1,8,0:2:0:0:
291,284,194641,1,2,0:2:0:0:
223,148,194927,5,8,0:3:0:0:
223,148,194998,1,8,0:3:0:0:
223,148,195070,2,0,P|225:107|222:63,1,64,10|0,0:2|0:2,0:2:0:0:
146,51,195355,2,0,P|146:82|144:114,1,64,2|0,0:2|0:2,0:2:0:0:
77,164,195641,2,0,P|45:163|13:165,1,64,10|0,0:2|0:2,0:2:0:0:
80,250,195927,6,0,P|76:281|80:313,1,64,2|0,0:2|0:2,0:0:0:0:
185,338,196212,2,0,P|188:306|184:274,1,64,10|0,0:2|0:2,0:0:0:0:
84,147,196641,5,2,0:2:0:0:
13,165,196784,1,8,0:2:0:0:
33,94,196927,1,2,0:2:0:0:
185,24,197212,5,8,0:3:0:0:
185,24,197284,1,8,0:3:0:0:
185,24,197355,2,0,L|255:17,1,64,10|0,0:2|0:2,0:2:0:0:
311,66,197641,2,0,L|318:136,1,64,2|0,0:2|0:2,0:2:0:0:
292,204,197927,2,0,L|299:274,1,64,10|0,0:2|0:2,0:2:0:0:
381,351,198212,6,0,P|422:351|449:341,1,64,6|0,0:2|0:2,0:0:0:0:
457,255,198498,2,0,P|416:255|389:265,1,64,10|0,0:2|0:2,0:0:0:0:
268,346,198927,5,2,0:2:0:0:
205,307,199070,1,8,0:2:0:0:
152,359,199212,1,2,0:2:0:0:
31,267,199498,5,8,0:3:0:0:
31,267,199570,1,8,0:3:0:0:
31,267,199641,2,0,L|24:196,1,64,10|0,0:2|0:2,0:2:0:0:
56,127,199927,2,0,L|127:121,1,64,2|0,0:2|0:2,0:2:0:0:
193,158,200212,2,0,L|264:152,1,64,10|0,0:2|0:2,0:2:0:0:
348,78,200498,6,0,P|345:37|354:4,1,64,2|0,0:2|0:2,0:0:0:0:
442,52,200784,2,0,P|445:93|436:126,1,64,10|0,0:2|0:2,0:0:0:0:
400,229,201212,5,2,0:2:0:0:
329,211,201355,1,8,0:2:0:0:
269,253,201498,1,2,0:2:0:0:
126,192,201784,5,8,0:3:0:0:
126,192,201855,1,8,0:3:0:0:
126,192,201927,2,0,L|118:114,1,64,10|0,0:2|0:2,0:2:0:0:
207,44,202212,6,0,L|242:50,3,32,8|8|8|8,0:3|0:3|0:3|0:3,0:0:0:0:
256,80,202498,2,0,L|287:85,3,32,4|4|4|4,0:3|0:3|0:3|0:3,0:0:0:0:
321,102,202784,2,0,B|314:62|314:62|333:22,1,80,6|0,0:2|0:2,0:2:0:0:
437,0,203212,5,8,0:3:0:0:
437,0,203284,1,8,0:3:0:0:
437,0,203355,1,8,0:2:0:0:
468,85,203498,1,8,0:2:0:0:
356,229,203784,5,8,0:2:0:0:
325,144,203927,1,6,0:1:0:0:
325,144,203998,1,0,0:2:0:0:
325,144,204070,1,0,0:2:0:0:
206,180,204212,6,0,P|163:186|124:177,1,80,10|0,0:2|0:2,0:0:0:0:
221,261,204498,2,0,P|247:295|259:333,1,80,2|0,0:2|0:2,0:0:0:0:
284,208,204784,2,0,P|300:167|327:138,1,80,10|0,0:2|0:2,0:0:0:0:
427,102,205070,6,0,P|459:115|517:120,1,80,2|8,0:1|0:3,0:2:0:0:
503,120,205284,1,8,0:3:0:0:
503,120,205355,1,10,0:2:0:0:
437,21,205498,2,0,P|405:8|347:3,1,80,2|0,0:2|0:2,0:2:0:0:
310,104,205784,2,0,P|278:117|220:122,1,80,2|8,0:2|0:2,0:2:0:0:
379,219,206070,5,2,0:2:0:0:
379,219,206212,2,0,P|432:242|438:356,1,160,2|8,0:1|3:2,0:0:0:0:
319,293,206641,1,2,0:2:0:0:
303,370,206784,2,0,L|125:356,1,160,2|10,0:2|0:2,0:0:0:0:
65,269,207212,6,2,B|93:204|93:204|64:123,1,143.999995605469,6|0,0:2|0:2,0:1:0:0:
68,135,207498,2,2,B|58:98|58:98|74:59,1,80,10|8,0:3|0:2,0:1:0:0:
242,29,207784,5,8,0:3:0:0:
242,29,207855,1,8,0:3:0:0:
242,29,207927,2,0,B|256:67|256:67|244:108,1,80,14|8,0:1|0:3,0:0:0:0:
189,215,208212,1,8,0:3:0:0:
189,215,208284,1,8,0:3:0:0:
189,215,208355,1,8,0:3:0:0:
189,215,208427,1,8,0:3:0:0:
189,215,208498,2,0,B|102:207,1,80,6|0,0:1|0:2,0:2:0:0:
0,286,208784,5,10,0:2:0:0:
0,286,208927,1,0,0:2:0:0:
92,362,209070,2,0,B|255:344,1,160,2|8,0:2|0:2,0:0:0:0:
385,384,209498,2,0,P|367:349|405:212,1,160,2|8,0:2|0:3,0:2:0:0:
384,234,209855,1,8,0:3:0:0:
384,234,209927,2,0,P|392:200|384:144,1,80,10|0,0:2|0:2,0:0:0:0:
276,77,210212,2,0,P|268:111|276:167,1,80,2|0,0:2|0:2,0:0:0:0:
180,282,210498,6,0,P|184:242|176:203,1,80,10|0,0:2|0:2,0:0:0:0:
100,145,210784,1,2,0:1:0:0:
100,145,210855,1,0,0:2:0:0:
100,145,210927,2,0,P|55:143|-2:138,1,80,0|8,0:2|0:2,0:0:0:0:
119,19,211212,1,2,0:2:0:0:
119,19,211355,1,0,0:2:0:0:
192,112,211498,1,2,0:2:0:0:
192,112,211641,1,8,0:2:0:0:
321,49,211784,6,2,B|393:21|393:21|465:50,1,155.999992858887,6|0,0:2|0:2,0:1:0:0:
466,51,212070,2,2,B|476:152,1,80,10|8,0:3|0:2,0:1:0:0:
403,239,212355,5,8,0:3:0:0:
403,239,212427,1,8,0:3:0:0:
403,239,212498,2,0,P|356:220|312:221,1,80,14|0,0:1|0:3,0:0:0:0:
229,287,212784,1,8,0:3:0:0:
227,306,212855,1,8,0:3:0:0:
222,325,212927,1,8,0:3:0:0:
213,343,212998,1,8,0:3:0:0:
202,359,213070,6,0,L|106:348,1,88.000002685547,6|0,0:1|0:2,0:2:0:0:
21,268,213355,2,0,L|32:172,1,88.000002685547,10|0,0:2|0:2,0:0:0:0:
112,87,213641,2,0,L|208:98,1,88.000002685547,2|0,0:2|0:2,0:0:0:0:
271,211,213927,5,10,0:2:0:0:
379,166,214070,2,0,P|357:73|396:-1,1,176.000005371094,2|8,0:2|0:3,0:2:0:0:
390,4,214427,1,8,0:3:0:0:
390,4,214498,2,0,P|399:62|374:100,1,88.000002685547,8|0,0:2|0:2,0:0:0:0:
264,124,214784,6,0,L|168:113,1,88.000002685547,2|0,0:2|0:2,0:0:0:0:
101,202,215070,1,10,0:2:0:0:
101,202,215212,1,2,0:2:0:0:
26,106,215355,1,2,0:1:0:0:
26,106,215427,1,0,0:2:0:0:
26,106,215498,2,0,P|24:58|50:3,2,88.000002685547,0|8|0,0:2|0:2|0:2,0:0:0:0:
101,202,215927,5,2,0:1:0:0:
204,134,216070,1,2,0:2:0:0:
250,247,216212,1,10,0:2:0:0:
384,196,216355,6,2,B|422:118|422:118|387:37,1,174.000005310059,6|0,0:1|0:2,0:1:0:0:
387,37,216641,2,2,L|272:25,1,108.000000411987,10|8,0:3|0:2,0:1:0:0:
122,101,216927,5,8,0:3:0:0:
122,101,216998,1,8,0:3:0:0:
122,101,217070,2,0,B|78:191|78:191|117:284,1,200,14|10,0:1|0:2,0:0:0:0:
242,362,217498,5,8,0:3:0:0:
242,362,217570,1,8,0:3:0:0:
242,362,217641,2,0,P|247:306|252:262,1,92.0000017547608,6|0,0:1|0:2,0:0:0:0:
330,197,217927,1,8,0:2:0:0:
330,197,218070,1,2,0:2:0:0:
424,293,218212,2,0,P|414:192|398:80,1,184.000003509522,2|10,0:2|0:2,0:0:0:0:
235,34,218641,6,0,P|217:119|132:135,1,184.000003509522,2|8,0:2|0:3,0:2:0:0:
132,135,218998,1,8,0:3:0:0:
132,135,219070,2,0,P|78:119|24:126,1,92.0000017547608,8|0,0:2|0:2,0:0:0:0:
96,256,219355,2,0,P|150:272|204:265,1,92.0000017547608,2|0,0:2|0:2,0:0:0:0:
300,227,219641,1,10,0:2:0:0:
300,227,219784,1,2,0:2:0:0:
391,303,219927,2,0,L|396:365,2,46.0000008773804,2|0|0,0:1|0:2|0:2,0:0:0:0:
412,172,220212,5,10,0:2:0:0:
499,218,220355,2,0,B|515:177|515:177|499:131,1,92.0000017547608,2|0,0:1|0:2,0:0:0:0:
418,45,220641,1,2,0:1:0:0:
418,45,220784,1,10,0:2:0:0:
325,110,220927,6,2,B|279:135|279:135|143:112,1,180.000006866455,6|0,0:1|0:2,0:1:0:0:
153,113,221212,2,2,P|166:60|153:8,1,108.000000411987,10|8,0:3|0:2,0:1:0:0:
20,129,221498,1,8,0:3:0:0:
20,129,221570,1,8,0:3:0:0:
20,129,221641,1,8,0:3:0:0:
20,129,221712,1,8,0:3:0:0:
20,129,221784,2,0,P|7:181|20:233,1,108.000000411987,8|10,0:3|0:2,0:0:0:0:
101,350,222070,5,8,0:3:0:0:
101,350,222141,1,8,0:3:0:0:
101,350,222212,2,0,B|154:296|250:296|308:361|308:361|395:387|476:356|529:245|489:189|489:189|418:135|391:137|391:137|270:170|252:313|453:333|408:141|408:141|391:114|401:74|401:74|334:15|275:83|286:181|179:140|126:120|86:60|147:9|196:-2|223:54,1,1505.2800312375,6|0,0:2|0:2,0:2:0:0:
