osu file format v14

[General]
AudioFilename: audio.mp3
AudioLeadIn: 0
PreviewTime: 49897
Countdown: 0
SampleSet: Soft
StackLeniency: 0.7
Mode: 0
LetterboxInBreaks: 0
WidescreenStoryboard: 1

[Editor]
DistanceSpacing: 1.3
BeatDivisor: 4
GridSize: 32
TimelineZoom: 1.9

[Metadata]
Title:Satsuriku no Keifu
TitleUnicode:殺戮の系譜
Artist:Denkishiki Karen Ongaku Shuudan
ArtistUnicode:電気式華憐音楽集団
Creator:Lasse
Version:Hard
Source:
Tags:denkare japanese rock metal detonator ignition
BeatmapID:2387556
BeatmapSetID:1140608

[Difficulty]
HPDrainRate:4
CircleSize:3.8
OverallDifficulty:6.8
ApproachRate:8
SliderMultiplier:1.36
SliderTickRate:1

[Events]
//Background and Video events
0,0,"a1.jpg",0,0
//Break Periods
2,88697,96462
2,164126,172034
//Storyboard Layer 0 (Background)
//Storyboard Layer 1 (Fail)
//Storyboard Layer 2 (Pass)
//Storyboard Layer 3 (Foreground)
//Storyboard Layer 4 (Overlay)
//Storyboard Sound Samples

[TimingPoints]
5070,285.714285714286,4,1,1,65,1,0
5070,-100,4,1,1,65,0,0
14212,-100,4,1,1,70,0,0
17498,-83.3333333333333,4,1,1,70,0,0
17712,-83.3333333333333,4,1,1,50,0,0
17784,-83.3333333333333,4,1,1,70,0,0
18070,-100,4,1,1,70,0,0
22070,-83.3333333333333,4,1,1,70,0,0
22284,-83.3333333333333,4,1,1,50,0,0
22355,-83.3333333333333,4,1,1,70,0,0
22641,-100,4,1,1,70,0,0
23212,-100,4,1,1,64,0,0
23284,-100,4,1,1,62,0,0
23355,-117.647058823529,4,1,1,60,0,0
32498,-111.111111111111,4,1,1,62,0,0
32784,-111.111111111111,4,1,1,62,0,0
41641,-125,4,1,1,64,0,0
48498,-100,4,1,1,66,0,0
49070,-100,4,1,1,68,0,0
50212,-133.333333333333,4,2,1,50,0,0
50498,-100,4,2,1,5,0,0
50641,-100,4,2,1,30,0,0
50784,-90.9090909090909,4,1,1,75,0,1
59355,-100,4,2,2,70,0,0
59927,-90.9090909090909,4,1,1,75,0,1
68498,-90.9090909090909,4,1,1,70,0,1
68784,-90.9090909090909,4,1,1,65,0,1
69070,-125,4,1,1,60,0,0
77641,-111.111111111111,4,2,2,58,0,0
77927,-99.9999999999999,4,2,2,56,0,0
78212,-111.111111111111,4,1,1,54,0,0
78498,-111.111111111111,4,1,1,50,0,0
78641,-111.111111111111,4,1,1,62,0,0
78927,-111.111111111111,4,1,1,64,0,0
79212,-111.111111111111,4,1,1,66,0,0
79355,-100,4,1,1,68,0,0
79641,-100,4,1,1,70,0,0
82641,-83.3333333333333,4,1,1,70,0,0
82855,-83.3333333333333,4,1,1,50,0,0
82927,-83.3333333333333,4,1,1,70,0,0
83212,-100,4,1,1,70,0,0
87212,-83.3333333333333,4,1,1,70,0,0
87427,-83.3333333333333,4,1,1,50,0,0
87498,-83.3333333333333,4,1,1,70,0,0
87784,-100,4,1,1,70,0,0
88355,-100,4,1,1,68,0,0
88427,-100,4,1,1,66,0,0
88498,-100,4,1,1,64,0,0
97212,-100,4,1,1,58,0,0
97641,-111.111111111111,4,1,1,60,0,0
97927,-111.111111111111,4,1,1,62,0,0
106784,-125,4,1,1,64,0,0
113641,-100,4,1,1,66,0,0
114212,-100,4,1,1,68,0,0
115641,-100,4,1,2,70,0,0
115927,-90.9090909090909,4,1,1,75,0,1
124498,-100,4,2,2,70,0,0
125070,-90.9090909090909,4,1,1,75,0,1
133641,-90.9090909090909,4,1,1,70,0,1
133927,-90.9090909090909,4,1,1,65,0,1
134212,-125,4,1,1,60,0,0
142784,-111.111111111111,4,2,2,58,0,0
143070,-100,4,2,2,56,0,0
143355,-100,4,1,1,60,0,0
152498,-90.9090909090909,4,1,1,68,0,0
157070,-90.9090909090909,4,1,1,70,0,0
161355,-100,4,2,2,68,0,0
161498,-100,4,2,2,66,0,0
161641,-111.111111111111,4,2,1,64,0,0
161855,-111.111111111111,4,2,2,64,0,0
162212,-111.111111111111,4,2,1,62,0,0
162355,-111.111111111111,4,2,1,34,0,0
162426,-111.111111111111,4,2,2,62,0,0
162570,-111.111111111111,4,2,1,34,0,0
162641,-111.111111111111,4,2,2,62,0,0
162784,-111.111111111111,4,2,1,60,0,0
162927,-111.111111111111,4,2,1,34,0,0
162998,-111.111111111111,4,2,2,60,0,0
163141,-111.111111111111,4,2,1,34,0,0
163212,-111.111111111111,4,2,2,60,0,0
163355,-111.111111111111,4,2,1,58,0,0
163569,-111.111111111111,4,2,2,58,0,0
163712,-111.111111111111,4,2,1,40,0,0
163784,-166.666666666667,4,2,1,58,0,0
163927,-166.666666666667,4,2,1,56,0,0
170784,-83.3333333333333,4,2,1,20,0,0
172498,-83.3333333333333,4,2,1,10,0,0
172784,-83.3333333333333,4,2,1,30,0,0
172998,-117.647058823529,4,2,1,30,0,0
174212,-83.3333333333333,4,2,1,20,0,0
174498,-166.666666666667,4,2,1,30,0,0
174570,-181.818181818181,4,2,1,5,0,0
175212,-181.818181818181,4,2,1,60,0,0
175355,-83.3333333333333,4,1,1,78,0,1
183927,-100,4,2,2,74,0,0
184212,-100,4,2,2,76,0,0
184498,-83.3333333333333,4,1,1,78,0,1
193070,-83.3333333333333,4,1,1,72,0,1
193355,-83.3333333333333,4,1,1,66,0,1
193641,-125,4,1,1,60,0,0
202212,-111.111111111111,4,2,2,58,0,0
202498,-100,4,2,2,56,0,0
202784,-111.111111111111,4,1,1,54,0,0
203070,-111.111111111111,4,1,1,50,0,0
203212,-111.111111111111,4,1,1,62,0,0
203498,-111.111111111111,4,1,1,64,0,0
203784,-111.111111111111,4,1,1,66,0,0
203927,-100,4,1,1,68,0,0
207212,-83.3333333333333,4,1,1,70,0,0
207427,-83.3333333333333,4,1,1,50,0,0
207498,-83.3333333333333,4,1,1,70,0,0
207784,-100,4,1,1,70,0,0
211784,-83.3333333333333,4,1,1,70,0,0
211998,-83.3333333333333,4,1,1,50,0,0
212070,-83.3333333333333,4,1,1,70,0,0
212355,-100,4,1,1,70,0,0
213070,-90.9090909090909,4,1,1,72,0,0
216355,-76.9230769230769,4,1,1,72,0,0
216570,-76.9230769230769,4,1,1,50,0,0
216641,-76.9230769230769,4,1,1,72,0,0
216927,-76.9230769230769,4,1,1,72,0,0
217641,-90.9090909090909,4,1,1,72,0,0
220927,-76.9230769230769,4,1,1,72,0,0
221141,-90.9090909090909,4,1,1,50,0,0
221212,-76.9230769230769,4,1,1,72,0,0
221498,-90.9090909090909,4,1,1,72,0,0
222212,-222.222222222222,4,1,1,70,0,0
222284,-222.222222222222,4,2,99,50,0,0
223355,-222.222222222222,4,2,99,45,0,0
224498,-222.222222222222,4,2,99,40,0,0
225641,-222.222222222222,4,2,99,35,0,0
226784,-222.222222222222,4,2,99,30,0,0
227927,-222.222222222222,4,2,99,25,0,0
229070,-222.222222222222,4,2,99,20,0,0
230212,-222.222222222222,4,2,99,15,0,0
230784,-222.222222222222,4,2,99,10,0,0
231070,-222.222222222222,4,2,99,5,0,0
231355,-222.222222222222,4,2,99,8,0,0

[Colours]
Combo1 : 250,180,240
Combo2 : 120,200,230
Combo3 : 255,230,130
Combo4 : 160,230,150

[HitObjects]
0,298,5069,6,0,B|44:289|44:289|72:307|72:307|148:292,1,136,6|8,0:1|0:2,0:0:0:0:
209,258,5498,2,0,P|228:200|189:119,1,136,2|0,0:1|0:2,0:0:0:0:
142,66,5927,1,10,0:1:0:0:
58,94,6070,1,2,0:2:0:0:
235,145,6355,5,8,0:3:0:0:
235,145,6427,1,8,0:3:0:0:
235,145,6498,2,0,P|275:141|356:67,2,136,10|2|10,0:1|0:1|0:1,0:0:0:0:
67,211,7355,6,0,P|41:258|62:341,1,136,2|8,0:1|0:2,0:0:0:0:
140,366,7784,2,0,L|290:345,1,136,2|0,0:1|0:2,0:0:0:0:
358,374,8212,1,10,0:1:0:0:
429,305,8355,6,0,P|419:274|430:219,1,68,6|0,0:2|0:0,0:0:0:0:
479,171,8641,2,0,P|489:140|478:85,1,68,2|8,0:1|0:2,0:0:0:0:
447,24,8927,1,8,0:3:0:0:
447,24,8998,1,8,0:3:0:0:
447,24,9070,2,0,P|421:36|372:40,1,68,14|8,0:1|0:2,0:0:0:0:
294,31,9355,2,0,P|275:27|246:27,3,34,8|8|8|8,0:3|0:3|0:3|0:3,0:0:0:0:
229,43,9641,6,0,B|194:75|194:75|222:189,1,136,6|8,0:1|0:2,0:2:0:0:
313,201,10070,2,0,B|348:233|348:233|320:347,1,136,2|2,0:1|0:2,0:0:0:0:
259,376,10498,1,10,0:2:0:0:
225,294,10641,1,2,0:2:0:0:
94,192,10927,5,8,0:3:0:0:
94,192,10998,1,8,0:3:0:0:
94,192,11070,2,0,B|27:219|27:219|1:138,2,136,10|2|10,0:1|0:1|0:1,0:0:0:0:
256,97,11927,6,0,P|324:66|403:68,1,136,2|8,0:1|0:2,0:0:0:0:
420,147,12355,2,0,P|480:190|518:259,1,136,2|0,0:1|0:2,0:0:0:0:
486,326,12784,1,10,0:1:0:0:
398,374,12927,6,0,L|305:368,1,68,6|0,0:2|0:0,0:0:0:0:
262,312,13212,2,0,P|265:273|248:235,1,68,0|0,0:2|0:2,0:0:0:0:
210,181,13498,1,8,0:3:0:0:
210,181,13570,1,8,0:3:0:0:
210,181,13641,2,0,P|199:148|203:115,1,68,14|8,0:1|0:2,0:0:0:0:
256,44,13927,2,0,L|312:37,3,34,8|8|8|8,0:3|0:3|0:3|0:3,0:0:0:0:
333,35,14212,6,0,P|371:94|359:159,1,136,6|10,0:1|0:2,0:2:0:0:
314,231,14641,1,0,0:2:0:0:
232,197,14784,1,2,0:2:0:0:
160,358,15070,1,10,0:2:0:0:
11,282,15355,5,2,0:1:0:0:
11,282,15427,1,0,0:0:0:0:
11,282,15498,2,0,L|2:196,1,68,8|10,0:3|0:2,0:0:0:0:
35,131,15784,2,0,B|65:145|65:145|98:133,1,68,2|0,0:2|0:2,0:2:0:0:
178,94,16070,2,0,B|211:82|211:82|241:96,1,68,2|8,0:2|0:2,0:2:0:0:
324,154,16355,5,2,0:2:0:0:
413,123,16498,2,0,P|431:50|402:-3,1,136,2|8,0:1|0:2,0:0:0:0:
241,96,17070,2,0,P|223:169|252:222,1,136,2|8,0:2|0:2,0:2:0:0:
337,279,17498,6,2,B|367:273|367:273|381:278|381:278|421:273,1,81.5999975097657,6|0,0:2|0:0,0:1:0:0:
291,359,17784,2,2,B|260:353|260:353|247:358|247:358|207:353,1,81.5999975097657,10|8,0:3|0:2,0:1:0:0:
119,297,18070,1,10,0:3:0:0:
119,297,18141,1,8,0:3:0:0:
119,297,18212,2,0,P|132:227|103:160,1,136,14|10,0:1|0:1,0:0:0:0:
270,14,18784,6,0,P|257:84|286:151,1,136,4|10,0:1|0:2,0:2:0:0:
351,194,19212,1,0,0:2:0:0:
437,176,19355,2,0,P|435:106|382:120,1,136,2|8,0:2|0:2,0:0:0:0:
351,194,19784,2,0,P|364:259|341:322,1,136,2|8,0:2|0:3,0:1:0:0:
276,383,20212,5,10,0:2:0:0:
126,288,20498,1,2,0:2:0:0:
206,130,20784,2,0,P|209:76|198:45,1,68,10|0,0:2|0:2,0:0:0:0:
126,25,21070,1,2,0:1:0:0:
126,25,21141,1,0,0:2:0:0:
126,25,21212,2,0,P|86:21|36:20,1,68,0|8,0:2|0:2,0:0:0:0:
52,100,21498,2,0,P|85:101|119:105,1,68,2|0,0:3|0:3,0:0:0:0:
112,185,21784,2,0,P|78:181|45:180,1,68,2|8,0:2|0:2,0:0:0:0:
153,272,22070,6,2,P|193:281|250:257,1,81.5999975097657,6|0,0:2|0:0,0:1:0:0:
283,185,22355,2,2,P|277:139|289:96,1,81.5999975097657,10|8,0:3|0:2,0:1:0:0:
368,54,22641,1,8,0:3:0:0:
368,54,22712,1,8,0:3:0:0:
368,54,22784,2,0,B|423:85|423:85|482:37,1,136,8|8,0:3|0:2,0:0:0:0:
479,39,23355,6,0,L|412:33,1,57.8000011024475,6|0,0:3|0:3,0:2:0:0:
352,65,23641,2,2,L|285:59,1,57.8000011024475,2|0,0:2|0:2,0:2:0:0:
149,16,24070,1,8,0:3:0:0:
164,88,24212,1,8,0:2:0:0:
273,190,24498,6,0,L|340:184,1,57.8000011024475,2|0,0:3|0:3,0:3:0:0:
397,219,24784,2,0,P|408:242|405:289,1,57.8000011024475,2|0,0:3|0:3,0:3:0:0:
293,370,25212,1,8,0:3:0:0:
260,302,25355,1,8,0:2:0:0:
129,226,25641,6,0,P|134:261|123:298,1,57.8000011024475,2|0,0:2|0:2,0:2:0:0:
54,279,25927,2,0,P|49:244|60:207,1,57.8000011024475,2|0,0:2|0:2,0:2:0:0:
177,137,26355,1,8,0:3:0:0:
219,198,26498,1,8,0:2:0:0:
350,124,26784,6,0,P|353:77|345:59,1,57.8000011024475,2|0,0:2|0:2,0:2:0:0:
286,26,27070,2,0,L|212:22,1,57.8000011024475,2|0,0:2|0:2,0:2:0:0:
94,91,27498,2,0,P|72:150|99:213,1,115.600002204895,14|8,0:2|0:2,0:2:0:0:
156,261,27927,6,0,L|217:258,1,57.8000011024475,2|0,0:2|0:2,0:0:0:0:
274,303,28212,2,0,L|335:300,1,57.8000011024475,2|0,0:2|0:2,0:0:0:0:
464,371,28641,1,8,0:3:0:0:
475,296,28784,1,8,0:2:0:0:
512,151,29070,6,0,L|505:85,1,57.8000011024475,2|0,0:2|0:2,0:0:0:0:
452,40,29355,2,0,P|422:49|385:42,1,57.8000011024475,2|0,0:2|0:2,0:0:0:0:
249,11,29784,1,8,0:3:0:0:
233,84,29927,1,8,0:2:0:0:
106,164,30212,6,0,P|79:153|50:153,1,57.8000011024475,2|0,0:2|0:2,0:0:0:0:
8,215,30498,2,0,L|9:292,1,57.8000011024475,2|0,0:2|0:2,0:0:0:0:
112,382,30927,1,8,0:3:0:0:
161,325,31070,1,8,0:2:0:0:
310,330,31355,6,0,L|379:329,1,57.8000011024475,2|0,0:2|0:2,0:0:0:0:
425,280,31641,2,0,P|429:239|417:215,1,57.8000011024475,2|0,0:2|0:2,0:0:0:0:
318,115,32070,2,0,B|264:137|264:137|205:110,1,115.600002204895,14|8,0:2|0:2,0:0:0:0:
137,69,32498,5,6,0:2:0:0:
137,69,32570,1,0,0:2:0:0:
137,69,32641,1,0,0:2:0:0:
105,142,32784,2,0,P|97:175|106:224,1,61.1999981323243,10|0,0:2|0:2,0:0:0:0:
141,269,33070,1,2,0:2:0:0:
215,243,33212,2,0,P|246:233|289:231,1,61.1999981323243,0|8,0:2|0:2,0:2:0:0:
365,286,33498,5,0,0:2:0:0:
424,232,33641,2,0,P|445:183|408:101,1,122.399996264649,2|10,0:2|0:2,0:2:0:0:
388,48,34070,2,0,L|314:43,1,61.1999981323243,2|0,0:2|0:2,0:2:0:0:
276,133,34355,2,0,L|349:122,2,61.1999981323243,2|8|0,0:2|0:2|0:2,0:2:0:0:
176,118,34784,6,0,P|188:59|161:5,1,122.399996264649,2|8,0:2|0:2,0:0:0:0:
59,55,35212,2,0,P|46:113|73:167,1,122.399996264649,2|2,0:2|0:2,0:0:0:0:
136,216,35641,1,10,0:2:0:0:
101,287,35784,1,2,0:2:0:0:
250,366,36070,5,8,0:3:0:0:
250,366,36141,1,8,0:3:0:0:
250,366,36212,2,0,L|388:370,2,122.399996264649,10|2|10,0:2|0:2|0:2,0:2:0:0:
180,233,37070,5,6,0:2:0:0:
180,233,37141,1,0,0:2:0:0:
180,233,37212,1,0,0:2:0:0:
232,173,37355,2,0,P|241:136|236:87,1,61.1999981323243,10|0,0:2|0:2,0:2:0:0:
228,33,37641,1,2,0:2:0:0:
149,18,37784,2,0,L|80:30,1,61.1999981323243,2|8,0:2|0:2,0:2:0:0:
10,119,38070,5,0,0:2:0:0:
94,154,38212,2,0,B|130:172|130:172|141:206|141:206|184:236,1,122.399996264649,2|10,0:2|0:2,0:2:0:0:
254,204,38641,2,0,P|257:170|271:138,1,61.1999981323243,2|0,0:2|0:2,0:2:0:0:
316,82,38927,2,0,P|319:48|310:10,2,61.1999981323243,2|8|0,0:2|0:2|0:2,0:0:0:0:
386,160,39355,6,0,P|445:143|514:159,1,122.399996264649,2|8,0:2|0:2,0:0:0:0:
512,251,39784,2,0,P|453:268|384:252,1,122.399996264649,2|2,0:2|0:2,0:0:0:0:
322,222,40212,1,10,0:2:0:0:
295,297,40355,1,2,0:2:0:0:
198,183,40641,5,8,0:3:0:0:
198,183,40712,1,8,0:3:0:0:
198,183,40784,2,0,P|205:115|177:54,1,122.399996264649,8|8,0:2|0:2,0:2:0:0:
123,15,41212,1,8,0:2:0:0:
68,73,41355,2,0,P|58:100|70:148,1,61.1999981323243,10|10,0:3|0:3,0:0:0:0:
120,196,41641,6,0,P|157:181|198:182,1,81.6,6|2,0:1|0:1,0:0:0:0:
293,235,42070,1,2,0:1:0:0:
293,235,42141,1,0,0:3:0:0:
293,235,42212,2,0,L|292:313,1,54.4,0|0,0:2|0:2,0:0:0:0:
418,375,42641,5,8,0:2:0:0:
479,329,42784,2,2,B|510:302|510:302|487:232,1,108.8,2|0,0:2|0:2,0:1:0:0:
451,165,43212,1,0,0:3:0:0:
451,165,43284,1,0,0:3:0:0:
451,165,43355,2,0,B|420:138|420:138|443:68,1,108.8,2|2,0:2|0:2,0:0:0:0:
304,4,43927,6,0,P|318:38|299:97,1,81.6,6|2,0:1|0:1,0:0:0:0:
229,143,44355,1,2,0:1:0:0:
229,143,44427,1,0,0:2:0:0:
229,143,44498,2,0,P|195:134|163:134,1,54.4,0|0,0:2|0:2,0:0:0:0:
30,179,44927,5,8,0:2:0:0:
87,229,45070,2,2,B|138:241|138:241|198:203,1,108.8,2|0,0:2|0:2,0:1:0:0:
236,151,45498,1,0,0:3:0:0:
236,151,45570,1,0,0:3:0:0:
236,151,45641,2,0,P|224:108|252:36,1,108.8,0|2,0:3|0:2,0:0:0:0:
386,4,46212,6,0,L|399:89,1,81.6,6|2,0:1|0:1,0:0:0:0:
464,178,46641,1,2,0:1:0:0:
464,178,46712,1,0,0:2:0:0:
464,178,46784,2,0,L|454:237,1,54.4,0|0,0:2|0:2,0:0:0:0:
405,375,47212,5,8,0:2:0:0:
349,322,47355,2,2,P|314:303|242:308,1,108.8,2|2,0:2|0:2,0:1:0:0:
183,347,47784,1,0,0:2:0:0:
183,347,47855,1,0,0:2:0:0:
183,347,47927,2,0,P|148:366|76:361,1,108.8,2|2,0:2|0:2,0:0:0:0:
12,214,48498,6,0,L|25:121,1,68,6|0,0:2|0:2,0:2:0:0:
103,94,48784,2,0,L|112:161,1,68,10|0,0:2|0:2,0:2:0:0:
170,236,49070,2,0,L|268:252,1,68,10|10,0:3|0:3,0:0:0:0:
306,325,49355,1,8,0:3:0:0:
306,325,49427,1,8,0:3:0:0:
306,325,49498,2,0,L|404:309,1,68,8|12,0:3|0:3,0:0:0:0:
466,382,50212,6,2,B|455:359|455:359|462:346|462:346|457:320|457:320|478:231,1,153.000005836487,0|0,0:2|0:2,0:1:0:0:
468,141,50784,6,0,B|429:143|401:180|401:180|314:151,1,149.60000456543,6|10,0:2|0:2,0:2:0:0:
240,206,51212,2,0,P|253:144|195:79,1,149.60000456543,2|0,0:2|0:2,0:2:0:0:
117,31,51641,2,0,B|83:49|83:49|26:41,1,74.8000022827149,10|0,0:2|0:2,0:2:0:0:
23,153,51927,6,0,P|10:215|68:280,1,149.60000456543,2|10,0:2|0:2,0:0:0:0:
139,348,52355,2,0,P|175:328|228:326,1,74.8000022827149,2|0,0:2|0:2,0:0:0:0:
319,354,52641,1,2,0:2:0:0:
319,354,52784,2,0,P|355:374|408:376,1,74.8000022827149,10|0,0:2|0:2,0:0:0:0:
473,270,53070,6,0,P|478:176|505:106,2,149.60000456543,2|8|0,0:2|0:2|0:2,0:1:0:0:
270,380,53927,1,10,0:2:0:0:
190,323,54070,2,0,P|168:251|167:177,1,149.60000456543,2|10,0:2|0:3,0:2:0:0:
196,84,54498,1,8,0:2:0:0:
275,140,54641,2,0,B|343:172|343:172|391:92,1,149.60000456543,2|0,0:2|0:2,0:2:0:0:
448,37,55070,1,8,0:3:0:0:
448,37,55141,1,8,0:3:0:0:
448,37,55212,1,8,0:3:0:0:
500,126,55355,6,0,P|509:181|484:288,1,149.60000456543,6|10,0:2|0:2,0:2:0:0:
417,339,55784,2,0,B|368:327|368:327|327:347|327:347|261:329,1,149.60000456543,2|0,0:2|0:2,0:2:0:0:
186,373,56212,2,0,P|188:326|173:272,1,74.8000022827149,10|0,0:2|0:2,0:2:0:0:
100,230,56498,6,0,P|46:241|53:159,1,149.60000456543,2|10,0:2|0:2,0:0:0:0:
128,124,56927,2,0,B|152:176|211:172|211:172|267:130,1,149.60000456543,2|0,0:2|0:2,0:2:0:0:
329,90,57355,2,0,B|337:54|337:54|318:6,1,74.8000022827149,10|0,0:2|0:2,0:0:0:0:
248,144,57641,2,0,B|240:180|240:180|259:228,1,74.8000022827149,2|0,0:3|0:2,0:0:0:0:
335,315,57927,5,10,0:1:0:0:
335,315,58070,1,0,0:2:0:0:
424,350,58212,2,0,L|508:341,1,74.8000022827149,2|0,0:1|0:2,0:0:0:0:
405,255,58498,5,10,0:1:0:0:
405,255,58641,2,0,P|338:272|279:209,1,149.60000456543,2|8,0:2|0:3,0:2:0:0:
279,211,58998,1,8,0:3:0:0:
277,198,59070,2,0,P|288:163|289:123,1,74.8000022827149,10|8,0:2|0:3,0:2:0:0:
227,47,59355,5,8,2:3:0:0:
227,47,59427,1,8,2:3:0:0:
227,47,59498,2,0,B|215:71|188:76|188:76|174:33|122:31,1,136,8|4,2:3|2:3,0:0:0:0:
44,110,59927,6,0,B|69:154|45:199|9:214|9:214|31:222|41:248,1,149.60000456543,6|10,0:2|0:2,0:2:0:0:
90,303,60355,2,0,P|130:367|206:356,1,149.60000456543,2|0,0:2|0:2,0:2:0:0:
272,264,60784,2,0,B|247:264|247:264|228:273|228:273|199:271,1,74.8000022827149,10|0,0:2|0:2,0:2:0:0:
254,167,61070,6,0,P|272:98|341:81,1,149.60000456543,2|8,0:2|0:2,0:0:0:0:
434,32,61498,2,0,L|424:120,1,74.8000022827149,2|0,0:2|0:2,0:0:0:0:
487,209,61784,1,2,0:2:0:0:
487,209,61927,2,0,P|449:199|394:195,1,74.8000022827149,10|0,0:2|0:2,0:0:0:0:
323,258,62212,6,0,P|304:326|235:343,2,149.60000456543,2|8|0,0:2|0:2|0:2,0:2:0:0:
277,68,63070,1,10,0:2:0:0:
187,125,63212,2,0,B|152:151|152:151|98:118|124:56,1,149.60000456543,2|10,0:2|0:3,0:2:0:0:
202,4,63641,1,8,0:2:0:0:
277,68,63784,2,0,B|327:82|327:82|345:124|345:124|403:146,1,149.60000456543,2|0,0:2|0:2,0:2:0:0:
490,109,64212,1,8,0:3:0:0:
490,109,64284,1,8,0:3:0:0:
490,109,64355,1,8,0:3:0:0:
512,243,64498,6,0,B|522:283|481:318|481:318|459:290|414:274,1,149.60000456543,6|10,0:2|0:2,0:2:0:0:
342,359,64927,2,0,P|354:286|318:222,1,149.60000456543,2|0,0:2|0:2,0:2:0:0:
247,158,65355,2,0,L|155:145,1,74.8000022827149,10|0,0:2|0:2,0:2:0:0:
66,196,65641,6,0,B|29:220|29:220|61:113,1,149.60000456543,2|10,0:2|0:2,0:0:0:0:
138,60,66070,2,0,B|162:112|221:108|221:108|225:85|267:54,1,149.60000456543,2|0,0:2|0:2,0:2:0:0:
357,71,66498,6,0,P|366:30|346:-13,1,74.8000022827149,10|0,0:1|0:2,0:0:0:0:
251,74,66784,1,2,0:2:0:0:
251,74,66927,2,0,P|242:115|262:158,1,74.8000022827149,2|8,0:1|0:2,0:0:0:0:
336,221,67212,1,2,0:2:0:0:
336,221,67355,2,0,L|419:212,1,74.8000022827149,2|0,0:1|0:1,0:1:0:0:
281,315,67641,5,10,0:1:0:0:
281,315,67784,2,0,B|190:303|228:359|139:347,1,149.60000456543,2|8,0:1|0:3,0:2:0:0:
129,345,68141,1,8,0:3:0:0:
119,339,68212,2,0,P|101:303|111:253,1,74.8000022827149,12|8,0:2|0:3,0:2:0:0:
184,187,68498,5,8,1:3:0:0:
184,187,68570,1,8,1:3:0:0:
184,187,68641,2,0,B|222:218|222:218|269:201|264:125,1,149.60000456543,8|8,1:3|1:3,0:0:0:0:
210,53,69070,6,0,L|146:44,1,54.4,6|0,0:2|0:2,0:0:0:0:
116,63,69355,2,0,L|52:54,1,54.4,10|0,0:2|0:2,0:0:0:0:
0,144,69784,1,2,0:2:0:0:
4,170,69927,1,8,0:2:0:0:
9,196,70070,1,2,0:2:0:0:
80,296,70355,5,8,0:3:0:0:
80,296,70427,1,8,0:3:0:0:
80,296,70498,2,0,L|147:289,1,54.4,10|0,0:2|0:2,0:2:0:0:
169,315,70784,2,0,P|155:257|176:196,1,108.8,2|10,0:2|0:2,0:2:0:0:
233,120,71355,6,0,L|294:123,1,54.4,2|0,0:2|0:2,0:0:0:0:
307,161,71641,2,0,L|368:164,1,54.4,10|0,0:2|0:2,0:0:0:0:
472,203,72070,1,2,0:2:0:0:
473,230,72212,1,8,0:2:0:0:
475,257,72355,1,2,0:2:0:0:
387,342,72641,5,8,0:3:0:0:
387,342,72712,1,8,0:3:0:0:
387,342,72784,2,0,L|326:333,1,54.4,10|0,0:2|0:2,0:2:0:0:
297,359,73070,2,0,P|305:321|290:241,1,108.8,2|10,0:2|0:2,0:2:0:0:
224,167,73641,6,0,L|169:147,1,54.4,6|0,0:2|0:2,0:0:0:0:
138,121,73927,2,0,L|130:51,1,54.4,10|0,0:2|0:2,0:0:0:0:
238,6,74355,1,2,0:2:0:0:
257,25,74498,1,8,0:2:0:0:
281,37,74641,1,2,0:2:0:0:
402,61,74927,5,8,0:3:0:0:
402,61,74998,1,8,0:3:0:0:
402,61,75070,2,0,L|468:54,1,54.4,10|0,0:2|0:2,0:2:0:0:
493,78,75355,2,0,P|510:119|498:192,1,108.8,2|10,0:2|0:2,0:2:0:0:
421,265,75927,6,0,L|363:259,1,54.4,2|0,0:2|0:2,0:0:0:0:
344,296,76212,2,0,L|330:365,1,54.4,10|0,0:2|0:2,0:0:0:0:
223,384,76641,1,2,0:2:0:0:
219,356,76784,1,8,0:2:0:0:
215,329,76927,1,2,0:2:0:0:
139,256,77212,5,8,0:3:0:0:
139,256,77284,1,8,0:3:0:0:
139,256,77355,2,0,P|96:262|76:254,1,54.4,10|0,0:2|0:2,0:2:0:0:
35,237,77641,2,0,L|29:159,1,61.1999981323243,8|8,0:3|0:3,0:0:0:0:
0,127,77927,2,0,L|7:31,1,68,4|4,0:3|0:3,0:0:0:0:
76,11,78212,5,6,0:2:0:0:
149,347,79212,1,8,0:2:0:0:
222,287,79355,6,0,P|243:239|201:147,1,136,6|10,0:1|0:2,0:0:0:0:
147,108,79784,1,0,0:2:0:0:
88,174,79927,1,2,0:2:0:0:
149,347,80212,1,10,0:2:0:0:
332,365,80498,5,2,0:1:0:0:
332,365,80570,1,0,0:0:0:0:
332,365,80641,2,0,L|401:357,1,68,8|10,0:3|0:2,0:0:0:0:
469,301,80927,2,0,P|475:257|451:222,1,68,2|0,0:2|0:2,0:2:0:0:
400,176,81212,2,0,L|331:168,1,68,2|10,0:2|0:2,0:2:0:0:
234,219,81498,5,2,0:2:0:0:
189,142,81641,2,0,B|216:79|216:79|180:21,1,136,2|8,0:1|0:2,0:0:0:0:
36,134,82212,2,0,B|9:197|9:197|44:254,1,136,2|10,0:2|0:2,0:0:0:0:
126,320,82641,6,2,B|155:315|155:315|168:321|168:321|210:314,1,81.5999975097657,6|0,0:2|0:0,0:1:0:0:
291,378,82927,2,2,B|296:349|296:349|290:336|290:336|297:294,1,81.5999975097657,10|8,0:3|0:2,0:1:0:0:
244,207,83212,1,10,0:3:0:0:
244,207,83284,1,8,0:3:0:0:
244,207,83355,2,0,B|232:159|232:159|244:132|244:132|228:70,1,136,14|10,0:1|0:1,0:0:0:0:
436,0,83927,6,0,B|448:48|448:48|436:75|436:75|450:130,1,136,4|10,0:1|0:2,0:2:0:0:
477,214,84355,1,0,0:2:0:0:
418,280,84498,2,0,P|351:306|296:265,1,136,2|8,0:2|0:2,0:0:0:0:
244,207,84927,2,0,B|232:159|232:159|244:132|244:132|229:76,1,136,2|8,0:2|0:3,0:2:0:0:
158,6,85355,5,10,0:2:0:0:
38,136,85641,1,2,0:2:0:0:
63,311,85927,2,0,L|134:339,1,68,10|0,0:2|0:2,0:0:0:0:
209,373,86212,1,2,0:1:0:0:
209,373,86284,1,0,0:2:0:0:
209,373,86355,2,0,P|248:366|297:354,1,68,0|8,0:2|0:2,0:0:0:0:
261,281,86641,2,0,P|228:288|194:293,1,68,2|0,0:3|0:3,0:0:0:0:
181,214,86927,2,0,P|214:209|247:201,1,68,2|8,0:2|0:2,0:0:0:0:
346,120,87212,6,2,B|328:84|328:84|335:43,1,81.5999975097657,6|0,0:2|0:0,0:1:0:0:
448,133,87498,2,2,B|455:173|455:173|437:209,1,81.5999975097657,10|8,0:3|0:2,0:1:0:0:
353,289,87784,1,8,0:3:0:0:
353,289,87855,1,8,0:3:0:0:
353,289,87927,2,0,B|302:285|302:285|279:303|279:303|211:298,1,136,8|8,0:3|0:2,0:0:0:0:
147,245,88355,6,0,L|137:210,2,34,8|8|12,0:3|0:3|0:3,0:0:0:0:
9,110,97212,5,12,0:2:0:0:
27,280,97498,1,8,0:2:0:0:
98,339,97641,6,0,L|165:329,1,61.1999981323243,6|0,0:2|0:2,0:0:0:0:
205,264,97927,2,0,P|201:233|210:194,1,61.1999981323243,10|0,0:2|0:2,0:0:0:0:
244,133,98212,1,2,0:2:0:0:
190,74,98355,2,0,B|168:70|168:70|151:74|151:74|129:68,1,61.1999981323243,2|8,0:2|0:2,0:2:0:0:
253,25,98641,5,0,0:2:0:0:
311,78,98784,2,0,B|343:105|372:92|372:92|376:62|411:41,1,122.399996264649,2|10,0:2|0:2,0:2:0:0:
477,100,99212,2,0,P|481:130|475:172,1,61.1999981323243,2|0,0:2|0:2,0:2:0:0:
430,243,99498,2,0,P|459:243|490:253,2,61.1999981323243,2|8|0,0:2|0:2|0:2,0:0:0:0:
340,313,99927,6,0,B|294:352|294:352|243:316,1,122.399996264649,2|8,0:2|0:2,0:0:0:0:
205,245,100355,2,0,P|232:191|219:132,1,122.399996264649,2|2,0:2|0:2,0:0:0:0:
182,61,100784,1,10,0:2:0:0:
112,22,100927,1,2,0:2:0:0:
14,147,101212,5,8,0:3:0:0:
14,147,101284,1,8,0:3:0:0:
14,147,101355,2,0,B|5:193|5:193|12:213|12:213|3:272,2,122.399996264649,10|2|10,0:2|0:2|0:2,0:2:0:0:
119,29,102212,5,6,0:2:0:0:
119,29,102284,1,0,0:2:0:0:
119,29,102355,1,0,0:2:0:0:
180,79,102498,2,0,P|211:87|254:73,1,61.1999981323243,10|0,0:2|0:2,0:2:0:0:
310,45,102784,1,2,0:2:0:0:
365,102,102927,2,0,P|374:129|369:166,1,61.1999981323243,2|8,0:2|0:2,0:2:0:0:
327,250,103212,5,0,0:2:0:0:
248,211,103355,2,0,B|207:203|207:203|178:220|178:220|126:211,1,122.399996264649,2|10,0:2|0:2,0:2:0:0:
58,265,103784,2,0,P|47:236|45:205,1,61.1999981323243,2|0,0:2|0:2,0:2:0:0:
89,128,104070,2,0,P|92:94|83:56,2,61.1999981323243,2|8|0,0:2|0:2|0:2,0:0:0:0:
131,212,104498,6,0,P|193:227|254:206,1,122.399996264649,2|8,0:2|0:2,0:0:0:0:
303,152,104927,2,0,P|295:81|333:32,1,122.399996264649,2|2,0:2|0:2,0:0:0:0:
391,3,105355,1,10,0:2:0:0:
467,24,105498,1,2,0:2:0:0:
509,186,105784,5,8,0:3:0:0:
509,186,105855,1,8,0:3:0:0:
509,186,105927,2,0,L|487:314,1,122.399996264649,8|8,0:2|0:2,0:2:0:0:
430,361,106355,1,8,0:2:0:0:
360,322,106498,2,0,P|320:309|291:312,1,61.1999981323243,10|10,0:3|0:3,0:0:0:0:
220,339,106784,6,0,B|193:361|193:361|141:352,1,81.6,6|2,0:1|0:1,0:0:0:0:
68,291,107212,1,2,0:1:0:0:
68,291,107284,1,0,0:3:0:0:
68,291,107355,2,0,L|74:214,1,54.4,0|0,0:2|0:2,0:0:0:0:
125,116,107784,5,8,0:2:0:0:
188,158,107927,2,2,P|216:163|297:134,1,108.8,2|0,0:2|0:2,0:1:0:0:
362,96,108355,1,0,0:3:0:0:
362,96,108427,1,0,0:3:0:0:
362,96,108498,2,0,B|331:69|331:69|354:-1,1,108.8,2|2,0:2|0:2,0:0:0:0:
477,84,109070,6,0,P|478:121|463:166,1,81.6,6|2,0:1|0:1,0:0:0:0:
389,233,109498,1,2,0:1:0:0:
389,233,109570,1,0,0:2:0:0:
389,233,109641,2,0,P|353:220|321:217,1,54.4,0|0,0:2|0:2,0:0:0:0:
218,307,110070,5,8,0:2:0:0:
156,351,110212,2,2,B|103:367|103:367|45:325,1,108.8,2|0,0:2|0:2,0:1:0:0:
6,273,110641,1,0,0:3:0:0:
6,273,110712,1,0,0:3:0:0:
6,273,110784,2,0,L|23:158,1,108.8,0|2,0:3|0:2,0:0:0:0:
97,39,111355,6,0,P|98:82|124:128,1,81.6,6|2,0:1|0:1,0:0:0:0:
196,182,111784,1,2,0:1:0:0:
196,182,111855,1,0,0:2:0:0:
196,182,111927,2,0,P|220:175|257:171,1,54.4,0|0,0:2|0:2,0:0:0:0:
379,213,112355,5,8,0:2:0:0:
442,170,112498,2,2,P|458:118|423:55,1,108.8,2|2,0:2|0:2,0:1:0:0:
377,23,112927,1,0,0:2:0:0:
377,23,112998,1,0,0:2:0:0:
377,23,113070,2,0,P|327:48|270:37,1,108.8,2|2,0:2|0:2,0:0:0:0:
110,95,113641,6,0,P|110:55|137:17,1,68,6|0,0:2|0:2,0:2:0:0:
213,133,113927,2,0,P|213:173|186:211,1,68,10|0,0:2|0:2,0:2:0:0:
101,255,114212,2,0,L|2:265,1,68,10|10,0:3|0:3,0:0:0:0:
198,328,114498,1,8,0:3:0:0:
198,328,114570,1,8,0:3:0:0:
198,328,114641,2,0,L|297:338,1,68,8|12,0:3|0:3,0:0:0:0:
440,340,115355,6,0,L|443:302,7,34,8|8|8|8|8|8|8|8,0:3|0:3|0:3|0:3|0:3|0:3|0:3|0:3,0:0:0:0:
430,271,115927,6,0,B|408:261|406:238|406:238|447:192|434:119,1,149.60000456543,6|10,0:2|0:2,0:2:0:0:
362,74,116355,2,0,P|325:99|224:54,1,149.60000456543,2|0,0:2|0:2,0:2:0:0:
147,118,116784,2,0,P|140:78|109:41,1,74.8000022827149,10|0,0:2|0:2,0:2:0:0:
55,150,117070,6,0,B|12:178|12:178|40:294,1,149.60000456543,2|10,0:2|0:2,0:0:0:0:
85,362,117498,2,0,L|173:343,1,74.8000022827149,2|0,0:2|0:2,0:0:0:0:
260,381,117784,1,2,0:2:0:0:
260,381,117927,2,0,L|260:287,1,74.8000022827149,10|0,0:2|0:2,0:0:0:0:
342,239,118212,6,0,B|405:276|405:276|490:243,2,149.60000456543,2|8|0,0:2|0:2|0:2,0:1:0:0:
180,128,119070,1,10,0:2:0:0:
94,173,119212,2,0,B|29:207|29:207|15:121,1,149.60000456543,2|10,0:2|0:3,0:2:0:0:
18,33,119641,1,8,0:2:0:0:
109,66,119784,2,0,B|180:93|180:93|245:59,1,149.60000456543,2|0,0:2|0:2,0:2:0:0:
342,13,120212,1,8,0:3:0:0:
342,13,120284,1,8,0:3:0:0:
342,13,120355,1,8,0:3:0:0:
435,76,120498,6,0,B|411:119|433:168|433:168|415:197|419:238,1,149.60000456543,6|10,0:2|0:2,0:2:0:0:
450,329,120927,2,0,P|444:281|345:283,1,149.60000456543,2|0,0:2|0:2,0:2:0:0:
293,356,121355,2,0,L|382:353,1,74.8000022827149,10|0,0:2|0:2,0:2:0:0:
269,274,121641,6,0,P|245:339|176:334,1,149.60000456543,2|10,0:2|0:2,0:0:0:0:
85,279,122070,2,0,B|102:275|110:256|110:256|68:243|52:206|66:166,1,149.60000456543,2|0,0:2|0:2,0:2:0:0:
143,53,122498,2,0,P|139:84|157:135,1,74.8000022827149,10|0,0:2|0:2,0:0:0:0:
241,170,122784,2,0,L|323:147,1,74.8000022827149,2|0,0:3|0:2,0:0:0:0:
419,202,123070,5,10,0:1:0:0:
419,202,123212,1,0,0:2:0:0:
471,120,123355,2,0,P|474:86|457:37,1,74.8000022827149,2|0,0:1|0:2,0:0:0:0:
352,7,123641,5,10,0:1:0:0:
352,7,123784,2,0,B|352:45|319:64|319:64|278:69|225:45,1,149.60000456543,2|8,0:2|0:3,0:2:0:0:
229,46,124141,1,8,0:3:0:0:
219,39,124212,2,0,P|185:25|129:17,1,74.8000022827149,10|8,0:2|0:3,0:2:0:0:
49,60,124498,5,8,2:3:0:0:
49,60,124570,1,8,2:3:0:0:
49,60,124641,2,0,B|35:113|35:113|51:144|51:144|34:200,1,136,8|4,2:3|2:3,0:0:0:0:
7,295,125070,6,0,B|11:310|21:315|21:315|34:273|79:249|125:275,1,149.60000456543,6|10,0:2|0:2,0:2:0:0:
210,326,125498,2,0,B|232:362|276:364|276:364|287:327|328:305,1,149.60000456543,2|0,0:2|0:2,0:2:0:0:
414,292,125927,2,0,B|439:292|439:292|453:301|453:301|487:299,1,74.8000022827149,10|0,0:2|0:2,0:2:0:0:
400,198,126212,6,0,P|395:127|319:113,1,149.60000456543,2|8,0:2|0:2,0:0:0:0:
241,160,126641,2,0,L|245:246,1,74.8000022827149,2|0,0:2|0:2,0:0:0:0:
189,322,126927,1,2,0:2:0:0:
189,322,127070,2,0,P|150:324|104:299,1,74.8000022827149,10|0,0:2|0:2,0:0:0:0:
44,234,127355,6,0,L|26:57,2,149.60000456543,2|8|0,0:2|0:2|0:2,0:2:0:0:
207,340,128212,1,10,0:2:0:0:
275,271,128355,2,0,P|271:194|293:94,1,149.60000456543,2|10,0:2|0:3,0:2:0:0:
336,40,128784,1,8,0:2:0:0:
417,92,128927,2,0,P|449:159|465:232,1,149.60000456543,2|0,0:2|0:2,0:2:0:0:
458,336,129355,1,8,0:3:0:0:
458,336,129427,1,8,0:3:0:0:
458,336,129498,1,8,0:3:0:0:
348,357,129641,6,0,B|302:342|302:342|264:364|264:364|191:349,1,149.60000456543,6|10,0:2|0:2,0:0:0:0:
104,384,130070,2,0,P|129:327|87:232,1,149.60000456543,2|0,0:2|0:2,0:2:0:0:
21,167,130498,2,0,L|6:247,1,74.8000022827149,10|0,0:2|0:2,0:2:0:0:
126,135,130784,6,0,P|61:146|64:81,1,149.60000456543,2|10,0:2|0:2,0:0:0:0:
131,15,131212,2,0,B|152:52|152:52|269:24,1,149.60000456543,2|0,0:2|0:2,0:2:0:0:
351,100,131641,6,0,P|359:63|340:16,1,74.8000022827149,10|2,0:1|0:2,0:0:0:0:
253,122,131927,1,2,0:1:0:0:
253,122,132070,1,0,0:2:0:0:
317,194,132212,2,0,L|415:206,1,74.8000022827149,10|0,0:1|0:2,0:0:0:0:
234,257,132498,2,0,L|136:269,1,74.8000022827149,2|0,0:1|0:2,0:0:0:0:
300,329,132784,5,10,0:1:0:0:
300,329,132927,2,0,B|361:332|361:332|382:352|382:352|442:361,1,149.60000456543,2|8,0:1|0:3,0:2:0:0:
452,359,133284,1,8,0:3:0:0:
462,353,133355,2,0,P|480:317|470:267,1,74.8000022827149,12|8,0:2|0:3,0:2:0:0:
452,184,133641,5,8,1:3:0:0:
452,184,133712,1,8,1:3:0:0:
452,184,133784,2,0,B|442:208|420:212|420:212|438:147|398:103,1,149.60000456543,8|8,1:3|1:3,0:0:0:0:
334,61,134212,6,0,L|270:52,1,54.4,6|0,0:2|0:2,0:0:0:0:
239,68,134498,2,2,L|175:59,1,54.4,10|0,0:2|0:2,0:0:0:0:
69,14,134927,1,2,0:2:0:0:
73,40,135070,1,8,0:2:0:0:
78,66,135212,1,2,0:2:0:0:
170,173,135498,5,8,0:3:0:0:
170,173,135570,1,8,0:3:0:0:
170,173,135641,2,0,L|237:166,1,54.4,10|0,0:2|0:2,0:2:0:0:
259,192,135927,2,0,P|245:134|266:73,1,108.8,2|10,0:2|0:2,0:2:0:0:
353,16,136498,6,0,L|414:19,1,54.4,2|0,0:2|0:2,0:0:0:0:
444,42,136784,2,0,L|453:111,1,54.4,10|0,0:2|0:2,0:0:0:0:
497,202,137212,1,2,0:2:0:0:
496,229,137355,1,8,0:2:0:0:
494,256,137498,1,2,0:2:0:0:
394,327,137784,5,8,0:3:0:0:
394,327,137855,1,8,0:3:0:0:
394,327,137927,2,0,L|333:318,1,54.4,10|0,0:2|0:2,0:2:0:0:
303,294,138212,2,0,P|315:250|296:176,1,108.8,2|10,0:2|0:2,0:2:0:0:
229,100,138784,6,0,L|167:105,1,54.4,6|0,0:2|0:2,0:0:0:0:
137,128,139070,2,0,L|75:133,1,54.4,10|0,0:2|0:2,0:0:0:0:
0,217,139498,1,2,0:2:0:0:
4,243,139641,1,8,0:2:0:0:
7,270,139784,1,2,0:2:0:0:
102,362,140070,5,8,0:3:0:0:
102,362,140141,1,8,0:3:0:0:
102,362,140212,2,0,L|168:355,1,54.4,10|0,0:2|0:2,0:2:0:0:
199,370,140498,2,0,P|180:320|197:265,1,108.8,2|10,0:2|0:2,0:2:0:0:
277,191,141070,6,0,L|335:185,1,54.4,2|0,0:2|0:2,0:0:0:0:
371,201,141355,2,0,L|429:195,1,54.4,10|0,0:2|0:2,0:0:0:0:
512,130,141784,1,2,0:2:0:0:
510,101,141927,1,8,0:2:0:0:
509,74,142070,1,2,0:2:0:0:
395,16,142355,5,8,0:3:0:0:
395,16,142427,1,8,0:3:0:0:
395,16,142498,2,0,L|333:10,1,54.4,10|0,0:2|0:2,0:2:0:0:
305,57,142784,2,0,L|299:135,1,61.1999981323243,8|8,0:3|0:3,0:0:0:0:
244,167,143070,2,0,L|159:171,1,68,4|4,0:3|0:3,0:0:0:0:
101,248,143355,6,0,B|87:282|87:282|102:332,1,68,6|0,0:2|0:2,0:2:0:0:
159,363,143641,2,0,L|210:359,3,34,10|0|0|0,0:2|0:3|0:3|0:3,0:0:0:0:
221,340,143927,2,0,B|233:310|233:310|209:257,1,68,2|2,0:2|0:2,0:2:0:0:
142,166,144355,5,10,0:2:0:0:
97,184,144498,1,2,0:2:0:0:
49,180,144641,1,2,0:2:0:0:
142,58,144927,5,10,0:2:0:0:
142,58,145070,2,0,P|185:75|224:64,1,68,2|2,0:2|0:2,0:0:0:0:
285,42,145355,2,0,P|328:25|367:36,1,68,10|10,0:2|0:2,0:0:0:0:
424,83,145641,6,0,L|422:117,7,34,2|0|0|0|8|0|0|0,0:2|0:2|0:2|0:2|0:2|0:2|0:2|0:2,0:0:0:0:
409,141,146212,2,0,B|378:136|378:136|367:145|367:145|325:141,1,68,2|2,0:2|0:2,0:2:0:0:
205,72,146641,5,14,0:2:0:0:
168,41,146784,1,2,0:2:0:0:
120,34,146927,1,2,0:2:0:0:
16,113,147212,5,14,0:2:0:0:
16,113,147355,2,0,L|23:198,1,68,2|2,0:2|0:2,0:0:0:0:
58,252,147641,2,0,P|89:237|137:245,1,68,8|8,0:2|0:2,0:0:0:0:
193,282,147927,6,0,L|204:335,7,34,6|0|0|0|8|0|0|0,0:2|0:2|0:2|0:2|0:2|0:2|0:2|0:2,0:0:0:0:
215,340,148498,2,0,P|246:355|293:354,1,68,2|2,0:2|0:2,0:2:0:0:
417,336,148927,5,10,0:2:0:0:
394,293,149070,1,2,0:2:0:0:
403,246,149212,1,2,0:2:0:0:
487,130,149498,5,10,0:2:0:0:
487,130,149641,2,0,P|496:98|482:50,1,68,2|2,0:2|0:2,0:0:0:0:
420,15,149927,2,0,L|334:4,1,68,10|10,0:2|0:2,0:0:0:0:
282,61,150212,6,0,P|281:81|276:94,7,34,2|0|0|0|8|0|0|0,0:2|0:2|0:2|0:2|0:2|0:2|0:2|0:2,0:0:0:0:
250,115,150784,2,0,B|220:119|220:119|209:125|209:125|173:131,1,68,2|2,0:2|0:2,0:2:0:0:
68,207,151212,5,14,0:2:0:0:
81,161,151355,1,2,0:2:0:0:
78,113,151498,1,2,0:2:0:0:
185,230,151784,5,14,0:2:0:0:
185,230,151927,2,0,P|176:274|186:318,1,68,2|2,0:2|0:2,0:0:0:0:
243,358,152212,1,8,0:2:0:0:
243,358,152355,1,8,0:2:0:0:
331,315,152498,6,0,B|357:274|357:274|322:149,1,149.60000456543,6|10,0:1|0:1,0:0:0:0:
304,89,152927,1,2,0:2:0:0:
216,110,153070,2,2,B|168:132|168:132|148:77|148:77|96:55,2,149.60000456543,2|10|0,0:2|0:2|0:2,0:1:0:0:
324,66,153784,6,0,B|348:19|348:19|451:30,1,149.60000456543,10|2,0:3|0:2,0:0:0:0:
508,105,154212,2,2,L|497:210,1,74.8000022827149,2|8,0:1|0:3,0:1:0:0:
503,194,154427,1,8,0:3:0:0:
506,208,154498,2,0,L|495:313,1,74.8000022827149,10|2,0:1|0:2,0:0:0:0:
421,360,154784,6,0,B|367:374|367:374|313:336,1,112.200003424072,2|2,0:1|0:2,0:0:0:0:
307,334,155070,2,2,P|328:269|293:186,1,149.60000456543,10|0,0:2|0:2,0:1:0:0:
243,126,155498,1,2,0:2:0:0:
160,163,155641,2,0,P|122:180|64:163,1,74.8000022827149,10|2,0:1|0:2,0:0:0:0:
169,77,155927,6,2,P|183:38|236:9,1,74.8000022827149,2|8,0:2|0:3,0:1:0:0:
227,13,156141,1,8,0:3:0:0:
244,19,156212,2,0,B|271:39|271:39|314:35,1,74.8000022827149,10|2,0:1|0:2,0:0:0:0:
382,108,156498,2,0,B|405:79|405:79|446:68,1,74.8000022827149,2|2,0:1|0:2,0:0:0:0:
495,171,156784,2,0,B|501:211|501:211|469:256,1,74.8000022827149,8|8,1:2|1:2,0:0:0:0:
383,298,157070,6,0,B|337:287|337:287|301:299|301:299|233:280,1,149.60000456543,6|10,0:1|0:2,0:0:0:0:
173,208,157498,1,0,0:2:0:0:
173,208,157570,1,0,0:2:0:0:
173,208,157641,2,0,P|173:166|149:134,1,74.8000022827149,2|0,0:2|0:2,0:0:0:0:
60,206,157927,2,0,P|40:237|42:274,1,74.8000022827149,10|0,0:2|0:2,0:0:0:0:
113,358,158212,6,0,B|148:344|148:344|194:351,1,74.8000022827149,2|8,0:1|0:3,0:2:0:0:
202,355,158427,1,8,0:3:0:0:
219,362,158498,2,0,B|254:376|254:376|300:369,1,74.8000022827149,10|10,0:1|0:3,0:2:0:0:
358,296,158784,2,0,L|369:214,1,74.8000022827149,2|10,0:1|0:2,0:2:0:0:
459,170,159070,2,0,L|469:219,2,49.8666681884766,10|2|2,0:2|0:2|0:2,0:0:0:0:
443,131,159355,6,0,B|405:142|405:142|368:93|368:93|324:70,1,149.60000456543,2|10,0:1|0:1,0:2:0:0:
221,42,159784,1,0,0:2:0:0:
221,42,159855,1,0,0:2:0:0:
221,42,159927,2,0,B|226:78|226:78|194:136,1,74.8000022827149,2|0,0:1|0:2,0:0:0:0:
115,149,160212,2,0,L|33:132,1,74.8000022827149,10|0,0:1|0:2,0:0:0:0:
112,241,160498,6,0,B|99:280|99:280|115:316,1,74.8000022827149,2|0,0:1|0:2,0:0:0:0:
125,324,160712,1,0,0:2:0:0:
139,335,160784,2,0,L|219:322,1,74.8000022827149,10|0,0:1|0:2,0:0:0:0:
292,261,161070,2,0,L|295:210,3,37.4000011413575,10|8|8|8,0:1|0:2|0:2|0:2,0:0:0:0:
316,199,161355,2,0,L|304:107,1,68,10|10,0:3|0:3,0:2:0:0:
236,75,161641,6,0,P|180:90|146:79,2,91.7999971984864,14|8|8,0:3|0:3|0:3,0:2:0:0:
307,131,162212,2,0,P|363:146|397:135,2,91.7999971984864,10|8|8,0:3|0:3|0:3,0:2:0:0:
240,183,162784,2,0,P|184:198|150:187,2,91.7999971984864,10|8|8,0:2|0:3|0:3,0:2:0:0:
310,233,163355,2,0,P|366:248|400:237,1,91.7999971984864,10|2,0:3|0:2,0:2:0:0:
453,165,163784,2,0,L|436:121,1,40.7999987548829,2|2,0:2|0:2,0:0:0:0:
256,192,172784,12,0,174212,0:2:0:0:
256,320,174498,6,0,B|221:217|289:217|256:116,1,203.999993774414,2|2,0:2|0:2,0:2:0:0:
178,41,175355,6,0,B|167:35|167:35|152:72|114:76|114:76|89:38|47:42,1,163.199995019531,6|10,0:2|0:2,0:2:0:0:
46,154,175784,2,0,P|13:206|35:303,1,163.199995019531,2|0,0:2|0:2,0:0:0:0:
113,359,176212,2,0,B|148:342|148:342|201:356,1,81.5999975097657,10|0,0:2|0:2,0:2:0:0:
294,378,176498,6,0,P|330:307|306:231,1,163.199995019531,2|10,0:2|0:2,0:0:0:0:
238,171,176927,2,0,L|146:180,1,81.5999975097657,2|0,0:2|0:2,0:0:0:0:
297,104,177212,1,2,0:2:0:0:
297,104,177355,2,0,L|287:8,1,81.5999975097657,10|0,0:2|0:2,0:0:0:0:
376,159,177641,6,0,B|401:194|446:192|446:192|460:144|518:125,2,163.199995019531,2|8|2,0:2|0:2|0:2,0:2:0:0:
196,45,178498,1,10,0:2:0:0:
245,129,178641,2,0,P|258:219|210:308,1,163.199995019531,2|8,0:2|0:3,0:2:0:0:
163,355,179070,1,8,0:2:0:0:
76,308,179212,2,0,P|29:242|22:161,1,163.199995019531,2|0,0:2|0:2,0:2:0:0:
51,72,179641,1,8,0:3:0:0:
51,72,179712,1,8,0:3:0:0:
51,72,179784,1,8,0:3:0:0:
156,18,179927,6,0,B|172:63|225:63|225:63|249:25|301:24,1,163.199995019531,6|10,0:2|0:2,0:2:0:0:
338,130,180355,2,0,B|304:199|360:242|360:242|401:230,1,163.199995019531,2|0,0:2|0:2,0:2:0:0:
490,279,180784,2,0,P|499:235|477:178,1,81.5999975097657,10|0,0:2|0:2,0:0:0:0:
414,100,181070,6,0,B|376:92|339:130|339:130|325:90|277:76,1,163.199995019531,2|10,0:2|0:2,0:0:0:0:
190,141,181498,2,0,P|215:183|166:283,1,163.199995019531,2|0,0:2|0:2,0:2:0:0:
88,338,181927,2,0,B|78:252,1,81.5999975097657,10|0,0:2|0:2,0:0:0:0:
182,378,182212,2,0,B|283:368,1,81.5999975097657,2|0,0:2|0:2,0:0:0:0:
381,384,182498,5,10,0:1:0:0:
381,384,182641,1,0,0:2:0:0:
429,295,182784,2,0,L|428:196,1,81.5999975097657,2|0,0:1|0:2,0:0:0:0:
455,106,183070,5,10,0:1:0:0:
512,173,183212,2,0,P|435:191|375:140,1,163.199995019531,2|8,0:2|0:3,0:2:0:0:
372,131,183570,1,8,0:3:0:0:
368,119,183641,2,0,P|374:80|337:45,1,81.5999975097657,10|8,0:2|0:2,0:0:0:0:
239,63,183927,5,8,0:3:0:0:
239,63,183998,1,8,0:3:0:0:
239,63,184070,2,0,B|214:74|214:74|203:28|163:13|163:13|147:54,1,136,8|4,0:3|0:3,0:0:0:0:
172,158,184498,6,0,B|141:194|132:254|161:290|161:290|167:269|184:253,1,163.199995019531,6|10,0:2|0:2,0:2:0:0:
256,325,184927,2,0,P|301:366|398:323,1,163.199995019531,2|0,0:2|0:2,0:0:0:0:
499,261,185355,2,0,B|474:254|474:254|454:262|454:262|413:249,1,81.5999975097657,10|0,0:2|0:2,0:2:0:0:
417,162,185641,6,0,P|407:67|331:62,1,163.199995019531,2|10,0:2|0:2,0:0:0:0:
251,0,186070,2,0,L|239:92,1,81.5999975097657,2|2,0:2|0:2,0:0:0:0:
162,158,186355,1,2,0:2:0:0:
162,158,186498,2,0,P|127:134|75:131,1,81.5999975097657,10|0,0:2|0:2,0:0:0:0:
12,220,186784,6,0,B|1:282|1:282|14:312|14:312|4:384,2,163.199995019531,2|10|2,0:2|0:2|0:2,0:2:0:0:
185,127,187641,1,10,0:2:0:0:
253,196,187784,2,0,B|325:235|325:235|407:197,1,163.199995019531,2|8,0:2|0:3,0:2:0:0:
482,149,188212,1,8,0:2:0:0:
414,77,188355,2,0,B|351:24|351:24|271:43,1,163.199995019531,2|0,0:2|0:2,0:2:0:0:
189,108,188784,1,8,0:3:0:0:
189,108,188855,1,8,0:3:0:0:
189,108,188927,1,8,0:3:0:0:
253,196,189070,6,0,B|286:273|238:318|238:318|206:282,1,163.199995019531,6|10,0:2|0:2,0:0:0:0:
134,219,189498,2,0,P|150:153|74:119,1,163.199995019531,2|0,0:2|0:2,0:2:0:0:
0,184,189927,2,0,L|8:268,1,81.5999975097657,10|0,0:2|0:2,0:0:0:0:
75,348,190212,6,0,B|168:322|140:381|231:366,1,163.199995019531,2|10,0:2|0:2,0:0:0:0:
308,297,190641,2,0,B|319:243|319:243|298:200|298:200|310:131,1,163.199995019531,2|0,0:2|0:2,0:2:0:0:
399,83,191070,6,0,P|421:98|488:85,1,81.5999975097657,10|0,0:1|0:2,0:0:0:0:
324,23,191355,1,2,0:2:0:0:
324,23,191498,2,0,P|284:16|248:35,1,81.5999975097657,2|8,0:1|0:2,0:0:0:0:
194,115,191784,1,2,0:2:0:0:
194,115,191927,2,0,P|158:133|118:126,1,81.5999975097657,2|0,0:1|0:1,0:1:0:0:
243,207,192212,5,10,0:1:0:0:
243,207,192355,2,0,B|335:210|282:263|389:278,1,163.199995019531,2|8,0:1|0:3,0:2:0:0:
399,280,192712,1,8,0:3:0:0:
415,278,192784,2,0,P|432:242|427:192,1,81.5999975097657,12|0,0:2|0:2,0:2:0:0:
373,105,193070,5,8,0:3:0:0:
373,105,193141,1,8,0:3:0:0:
373,105,193212,2,0,B|338:120|338:120|338:39|266:24,1,163.199995019531,8|8,0:3|0:3,0:0:0:0:
168,45,193641,6,0,L|104:36,1,54.4,6|0,0:2|0:2,0:0:0:0:
72,51,193927,2,0,L|63:118,1,54.4,10|0,0:2|0:2,0:0:0:0:
138,186,194355,1,2,0:2:0:0:
163,182,194498,1,8,0:2:0:0:
190,177,194641,1,2,0:2:0:0:
291,253,194927,5,8,0:3:0:0:
291,253,194998,1,8,0:3:0:0:
291,253,195070,2,0,L|286:323,1,54.4,10|0,0:2|0:2,0:2:0:0:
311,343,195355,2,0,P|369:358|423:332,1,108.8,2|10,0:2|0:2,0:2:0:0:
484,242,195927,6,0,L|476:175,1,54.4,2|0,0:2|0:2,0:0:0:0:
455,149,196212,2,0,L|447:82,1,54.4,10|0,0:2|0:2,0:0:0:0:
366,21,196641,1,2,0:2:0:0:
350,42,196784,1,8,0:2:0:0:
334,64,196927,1,2,0:2:0:0:
243,132,197212,5,8,0:3:0:0:
243,132,197284,1,8,0:3:0:0:
243,132,197355,2,0,L|180:130,1,54.4,10|0,0:2|0:2,0:2:0:0:
150,151,197641,2,0,P|160:97|127:50,1,108.8,2|10,0:2|0:2,0:2:0:0:
16,127,198212,6,0,L|21:198,1,54.4,6|0,0:2|0:2,0:0:0:0:
23,224,198498,2,0,L|28:295,1,54.4,10|0,0:2|0:2,0:0:0:0:
100,359,198927,1,2,0:2:0:0:
119,340,199070,1,8,0:2:0:0:
138,321,199212,1,2,0:2:0:0:
254,278,199498,5,8,0:3:0:0:
254,278,199570,1,8,0:3:0:0:
254,278,199641,2,0,L|319:275,1,54.4,10|0,0:2|0:2,0:2:0:0:
342,248,199927,2,0,P|326:192|342:138,1,108.8,2|10,0:2|0:2,0:2:0:0:
439,54,200498,6,0,L|447:115,1,54.4,2|0,0:2|0:2,0:0:0:0:
478,136,200784,2,0,L|486:197,1,54.4,10|0,0:2|0:2,0:0:0:0:
433,280,201212,1,2,0:2:0:0:
408,267,201355,1,8,0:2:0:0:
381,262,201498,1,2,0:2:0:0:
277,306,201784,5,8,0:3:0:0:
277,306,201855,1,8,0:3:0:0:
277,306,201927,2,0,P|234:312|214:304,1,54.4,10|0,0:2|0:2,0:2:0:0:
172,275,202212,2,0,L|166:197,1,61.1999981323243,8|8,0:3|0:3,0:0:0:0:
201,148,202498,2,0,L|196:48,1,68,4|4,0:3|0:3,0:0:0:0:
132,4,202784,5,6,0:2:0:0:
0,308,203784,1,8,0:2:0:0:
79,351,203927,6,0,B|124:347|124:347|141:361|141:361|221:356,1,136,6|10,0:1|0:2,0:0:0:0:
296,340,204355,1,0,0:2:0:0:
303,251,204498,1,2,0:2:0:0:
174,136,204784,1,10,0:2:0:0:
311,24,205070,5,2,0:1:0:0:
311,24,205141,1,0,0:0:0:0:
311,24,205212,2,0,L|380:15,1,68,8|10,0:3|0:2,0:0:0:0:
454,61,205498,2,0,P|467:103|456:144,1,68,2|0,0:2|0:2,0:2:0:0:
390,176,205784,2,0,L|322:167,1,68,2|8,0:2|0:2,0:2:0:0:
219,219,206070,5,2,0:2:0:0:
174,136,206212,2,0,P|194:71|126:17,1,136,2|8,0:1|3:2,0:0:0:0:
31,167,206784,2,0,P|10:228|50:280,1,136,2|10,0:2|0:2,0:0:0:0:
130,358,207212,6,2,B|158:329|158:329|209:330,1,81.5999975097657,6|0,0:2|0:0,0:1:0:0:
303,354,207498,2,2,B|338:374|338:374|387:360,1,81.5999975097657,10|8,0:3|0:2,0:1:0:0:
479,310,207784,1,8,0:3:0:0:
479,310,207855,1,8,0:3:0:0:
479,310,207927,2,0,B|467:262|467:262|475:228|475:228|457:175,1,136,14|8,0:1|0:3,0:0:0:0:
338,18,208498,6,0,B|326:66|326:66|334:100|334:100|317:148,1,136,6|10,0:1|0:2,0:2:0:0:
287,232,208927,1,0,0:2:0:0:
213,181,209070,2,0,B|196:132|196:132|204:98|204:98|188:51,1,136,2|8,0:2|0:2,0:0:0:0:
100,0,209498,2,0,B|83:47|83:47|91:81|91:81|75:130,1,136,2|8,0:2|0:3,0:2:0:0:
32,206,209927,5,10,0:2:0:0:
96,370,210212,1,2,0:2:0:0:
258,298,210498,2,0,P|286:287|328:286,1,68,10|0,0:2|0:2,0:0:0:0:
415,320,210784,1,2,0:1:0:0:
415,320,210855,1,0,0:2:0:0:
415,320,210927,2,0,P|454:313|503:301,1,68,0|8,0:2|0:2,0:0:0:0:
467,228,211212,2,0,P|433:235|400:239,1,68,2|0,0:2|0:2,0:0:0:0:
387,161,211498,2,0,P|420:156|453:148,1,68,2|8,0:2|0:2,0:0:0:0:
327,94,211784,6,2,B|336:55|336:55|316:17,1,81.5999975097657,6|0,0:2|0:0,0:1:0:0:
226,107,212070,2,2,B|206:143|206:143|215:182,1,81.5999975097657,10|8,0:3|0:2,0:1:0:0:
289,272,212355,1,8,0:3:0:0:
289,272,212427,1,8,0:3:0:0:
289,272,212498,2,0,B|340:268|340:268|363:286|363:286|431:281,1,136,14|8,0:1|0:3,0:0:0:0:
418,281,213070,6,0,B|411:251|411:251|405:241|405:241|418:208|418:208|412:198|412:198|399:129,1,149.60000456543,6|10,0:1|0:2,0:2:0:0:
375,52,213498,1,0,0:2:0:0:
308,112,213641,2,0,B|278:140|233:137|233:137|223:102|183:74,1,149.60000456543,2|10,0:2|0:2,0:0:0:0:
95,28,214070,6,0,B|77:54|54:66|54:66|45:123|90:170,1,149.60000456543,2|8,0:2|0:3,0:2:0:0:
84,166,214427,1,8,0:3:0:0:
93,177,214498,2,0,B|111:203|111:203|110:214|110:214|134:256,1,74.8000022827149,8|0,0:2|0:2,0:0:0:0:
233,274,214784,6,0,P|303:228|392:241,1,149.60000456543,2|10,0:2|0:2,0:0:0:0:
450,263,215212,1,2,0:2:0:0:
399,337,215355,2,0,P|334:373|261:366,1,149.60000456543,2|8,0:1|0:2,0:0:0:0:
126,241,215927,1,2,0:1:0:0:
224,91,216212,1,10,0:2:0:0:
271,175,216355,6,2,P|308:192|369:180,1,88.3999959533693,6|0,0:1|0:0,0:1:0:0:
224,91,216641,2,2,P|187:74|126:86,1,88.3999959533693,10|8,0:3|0:2,0:1:0:0:
39,156,216927,5,8,0:3:0:0:
39,156,216998,1,8,0:3:0:0:
39,156,217070,2,0,B|26:209|26:209|40:246|40:246|17:335,1,176.799991906739,14|10,0:1|0:2,0:0:0:0:
19,326,217641,6,0,B|73:315|73:315|97:334|97:334|189:316,1,149.60000456543,6|8,0:1|0:2,0:0:0:0:
236,369,218070,1,2,0:2:0:0:
298,305,218212,2,0,P|308:241|284:160,1,149.60000456543,2|10,0:2|0:2,0:0:0:0:
203,81,218641,6,0,P|168:157|115:142,1,149.60000456543,2|8,0:2|0:3,0:2:0:0:
104,137,218998,1,8,0:3:0:0:
92,126,219070,2,0,P|92:71|112:28,1,74.8000022827149,8|0,0:2|0:2,0:0:0:0:
193,8,219355,2,0,B|219:60|259:60|259:60|289:33|344:24,1,149.60000456543,2|10,0:2|0:2,0:0:0:0:
417,61,219784,2,0,P|459:62|499:47,2,74.8000022827149,2|2|0,0:2|0:1|0:2,0:0:0:0:
329,125,220212,5,10,0:2:0:0:
381,195,220355,2,0,P|413:213|469:215,1,74.8000022827149,2|0,0:1|0:2,0:0:0:0:
329,125,220641,2,0,P|296:106|259:102,1,74.8000022827149,2|10,0:1|0:2,0:0:0:0:
178,183,220927,6,2,P|188:222|169:283,1,88.3999959533693,6|0,0:1|0:0,0:1:0:0:
77,179,221212,2,2,P|67:140|86:79,1,88.3999959533693,10|8,0:3|0:2,0:1:0:0:
183,41,221498,1,8,0:3:0:0:
183,41,221570,1,8,0:3:0:0:
183,41,221641,2,0,B|229:66|229:66|266:25|266:25|331:8,1,149.60000456543,8|10,0:3|0:2,0:0:0:0:
382,68,222070,1,8,0:3:0:0:
441,0,222212,6,0,B|404:17|375:63|399:108|411:181|470:179|510:142|510:142|507:87|469:68|438:76|413:81|336:116|302:216|391:274|437:278|406:315|343:377|260:395|191:379|191:379|170:328|169:296|213:260|258:256|295:272|295:272|280:287|247:312|208:309|144:302|112:281|112:281|129:218|209:185|270:181|270:181|201:170|159:125|148:86|184:41|184:41|202:124|111:167|81:163|45:157|8:125|-1:93|46:38|92:73,1,1958.39994023438,6|0,0:2|0:2,0:2:0:0:
