osu file format v14

[General]
AudioFilename: audio.mp3
AudioLeadIn: 0
PreviewTime: 49897
Countdown: 0
SampleSet: Normal
StackLeniency: 0.7
Mode: 0
LetterboxInBreaks: 0
WidescreenStoryboard: 1

[Editor]
DistanceSpacing: 0.4
BeatDivisor: 4
GridSize: 16
TimelineZoom: 1.9

[Metadata]
Title:Satsuriku no Keifu
TitleUnicode:殺戮の系譜
Artist:Denkishiki Karen Ongaku Shuudan
ArtistUnicode:電気式華憐音楽集団
Creator:Lasse
Version:Expert
Source:
Tags:denkare japanese rock metal detonator ignition
BeatmapID:2389656
BeatmapSetID:1140608

[Difficulty]
HPDrainRate:6
CircleSize:4
OverallDifficulty:8.7
ApproachRate:9.2
SliderMultiplier:1.68
SliderTickRate:1

[Events]
//Background and Video events
0,0,"a1.jpg",0,0
//Break Periods
2,88698,96642
2,164126,170214
//Storyboard Layer 0 (Background)
//Storyboard Layer 1 (Fail)
//Storyboard Layer 2 (Pass)
//Storyboard Layer 3 (Foreground)
//Storyboard Layer 4 (Overlay)
//Storyboard Sound Samples

[TimingPoints]
5070,285.714285714286,4,1,1,65,1,0
5070,-100,4,1,1,65,0,0
14212,-100,4,1,1,70,0,0
17498,-83.3333333333333,4,1,1,70,0,0
17712,-83.3333333333333,4,1,1,50,0,0
17784,-100,4,1,1,70,0,0
22070,-76.9230769230769,4,1,1,70,0,0
22284,-76.9230769230769,4,1,1,50,0,0
22355,-100,4,1,1,70,0,0
23212,-100,4,1,1,64,0,0
23284,-100,4,1,1,62,0,0
23355,-125,4,1,1,60,0,0
32498,-125,4,1,1,62,0,0
32784,-111.111111111111,4,1,1,62,0,0
41641,-142.857142857143,4,1,1,64,0,0
48498,-111.111111111111,4,1,1,66,0,0
49070,-111.111111111111,4,1,1,68,0,0
50212,-181.818181818182,4,2,1,50,0,0
50498,-181.818181818182,4,2,1,5,0,0
50641,-181.818181818182,4,2,1,30,0,0
50784,-83.3333333333333,4,1,1,75,0,1
59355,-83.3333333333333,4,2,2,70,0,0
59927,-83.3333333333333,4,1,1,75,0,1
68498,-83.3333333333333,4,1,1,70,0,1
68784,-83.3333333333333,4,1,1,65,0,1
69070,-125,4,1,1,60,0,0
77641,-125,4,2,2,58,0,0
77927,-125,4,2,2,56,0,0
78212,-200,4,1,1,54,0,0
78498,-200,4,1,1,50,0,0
78641,-200,4,1,1,62,0,0
78927,-200,4,1,1,64,0,0
79212,-200,4,1,1,66,0,0
79355,-100,4,1,1,68,0,0
79641,-100,4,1,1,70,0,0
82641,-83.3333333333333,4,1,1,70,0,0
82855,-83.3333333333333,4,1,1,50,0,0
82927,-100,4,1,1,70,0,0
87212,-76.9230769230769,4,1,1,70,0,0
87427,-76.9230769230769,4,1,1,50,0,0
87498,-100,4,1,1,70,0,0
88355,-100,4,1,1,68,0,0
88427,-100,4,1,1,66,0,0
88498,-100,4,1,1,64,0,0
97212,-100,4,1,1,58,0,0
97641,-100,4,1,1,60,0,0
97927,-111.111111111111,4,1,1,62,0,0
106784,-142.857142857143,4,1,1,64,0,0
113641,-111.111111111111,4,1,1,66,0,0
114212,-111.111111111111,4,1,1,68,0,0
115641,-111.111111111111,4,1,2,70,0,0
115927,-83.3333333333333,4,1,1,75,0,1
124498,-83.3333333333333,4,2,2,70,0,0
125070,-83.3333333333333,4,1,1,75,0,1
133641,-83.3333333333333,4,1,1,70,0,1
133927,-83.3333333333333,4,1,1,65,0,1
134212,-125,4,1,1,60,0,0
142784,-125,4,2,2,58,0,0
143070,-125,4,2,2,56,0,0
143355,-100,4,1,1,60,0,0
152498,-83.3333333333333,4,1,1,68,0,0
157070,-76.9230769230769,4,1,1,70,0,0
161070,-100,4,1,1,70,0,0
161355,-100,4,2,2,68,0,0
161498,-100,4,2,2,66,0,0
161641,-125,4,2,1,64,0,0
161855,-125,4,2,2,64,0,0
162212,-125,4,2,1,62,0,0
162355,-125,4,2,1,34,0,0
162426,-125,4,2,2,62,0,0
162570,-125,4,2,1,34,0,0
162641,-125,4,2,2,62,0,0
162784,-125,4,2,1,60,0,0
162927,-125,4,2,1,34,0,0
162998,-125,4,2,2,60,0,0
163141,-125,4,2,1,34,0,0
163212,-125,4,2,2,60,0,0
163355,-125,4,2,1,58,0,0
163569,-125,4,2,2,58,0,0
163712,-125,4,2,1,40,0,0
163784,-125,4,2,1,58,0,0
163927,-166.666666666667,4,2,1,56,0,0
170784,-83.3333333333333,4,2,1,20,0,0
172498,-83.3333333333333,4,2,1,10,0,0
172784,-83.3333333333333,4,2,1,30,0,0
172998,-83.3333333333333,4,2,1,30,0,0
174212,-83.3333333333333,4,2,1,20,0,0
174498,-181.818181818181,4,2,1,30,0,0
174570,-181.818181818181,4,2,1,5,0,0
175212,-181.818181818181,4,2,1,60,0,0
175355,-76.9230769230769,4,1,1,78,0,1
183927,-76.9230769230769,4,2,2,74,0,0
184212,-76.9230769230769,4,2,2,76,0,0
184498,-76.9230769230769,4,1,1,78,0,1
193070,-76.9230769230769,4,1,1,72,0,1
193355,-76.9230769230769,4,1,1,66,0,1
193641,-125,4,1,1,60,0,0
202212,-125,4,2,2,58,0,0
202498,-125,4,2,2,56,0,0
202784,-200,4,1,1,54,0,0
203070,-200,4,1,1,50,0,0
203212,-200,4,1,1,62,0,0
203498,-200,4,1,1,64,0,0
203784,-200,4,1,1,66,0,0
203927,-100,4,1,1,68,0,0
207212,-83.3333333333333,4,1,1,70,0,0
207427,-83.3333333333333,4,1,1,50,0,0
207498,-100,4,1,1,70,0,0
211784,-76.9230769230769,4,1,1,70,0,0
211998,-76.9230769230769,4,1,1,50,0,0
212070,-100,4,1,1,70,0,0
213070,-80,4,1,1,72,0,0
216355,-66.6666666666667,4,1,1,72,0,0
216570,-66.6666666666667,4,1,1,50,0,0
216641,-74.0740740740741,4,1,1,72,0,0
216927,-80,4,1,1,72,0,0
220927,-66.6666666666667,4,1,1,72,0,0
221141,-66.6666666666667,4,1,1,50,0,0
221212,-74.0740740740741,4,1,1,72,0,0
222212,-316.455696202532,4,1,1,70,0,0
222284,-333.333333333333,4,2,99,50,0,0
223355,-333.333333333333,4,2,99,45,0,0
224498,-333.333333333333,4,2,99,40,0,0
225641,-333.333333333333,4,2,99,35,0,0
226784,-333.333333333333,4,2,99,30,0,0
227927,-333.333333333333,4,2,99,25,0,0
229070,-333.333333333333,4,2,99,20,0,0
230212,-333.333333333333,4,2,99,15,0,0
230784,-333.333333333333,4,2,99,10,0,0
231070,-333.333333333333,4,2,99,5,0,0
231355,-333.333333333333,4,2,99,8,0,0

[Colours]
Combo1 : 250,180,240
Combo2 : 120,200,230
Combo3 : 255,230,130
Combo4 : 160,230,150

[HitObjects]
130,347,5069,5,6,0:1:0:0:
130,347,5141,1,0,0:2:0:0:
130,347,5212,2,0,L|40:337,1,84,0|8,0:2|0:2,0:2:0:0:
130,198,5498,1,2,0:1:0:0:
130,198,5641,2,0,L|46:204,1,84,2|0,0:2|0:2,0:2:0:0:
187,94,5927,1,10,0:1:0:0:
87,43,6070,1,2,0:2:0:0:
87,43,6355,5,8,0:3:0:0:
87,43,6427,1,8,0:3:0:0:
87,43,6498,1,10,0:1:0:0:
187,94,6641,1,0,0:2:0:0:
316,92,6784,2,0,P|311:50|315:-10,1,84,2|0,0:1|0:2,0:2:0:0:
234,184,7070,2,0,P|192:182|150:187,1,84,10|0,0:1|0:2,0:2:0:0:
338,268,7355,5,2,0:1:0:0:
338,268,7427,1,0,0:2:0:0:
338,268,7498,2,0,P|336:309|341:351,1,84,0|8,0:2|0:2,0:2:0:0:
421,243,7784,1,2,0:1:0:0:
490,198,7927,1,2,0:2:0:0:
445,129,8070,1,2,0:2:0:0:
376,174,8212,1,10,0:1:0:0:
351,22,8355,6,0,P|396:28|453:29,1,84,6|0,0:2|0:0,0:0:0:0:
292,181,8641,2,0,P|337:175|394:174,1,84,2|8,0:1|0:2,0:0:0:0:
176,65,8927,1,8,0:3:0:0:
176,65,8998,1,8,0:3:0:0:
176,65,9070,2,0,P|221:71|278:72,1,84,14|8,0:1|0:2,0:0:0:0:
109,164,9355,5,8,0:3:0:0:
122,186,9427,1,8,0:3:0:0:
123,212,9498,1,8,0:3:0:0:
114,236,9570,1,8,0:3:0:0:
94,253,9641,2,0,P|50:244|4:239,1,84,6|0,0:1|0:2,0:2:0:0:
19,319,9927,1,8,0:2:0:0:
163,384,10070,1,2,0:1:0:0:
163,384,10212,2,0,P|167:342|175:301,1,84,0|2,0:2|0:2,0:0:0:0:
284,208,10498,1,10,0:2:0:0:
369,324,10641,1,2,0:2:0:0:
369,324,10927,5,8,0:3:0:0:
369,324,10998,1,8,0:3:0:0:
369,324,11070,1,10,0:1:0:0:
481,367,11212,1,0,0:2:0:0:
422,243,11355,2,0,P|463:243|521:227,1,84,2|0,0:1|0:2,0:2:0:0:
387,123,11641,2,0,P|386:81|377:40,1,84,10|0,0:1|0:2,0:2:0:0:
190,7,11927,5,2,0:1:0:0:
190,7,11998,1,0,0:2:0:0:
190,7,12070,2,0,P|180:47|180:89,1,84,0|8,0:2|0:2,0:2:0:0:
94,207,12355,1,2,0:1:0:0:
94,207,12498,2,0,L|10:201,1,84,2|2,0:2|0:2,0:0:0:0:
134,374,12784,1,10,0:1:0:0:
223,357,12927,6,0,L|341:338,1,84,6|0,0:2|0:0,0:0:0:0:
349,203,13212,2,0,P|337:161|342:102,1,84,0|0,0:2|0:2,0:0:0:0:
467,6,13498,1,8,0:3:0:0:
467,6,13570,1,8,0:3:0:0:
467,6,13641,2,0,P|478:46|478:88,1,84,14|8,0:1|0:2,0:0:0:0:
364,218,13927,5,8,0:3:0:0:
364,218,13998,1,8,0:3:0:0:
364,218,14070,1,8,0:3:0:0:
364,218,14141,1,8,0:3:0:0:
364,218,14212,2,0,P|319:197|271:192,1,84,6|0,0:1|0:2,0:2:0:0:
105,287,14498,5,10,0:2:0:0:
182,265,14641,1,0,0:2:0:0:
134,131,14784,5,2,0:2:0:0:
125,210,14927,1,0,0:2:0:0:
0,110,15070,5,10,0:2:0:0:
61,162,15212,1,0,0:2:0:0:
207,95,15355,6,0,P|214:50|190:1,1,84,2|8,0:1|0:3,0:2:0:0:
201,14,15570,1,8,0:3:0:0:
201,14,15641,1,10,0:2:0:0:
310,153,15784,2,0,P|270:167|243:198,1,84,2|0,0:2|0:2,0:2:0:0:
309,35,16070,2,0,P|344:63|398:67,1,84,2|10,0:2|0:2,0:2:0:0:
475,38,16355,5,2,0:2:0:0:
409,160,16498,1,2,0:1:0:0:
409,160,16570,1,0,0:2:0:0:
409,160,16641,2,0,P|473:179|487:192,1,84,0|8,0:2|0:2,0:0:0:0:
512,273,16927,1,0,0:2:0:0:
371,343,17070,6,0,B|271:315|308:382|207:350,1,168,2|8,0:2|0:2,0:2:0:0:
0,324,17498,2,2,P|60:260|33:165,1,151.199995385742,6|0,0:2|1:3,0:1:0:0:
57,201,17784,2,2,P|47:160|56:119,1,84,10|8,0:3|0:2,0:1:0:0:
166,18,18070,5,10,0:3:0:0:
166,18,18141,1,8,0:3:0:0:
166,18,18212,1,14,0:1:0:0:
224,117,18355,1,8,0:3:0:0:
289,21,18498,1,10,0:1:0:0:
239,198,18641,1,8,0:3:0:0:
239,198,18712,1,8,0:3:0:0:
239,198,18784,2,0,B|231:168|231:168|234:153|234:153|217:93,1,84,4|0,0:1|0:2,0:2:0:0:
166,18,19070,5,10,0:2:0:0:
139,91,19212,1,0,0:2:0:0:
85,237,19355,5,2,0:2:0:0:
112,164,19498,1,0,0:2:0:0:
36,178,19641,1,8,0:2:0:0:
161,223,19784,6,0,P|241:199|326:210,1,168,2|8,0:2|0:3,0:1:0:0:
341,221,20141,1,8,0:3:0:0:
358,232,20212,2,0,P|394:252|443:255,1,84,10|0,0:2|0:2,0:2:0:0:
372,105,20498,2,0,P|387:66|390:24,1,84,2|0,0:2|0:2,0:2:0:0:
241,183,20784,2,0,P|243:224|259:263,1,84,10|0,0:2|0:2,0:0:0:0:
341,340,21070,5,2,0:1:0:0:
341,340,21141,1,0,0:2:0:0:
341,340,21212,1,0,0:2:0:0:
239,383,21355,1,8,0:2:0:0:
241,183,21498,1,2,0:3:0:0:
220,267,21641,1,0,0:3:0:0:
157,206,21784,1,2,0:2:0:0:
304,244,21927,1,8,0:2:0:0:
136,125,22070,6,2,P|140:51|56:32,1,163.799992501831,6|0,0:2|0:2,0:1:0:0:
65,27,22355,2,2,L|52:114,1,84,10|8,0:3|0:2,0:1:0:0:
0,325,22641,5,8,0:3:0:0:
0,325,22712,1,8,0:3:0:0:
0,325,22784,1,8,0:3:0:0:
0,325,22855,1,8,0:3:0:0:
0,325,22927,2,0,L|95:314,1,84,8|8,0:3|0:2,0:0:0:0:
257,342,23212,5,8,0:3:0:0:
257,342,23284,1,8,0:3:0:0:
257,342,23355,2,0,L|269:386,2,33.6,6|0|0,0:3|0:3|0:3,0:2:0:0:
231,254,23641,2,2,L|219:210,2,33.6,2|0|0,0:2|0:2|0:2,0:2:0:0:
231,254,24070,5,8,0:3:0:0:
273,153,24212,1,8,0:2:0:0:
273,153,24498,6,0,L|325:158,2,33.6,2|0|0,0:3|0:3|0:3,0:3:0:0:
384,210,24784,2,0,L|436:215,2,33.6,2|0|0,0:3|0:3|0:3,0:3:0:0:
384,210,25212,5,8,0:3:0:0:
421,102,25355,1,8,0:2:0:0:
421,102,25641,6,0,L|414:67,2,33.6,2|0|0,0:2|0:2|0:2,0:2:0:0:
328,44,25927,2,0,L|321:9,2,33.6,2|0|0,0:2|0:2|0:2,0:2:0:0:
328,44,26355,5,8,0:3:0:0:
264,138,26498,1,8,0:2:0:0:
264,138,26784,6,0,L|217:130,2,34,2|0|0,0:2|0:2|0:2,0:2:0:0:
332,207,27070,2,0,L|379:215,2,33.6,2|0|0,0:2|0:2|0:2,0:2:0:0:
214,365,27498,6,0,B|234:309|234:309|202:239,1,134.4,14|8,0:2|0:2,0:2:0:0:
154,145,27927,5,2,0:2:0:0:
154,145,27998,1,0,0:2:0:0:
154,145,28070,1,0,0:2:0:0:
115,234,28212,2,0,L|106:271,2,33.6,2|0|0,0:2|0:2|0:2,0:0:0:0:
203,26,28641,5,8,0:3:0:0:
247,128,28784,1,8,0:2:0:0:
247,128,29070,5,2,0:2:0:0:
247,128,29141,1,0,0:2:0:0:
247,128,29212,1,0,0:2:0:0:
315,43,29355,2,0,L|330:1,2,33.6,2|0|0,0:2|0:2|0:2,0:0:0:0:
301,225,29784,5,8,0:3:0:0:
425,207,29927,1,8,0:2:0:0:
425,207,30212,5,2,0:2:0:0:
425,207,30284,1,0,0:2:0:0:
425,207,30355,1,0,0:2:0:0:
452,303,30498,2,0,L|464:353,2,33.6,2|0|0,0:2|0:2|0:2,0:0:0:0:
296,205,30927,5,8,0:3:0:0:
259,346,31070,1,8,0:2:0:0:
259,346,31355,5,2,0:2:0:0:
259,346,31427,1,0,0:2:0:0:
259,346,31498,1,0,0:2:0:0:
201,259,31641,1,2,0:2:0:0:
201,259,31712,1,0,0:2:0:0:
201,259,31784,1,0,0:2:0:0:
73,383,32070,6,0,B|83:340|83:340|71:314|71:314|89:230,1,134.4,14|8,0:2|0:2,0:0:0:0:
119,136,32498,1,6,0:2:0:0:
119,136,32570,1,0,0:2:0:0:
119,136,32641,1,0,0:2:0:0:
214,161,32784,5,10,0:2:0:0:
240,231,32927,1,0,0:2:0:0:
271,112,33070,1,2,0:2:0:0:
285,38,33212,2,0,L|368:16,1,75.5999976928712,0|8,0:2|0:2,0:2:0:0:
483,136,33498,5,0,0:2:0:0:
412,162,33641,2,0,L|386:89,1,75.5999976928712,2|0,0:2|0:2,0:2:0:0:
386,90,33855,1,0,0:2:0:0:
386,90,33927,1,10,0:2:0:0:
324,196,34070,2,0,L|349:267,1,75.5999976928712,2|0,0:2|0:2,0:2:0:0:
248,186,34355,1,2,0:2:0:0:
182,148,34498,2,0,P|135:134|92:138,1,75.5999976928712,8|0,0:2|0:2,0:0:0:0:
28,159,34784,5,2,0:2:0:0:
28,159,34855,1,0,0:2:0:0:
28,159,34927,1,0,0:2:0:0:
109,134,35070,2,0,P|147:123|183:102,1,75.5999976928712,10|0,0:2|0:2,0:0:0:0:
202,257,35355,2,0,P|240:268|276:289,1,75.5999976928712,2|0,0:2|0:2,0:0:0:0:
309,148,35641,2,0,P|347:137|383:116,1,75.5999976928712,10|2,0:2|0:2,0:0:0:0:
386,126,36070,5,8,0:3:0:0:
386,126,36141,1,8,0:3:0:0:
386,126,36212,2,0,L|376:39,1,75.5999976928712,10|0,0:2|0:2,0:2:0:0:
386,258,36498,2,0,L|376:345,1,75.5999976928712,2|0,0:2|0:2,0:2:0:0:
243,239,36784,2,0,B|211:235|211:235|197:238|197:238|153:233,1,75.5999976928712,10|0,0:2|0:2,0:2:0:0:
253,79,37070,1,6,0:2:0:0:
253,79,37141,1,0,0:2:0:0:
253,79,37212,1,0,0:2:0:0:
311,139,37355,6,0,P|350:129|401:126,1,75.5999976928712,10|0,0:2|0:2,0:2:0:0:
197,0,37641,1,2,0:2:0:0:
151,59,37784,2,0,P|159:96|164:141,1,75.5999976928712,2|8,0:2|0:2,0:2:0:0:
84,234,38070,5,0,0:2:0:0:
12,200,38212,2,0,P|4:163|-1:118,1,75.5999976928712,2|0,0:2|0:2,0:2:0:0:
0,125,38427,1,0,0:2:0:0:
0,125,38498,1,10,0:2:0:0:
75,12,38641,2,0,P|40:21|0:26,1,75.5999976928712,2|0,0:2|0:2,0:2:0:0:
163,133,38927,1,2,0:2:0:0:
237,111,39070,2,0,P|272:102|312:97,1,75.5999976928712,8|0,0:2|0:2,0:2:0:0:
420,118,39355,5,2,0:2:0:0:
420,118,39427,1,0,0:2:0:0:
420,118,39498,1,0,0:2:0:0:
311,97,39641,2,0,P|285:92|212:65,1,75.5999976928712,10|0,0:2|0:2,0:0:0:0:
240,235,39927,2,0,P|214:240|141:267,1,75.5999976928712,2|0,0:2|0:2,0:0:0:0:
72,177,40212,2,0,P|46:172|-27:145,1,75.5999976928712,10|2,0:2|0:2,0:0:0:0:
6,165,40641,5,8,0:3:0:0:
6,165,40712,1,8,0:3:0:0:
6,165,40784,2,0,P|35:163|85:147,1,75.5999976928712,8|0,0:2|0:2,0:2:0:0:
32,266,41070,1,8,0:2:0:0:
32,266,41141,1,8,0:2:0:0:
32,266,41212,1,8,0:2:0:0:
164,208,41355,1,10,0:3:0:0:
95,367,41498,1,10,0:3:0:0:
258,328,41641,5,6,0:1:0:0:
188,289,41855,1,2,0:1:0:0:
171,216,42070,1,2,0:1:0:0:
171,216,42141,1,0,0:3:0:0:
171,216,42212,1,0,0:2:0:0:
195,142,42355,1,0,0:2:0:0:
266,112,42641,1,8,0:2:0:0:
343,125,42784,2,2,B|373:88|373:88|334:12,1,117.599996411133,2|0,0:2|0:2,0:1:0:0:
218,2,43212,5,0,0:3:0:0:
218,2,43284,1,0,0:3:0:0:
218,2,43355,1,0,0:3:0:0:
160,53,43498,1,0,0:3:0:0:
83,31,43784,1,8,0:2:0:0:
27,87,43927,1,6,0:1:0:0:
43,164,44141,1,2,0:1:0:0:
127,187,44355,1,2,0:1:0:0:
127,187,44427,1,0,0:2:0:0:
127,187,44498,1,0,0:2:0:0:
158,259,44641,1,0,0:2:0:0:
124,331,44927,1,8,0:2:0:0:
46,346,45070,2,2,B|7:340|7:340|46:249,1,117.599996411133,2|0,0:2|0:2,0:1:0:0:
100,156,45498,5,0,0:3:0:0:
100,156,45570,1,0,0:3:0:0:
100,156,45641,1,0,0:3:0:0:
170,192,45784,1,0,0:3:0:0:
246,172,45927,1,2,0:2:0:0:
273,97,46070,1,8,0:2:0:0:
388,34,46212,5,6,0:1:0:0:
452,80,46427,1,2,0:1:0:0:
461,166,46641,1,2,0:1:0:0:
461,166,46712,1,0,0:2:0:0:
461,166,46784,1,0,0:2:0:0:
402,219,46927,1,0,0:2:0:0:
322,212,47212,1,8,0:2:0:0:
267,154,47355,2,2,P|275:125|272:96,1,58.7999982055665,2|0,0:2|0:2,0:1:0:0:
160,55,47641,6,0,L|93:45,1,58.7999982055665,2|0,0:2|0:2,0:2:0:0:
101,46,47855,1,0,0:2:0:0:
101,46,47927,1,2,0:2:0:0:
0,117,48070,1,0,0:2:0:0:
80,206,48212,2,0,L|138:197,1,58.7999982055665,2|0,0:2|0:2,0:2:0:0:
265,86,48498,6,0,P|261:49|268:7,1,75.5999976928712,6|0,0:2|0:2,0:2:0:0:
390,215,48784,2,0,P|394:252|387:294,1,75.5999976928712,10|0,0:2|0:2,0:2:0:0:
197,371,49070,5,10,0:3:0:0:
186,295,49212,1,10,0:3:0:0:
256,192,49355,5,8,0:3:0:0:
256,192,49427,1,8,0:3:0:0:
256,192,49498,1,8,0:3:0:0:
256,192,49570,1,8,0:3:0:0:
256,192,49641,1,12,0:3:0:0:
338,231,50212,6,2,B|386:232|386:232|413:251|413:251|470:253,1,138.600004229736,0|0,0:2|0:2,0:1:0:0:
289,97,50784,6,0,P|293:54|155:21,1,201.599993847656,6|10,0:2|0:2,0:2:0:0:
40,146,51212,2,0,L|162:126,1,100.799996923828,2|0,0:2|0:2,0:2:0:0:
328,249,51498,1,2,0:2:0:0:
259,291,51641,2,0,L|137:271,1,100.799996923828,10|0,0:2|0:2,0:2:0:0:
328,162,51927,6,0,P|330:111|354:54,1,100.799996923828,2|8,0:2|0:3,0:0:0:0:
347,64,52141,1,8,0:3:0:0:
347,64,52212,1,10,0:2:0:0:
493,219,52355,2,0,P|491:269|473:316,1,100.799996923828,2|0,0:2|0:2,0:0:0:0:
419,384,52641,5,2,0:2:0:0:
221,264,52784,1,10,0:2:0:0:
199,338,52927,1,2,0:2:0:0:
280,205,53070,6,0,B|375:234|375:234|425:126,2,201.599993847656,2|8|0,0:2|0:2|0:2,0:1:0:0:
215,250,53784,1,0,0:2:0:0:
181,27,53927,1,10,0:2:0:0:
135,89,54070,6,0,B|40:122|40:122|-12:3,1,201.599993847656,2|10,0:2|0:3,0:2:0:0:
0,30,54427,1,8,0:3:0:0:
0,30,54498,1,8,0:2:0:0:
212,99,54641,2,0,B|332:87|250:17|383:7,1,201.599993847656,2|0,0:2|0:2,0:2:0:0:
506,144,55070,5,8,0:3:0:0:
510,162,55141,1,8,0:3:0:0:
511,181,55212,1,8,0:3:0:0:
509,200,55284,1,8,0:3:0:0:
505,219,55355,2,0,P|411:285|331:214,1,201.599993847656,6|10,0:2|0:2,0:2:0:0:
260,371,55784,1,2,0:2:0:0:
147,287,55927,2,0,L|265:274,1,100.799996923828,0|0,0:2|0:2,0:0:0:0:
135,34,56212,2,0,L|253:47,1,100.799996923828,10|0,0:2|0:2,0:2:0:0:
55,207,56498,6,0,P|57:157|35:112,1,100.799996923828,2|8,0:2|0:3,0:0:0:0:
35,112,56712,1,8,0:3:0:0:
35,112,56784,1,10,0:2:0:0:
235,45,56927,2,0,P|293:128|382:94,1,201.599993847656,2|0,0:2|0:2,0:2:0:0:
448,36,57355,5,10,0:2:0:0:
448,36,57498,1,2,0:2:0:0:
470,120,57641,5,2,0:3:0:0:
359,19,57784,1,0,0:2:0:0:
290,70,57927,5,10,0:1:0:0:
145,186,58070,1,0,0:2:0:0:
226,238,58212,5,2,0:1:0:0:
214,22,58355,1,0,0:2:0:0:
149,274,58498,5,10,0:1:0:0:
256,326,58641,2,0,B|308:229|204:239|240:135,1,201.599993847656,2|8,0:2|0:3,0:2:0:0:
254,123,58998,1,8,0:3:0:0:
272,113,59070,2,0,B|311:106|311:106|332:113|332:113|396:101,1,100.799996923828,10|8,0:2|0:3,0:2:0:0:
167,28,59355,5,8,2:3:0:0:
167,28,59427,1,8,2:3:0:0:
167,28,59498,1,8,2:3:0:0:
167,28,59570,1,8,2:3:0:0:
167,28,59641,1,4,2:3:0:0:
167,28,59712,1,4,2:3:0:0:
167,28,59784,1,4,2:3:0:0:
167,28,59855,1,4,2:3:0:0:
167,28,59927,2,0,B|42:9|114:102|8:130,1,201.599993847656,6|10,0:2|0:2,0:2:0:0:
189,287,60355,1,2,0:2:0:0:
63,384,60498,2,0,P|62:338|49:271,1,100.799996923828,2|0,0:2|0:2,0:0:0:0:
334,212,60784,2,0,P|323:256|321:312,1,100.799996923828,10|0,0:2|0:2,0:2:0:0:
104,166,61070,6,0,P|61:139|12:128,1,100.799996923828,2|8,0:2|0:3,0:0:0:0:
12,128,61284,1,8,0:3:0:0:
12,128,61355,1,8,0:2:0:0:
212,51,61498,2,0,P|260:39|303:13,1,100.799996923828,2|2,0:2|0:2,0:0:0:0:
379,67,61784,5,2,0:2:0:0:
268,279,61927,1,10,0:2:0:0:
291,355,62070,1,0,0:2:0:0:
183,275,62212,6,0,B|75:263,1,100.799996923828,2|0,0:2|0:0,0:2:0:0:
346,226,62498,2,0,B|442:178,1,100.799996923828,10|0,0:2|0:0,0:0:0:0:
193,88,62784,2,0,L|128:1,1,100.799996923828,2|0,0:2|0:2,0:0:0:0:
10,273,63070,5,10,0:2:0:0:
86,289,63212,2,0,B|194:273|125:208|251:189,1,201.599993847656,2|10,0:2|0:3,0:2:0:0:
250,189,63570,1,8,0:3:0:0:
250,189,63641,1,8,0:2:0:0:
470,99,63784,2,0,B|362:83|431:18|304:-1,1,201.599993847656,2|0,0:2|0:2,0:2:0:0:
143,216,64212,5,8,0:3:0:0:
143,216,64284,1,8,0:3:0:0:
143,216,64355,1,8,0:3:0:0:
143,216,64427,1,8,0:3:0:0:
143,216,64498,2,0,L|355:173,1,201.599993847656,6|10,0:2|0:2,0:2:0:0:
173,323,64927,1,2,0:2:0:0:
296,353,65070,2,0,L|405:374,1,100.799996923828,2|0,0:2|0:2,0:0:0:0:
341,176,65355,2,0,L|304:56,1,100.799996923828,10|0,0:2|0:2,0:2:0:0:
120,0,65641,6,0,P|123:37|64:77,1,100.799996923828,2|8,0:2|0:3,0:0:0:0:
78,76,65855,1,8,0:3:0:0:
78,76,65927,1,10,0:2:0:0:
196,228,66070,2,0,P|191:321|281:346,1,201.599993847656,2|0,0:2|0:2,0:2:0:0:
385,308,66498,5,10,0:2:0:0:
385,308,66641,1,2,0:2:0:0:
327,172,66784,5,2,0:1:0:0:
270,35,66927,1,2,0:2:0:0:
327,172,67070,1,10,0:2:0:0:
211,133,67212,5,2,0:1:0:0:
386,70,67355,1,2,0:2:0:0:
211,133,67498,1,2,0:2:0:0:
270,35,67641,5,10,0:1:0:0:
327,172,67784,2,0,P|351:264|445:271,1,201.599993847656,2|8,0:1|0:3,0:2:0:0:
463,261,68141,1,8,0:3:0:0:
480,252,68212,2,0,L|489:124,1,100.799996923828,12|8,0:2|0:3,0:2:0:0:
380,23,68498,5,8,1:3:0:0:
372,38,68570,1,8,1:3:0:0:
363,52,68641,1,8,1:3:0:0:
351,64,68712,1,8,1:3:0:0:
335,72,68784,1,8,1:3:0:0:
320,78,68855,1,8,1:3:0:0:
303,79,68927,1,8,1:3:0:0:
285,78,68998,1,8,1:3:0:0:
269,72,69070,6,0,P|230:55|190:59,1,67.2,6|0,0:2|0:2,0:0:0:0:
293,184,69355,2,0,P|331:200|371:196,1,67.2,8|2,0:2|0:2,0:0:0:0:
205,55,69784,5,2,0:2:0:0:
156,110,69927,1,8,0:2:0:0:
132,40,70070,1,2,0:2:0:0:
33,152,70355,5,8,0:3:0:0:
33,152,70427,1,8,0:3:0:0:
33,152,70498,2,0,L|27:227,1,67.2,10|0,0:2|0:2,0:2:0:0:
119,279,70784,2,0,L|113:354,1,67.2,2|0,0:2|0:2,0:2:0:0:
246,206,71070,2,0,L|240:281,1,67.2,10|0,0:2|0:2,0:2:0:0:
305,354,71355,6,0,P|334:363|378:356,1,67.2,2|0,0:2|0:2,0:0:0:0:
241,273,71641,2,0,P|212:264|168:271,1,67.2,8|2,0:2|0:2,0:0:0:0:
370,359,72070,5,2,0:2:0:0:
386,287,72212,1,8,0:2:0:0:
452,254,72355,1,2,0:2:0:0:
403,65,72641,5,8,0:3:0:0:
403,65,72712,1,8,0:3:0:0:
403,65,72784,2,0,L|477:57,1,67.2,10|0,0:2|0:2,0:2:0:0:
325,161,73070,2,0,L|399:169,1,67.2,2|0,0:2|0:2,0:2:0:0:
228,80,73355,2,0,L|294:72,1,67.2,10|0,0:2|0:2,0:2:0:0:
192,168,73641,6,0,P|203:199|201:233,1,67.2,6|0,0:2|0:2,0:0:0:0:
108,110,73927,2,0,P|97:78|99:45,1,67.2,8|2,0:2|0:2,0:0:0:0:
201,233,74355,5,2,0:2:0:0:
140,275,74498,1,8,0:2:0:0:
118,345,74641,1,2,0:2:0:0:
23,207,74927,5,8,0:3:0:0:
23,207,74998,1,8,0:3:0:0:
23,207,75070,2,0,L|8:137,1,67.2,10|0,0:2|0:2,0:2:0:0:
116,94,75355,2,0,L|101:24,1,67.2,2|0,0:2|0:2,0:2:0:0:
252,169,75641,2,0,L|237:99,1,67.2,10|0,0:2|0:2,0:2:0:0:
311,34,75927,6,0,P|351:37|381:27,1,67.2,2|0,0:2|0:2,0:0:0:0:
252,169,76212,2,0,P|212:166|182:176,1,67.2,8|2,0:2|0:2,0:0:0:0:
376,29,76641,5,2,0:2:0:0:
433,76,76784,1,8,0:2:0:0:
493,32,76927,1,2,0:2:0:0:
426,196,77212,5,8,0:3:0:0:
426,196,77284,1,8,0:3:0:0:
426,196,77355,2,0,L|345:183,1,67.2,10|0,0:2|0:2,0:2:0:0:
274,135,77641,5,8,0:3:0:0:
274,135,77712,1,8,0:3:0:0:
274,135,77784,1,8,0:3:0:0:
274,135,77855,1,8,0:3:0:0:
274,135,77927,1,4,0:3:0:0:
274,135,77998,1,4,0:3:0:0:
274,135,78070,1,4,0:3:0:0:
274,135,78141,1,4,0:3:0:0:
274,135,78212,2,0,P|289:106|271:47,1,84,6|0,0:2|0:2,0:2:0:0:
220,0,78641,5,8,0:3:0:0:
220,0,78712,1,8,0:3:0:0:
220,0,78784,1,8,0:2:0:0:
158,149,78927,1,8,0:2:0:0:
108,79,79212,5,8,0:2:0:0:
136,278,79355,1,6,0:1:0:0:
136,278,79427,1,0,0:2:0:0:
136,278,79498,1,0,0:2:0:0:
208,225,79641,5,10,0:2:0:0:
77,194,79784,1,0,0:2:0:0:
108,109,79927,5,2,0:2:0:0:
220,140,80070,1,0,0:2:0:0:
188,49,80212,5,10,0:2:0:0:
188,49,80355,1,0,0:2:0:0:
302,74,80498,6,0,P|351:67|389:36,1,84,2|8,0:1|0:3,0:2:0:0:
378,47,80712,1,8,0:3:0:0:
378,47,80784,1,10,0:2:0:0:
319,178,80927,2,0,P|300:223|308:272,1,84,2|0,0:2|0:2,0:2:0:0:
220,140,81212,2,0,P|189:101|143:83,1,84,2|10,0:2|0:2,0:2:0:0:
79,69,81498,5,2,0:2:0:0:
145,207,81641,1,2,0:1:0:0:
145,207,81712,1,0,0:2:0:0:
145,207,81784,2,0,L|45:189,1,84,0|8,0:2|0:2,0:0:0:0:
0,256,82070,1,0,0:2:0:0:
107,352,82212,6,0,B|164:345|164:345|189:369|189:369|274:360,1,168,2|10,0:2|0:2,0:0:0:0:
361,234,82641,2,2,B|319:172|319:172|348:100,1,151.199995385742,6|0,0:2|1:3,0:1:0:0:
347,102,82927,2,2,B|380:106|380:106|388:114|388:114|447:128,1,84,10|8,0:3|0:2,0:1:0:0:
231,4,83212,5,10,0:3:0:0:
231,4,83284,1,8,0:3:0:0:
231,4,83355,1,14,0:1:0:0:
155,150,83498,1,8,0:3:0:0:
119,28,83641,1,10,0:1:0:0:
265,117,83784,1,8,0:3:0:0:
265,117,83855,1,8,0:3:0:0:
265,117,83927,2,0,B|295:109|295:109|310:112|310:112|370:95,1,84,4|0,0:1|0:2,0:2:0:0:
508,39,84212,5,10,0:2:0:0:
431,17,84355,1,0,0:2:0:0:
384,180,84498,1,2,0:2:0:0:
463,208,84641,1,0,0:2:0:0:
463,208,84784,1,8,0:2:0:0:
346,101,84927,6,0,P|266:125|186:92,1,168,2|8,0:2|0:3,0:2:0:0:
172,83,85284,1,8,0:3:0:0:
157,68,85355,2,0,P|123:34|60:19,1,84,10|0,0:2|0:2,0:0:0:0:
53,190,85641,2,0,P|19:224|4:287,1,84,2|0,0:2|0:2,0:0:0:0:
160,326,85927,2,0,P|194:360|257:375,1,84,10|0,0:2|0:2,0:0:0:0:
366,335,86212,5,2,0:1:0:0:
366,335,86284,1,0,0:2:0:0:
366,335,86355,1,0,0:2:0:0:
296,219,86498,1,8,0:2:0:0:
319,89,86641,1,2,0:3:0:0:
319,89,86784,1,0,0:3:0:0:
406,167,86927,5,2,0:2:0:0:
206,137,87070,1,8,0:2:0:0:
133,198,87212,6,2,B|62:240|62:240|24:168,1,163.799992501831,6|0,0:2|0:2,0:1:0:0:
24,168,87498,2,2,L|43:81,1,84,10|8,0:3|0:2,0:1:0:0:
232,269,87784,5,8,0:3:0:0:
232,269,87855,1,8,0:3:0:0:
232,269,87927,1,8,0:3:0:0:
232,269,87998,1,8,0:3:0:0:
232,269,88070,2,0,L|222:185,1,84,8|8,0:3|0:2,0:0:0:0:
21,331,88355,5,8,0:3:0:0:
21,331,88427,1,8,0:3:0:0:
21,331,88498,1,12,0:3:0:0:
356,73,97212,5,12,0:2:0:0:
395,338,97498,1,8,0:2:0:0:
436,262,97641,5,6,0:2:0:0:
436,262,97712,1,0,0:2:0:0:
436,262,97784,1,0,0:2:0:0:
360,193,97927,5,10,0:2:0:0:
307,247,98070,1,0,0:2:0:0:
302,125,98212,1,2,0:2:0:0:
356,73,98355,2,0,L|437:45,1,75.5999976928712,2|8,0:2|0:2,0:2:0:0:
246,0,98641,5,0,0:2:0:0:
208,66,98784,2,0,P|215:96|208:150,1,75.5999976928712,2|0,0:2|0:2,0:2:0:0:
211,140,98998,1,0,0:2:0:0:
211,140,99070,1,10,0:2:0:0:
97,180,99212,2,0,L|21:171,1,75.5999976928712,2|0,0:2|0:2,0:2:0:0:
141,277,99498,1,2,0:2:0:0:
216,269,99641,2,0,L|291:260,1,75.5999976928712,8|0,0:2|0:2,0:0:0:0:
388,256,99927,5,2,0:2:0:0:
388,256,99998,1,0,0:2:0:0:
388,256,100070,1,0,0:2:0:0:
291,260,100212,2,0,P|253:249|217:228,1,75.5999976928712,10|0,0:2|0:2,0:0:0:0:
356,133,100498,2,0,P|394:122|430:101,1,75.5999976928712,2|0,0:2|0:2,0:0:0:0:
245,54,100784,2,0,P|207:43|171:22,1,75.5999976928712,10|2,0:2|0:2,0:0:0:0:
184,32,101212,5,8,0:3:0:0:
184,32,101284,1,8,0:3:0:0:
184,32,101355,2,0,P|218:23|270:15,1,75.5999976928712,10|0,0:2|0:2,0:2:0:0:
183,166,101641,2,0,P|202:195|225:242,1,75.5999976928712,2|0,0:2|0:2,0:2:0:0:
55,206,101927,2,0,P|32:233|-4:270,1,75.5999976928712,10|0,0:2|0:2,0:2:0:0:
36,122,102212,1,6,0:2:0:0:
36,122,102284,1,0,0:2:0:0:
36,122,102355,1,0,0:2:0:0:
183,166,102498,6,0,P|220:162|257:152,1,75.5999976928712,10|0,0:2|0:2,0:2:0:0:
154,276,102784,1,2,0:2:0:0:
78,275,102927,2,0,P|40:271|3:261,1,75.5999976928712,2|8,0:2|0:2,0:2:0:0:
183,166,103212,5,0,0:2:0:0:
231,230,103355,2,0,P|235:267|248:305,1,75.5999976928712,2|0,0:2|0:2,0:2:0:0:
247,303,103570,1,0,0:2:0:0:
247,303,103641,1,10,0:2:0:0:
366,371,103784,2,0,P|403:365|449:359,1,75.5999976928712,2|0,0:2|0:2,0:2:0:0:
512,216,104070,1,2,0:2:0:0:
439,235,104212,2,0,P|399:231|364:222,1,75.5999976928712,8|0,0:2|0:2,0:2:0:0:
271,190,104498,5,2,0:2:0:0:
271,190,104570,1,0,0:2:0:0:
271,190,104641,1,0,0:2:0:0:
364,222,104784,2,0,P|397:217|446:195,1,75.5999976928712,10|0,0:2|0:2,0:0:0:0:
271,190,105070,2,0,P|250:163|206:132,1,75.5999976928712,2|0,0:2|0:2,0:0:0:0:
290,287,105355,2,0,P|277:318|272:371,1,75.5999976928712,10|2,0:2|0:2,0:0:0:0:
279,368,105784,5,8,0:3:0:0:
279,368,105855,1,8,0:3:0:0:
279,368,105927,2,0,P|310:369|360:353,1,75.5999976928712,8|0,0:2|0:2,0:2:0:0:
207,264,106212,1,8,0:2:0:0:
207,264,106284,1,8,0:2:0:0:
207,264,106355,1,8,0:2:0:0:
137,369,106498,1,10,0:3:0:0:
100,202,106641,1,10,0:3:0:0:
0,282,106784,5,6,0:1:0:0:
79,279,106998,1,2,0:1:0:0:
108,209,107212,1,2,0:1:0:0:
108,209,107284,1,0,0:3:0:0:
108,209,107355,1,0,0:2:0:0:
131,132,107498,1,0,0:2:0:0:
161,58,107784,1,8,0:2:0:0:
241,51,107927,2,2,L|361:34,1,117.599996411133,2|0,0:2|0:2,0:1:0:0:
465,21,108355,5,0,0:3:0:0:
465,21,108427,1,0,0:3:0:0:
465,21,108498,1,0,0:3:0:0:
416,83,108641,1,0,0:3:0:0:
453,153,108927,1,8,0:2:0:0:
463,231,109070,1,6,0:1:0:0:
447,308,109284,1,2,0:1:0:0:
398,371,109498,1,2,0:1:0:0:
398,371,109570,1,0,0:2:0:0:
398,371,109641,1,0,0:2:0:0:
372,295,109784,1,0,0:2:0:0:
356,217,110070,1,8,0:2:0:0:
339,139,110212,2,2,B|356:82|356:82|314:37,1,117.599996411133,2|0,0:2|0:2,0:1:0:0:
226,15,110641,5,0,0:3:0:0:
226,15,110712,1,0,0:3:0:0:
226,15,110784,1,0,0:3:0:0:
182,80,110927,1,0,0:3:0:0:
221,148,111070,1,2,0:2:0:0:
182,215,111212,1,8,0:2:0:0:
104,80,111355,5,6,0:1:0:0:
182,80,111570,1,2,0:1:0:0:
229,155,111784,1,2,0:1:0:0:
229,155,111855,1,0,0:2:0:0:
229,155,111927,1,0,0:2:0:0:
306,172,112070,1,0,0:2:0:0:
370,125,112355,1,8,0:2:0:0:
414,190,112498,2,2,P|408:228|413:267,1,58.7999982055665,2|0,0:2|0:2,0:1:0:0:
508,127,112784,6,0,P|513:98|512:68,1,58.7999982055665,2|0,0:2|0:2,0:2:0:0:
512,68,112998,1,0,0:2:0:0:
512,68,113070,1,2,0:2:0:0:
420,5,113212,1,0,0:2:0:0:
357,87,113355,2,0,P|332:97|298:94,1,58.7999982055665,2|0,0:2|0:2,0:2:0:0:
159,41,113641,6,0,P|119:18|66:20,1,75.5999976928712,6|0,0:2|0:2,0:2:0:0:
220,230,113927,2,0,P|257:224|288:204,1,75.5999976928712,10|0,0:2|0:2,0:2:0:0:
16,103,114212,5,10,0:3:0:0:
1,182,114355,1,10,0:3:0:0:
69,330,114498,5,8,0:3:0:0:
69,330,114570,1,8,0:3:0:0:
69,330,114641,1,8,0:3:0:0:
69,330,114712,1,8,0:3:0:0:
69,330,114784,1,12,0:3:0:0:
69,330,115355,5,8,0:3:0:0:
90,311,115427,1,8,0:3:0:0:
100,285,115498,1,8,0:3:0:0:
96,257,115570,1,8,0:3:0:0:
80,234,115641,1,8,0:3:0:0:
63,211,115712,1,8,0:3:0:0:
60,183,115784,1,8,0:3:0:0:
70,157,115855,1,8,0:3:0:0:
91,138,115927,2,0,B|157:124|157:124|181:79|181:79|284:57,1,201.599993847656,6|10,0:2|0:2,0:2:0:0:
223,307,116355,2,0,P|265:321|334:351,1,100.799996923828,2|0,0:2|0:2,0:2:0:0:
387,382,116641,1,2,0:2:0:0:
334,210,116784,2,0,P|347:166|356:85,1,100.799996923828,10|0,0:2|0:2,0:2:0:0:
142,0,117070,6,0,P|149:49|163:98,1,100.799996923828,2|8,0:2|0:3,0:0:0:0:
163,98,117284,1,8,0:3:0:0:
163,98,117355,1,10,0:2:0:0:
98,244,117498,2,0,P|62:235|-18:223,1,100.799996923828,2|0,0:2|0:2,0:0:0:0:
114,329,117784,5,2,0:2:0:0:
340,384,117927,1,10,0:2:0:0:
313,309,118070,1,2,0:2:0:0:
389,174,118212,6,0,P|492:180|500:89,2,201.599993847656,2|8|0,0:2|0:2|0:2,0:1:0:0:
345,107,118927,1,0,0:2:0:0:
313,309,119070,1,10,0:2:0:0:
262,239,119212,6,0,P|159:245|151:154,1,201.599993847656,2|10,0:2|0:3,0:2:0:0:
144,166,119570,1,8,0:3:0:0:
144,166,119641,1,8,0:2:0:0:
345,107,119784,2,0,P|448:113|456:22,1,201.599993847656,2|0,0:2|0:2,0:2:0:0:
225,0,120212,5,8,0:3:0:0:
219,24,120284,1,8,0:3:0:0:
215,49,120355,1,8,0:3:0:0:
210,74,120427,1,8,0:3:0:0:
206,98,120498,2,0,B|111:135|111:135|35:63,1,201.599993847656,6|10,0:2|0:2,0:2:0:0:
204,229,120927,1,2,0:2:0:0:
100,309,121070,2,0,L|-3:314,1,100.799996923828,2|0,0:2|0:2,0:0:0:0:
252,370,121355,2,0,L|355:365,1,100.799996923828,10|0,0:2|0:2,0:2:0:0:
263,153,121641,6,0,P|266:104|251:54,1,100.799996923828,2|8,0:2|0:3,0:0:0:0:
251,54,121855,1,8,0:3:0:0:
251,54,121927,1,10,0:2:0:0:
370,178,122070,2,0,P|414:283|499:243,1,201.599993847656,2|0,0:2|0:2,0:2:0:0:
411,90,122498,5,10,0:2:0:0:
411,90,122641,1,2,0:2:0:0:
370,178,122784,5,2,0:3:0:0:
342,21,122927,1,0,0:2:0:0:
411,90,123070,5,10,0:1:0:0:
172,35,123212,1,0,0:2:0:0:
130,120,123355,5,2,0:1:0:0:
342,21,123498,1,0,0:2:0:0:
273,255,123641,5,10,0:1:0:0:
273,255,123784,2,0,B|308:158|217:164|259:62,1,201.599993847656,2|8,0:2|0:3,0:2:0:0:
277,55,124141,1,8,0:3:0:0:
296,50,124212,2,0,B|420:38,1,100.799996923828,10|8,0:2|0:3,0:2:0:0:
273,255,124498,5,8,2:3:0:0:
280,272,124570,1,8,2:3:0:0:
283,290,124641,1,8,2:3:0:0:
279,309,124712,1,8,2:3:0:0:
270,325,124784,1,4,2:3:0:0:
256,338,124855,1,4,2:3:0:0:
239,346,124927,1,4,2:3:0:0:
221,349,124998,1,4,2:3:0:0:
202,345,125070,2,0,B|115:299|99:381|7:330,1,201.599993847656,6|10,0:2|0:2,0:2:0:0:
162,224,125498,1,2,0:2:0:0:
78,121,125641,2,0,P|50:67|45:-4,1,100.799996923828,2|2,0:2|0:2,0:0:0:0:
317,45,125927,2,0,L|286:141,1,100.799996923828,10|0,0:2|0:2,0:2:0:0:
411,275,126212,6,0,P|460:274|509:254,1,100.799996923828,2|8,0:2|0:3,0:0:0:0:
507,255,126427,1,8,0:3:0:0:
507,255,126498,1,8,0:2:0:0:
413,65,126641,2,0,P|366:45|316:45,1,100.799996923828,2|2,0:2|0:2,0:0:0:0:
224,72,126927,5,2,0:2:0:0:
272,296,127070,1,10,0:2:0:0:
240,384,127212,1,0,0:2:0:0:
195,245,127355,6,0,P|182:196|168:147,1,100.799996923828,2|0,0:2|0:0,0:2:0:0:
389,305,127641,2,0,P|401:256|415:207,1,100.799996923828,10|0,0:2|0:0,0:0:0:0:
125,384,127927,2,0,P|112:335|98:286,1,100.799996923828,2|0,0:2|0:2,0:0:0:0:
0,65,128212,5,10,0:2:0:0:
99,121,128355,2,0,B|223:100|139:40|269:31,1,201.599993847656,2|10,0:2|0:3,0:2:0:0:
268,31,128712,1,8,0:3:0:0:
268,31,128784,1,8,0:2:0:0:
434,218,128927,2,0,B|310:197|396:133|264:128,1,201.599993847656,2|0,0:2|0:2,0:2:0:0:
73,300,129355,5,8,0:3:0:0:
73,300,129427,1,8,0:3:0:0:
73,300,129498,1,8,0:3:0:0:
73,300,129570,1,8,0:3:0:0:
73,300,129641,2,0,B|143:283|143:283|168:250|168:250|259:230,1,201.599993847656,6|10,0:2|0:2,0:0:0:0:
35,183,130070,1,2,0:2:0:0:
155,109,130212,2,0,L|162:4,1,100.799996923828,0|0,0:2|0:2,0:0:0:0:
254,231,130498,2,0,L|296:322,1,100.799996923828,10|0,0:2|0:2,0:2:0:0:
375,113,130784,6,0,L|460:46,1,100.799996923828,2|8,0:2|0:3,0:0:0:0:
454,50,130998,1,8,0:3:0:0:
454,50,131070,1,10,0:2:0:0:
267,124,131212,2,0,L|42:92,1,201.599993847656,2|0,0:2|0:2,0:2:0:0:
0,179,131641,5,10,0:2:0:0:
0,179,131784,1,2,0:2:0:0:
67,95,131927,5,2,0:1:0:0:
79,251,132070,1,2,0:2:0:0:
181,265,132212,5,10,0:1:0:0:
164,62,132355,1,2,0:2:0:0:
265,34,132498,5,2,0:1:0:0:
283,275,132641,1,2,0:2:0:0:
443,91,132784,5,10,0:1:0:0:
415,165,132927,2,0,B|310:139|338:222|211:175,1,201.599993847656,2|8,0:1|0:3,0:2:0:0:
202,170,133284,1,8,0:3:0:0:
183,160,133355,2,0,L|158:33,1,100.799996923828,12|8,0:2|0:3,0:2:0:0:
333,0,133641,5,8,1:3:0:0:
341,15,133712,1,8,1:3:0:0:
350,29,133784,1,8,1:3:0:0:
362,41,133855,1,8,1:3:0:0:
378,49,133927,1,8,1:3:0:0:
393,55,133998,1,8,1:3:0:0:
410,56,134070,1,8,1:3:0:0:
428,55,134141,1,8,1:3:0:0:
444,49,134212,6,0,P|475:35|521:36,1,67.2,6|0,0:2|0:2,0:0:0:0:
390,179,134498,2,0,P|356:177|326:163,1,67.2,8|2,0:2|0:2,0:0:0:0:
508,33,134927,5,2,0:2:0:0:
468,95,135070,1,8,0:2:0:0:
479,167,135212,1,2,0:2:0:0:
422,349,135498,5,8,0:3:0:0:
422,349,135570,1,8,0:3:0:0:
422,349,135641,2,0,L|497:343,1,67.2,10|0,0:2|0:2,0:2:0:0:
313,237,135927,2,0,L|388:231,1,67.2,2|0,0:2|0:2,0:2:0:0:
261,371,136212,2,0,L|336:365,1,67.2,10|0,0:2|0:2,0:2:0:0:
197,281,136498,6,0,P|202:247|193:215,1,67.2,2|0,0:2|0:2,0:0:0:0:
86,302,136784,2,0,P|81:335|90:367,1,67.2,8|2,0:2|0:2,0:0:0:0:
193,215,137212,5,2,0:2:0:0:
134,170,137355,1,8,0:2:0:0:
130,96,137498,1,2,0:2:0:0:
269,19,137784,5,8,0:3:0:0:
269,19,137855,1,8,0:3:0:0:
269,19,137927,2,0,L|343:11,1,67.2,10|0,0:2|0:2,0:2:0:0:
331,143,138212,2,0,L|377:85,1,67.2,2|0,0:2|0:2,0:2:0:0:
462,186,138498,2,0,L|454:112,1,67.2,10|0,0:2|0:2,0:2:0:0:
354,239,138784,6,0,P|376:257|417:268,1,67.2,6|0,0:2|0:2,0:0:0:0:
331,143,139070,2,0,P|304:122|272:114,1,67.2,8|2,0:2|0:2,0:0:0:0:
412,267,139498,5,2,0:2:0:0:
438,197,139641,1,8,0:2:0:0:
489,143,139784,1,2,0:2:0:0:
280,121,140070,5,8,0:3:0:0:
280,121,140141,1,8,0:3:0:0:
280,121,140212,2,0,L|265:51,1,67.2,10|0,0:2|0:2,0:2:0:0:
177,220,140498,2,0,L|162:150,1,67.2,2|0,0:2|0:2,0:2:0:0:
309,296,140784,2,0,L|294:226,1,67.2,10|0,0:2|0:2,0:2:0:0:
377,125,141070,6,0,P|410:128|442:120,1,67.2,2|0,0:2|0:2,0:0:0:0:
265,55,141355,2,0,P|231:51|199:59,1,67.2,8|2,0:2|0:2,0:0:0:0:
442,120,141784,5,2,0:2:0:0:
404,183,141927,1,8,0:2:0:0:
442,246,142070,1,2,0:2:0:0:
336,354,142355,5,8,0:3:0:0:
336,354,142427,1,8,0:3:0:0:
336,354,142498,2,0,L|255:341,1,67.2,10|0,0:2|0:2,0:2:0:0:
175,273,142784,5,8,0:3:0:0:
175,273,142855,1,8,0:3:0:0:
175,273,142927,1,8,0:3:0:0:
175,273,142998,1,8,0:3:0:0:
175,273,143070,1,4,0:3:0:0:
175,273,143141,1,4,0:3:0:0:
175,273,143212,1,4,0:3:0:0:
175,273,143284,1,4,0:3:0:0:
175,273,143355,2,0,P|185:241|178:185,1,84,6|0,0:2|0:2,0:2:0:0:
105,114,143641,5,10,0:2:0:0:
105,114,143712,1,0,0:3:0:0:
105,114,143784,1,0,0:3:0:0:
105,114,143855,1,0,0:3:0:0:
105,114,143927,2,0,P|51:125|5:94,1,84,2|2,0:2|0:2,0:2:0:0:
218,7,144355,5,10,0:2:0:0:
281,73,144498,1,2,0:2:0:0:
366,34,144641,1,2,0:2:0:0:
366,34,144927,5,10,0:2:0:0:
350,125,145070,1,2,0:2:0:0:
406,197,145212,1,2,0:2:0:0:
501,208,145355,1,10,0:2:0:0:
501,208,145498,1,10,0:2:0:0:
453,125,145641,5,2,0:2:0:0:
453,125,145712,1,0,0:2:0:0:
453,125,145784,1,0,0:2:0:0:
453,125,145855,1,0,0:2:0:0:
453,125,145927,1,8,0:2:0:0:
453,125,145998,1,0,0:2:0:0:
453,125,146070,1,0,0:2:0:0:
453,125,146141,1,0,0:2:0:0:
453,125,146212,2,0,B|419:119|419:119|407:123|407:123|369:114,1,84,2|2,0:2|0:2,0:2:0:0:
233,219,146641,5,14,0:2:0:0:
211,125,146784,1,2,0:2:0:0:
135,74,146927,1,2,0:2:0:0:
135,74,147212,5,14,0:2:0:0:
47,103,147355,1,2,0:2:0:0:
16,190,147498,1,2,0:2:0:0:
36,280,147641,1,8,0:2:0:0:
38,290,147712,1,8,0:2:0:0:
41,300,147784,1,8,0:2:0:0:
44,310,147855,1,8,0:2:0:0:
46,320,147927,6,0,L|61:377,7,42,6|0|0|0|8|0|0|0,0:2|0:2|0:2|0:2|0:2|0:2|0:2|0:2,0:0:0:0:
74,360,148498,2,0,L|176:345,1,84,2|2,0:2|0:2,0:2:0:0:
393,384,148927,5,10,0:2:0:0:
352,299,149070,1,2,0:2:0:0:
378,211,149212,1,2,0:2:0:0:
378,211,149498,5,10,0:2:0:0:
469,195,149641,1,2,0:2:0:0:
508,111,149784,1,2,0:2:0:0:
466,28,149927,1,10,0:2:0:0:
466,28,150070,1,10,0:2:0:0:
381,73,150212,5,2,0:2:0:0:
381,73,150284,1,0,0:2:0:0:
381,73,150355,1,0,0:2:0:0:
381,73,150427,1,0,0:2:0:0:
381,73,150498,1,8,0:2:0:0:
381,73,150570,1,0,0:2:0:0:
381,73,150641,1,0,0:2:0:0:
381,73,150712,1,0,0:2:0:0:
381,73,150784,2,0,B|347:66|347:66|335:70|335:70|298:64,1,85,2|2,0:2|0:2,0:2:0:0:
138,8,151212,5,14,0:2:0:0:
159,97,151355,1,2,0:2:0:0:
123,183,151498,1,2,0:2:0:0:
123,183,151784,5,14,0:2:0:0:
118,275,151927,1,2,0:2:0:0:
173,348,152070,1,2,0:2:0:0:
263,360,152212,1,8,0:2:0:0:
266,351,152284,1,8,0:2:0:0:
269,342,152355,1,8,0:2:0:0:
272,333,152427,1,8,0:2:0:0:
275,324,152498,6,0,B|268:292|268:292|274:270|274:270|262:221,1,100.799996923828,6|2,0:1|0:2,0:0:0:0:
131,156,152784,1,10,0:1:0:0:
131,156,152855,1,2,0:2:0:0:
131,156,152927,1,2,0:2:0:0:
131,156,152998,1,2,0:2:0:0:
131,156,153070,2,2,B|99:149|99:149|77:155|77:155|28:143,1,100.799996923828,2|0,0:2|0:2,0:1:0:0:
195,12,153355,1,10,0:2:0:0:
274,27,153498,2,2,B|254:74|254:74|276:120,1,100.799996923828,2|0,0:2|0:2,0:1:0:0:
338,238,153784,5,10,0:3:0:0:
338,238,153855,1,8,0:3:0:0:
338,238,153927,1,8,0:1:0:0:
458,162,154070,1,2,0:2:0:0:
512,292,154212,2,2,B|471:288|471:288|456:298|456:298|390:290,1,100.799996923828,2|8,0:1|0:3,0:1:0:0:
414,292,154427,1,8,0:3:0:0:
414,292,154498,1,10,0:1:0:0:
399,374,154641,1,2,0:2:0:0:
338,238,154784,5,2,0:1:0:0:
291,177,154927,1,2,0:2:0:0:
291,177,154998,1,2,0:2:0:0:
291,177,155070,2,2,B|203:227|203:227|148:135,1,201.599993847656,10|0,0:2|0:2,0:1:0:0:
109,72,155498,5,2,0:2:0:0:
16,256,155641,1,10,0:1:0:0:
72,324,155784,1,2,0:2:0:0:
72,324,155855,1,2,0:2:0:0:
72,324,155927,2,2,B|105:317|105:317|121:328|121:328|188:321,1,100.799996923828,2|8,0:2|0:3,0:1:0:0:
168,323,156141,1,8,0:3:0:0:
168,323,156212,1,10,0:1:0:0:
235,384,156355,1,2,0:2:0:0:
281,311,156498,5,2,0:1:0:0:
193,156,156641,1,2,0:2:0:0:
254,106,156784,2,0,L|261:53,3,50.3999984619141,8|8|8|8,1:2|1:2|1:2|1:2,0:0:0:0:
268,23,157070,5,6,0:1:0:0:
271,32,157141,1,0,0:2:0:0:
277,41,157212,1,0,0:2:0:0:
283,49,157284,1,0,0:2:0:0:
291,55,157355,1,10,0:2:0:0:
299,61,157427,1,0,0:2:0:0:
309,65,157498,1,0,0:2:0:0:
319,67,157570,1,0,0:2:0:0:
329,68,157641,1,2,0:2:0:0:
339,68,157712,1,0,0:2:0:0:
349,65,157784,1,0,0:2:0:0:
359,62,157855,1,0,0:2:0:0:
367,57,157927,1,10,0:2:0:0:
375,50,157998,1,0,0:2:0:0:
382,42,158070,1,0,0:2:0:0:
387,34,158141,1,0,0:2:0:0:
392,24,158212,6,0,B|353:20|353:20|333:30|333:30|285:25,1,109.199995001221,2|8,0:1|0:3,0:2:0:0:
264,30,158427,1,8,0:3:0:0:
243,36,158498,2,0,B|204:32|204:32|184:42|184:42|136:37,1,109.199995001221,10|10,0:1|0:3,0:2:0:0:
199,224,158784,2,0,P|180:261|204:333,1,109.199995001221,2|10,0:1|0:2,0:2:0:0:
378,384,159070,5,10,0:2:0:0:
383,355,159165,1,2,0:2:0:0:
389,326,159260,1,2,0:2:0:0:
396,297,159355,2,0,P|412:246|392:196,1,109.199995001221,2|0,0:1|0:2,0:2:0:0:
254,138,159641,5,10,0:1:0:0:
251,151,159712,1,0,0:2:0:0:
248,164,159784,1,0,0:2:0:0:
242,177,159855,1,0,0:2:0:0:
234,187,159927,1,2,0:1:0:0:
224,197,159998,1,0,0:2:0:0:
213,205,160070,1,0,0:2:0:0:
200,211,160141,1,0,0:2:0:0:
188,215,160212,1,10,0:1:0:0:
175,216,160284,1,0,0:2:0:0:
160,215,160355,1,0,0:2:0:0:
147,212,160427,1,0,0:2:0:0:
134,207,160498,2,0,L|122:149,3,54.5999975006105,2|0|0|0,0:1|0:2|0:2|0:2,0:0:0:0:
47,149,160784,2,0,L|58:95,3,54.5999975006105,10|0|0|0,0:1|0:2|0:2|0:2,0:0:0:0:
120,42,161070,5,10,0:1:0:0:
150,64,161141,1,8,0:2:0:0:
186,70,161212,1,8,0:2:0:0:
222,58,161284,1,8,0:2:0:0:
252,36,161355,2,0,P|309:19|349:26,1,84,10|10,0:3|0:3,0:2:0:0:
423,86,161641,6,0,B|437:115|437:115|436:146|436:146|459:185,2,100.8,14|8|8,0:3|0:3|0:3,0:2:0:0:
332,21,162212,6,0,P|331:47|314:93,1,67.2,10|0,0:3|0:2,0:2:0:0:
320,109,162427,2,0,P|300:126|256:147,1,67.2,8|0,0:3|0:2,0:2:0:0:
262,168,162641,1,8,0:3:0:0:
179,120,162784,6,0,P|175:92|151:52,1,67.2,10|0,0:2|0:2,0:2:0:0:
133,60,162998,2,0,P|110:43|65:31,1,67.2,8|0,0:3|0:2,0:2:0:0:
52,43,163212,1,8,0:3:0:0:
8,126,163355,6,0,L|7:181,2,33.6,10|8|8,0:3|0:3|0:3,0:2:0:0:
41,109,163570,2,0,L|52:43,1,67.2,2|0,0:2|0:2,0:2:0:0:
73,31,163784,2,0,L|88:97,1,67.2,2|2,0:2|0:2,0:0:0:0:
256,192,170784,12,0,172498,0:2:0:0:
143,93,172784,5,2,0:2:0:0:
143,93,172927,1,2,0:2:0:0:
256,192,172998,12,0,174212,0:2:0:0:
256,370,174498,6,0,B|217:257|293:257|256:144,1,231.000007049561,2|2,0:2|0:2,0:2:0:0:
108,37,175355,6,0,L|-21:26,1,109.199995001221,6|0,0:2|0:2,0:2:0:0:
190,186,175641,1,10,0:2:0:0:
256,144,175784,2,0,L|267:15,1,109.199995001221,2|0,0:2|0:2,0:0:0:0:
362,208,176070,1,2,0:2:0:0:
404,274,176212,2,0,L|533:285,1,109.199995001221,10|0,0:2|0:2,0:2:0:0:
315,384,176498,5,2,0:2:0:0:
295,313,176641,1,8,0:3:0:0:
295,313,176712,1,8,0:3:0:0:
295,313,176784,1,10,0:2:0:0:
167,354,176927,2,0,L|52:344,1,109.199995001221,2|0,0:2|0:2,0:0:0:0:
0,283,177212,5,2,0:2:0:0:
126,179,177355,1,10,0:2:0:0:
51,153,177498,1,2,0:2:0:0:
214,18,177641,6,0,P|161:108|208:202,2,218.399990002442,2|8|0,0:2|0:2|0:2,0:2:0:0:
263,82,178355,1,0,0:2:0:0:
416,8,178498,1,10,0:2:0:0:
469,73,178641,6,0,P|521:163|474:257,1,218.399990002442,2|8,0:2|0:3,0:2:0:0:
474,257,178998,1,8,0:3:0:0:
474,257,179070,1,8,0:2:0:0:
332,384,179212,2,0,B|312:309|312:309|327:266|327:266|304:173,1,218.399990002442,2|0,0:2|0:2,0:2:0:0:
192,0,179641,5,8,0:3:0:0:
185,26,179712,1,8,0:3:0:0:
179,53,179784,1,8,0:3:0:0:
173,79,179855,1,8,0:3:0:0:
167,106,179927,2,0,P|77:140|33:46,1,218.399990002442,6|10,0:2|0:2,0:2:0:0:
242,225,180355,1,2,0:2:0:0:
304,173,180498,2,0,P|313:124|287:39,1,109.199995001221,2|0,0:2|0:2,0:0:0:0:
165,252,180784,2,0,P|156:301|182:386,1,109.199995001221,10|0,0:2|0:2,0:2:0:0:
397,299,181070,6,0,L|530:282,1,109.199995001221,2|8,0:2|0:3,0:0:0:0:
505,285,181284,1,8,0:3:0:0:
505,285,181355,1,10,0:2:0:0:
390,111,181498,2,0,B|261:67|300:176|180:134,1,218.399990002442,2|0,0:2|0:2,0:2:0:0:
76,58,181927,5,10,0:2:0:0:
76,58,182070,1,0,0:2:0:0:
74,188,182212,5,2,0:2:0:0:
203,20,182355,1,0,0:2:0:0:
322,71,182498,5,10,0:1:0:0:
169,287,182641,1,0,0:2:0:0:
184,135,182784,5,2,0:1:0:0:
379,264,182927,1,0,0:2:0:0:
256,384,183070,5,10,0:1:0:0:
256,384,183212,2,0,B|276:309|276:309|259:268|259:268|283:172,1,218.399990002442,2|8,0:2|0:3,0:2:0:0:
294,150,183570,1,8,0:3:0:0:
315,133,183641,2,0,B|355:125|355:125|378:133|378:133|439:121,1,109.199995001221,10|8,0:2|0:2,0:0:0:0:
220,0,183927,5,8,0:3:0:0:
227,17,183998,1,8,0:3:0:0:
230,36,184070,1,8,0:3:0:0:
226,57,184141,1,8,0:3:0:0:
216,73,184212,1,4,0:3:0:0:
202,87,184284,1,4,0:3:0:0:
184,96,184355,1,4,0:3:0:0:
165,99,184427,1,4,0:3:0:0:
144,95,184498,2,0,B|25:66|90:205|2:243,1,218.399990002442,6|10,0:2|0:2,0:2:0:0:
200,384,184927,5,2,0:2:0:0:
127,241,185070,1,2,0:2:0:0:
112,339,185212,1,0,0:2:0:0:
224,224,185355,1,10,0:2:0:0:
270,310,185498,1,0,0:2:0:0:
278,143,185641,6,0,P|291:101|269:32,1,109.199995001221,2|8,0:2|0:3,0:0:0:0:
274,39,185855,1,8,0:3:0:0:
274,39,185927,1,10,0:2:0:0:
121,125,186070,2,0,L|9:114,1,109.199995001221,2|2,0:2|0:2,0:0:0:0:
21,32,186355,5,2,0:2:0:0:
114,208,186498,1,10,0:2:0:0:
182,177,186641,1,0,0:2:0:0:
279,252,186784,6,0,P|262:297|288:374,1,109.199995001221,2|0,0:2|0:2,0:2:0:0:
392,195,187070,2,0,L|506:183,1,109.199995001221,10|0,0:2|0:2,0:2:0:0:
301,28,187355,2,0,L|187:16,1,109.199995001221,2|0,0:2|0:2,0:2:0:0:
0,174,187641,5,10,0:2:0:0:
67,215,187784,2,0,B|205:211|104:126|262:122,1,218.399990002442,2|8,0:2|0:3,0:2:0:0:
250,122,188141,1,8,0:3:0:0:
250,122,188212,1,8,0:2:0:0:
397,367,188355,2,0,B|259:363|359:278|201:274,1,218.399990002442,2|0,0:2|0:2,0:2:0:0:
398,143,188784,5,8,0:3:0:0:
398,143,188855,1,8,0:3:0:0:
398,143,188927,1,8,0:3:0:0:
398,143,188998,1,8,0:3:0:0:
398,143,189070,2,0,P|390:201|424:264,1,109.199995001221,6|2,0:2|0:2,0:0:0:0:
315,12,189355,1,10,0:2:0:0:
248,53,189498,2,0,L|127:34,1,109.199995001221,2|0,0:2|0:2,0:2:0:0:
342,200,189784,1,2,0:2:0:0:
398,143,189927,2,0,L|519:124,1,109.199995001221,10|0,0:2|0:2,0:2:0:0:
320,364,190212,5,2,0:2:0:0:
303,286,190355,1,8,0:3:0:0:
303,286,190427,1,8,0:3:0:0:
303,286,190498,1,10,0:2:0:0:
213,360,190641,2,0,B|137:342|137:342|86:375|86:375|3:361,1,218.399990002442,2|0,0:2|0:2,0:2:0:0:
123,208,191070,5,10,0:2:0:0:
123,208,191212,1,2,0:2:0:0:
34,221,191355,5,2,0:1:0:0:
154,124,191498,1,2,0:2:0:0:
178,275,191641,1,10,0:2:0:0:
48,117,191784,5,2,0:1:0:0:
80,314,191927,1,2,0:2:0:0:
235,188,192070,1,2,0:2:0:0:
123,208,192212,5,10,0:1:0:0:
277,269,192355,2,0,B|405:244|344:350|485:323,1,218.399990002442,2|8,0:1|0:3,0:2:0:0:
492,310,192712,1,8,0:3:0:0:
503,291,192784,2,0,L|506:162,1,109.199995001221,12|0,0:2|0:2,0:2:0:0:
431,35,193070,5,8,0:3:0:0:
421,49,193141,1,8,0:3:0:0:
411,62,193212,1,8,0:3:0:0:
397,72,193284,1,8,0:3:0:0:
381,79,193355,1,8,0:3:0:0:
365,83,193427,1,8,0:3:0:0:
348,82,193498,1,8,0:3:0:0:
330,79,193570,1,8,0:3:0:0:
315,72,193641,6,0,P|283:60|234:58,1,67.2,6|0,0:2|0:2,0:0:0:0:
369,203,193927,2,0,P|402:198|433:186,1,67.2,8|2,0:2|0:2,0:0:0:0:
251,57,194355,5,2,0:2:0:0:
188,96,194498,1,8,0:2:0:0:
131,48,194641,1,2,0:2:0:0:
12,173,194927,5,8,0:3:0:0:
12,173,194998,1,8,0:3:0:0:
12,173,195070,2,0,L|18:248,1,67.2,10|0,0:2|0:2,0:2:0:0:
104,361,195355,2,0,L|109:294,1,67.2,2|0,0:2|0:2,0:2:0:0:
205,201,195641,2,0,L|210:267,1,67.2,10|0,0:2|0:2,0:2:0:0:
330,361,195927,6,0,P|362:370|395:366,1,67.2,2|0,0:2|0:2,0:0:0:0:
275,273,196212,2,0,P|246:264|202:271,1,67.2,8|2,0:2|0:2,0:0:0:0:
395,366,196641,5,2,0:2:0:0:
384,293,196784,1,8,0:2:0:0:
429,234,196927,1,2,0:2:0:0:
255,171,197212,5,8,0:3:0:0:
255,171,197284,1,8,0:3:0:0:
255,171,197355,2,0,L|329:163,1,67.2,10|0,0:2|0:2,0:2:0:0:
179,80,197641,2,0,L|253:72,1,67.2,2|0,0:2|0:2,0:2:0:0:
166,253,197927,2,0,L|240:245,1,67.2,10|0,0:2|0:2,0:2:0:0:
83,184,198212,6,0,P|85:150|73:119,1,67.2,6|0,0:2|0:2,0:0:0:0:
26,272,198498,2,0,P|23:305|35:336,1,67.2,8|2,0:2|0:2,0:0:0:0:
73,119,198927,5,2,0:2:0:0:
15,72,199070,1,8,0:2:0:0:
42,3,199212,1,2,0:2:0:0:
223,55,199498,5,8,0:3:0:0:
223,55,199570,1,8,0:3:0:0:
223,55,199641,2,0,L|293:40,1,67.2,10|0,0:2|0:2,0:2:0:0:
155,138,199927,2,0,L|85:153,1,67.2,2|0,0:2|0:2,0:2:0:0:
264,195,200212,2,0,L|329:180,1,67.2,10|0,0:2|0:2,0:2:0:0:
410,93,200498,6,0,P|401:61|408:19,1,67.2,2|0,0:2|0:2,0:0:0:0:
489,178,200784,2,0,P|498:210|491:252,1,67.2,8|2,0:2|0:2,0:0:0:0:
404,27,201212,5,2,0:2:0:0:
454,81,201355,1,8,0:2:0:0:
477,11,201498,1,2,0:2:0:0:
298,75,201784,5,8,0:3:0:0:
298,75,201855,1,8,0:3:0:0:
298,75,201927,2,0,L|216:63,1,67.2,10|0,0:2|0:2,0:2:0:0:
124,182,202212,5,8,0:3:0:0:
124,182,202284,1,8,0:3:0:0:
124,182,202355,1,8,0:3:0:0:
124,182,202427,1,8,0:3:0:0:
124,182,202498,1,4,0:3:0:0:
124,182,202570,1,4,0:3:0:0:
124,182,202641,1,4,0:3:0:0:
124,182,202712,1,4,0:3:0:0:
124,182,202784,2,0,P|139:153|118:96,1,84,6|0,0:2|0:2,0:2:0:0:
70,33,203212,5,8,0:3:0:0:
70,33,203284,1,8,0:3:0:0:
70,33,203355,1,8,0:2:0:0:
2,204,203498,1,8,0:2:0:0:
27,121,203784,5,8,0:2:0:0:
67,313,203927,1,6,0:1:0:0:
67,313,203998,1,0,0:2:0:0:
67,313,204070,1,0,0:2:0:0:
138,384,204212,5,10,0:2:0:0:
156,277,204355,1,0,0:2:0:0:
168,195,204498,5,2,0:2:0:0:
236,314,204641,1,0,0:2:0:0:
274,382,204784,5,10,0:2:0:0:
293,257,204927,1,0,0:2:0:0:
313,179,205070,6,0,P|355:183|394:169,1,84,2|8,0:1|0:3,0:2:0:0:
394,169,205284,1,8,0:3:0:0:
394,169,205355,1,10,0:2:0:0:
276,89,205498,2,0,P|257:51|226:24,1,84,2|0,0:2|0:2,0:2:0:0:
217,167,205784,2,0,P|192:201|185:242,1,84,2|8,0:2|0:2,0:2:0:0:
195,319,206070,5,2,0:2:0:0:
319,360,206212,1,2,0:1:0:0:
319,360,206284,1,0,0:2:0:0:
319,360,206355,2,0,L|417:344,1,84,0|8,0:2|3:2,0:0:0:0:
471,384,206641,1,0,0:2:0:0:
448,226,206784,5,2,0:2:0:0:
382,271,206927,1,2,0:2:0:0:
376,191,207070,1,10,0:2:0:0:
243,151,207212,6,2,B|279:90|279:90|249:12,1,151.199995385742,6|0,0:2|0:2,0:1:0:0:
250,14,207498,2,2,B|216:14|216:14|207:23|207:23|145:29,1,84,10|8,0:3|0:2,0:1:0:0:
79,17,207784,5,8,0:3:0:0:
79,17,207855,1,8,0:3:0:0:
79,17,207927,1,14,0:1:0:0:
113,171,208070,1,8,0:3:0:0:
148,268,208212,1,8,0:3:0:0:
148,268,208284,1,8,0:3:0:0:
148,268,208355,1,8,0:3:0:0:
148,268,208427,1,8,0:3:0:0:
148,268,208498,2,0,B|178:260|178:260|193:263|193:263|239:256,1,84,6|0,0:1|0:2,0:2:0:0:
405,212,208784,5,10,0:2:0:0:
328,190,208927,1,0,0:2:0:0:
281,353,209070,1,2,0:2:0:0:
360,381,209212,1,0,0:2:0:0:
345,283,209355,1,8,0:2:0:0:
474,269,209498,6,0,B|506:229|506:229|474:104,1,168,2|8,0:2|0:3,0:2:0:0:
470,95,209855,1,8,0:3:0:0:
463,75,209927,2,0,P|440:45|366:26,1,84,10|0,0:2|0:2,0:0:0:0:
311,179,210212,2,0,P|288:209|214:228,1,84,2|0,0:2|0:2,0:0:0:0:
156,76,210498,2,0,P|133:46|59:27,1,84,10|0,0:2|0:2,0:0:0:0:
8,53,210784,5,2,0:1:0:0:
8,53,210855,1,0,0:2:0:0:
8,53,210927,1,0,0:2:0:0:
156,76,211070,1,8,0:2:0:0:
96,140,211212,5,2,0:2:0:0:
232,263,211355,1,0,0:2:0:0:
238,180,211498,5,2,0:2:0:0:
77,290,211641,1,8,0:2:0:0:
166,354,211784,6,2,B|228:343|228:343|249:357|249:357|340:346,1,163.799992501831,6|0,0:2|0:2,0:1:0:0:
324,347,212070,2,2,L|328:256,1,84,10|8,0:3|0:2,0:1:0:0:
334,138,212355,5,8,0:3:0:0:
334,138,212427,1,8,0:3:0:0:
334,138,212498,1,14,0:1:0:0:
410,160,212641,1,0,0:3:0:0:
295,29,212784,1,8,0:3:0:0:
289,62,212855,1,8,0:3:0:0:
265,86,212927,1,8,0:3:0:0:
232,93,212998,1,8,0:3:0:0:
200,80,213070,6,0,P|179:64|1:49,1,210,6|10,0:1|0:2,0:2:0:0:
159,166,213498,1,0,0:2:0:0:
7,258,213641,1,2,0:2:0:0:
39,168,213784,1,0,0:2:0:0:
179,254,213927,1,10,0:2:0:0:
309,191,214070,6,0,B|260:154|260:154|321:-4,1,210,2|8,0:2|0:3,0:2:0:0:
313,15,214427,1,8,0:3:0:0:
313,15,214498,1,8,0:2:0:0:
203,80,214641,1,0,0:2:0:0:
128,87,214784,2,0,L|10:64,1,105,2|0,0:2|0:2,0:0:0:0:
159,176,215070,1,10,0:2:0:0:
84,286,215212,1,2,0:2:0:0:
21,241,215355,5,2,0:1:0:0:
21,241,215427,1,0,0:2:0:0:
21,241,215498,1,0,0:2:0:0:
13,314,215641,1,8,0:2:0:0:
84,286,215784,1,0,0:2:0:0:
199,376,215927,5,2,0:1:0:0:
250,260,216070,1,2,0:2:0:0:
207,142,216212,1,10,0:2:0:0:
239,52,216355,6,2,B|279:95|279:95|404:50,1,189.000007209778,6|0,0:1|0:2,0:1:0:0:
471,94,216641,2,2,P|501:60|467:9,1,113.400000432587,10|8,0:3|0:2,0:1:0:0:
339,126,216927,5,8,0:3:0:0:
339,126,216998,1,8,0:3:0:0:
339,126,217070,1,14,0:1:0:0:
354,202,217212,1,8,0:3:0:0:
368,277,217355,1,10,0:2:0:0:
265,347,217498,5,8,0:3:0:0:
265,347,217570,1,8,0:3:0:0:
265,347,217641,2,0,L|150:332,1,105,6|0,0:1|0:2,0:0:0:0:
368,277,217927,2,0,L|483:262,1,105,8|2,0:2|0:2,0:0:0:0:
256,172,218212,1,2,0:2:0:0:
214,104,218355,1,0,0:2:0:0:
240,29,218498,1,10,0:2:0:0:
115,65,218641,6,0,P|219:60|324:47,1,210,2|8,0:2|0:3,0:2:0:0:
324,46,218998,1,8,0:3:0:0:
324,46,219070,1,8,0:2:0:0:
337,130,219212,1,0,0:2:0:0:
341,206,219355,1,2,0:2:0:0:
345,283,219498,1,0,0:2:0:0:
352,361,219641,1,10,0:2:0:0:
352,361,219784,1,0,0:2:0:0:
270,250,219927,1,2,0:1:0:0:
270,250,219998,1,0,0:0:0:0:
270,250,220070,1,0,0:0:0:0:
210,148,220212,5,10,0:2:0:0:
115,238,220355,1,2,0:1:0:0:
0,176,220498,1,2,0:2:0:0:
153,30,220641,1,2,0:1:0:0:
23,47,220784,1,10,0:2:0:0:
210,148,220927,6,2,B|302:179|302:179|389:116,1,189.000007209778,6|0,0:1|0:2,0:1:0:0:
443,163,221212,2,2,B|467:117|467:117|413:48,1,113.400000432587,10|8,0:3|0:2,0:1:0:0:
265,42,221498,5,8,0:3:0:0:
265,42,221570,1,8,0:3:0:0:
265,42,221641,1,8,0:3:0:0:
265,42,221712,1,8,0:3:0:0:
265,42,221784,2,0,B|223:34|223:34|199:42|199:42|140:28,1,113.400000432587,8|10,0:3|0:2,0:0:0:0:
0,139,222070,5,8,0:3:0:0:
0,139,222141,1,8,0:3:0:0:
0,139,222212,2,0,B|-32:251|-6:342|110:480|312:429|343:228|332:52|156:32|156:32|105:147|155:270|213:283|517:461|718:158|573:-105|361:-92|323:97|436:113,1,1698.816041475,6|0,0:2|0:2,0:2:0:0:
