osu file format v14

[General]
AudioFilename: audio.mp3
AudioLeadIn: 0
PreviewTime: 49897
Countdown: 0
SampleSet: Soft
StackLeniency: 0.7
Mode: 0
LetterboxInBreaks: 0
WidescreenStoryboard: 1

[Editor]
DistanceSpacing: 1
BeatDivisor: 4
GridSize: 32
TimelineZoom: 1.9

[Metadata]
Title:Satsuriku no Keifu
TitleUnicode:殺戮の系譜
Artist:Denkishiki Karen Ongaku Shuudan
ArtistUnicode:電気式華憐音楽集団
Creator:Lasse
Version:Easy
Source:
Tags:denkare japanese rock metal detonator ignition
BeatmapID:2389700
BeatmapSetID:1140608

[Difficulty]
HPDrainRate:2
CircleSize:3
OverallDifficulty:3.6
ApproachRate:5
SliderMultiplier:0.72
SliderTickRate:0.5

[Events]
//Background and Video events
0,0,"a1.jpg",0,0
//Break Periods
2,88698,96012
2,164126,171870
//Storyboard Layer 0 (Background)
//Storyboard Layer 1 (Fail)
//Storyboard Layer 2 (Pass)
//Storyboard Layer 3 (Foreground)
//Storyboard Layer 4 (Overlay)
//Storyboard Sound Samples

[TimingPoints]
5070,285.714285714286,4,1,1,65,1,0
5070,-100,4,1,1,65,0,0
14212,-100,4,1,1,70,0,0
17498,-100,4,1,1,70,0,0
17712,-100,4,1,1,50,0,0
17784,-100,4,1,1,70,0,0
22070,-100,4,1,1,70,0,0
22284,-100,4,1,1,50,0,0
22355,-100,4,1,1,70,0,0
23212,-100,4,1,1,64,0,0
23284,-100,4,1,1,62,0,0
23355,-117.647058823529,4,1,1,60,0,0
32498,-105.263157894737,4,1,1,62,0,0
32784,-105.263157894737,4,1,1,62,0,0
41641,-105.263157894737,4,1,1,64,0,0
48498,-100,4,1,1,66,0,0
49070,-100,4,1,1,68,0,0
50212,-100,4,2,1,50,0,0
50498,-100,4,2,1,5,0,0
50641,-100,4,2,1,30,0,0
50784,-90.9090909090909,4,1,1,75,0,1
59355,-90.9090909090909,4,2,2,70,0,0
59927,-90.9090909090909,4,1,1,75,0,1
68498,-90.9090909090909,4,1,1,70,0,1
68784,-90.9090909090909,4,1,1,65,0,1
69070,-111.111111111111,4,1,1,60,0,0
77641,-111.111111111111,4,2,2,58,0,0
77927,-111.111111111111,4,2,2,56,0,0
78212,-111.111111111111,4,1,1,54,0,0
78498,-111.111111111111,4,1,1,50,0,0
78641,-111.111111111111,4,1,1,62,0,0
78927,-111.111111111111,4,1,1,64,0,0
79212,-111.111111111111,4,1,1,66,0,0
79355,-100,4,1,1,68,0,0
79641,-100,4,1,1,70,0,0
82641,-100,4,1,1,70,0,0
82855,-100,4,1,1,50,0,0
82927,-100,4,1,1,70,0,0
87212,-100,4,1,1,70,0,0
87427,-100,4,1,1,50,0,0
87498,-100,4,1,1,70,0,0
88355,-100,4,1,1,68,0,0
88427,-100,4,1,1,66,0,0
88498,-100,4,1,1,64,0,0
97212,-100,4,1,1,58,0,0
97641,-111.111111111111,4,1,1,60,0,0
97927,-105.263157894737,4,1,1,62,0,0
106784,-105.263157894737,4,1,1,64,0,0
113641,-100,4,1,1,66,0,0
114212,-100,4,1,1,68,0,0
115641,-100,4,1,2,70,0,0
115784,-100,4,2,1,70,0,0
115927,-90.9090909090909,4,1,1,75,0,1
124498,-90.9090909090909,4,2,2,70,0,0
125070,-90.9090909090909,4,1,1,75,0,1
133641,-90.9090909090909,4,1,1,70,0,1
133927,-90.9090909090909,4,1,1,65,0,1
134212,-111.111111111111,4,1,1,60,0,0
142784,-111.111111111111,4,2,2,58,0,0
143070,-111.111111111111,4,2,2,56,0,0
143355,-100,4,1,1,60,0,0
152498,-90.9090909090909,4,1,1,68,0,0
157070,-90.9090909090909,4,1,1,70,0,0
161355,-100,4,2,2,68,0,0
161498,-100,4,2,2,66,0,0
161641,-111.111111111111,4,2,1,64,0,0
161855,-111.111111111111,4,2,2,64,0,0
162212,-111.111111111111,4,2,1,62,0,0
162355,-111.111111111111,4,2,1,34,0,0
162641,-111.111111111111,4,2,2,62,0,0
162784,-111.111111111111,4,2,1,60,0,0
162927,-111.111111111111,4,2,1,34,0,0
162998,-111.111111111111,4,2,2,60,0,0
163141,-111.111111111111,4,2,1,34,0,0
163212,-111.111111111111,4,2,2,60,0,0
163355,-111.111111111111,4,2,1,58,0,0
163569,-111.111111111111,4,2,2,58,0,0
163712,-111.111111111111,4,2,1,40,0,0
163784,-166.666666666667,4,2,1,58,0,0
163927,-166.666666666667,4,2,1,56,0,0
170784,-83.3333333333333,4,2,1,20,0,0
172498,-83.3333333333333,4,2,1,10,0,0
172784,-83.3333333333333,4,2,1,30,0,0
172998,-117.647058823529,4,2,1,30,0,0
173070,-117.647058823529,4,2,1,40,0,0
174212,-83.3333333333333,4,2,1,20,0,0
174498,-200,4,2,1,30,0,0
174570,-181.818181818181,4,2,1,5,0,0
175212,-181.818181818181,4,2,1,60,0,0
175355,-90.9090909090909,4,1,1,78,0,1
183927,-90.9090909090909,4,2,2,74,0,0
184212,-90.9090909090909,4,2,2,76,0,0
184498,-90.9090909090909,4,1,1,78,0,1
193070,-90.9090909090909,4,1,1,72,0,1
193355,-90.9090909090909,4,1,1,66,0,1
193641,-111.111111111111,4,1,1,60,0,0
202212,-111.111111111111,4,2,2,58,0,0
202498,-111.111111111111,4,2,2,56,0,0
202784,-111.111111111111,4,1,1,54,0,0
203070,-111.111111111111,4,1,1,50,0,0
203212,-111.111111111111,4,1,1,62,0,0
203498,-111.111111111111,4,1,1,64,0,0
203784,-111.111111111111,4,1,1,66,0,0
203927,-100,4,1,1,68,0,0
207212,-83.3333333333333,4,1,1,70,0,0
207427,-83.3333333333333,4,1,1,50,0,0
207498,-100,4,1,1,70,0,0
211784,-100,4,1,1,70,0,0
211998,-100,4,1,1,50,0,0
212070,-100,4,1,1,70,0,0
213070,-90.9090909090909,4,1,1,72,0,0
216355,-90.9090909090909,4,1,1,72,0,0
216570,-90.9090909090909,4,1,1,50,0,0
216641,-90.9090909090909,4,1,1,72,0,0
216927,-90.9090909090909,4,1,1,72,0,0
217641,-90.9090909090909,4,1,1,72,0,0
220927,-90.9090909090909,4,1,1,72,0,0
221141,-90.9090909090909,4,1,1,50,0,0
221212,-90.9090909090909,4,1,1,72,0,0
222212,-135.135135135135,4,1,1,70,0,0
222284,-133.333333333333,4,2,99,50,0,0
223355,-133.333333333333,4,2,99,45,0,0
224498,-133.333333333333,4,2,99,40,0,0
225641,-133.333333333333,4,2,99,35,0,0
226784,-133.333333333333,4,2,1,30,0,0
227927,-133.333333333333,4,2,99,25,0,0
229070,-133.333333333333,4,2,99,20,0,0
230212,-133.333333333333,4,2,99,15,0,0
230784,-133.333333333333,4,2,99,10,0,0
231070,-133.333333333333,4,2,99,5,0,0
231355,-133.333333333333,4,2,99,8,0,0

[Colours]
Combo1 : 250,180,240
Combo2 : 120,200,230
Combo3 : 255,230,130
Combo4 : 160,230,150

[HitObjects]
119,323,5069,6,0,L|6:316,2,108,6|2|10,0:1|0:1|0:1,0:0:0:0:
254,372,6498,1,10,0:1:0:0:
254,372,6784,1,2,0:1:0:0:
354,269,7355,2,0,P|361:223|336:160,1,108,2|2,0:1|0:1,0:0:0:0:
294,68,8212,2,0,B|268:93|268:93|161:72,1,144,10|8,0:1|0:2,0:0:0:0:
85,49,9070,1,14,0:1:0:0:
19,176,9641,6,0,P|13:223|28:287,2,108,6|2|10,0:1|0:1|0:2,0:2:0:0:
85,49,11070,1,10,0:1:0:0:
85,49,11355,1,2,0:1:0:0:
218,103,11927,2,0,L|329:87,1,108,2|2,0:1|0:1,0:0:0:0:
427,120,12784,2,0,B|453:144|453:144|449:223,1,108,10|0,0:1|0:2,0:0:0:0:
436,323,13641,1,14,0:1:0:0:
299,369,14212,6,0,B|237:356|237:356|218:361|218:361|148:348,1,144,6|2,0:1|0:2,0:2:0:0:
83,380,15070,1,10,0:2:0:0:
29,320,15355,2,0,B|23:254|23:254|26:246|26:246|22:198,1,108,2|2,0:1|0:2,0:2:0:0:
19,132,16070,1,2,0:2:0:0:
48,57,16355,1,2,0:2:0:0:
189,198,17070,2,0,L|180:319,2,108,2|6|8,0:2|0:2|0:2,0:2:0:0:
196,118,18212,1,14,0:1:0:0:
334,41,18784,6,0,B|395:30|395:30|403:25|403:25|411:30|411:30|485:57,1,144,4|2,0:1|0:2,0:2:0:0:
453,170,19784,2,0,P|475:205|431:337,1,180,2|2,0:2|0:2,0:1:0:0:
379,380,20784,1,10,0:2:0:0:
307,343,21070,1,2,0:1:0:0:
277,226,21498,2,0,L|281:144,1,72,2|2,0:3|0:2,0:0:0:0:
243,82,22070,2,2,P|220:72|166:76,1,72,6|10,0:2|0:3,0:1:0:0:
60,112,22784,1,8,0:3:0:0:
44,246,23355,5,6,0:3:0:0:
44,246,23641,1,2,0:2:0:0:
181,376,24498,1,2,0:3:0:0:
181,376,24784,1,2,0:3:0:0:
274,219,25641,1,2,0:2:0:0:
274,219,25927,1,2,0:2:0:0:
397,362,26784,1,2,0:2:0:0:
397,362,27070,2,0,L|400:261,1,91.8000017509461,2|14,0:2|0:2,0:2:0:0:
404,182,27927,5,2,0:2:0:0:
404,182,28212,1,2,0:2:0:0:
301,335,29070,1,2,0:2:0:0:
301,335,29355,1,2,0:2:0:0:
122,349,30212,1,2,0:2:0:0:
122,349,30498,1,2,0:2:0:0:
21,202,31355,1,2,0:2:0:0:
21,202,31641,2,0,L|28:107,1,91.8000017509461,2|14,0:2|0:2,0:0:0:0:
115,67,32498,6,0,B|154:69|173:94|173:94|211:92|246:71,1,136.799996347046,6|2,0:2|0:2,0:0:0:0:
336,38,33498,2,0,B|363:34|363:34|371:28|371:28|428:28|476:51,1,136.799996347046,0|2,0:2|0:2,0:0:0:0:
506,120,34355,1,2,0:2:0:0:
414,176,34784,2,0,L|266:160,1,136.799996347046,2|0,0:2|0:0,0:0:0:0:
197,186,35641,2,0,B|228:161|228:161|224:141|224:141|229:131|229:131|231:57|159:12,1,205.199994520569,10|2,0:2|0:2,0:0:0:0:
54,109,37070,6,0,B|54:170|54:170|64:182|64:182|66:257,1,136.799996347046,6|2,0:2|0:2,0:0:0:0:
134,320,38070,2,0,B|163:309|163:309|203:323|240:301|240:301|270:313,1,136.799996347046,0|2,0:2|0:2,0:0:0:0:
339,349,38927,1,2,0:2:0:0:
428,299,39355,2,0,L|442:158,1,136.799996347046,2|0,0:2|0:0,0:0:0:0:
445,80,40212,2,0,B|428:107|428:107|428:126|428:126|346:176|294:100,1,205.199994520569,10|8,0:2|0:2,0:0:0:0:
194,20,41641,6,0,B|219:64|219:64|196:95|196:95|180:151,1,136.799996347046,6|0,0:1|0:2,0:0:0:0:
156,344,43070,2,0,B|102:335|102:335|77:352|77:352|15:341,1,136.799996347046,0|2,0:2|0:2,0:0:0:0:
0,243,43927,2,0,B|13:191|13:191|36:171|36:171|48:112,1,136.799996347046,6|0,0:1|0:2,0:0:0:0:
69,40,44784,1,0,0:0:0:0:
151,37,45070,2,2,P|208:63|294:50,1,136.799996347046,2|0,0:2|0:3,0:1:0:0:
406,3,46212,6,0,B|381:47|381:47|404:78|404:78|420:134,1,136.799996347046,6|0,0:1|0:2,0:0:0:0:
486,317,47641,2,0,B|433:308|433:308|407:325|407:325|345:314,1,136.799996347046,2|2,0:2|0:2,0:2:0:0:
311,247,48498,2,0,P|330:203|305:104,1,144,6|10,0:2|0:3,0:2:0:0:
243,59,49355,2,0,L|170:48,1,72,8|12,0:3|0:3,0:0:0:0:
26,249,50784,6,0,L|9:382,2,118.800003625488,6|2|10,0:2|0:2|0:2,0:2:0:0:
82,189,51927,2,0,B|117:218|156:218|156:218|195:194,1,118.800003625488,2|2,0:2|0:2,0:0:0:0:
250,144,52641,1,2,0:2:0:0:
343,221,53070,2,0,P|338:295|424:313,1,158.400004833985,2|0,0:2|0:2,0:1:0:0:
476,269,53927,2,0,B|477:249|491:234|491:234|457:195|452:150|498:101|460:37,1,237.600007250977,10|0,0:2|0:0,0:0:0:0:
312,10,55355,6,0,P|314:56|293:133,1,118.800003625488,6|2,0:2|0:2,0:2:0:0:
223,219,56212,1,10,0:2:0:0:
147,252,56498,2,0,L|29:230,1,118.800003625488,2|2,0:2|0:2,0:0:0:0:
6,113,57355,1,10,0:2:0:0:
72,69,57641,2,0,B|115:60|115:60|140:75|140:75|160:64|160:64|228:58,1,158.400004833985,2|2,0:3|0:1,0:0:0:0:
309,46,58498,2,0,B|278:83|278:83|319:189,1,158.400004833985,10|10,0:1|0:2,0:0:0:0:
472,361,59927,6,0,B|481:287|481:287|478:273|478:273|483:228,1,118.800003625488,6|2,0:2|0:2,0:2:0:0:
499,125,60784,1,10,0:2:0:0:
435,69,61070,2,0,B|400:98|361:98|361:98|322:74,1,118.800003625488,2|2,0:2|0:2,0:0:0:0:
267,28,61784,1,2,0:2:0:0:
241,144,62212,2,0,L|218:301,1,158.400004833985,2|0,0:2|0:2,0:2:0:0:
153,354,63070,2,0,B|136:361|136:361|82:311|82:311|109:153,1,237.600007250977,10|0,0:2|0:0,0:0:0:0:
215,52,64498,6,0,P|281:71|339:59,1,118.800003625488,6|2,0:2|0:2,0:2:0:0:
437,14,65355,1,10,0:2:0:0:
480,86,65641,2,0,L|457:209,1,118.800003625488,2|2,0:2|0:2,0:0:0:0:
428,317,66498,1,10,0:1:0:0:
352,349,66784,2,0,B|309:340|309:340|284:355|284:355|264:344|264:344|196:338,1,158.400004833985,2|2,0:1|0:1,0:0:0:0:
132,384,67641,2,0,B|103:345|103:345|156:246,1,158.400004833985,10|12,0:1|0:2,0:1:0:0:
233,186,68498,6,0,B|244:186|244:186|259:181|259:181|280:184|280:184|300:170|300:170|323:169|323:169|337:152|337:152|356:151|356:151|387:142,1,158.400004833985,8|6,1:3|0:2,0:0:0:0:
241,54,70355,2,0,B|207:59|207:59|175:46|175:46|146:48|146:48|116:35|116:35|80:36,1,161.999995056153,8|10,0:3|0:2,0:0:0:0:
0,258,72641,2,0,B|34:263|34:263|66:250|66:250|95:252|95:252|125:239|125:239|161:240,1,161.999995056153,8|10,0:3|0:2,0:0:0:0:
334,383,74927,2,0,B|329:349|329:349|342:317|342:317|340:288|340:288|353:258|353:258|352:222,1,161.999995056153,8|10,0:3|0:2,0:0:0:0:
301,45,77212,6,0,B|279:63|279:63|290:92|290:92|263:120|263:120|265:142|265:142|254:187,1,161.999995056153,8|4,0:3|0:3,0:0:0:0:
231,260,78212,1,6,0:2:0:0:
437,379,79355,6,0,B|438:321|438:321|446:298|446:298|447:226,1,144,6|2,0:1|0:2,0:0:0:0:
449,154,80212,1,10,0:2:0:0:
397,82,80498,2,0,B|368:106|322:99|322:99|296:64,1,108,2|2,0:1|0:2,0:2:0:0:
253,15,81212,1,2,0:2:0:0:
175,29,81498,1,2,0:2:0:0:
84,185,82212,2,0,L|74:297,2,108,2|6|8,0:2|0:2|0:2,0:0:0:0:
97,103,83355,1,14,0:1:0:0:
181,116,83927,6,0,B|242:127|242:127|250:132|250:132|271:102|323:95,1,144,4|2,0:1|0:2,0:2:0:0:
409,143,84927,2,0,P|431:178|422:318,1,180,2|2,0:2|0:2,0:2:0:0:
367,368,85927,1,10,0:2:0:0:
297,329,86212,1,2,0:1:0:0:
192,356,86641,2,0,P|152:361|115:350,1,72,2|2,0:3|0:2,0:0:0:0:
56,305,87212,2,2,L|53:233,1,72,6|10,0:2|0:3,0:1:0:0:
86,154,87927,6,0,B|106:157|106:157|114:161|114:161|124:133|124:133|135:130|135:130|138:110|138:110|148:101|148:101|148:84|148:84|166:53,1,144,8|12,0:3|0:3,0:0:0:0:
85,272,97212,5,12,0:2:0:0:
161,332,97641,6,0,B|185:360|228:359|228:359|252:335|286:324,1,129.599996044922,6|2,0:2|0:2,0:0:0:0:
368,290,98641,2,0,B|392:264|392:264|384:254|384:254|361:216|371:161,1,136.799996347046,0|2,0:2|0:2,0:0:0:0:
405,94,99498,1,2,0:2:0:0:
318,39,99927,2,0,P|253:28|170:28,1,136.799996347046,2|0,0:2|0:0,0:0:0:0:
107,70,100784,2,0,B|119:103|119:103|51:169|70:266,1,205.199994520569,10|2,0:2|0:2,0:0:0:0:
170,348,102212,6,0,B|223:337|223:337|241:347|241:347|316:355,1,136.799996347046,6|2,0:2|0:2,0:0:0:0:
401,323,103212,2,0,B|380:293|380:293|385:282|385:282|403:253|394:216|394:216|395:182,1,136.799996347046,0|2,0:2|0:2,0:0:0:0:
434,125,104070,1,2,0:2:0:0:
366,47,104498,2,0,P|342:86|253:86,1,136.799996347046,2|0,0:2|0:0,0:0:0:0:
181,59,105355,2,0,B|150:28|150:28|46:27|41:119,1,205.199994520569,10|8,0:2|0:2,0:0:0:0:
69,253,106784,6,0,B|113:278|113:278|144:255|144:255|200:239,1,136.799996347046,6|0,0:1|0:2,0:0:0:0:
397,378,108212,2,0,B|402:329|402:329|391:306|391:306|399:235,1,136.799996347046,0|2,0:2|0:2,0:0:0:0:
462,192,109070,2,0,B|446:151|446:151|448:98|448:98|414:61,1,136.799996347046,6|0,0:1|0:2,0:0:0:0:
354,19,109927,1,0,0:0:0:0:
307,88,110212,2,2,L|289:225,1,136.799996347046,2|0,0:2|0:3,0:1:0:0:
210,335,111355,6,0,B|166:360|166:360|135:337|135:337|79:321,1,136.799996347046,6|0,0:1|0:2,0:0:0:0:
6,136,112784,2,0,B|59:127|59:127|85:144|85:144|147:133,1,136.799996347046,2|2,0:2|0:2,0:2:0:0:
210,176,113641,2,0,P|188:119|221:43,1,144,6|10,0:2|0:3,0:2:0:0:
297,21,114498,2,0,L|370:32,1,72,8|12,0:3|0:3,0:0:0:0:
459,143,115355,2,0,L|443:222,1,72,8|8,0:3|0:3,0:0:0:0:
408,295,115927,6,0,B|381:263|331:259|331:259|294:288,1,118.800003625488,6|2,0:2|0:2,0:2:0:0:
223,363,116784,1,10,0:2:0:0:
165,305,117070,2,0,B|155:265|180:229|180:229|165:185,1,118.800003625488,2|2,0:2|0:2,0:0:0:0:
129,120,117784,1,2,0:2:0:0:
226,52,118212,2,0,P|260:28|383:50,1,158.400004833985,2|0,0:2|0:2,0:1:0:0:
436,97,119070,2,0,B|412:123|412:123|383:188|438:246|438:246|449:282|419:321,1,237.600007250977,10|0,0:2|0:0,0:0:0:0:
276,361,120498,6,0,L|146:344,1,118.800003625488,6|2,0:2|0:2,0:2:0:0:
40,360,121355,1,10,0:2:0:0:
0,286,121641,2,0,L|19:160,1,118.800003625488,2|2,0:2|0:2,0:0:0:0:
50,54,122498,1,10,0:2:0:0:
125,90,122784,2,0,B|150:92|168:81|168:81|193:96|193:96|223:74|281:79,1,158.400004833985,2|2,0:3|0:1,0:0:0:0:
348,115,123641,2,0,B|336:139|317:152|317:152|363:180|358:258,1,158.400004833985,10|10,0:1|0:2,0:0:0:0:
156,372,125070,6,0,B|165:298|165:298|162:284|162:284|167:239,1,118.800003625488,6|2,0:2|0:2,0:2:0:0:
247,168,125927,1,10,0:2:0:0:
316,213,126212,2,0,B|351:242|390:242|390:242|429:218,1,118.800003625488,2|2,0:2|0:2,0:0:0:0:
481,162,126927,1,2,0:2:0:0:
424,57,127355,2,0,L|265:42,1,158.400004833985,2|0,0:2|0:2,0:2:0:0:
186,64,128212,2,0,B|160:84|160:84|179:129|222:150|222:150|255:204|224:265,1,237.600007250977,10|0,0:2|0:0,0:0:0:0:
88,346,129641,6,0,B|73:295|78:269|78:269|70:259|70:259|62:219,1,118.800003625488,6|2,0:2|0:2,0:0:0:0:
28,118,130498,1,10,0:2:0:0:
86,60,130784,2,0,B|112:35|165:29|165:29|192:63,1,118.800003625488,2|2,0:2|0:2,0:0:0:0:
216,169,131641,1,10,0:1:0:0:
282,220,131927,2,0,B|325:210|325:210|355:214|355:214|383:201|383:201|435:190,1,158.400004833985,2|2,0:1|0:1,0:0:0:0:
491,124,132784,2,0,B|461:109|461:109|439:45|439:45|380:27,1,158.400004833985,10|12,0:1|0:2,0:0:0:0:
301,46,133641,6,0,B|301:57|301:57|296:72|296:72|299:93|299:93|285:113|285:113|284:136|284:136|267:150|267:150|266:169|266:169|257:200,1,158.400004833985,8|6,1:3|0:2,0:0:0:0:
185,350,135498,2,0,B|151:345|151:345|119:358|119:358|90:356|90:356|60:369|60:369|24:368,1,161.999995056153,8|10,0:3|0:2,0:0:0:0:
0,126,137784,2,0,B|34:131|34:131|66:118|66:118|95:120|95:120|125:107|125:107|161:108,1,161.999995056153,8|10,0:3|0:2,0:0:0:0:
302,12,140070,2,0,B|307:46|307:46|294:78|294:78|296:107|296:107|283:137|283:137|284:173,1,161.999995056153,8|10,0:3|0:2,0:0:0:0:
368,373,142355,6,0,B|390:355|390:355|379:326|379:326|406:298|406:298|404:276|404:276|415:231,1,161.999995056153,8|4,0:3|0:3,0:0:0:0:
457,162,143355,6,0,B|420:179|420:179|373:191|320:147,1,144,6|2,0:2|0:2,0:2:0:0:
238,84,144355,2,0,B|223:62|208:60|208:60|161:23|109:55,1,144,10|10,0:2|0:2,0:0:0:0:
13,202,145641,2,0,B|29:247|29:247|19:299|19:299|46:345,1,144,2|2,0:2|0:2,0:0:0:0:
141,376,146641,1,14,0:2:0:0:
238,269,147212,1,14,0:2:0:0:
404,338,147927,6,0,B|424:353|424:353|491:335|481:250,1,144,6|2,0:2|0:2,0:0:0:0:
452,157,148927,2,0,B|422:133|422:133|377:153|316:128,1,144,10|10,0:2|0:2,0:0:0:0:
162,40,150212,2,0,B|96:20|96:20|76:106,1,144,2|2,0:2|0:2,0:0:0:0:
65,200,151212,1,14,0:2:0:0:
131,328,151784,1,14,0:2:0:0:
321,379,152498,6,0,B|326:353|326:353|321:335|321:335|330:296,1,79.2000024169923,6|10,0:1|0:1,0:0:0:0:
384,234,153070,2,2,B|444:252|444:252|488:204,1,118.800003625488,2|2,0:2|0:2,0:1:0:0:
505,126,153784,2,0,B|501:68|501:68|438:37,1,118.800003625488,10|2,0:3|0:1,0:0:0:0:
291,10,154784,1,2,0:1:0:0:
291,10,155070,1,10,0:2:0:0:
263,125,155498,2,0,B|248:169|248:169|264:225|264:225|234:321,1,198.000006042481,2|10,0:2|0:1,0:0:0:0:
177,373,156498,1,2,0:1:0:0:
28,316,157070,6,0,B|22:307|30:285|30:285|9:252|54:220|54:220|20:182|53:134|53:134|47:91,1,237.600007250977,6|10,0:1|0:2,0:0:0:0:
109,39,158212,2,0,B|118:33|140:41|140:41|173:20|205:65|205:65|243:31|291:64|291:64|334:58,1,237.600007250977,2|10,0:1|0:2,0:2:0:0:
405,27,159355,1,2,0:1:0:0:
478,185,159927,1,2,0:1:0:0:
389,334,160498,6,0,B|355:338|355:338|307:305|269:339|269:339|241:312|241:312|222:318|222:318|204:311|204:311|189:316|189:316|176:307|176:307|160:312|160:312|144:304|144:304|126:309|86:302,1,316.800009667969,2|14,0:1|0:3,0:0:0:0:
7,213,162212,2,0,P|3:192|52:87,1,129.599996044922,10|10,0:3|0:2,0:2:0:0:
165,55,163355,2,0,B|205:66|205:66|240:55|240:55|302:77,1,129.599996044922,10|2,0:3|0:2,0:2:0:0:
137,263,173070,6,2,P|80:353|6:277,1,244.80000466919,2|0,0:0|0:2,0:2:0:0:
54,83,175355,6,0,B|81:115|131:119|131:119|168:90,1,118.800003625488,6|2,0:2|0:2,0:2:0:0:
243,19,176212,1,10,0:2:0:0:
286,91,176498,2,0,B|276:131|301:167|301:167|291:181|288:203,1,118.800003625488,2|2,0:2|0:2,0:0:0:0:
289,288,177212,1,2,0:2:0:0:
387,353,177641,2,0,P|456:362|482:280,1,158.400004833985,2|2,0:2|0:2,0:2:0:0:
449,211,178498,2,0,B|437:222|437:222|388:163|431:103|431:103|424:47|382:25,1,237.600007250977,10|0,0:2|0:0,0:0:0:0:
228,23,179927,6,0,L|107:32,1,118.800003625488,6|2,0:2|0:2,0:2:0:0:
15,105,180784,1,10,0:2:0:0:
31,185,181070,2,0,L|50:311,1,118.800003625488,2|2,0:2|0:2,0:0:0:0:
143,373,181927,1,10,0:2:0:0:
199,309,182212,2,0,B|204:286|208:266|208:266|193:241|193:241|192:195|210:153,1,158.400004833985,2|2,0:2|0:1,0:0:0:0:
270,96,183070,2,0,B|287:120|287:120|350:66|350:66|413:71,1,158.400004833985,10|10,0:1|0:2,0:0:0:0:
508,278,184498,6,0,B|474:281|439:268|439:268|420:272|420:272|400:266|375:267,1,118.800003625488,6|2,0:2|0:2,0:2:0:0:
296,339,185355,1,10,0:2:0:0:
255,267,185641,2,0,B|284:232|284:193|284:193|264:160,1,118.800003625488,2|2,0:2|0:2,0:0:0:0:
211,97,186355,1,2,0:2:0:0:
121,175,186784,2,0,P|101:238|123:343,1,158.400004833985,2|2,0:2|0:2,0:2:0:0:
193,361,187641,2,0,B|228:332|228:332|301:336|355:368|355:368|393:362|418:330,1,237.600007250977,10|0,0:2|0:0,0:0:0:0:
482,203,189070,6,0,B|462:172|472:126|472:126|464:116|464:116|465:102|456:76,1,118.800003625488,6|2,0:2|0:2,0:0:0:0:
366,17,189927,1,10,0:2:0:0:
312,81,190212,2,0,B|282:112|238:118|238:118|204:93,1,118.800003625488,2|2,0:2|0:2,0:0:0:0:
117,22,191070,1,10,0:1:0:0:
58,84,191355,2,0,B|48:127|48:127|52:157|52:157|38:186|38:186|32:238,1,158.400004833985,2|2,0:1|0:1,0:0:0:0:
82,304,192212,2,0,B|125:297|125:297|152:241|152:241|214:239,1,158.400004833985,10|12,0:1|0:2,0:0:0:0:
269,301,193070,6,0,B|278:305|278:305|294:308|294:308|311:320|311:320|335:317|335:317|356:326|356:326|377:317|377:317|394:325|394:325|426:331,1,158.400004833985,8|6,0:3|0:2,0:0:0:0:
512,114,194927,2,0,B|478:119|478:119|446:106|446:106|417:108|417:108|387:95|387:95|355:95,1,161.999995056153,8|10,0:3|0:2,0:0:0:0:
128,16,197212,2,0,B|128:47|128:47|114:77|114:77|116:106|116:106|102:137|102:137|107:171,1,161.999995056153,8|10,0:3|0:2,0:0:0:0:
267,358,199498,2,0,B|301:363|301:363|333:350|333:350|362:352|362:352|392:339|392:339|428:340,1,161.999995056153,8|10,0:3|0:2,0:0:0:0:
499,119,201784,6,0,B|481:97|481:97|452:108|452:108|424:81|424:81|402:83|402:83|357:72,1,161.999995056153,8|4,0:3|0:3,0:0:0:0:
283,44,202784,1,6,0:2:0:0:
58,243,203927,6,0,B|119:235|119:235|132:224|132:224|198:218,1,144,6|2,0:1|0:2,0:0:0:0:
255,278,204784,1,10,0:2:0:0:
316,223,205070,2,0,B|321:194|321:194|316:172|316:172|324:105,1,108,2|2,0:1|0:2,0:2:0:0:
341,38,205784,1,2,0:2:0:0:
417,6,206070,1,2,0:2:0:0:
488,171,206784,2,0,L|498:283,2,108,2|6|8,0:2|0:2|0:2,0:0:0:0:
446,99,207927,1,14,0:1:0:0:
311,48,208498,6,0,B|282:66|250:59|250:59|242:64|242:64|221:34|169:27,1,144,6|2,0:1|0:2,0:2:0:0:
81,68,209498,2,0,P|59:103|68:243,1,180,2|2,0:2|0:2,0:2:0:0:
97,312,210498,1,10,0:2:0:0:
173,285,210784,1,2,0:1:0:0:
260,358,211212,2,0,P|300:363|337:352,1,72,2|2,0:2|0:2,0:0:0:0:
388,295,211784,2,2,L|393:222,1,72,6|10,0:2|0:3,0:1:0:0:
402,115,212498,1,14,0:1:0:0:
279,14,213070,6,0,B|278:68|278:68|240:109|171:86,1,158.400004833985,6|2,0:1|0:2,0:2:0:0:
101,67,213927,2,0,P|66:71|45:149,1,118.800003625488,10|8,0:2|0:3,0:0:0:0:
73,255,214784,1,2,0:2:0:0:
196,353,215355,2,0,L|361:335,1,158.400004833985,2|2,0:1|0:1,0:0:0:0:
471,353,216355,1,6,0:1:0:0:
488,195,216927,2,0,B|448:191|448:191|451:145|426:104,1,118.800003625488,8|10,0:3|0:2,0:0:0:0:
380,44,217641,6,0,B|384:89|384:89|324:135|324:135|272:116,1,158.400004833985,6|2,0:1|0:2,0:0:0:0:
213,85,218498,2,0,P|172:60|94:68,1,118.800003625488,10|8,0:2|0:3,0:0:0:0:
10,137,219355,1,2,0:2:0:0:
37,292,219927,2,0,P|90:322|192:298,1,158.400004833985,2|0,0:1|0:2,0:0:0:0:
273,228,220927,1,6,0:1:0:0:
392,332,221498,2,0,B|426:347|461:334|471:299|471:299|430:264|444:209,1,198.000006042481,8|6,0:3|0:2,0:0:0:0:
