osu file format v14

[General]
AudioFilename: audio.mp3
AudioLeadIn: 0
PreviewTime: 49897
Countdown: 0
SampleSet: Normal
StackLeniency: 0.7
Mode: 0
LetterboxInBreaks: 0
WidescreenStoryboard: 1

[Editor]
Bookmarks: 14200,23343,32486,41629,50772,59915,69058,79343,88486,97629,106772,115915,134200,143343,152486,157058,161629,163915,170772,175343,193629,202772,203915,213058,222200,231343
DistanceSpacing: 1
BeatDivisor: 4
GridSize: 16
TimelineZoom: 1.9

[Metadata]
Title:Satsuriku no Keifu
TitleUnicode:殺戮の系譜
Artist:Denkishiki Karen Ongaku Shuudan
ArtistUnicode:電気式華憐音楽集団
Creator:Lasse
Version:Despair
Source:
Tags:denkare japanese rock metal detonator ignition
BeatmapID:2382427
BeatmapSetID:1140608

[Difficulty]
HPDrainRate:6
CircleSize:4.2
OverallDifficulty:9
ApproachRate:9.5
SliderMultiplier:1.7
SliderTickRate:1

[Events]
//Background and Video events
0,0,"a1.jpg",0,0
//Break Periods
2,88698,96687
2,164127,170259
//Storyboard Layer 0 (Background)
//Storyboard Layer 1 (Fail)
//Storyboard Layer 2 (Pass)
//Storyboard Layer 3 (Foreground)
//Storyboard Layer 4 (Overlay)
//Storyboard Sound Samples

[TimingPoints]
5070,285.714285714286,4,1,1,65,1,0
5070,-100,4,1,1,65,0,0
14212,-100,4,1,1,70,0,0
17498,-83.3333333333333,4,1,1,70,0,0
17712,-83.3333333333333,4,1,1,50,0,0
17784,-100,4,1,1,70,0,0
22070,-76.9230769230769,4,1,1,70,0,0
22284,-76.9230769230769,4,1,1,50,0,0
22355,-100,4,1,1,70,0,0
23212,-100,4,1,1,64,0,0
23284,-100,4,1,1,62,0,0
23355,-125,4,1,1,60,0,0
32498,-125,4,1,1,62,0,0
32784,-111.111111111111,4,1,1,62,0,0
41641,-142.857142857143,4,1,1,64,0,0
48498,-111.111111111111,4,1,1,66,0,0
49070,-111.111111111111,4,1,1,68,0,0
50212,-181.818181818182,4,2,1,50,0,0
50498,-181.818181818182,4,2,1,5,0,0
50641,-181.818181818182,4,2,1,30,0,0
50784,-83.3333333333333,4,1,1,75,0,1
59355,-83.3333333333333,4,2,2,70,0,0
59927,-83.3333333333333,4,1,1,75,0,1
68498,-83.3333333333333,4,1,1,70,0,1
68784,-83.3333333333333,4,1,1,65,0,1
69070,-125,4,1,1,60,0,0
77641,-125,4,2,2,58,0,0
77927,-125,4,2,2,56,0,0
78212,-200,4,1,1,54,0,0
78498,-200,4,1,1,50,0,0
78641,-200,4,1,1,62,0,0
78927,-200,4,1,1,64,0,0
79212,-200,4,1,1,66,0,0
79355,-100,4,1,1,68,0,0
79641,-100,4,1,1,70,0,0
82641,-83.3333333333333,4,1,1,70,0,0
82855,-83.3333333333333,4,1,1,50,0,0
82927,-100,4,1,1,70,0,0
87212,-76.9230769230769,4,1,1,70,0,0
87427,-76.9230769230769,4,1,1,50,0,0
87498,-100,4,1,1,70,0,0
88355,-100,4,1,1,68,0,0
88427,-100,4,1,1,66,0,0
88498,-100,4,1,1,64,0,0
97212,-100,4,1,1,58,0,0
97641,-100,4,1,1,60,0,0
97927,-111.111111111111,4,1,1,62,0,0
106784,-142.857142857143,4,1,1,64,0,0
113641,-111.111111111111,4,1,1,66,0,0
114212,-111.111111111111,4,1,1,68,0,0
115641,-111.111111111111,4,1,2,70,0,0
115927,-83.3333333333333,4,1,1,75,0,1
124498,-83.3333333333333,4,2,2,70,0,0
125070,-83.3333333333333,4,1,1,75,0,1
133641,-83.3333333333333,4,1,1,70,0,1
133927,-83.3333333333333,4,1,1,65,0,1
134212,-125,4,1,1,60,0,0
142784,-125,4,2,2,58,0,0
143070,-125,4,2,2,56,0,0
143355,-100,4,1,1,60,0,0
152498,-83.3333333333333,4,1,1,68,0,0
157070,-76.9230769230769,4,1,1,70,0,0
161355,-100,4,2,2,68,0,0
161498,-100,4,2,2,66,0,0
161641,-125,4,2,1,64,0,0
161855,-125,4,2,2,64,0,0
162212,-125,4,2,1,62,0,0
162355,-125,4,2,1,34,0,0
162426,-125,4,2,2,62,0,0
162570,-125,4,2,1,34,0,0
162641,-125,4,2,2,62,0,0
162784,-125,4,2,1,60,0,0
162927,-125,4,2,1,34,0,0
162998,-125,4,2,2,60,0,0
163141,-125,4,2,1,34,0,0
163212,-125,4,2,2,60,0,0
163355,-125,4,2,1,58,0,0
163569,-125,4,2,2,58,0,0
163712,-125,4,2,1,40,0,0
163784,-125,4,2,1,58,0,0
163927,-166.666666666667,4,2,1,56,0,0
170784,-83.3333333333333,4,2,1,20,0,0
172498,-83.3333333333333,4,2,1,10,0,0
172784,-83.3333333333333,4,2,1,30,0,0
172998,-83.3333333333333,4,2,1,30,0,0
174212,-83.3333333333333,4,2,1,20,0,0
174498,-181.818181818181,4,2,1,30,0,0
174570,-181.818181818181,4,2,1,5,0,0
175212,-181.818181818181,4,2,1,60,0,0
175355,-76.9230769230769,4,1,1,78,0,1
183927,-76.9230769230769,4,2,2,74,0,0
184212,-76.9230769230769,4,2,2,76,0,0
184498,-76.9230769230769,4,1,1,78,0,1
193070,-76.9230769230769,4,1,1,72,0,1
193355,-76.9230769230769,4,1,1,66,0,1
193641,-125,4,1,1,60,0,0
202212,-125,4,2,2,58,0,0
202498,-125,4,2,2,56,0,0
202784,-200,4,1,1,54,0,0
203070,-200,4,1,1,50,0,0
203212,-200,4,1,1,62,0,0
203498,-200,4,1,1,64,0,0
203784,-200,4,1,1,66,0,0
203927,-100,4,1,1,68,0,0
207212,-83.3333333333333,4,1,1,70,0,0
207427,-83.3333333333333,4,1,1,50,0,0
207498,-100,4,1,1,70,0,0
211784,-76.9230769230769,4,1,1,70,0,0
211998,-76.9230769230769,4,1,1,50,0,0
212070,-100,4,1,1,70,0,0
213070,-80,4,1,1,72,0,0
216355,-66.6666666666667,4,1,1,72,0,0
216570,-66.6666666666667,4,1,1,50,0,0
216641,-74.0740740740741,4,1,1,72,0,0
216927,-80,4,1,1,72,0,0
220927,-66.6666666666667,4,1,1,72,0,0
221141,-66.6666666666667,4,1,1,50,0,0
221212,-74.0740740740741,4,1,1,72,0,0
222212,-316.455696202532,4,1,1,70,0,0
222284,-333.333333333333,4,2,99,50,0,0
223355,-333.333333333333,4,2,99,45,0,0
224498,-333.333333333333,4,2,99,40,0,0
225641,-333.333333333333,4,2,99,35,0,0
226784,-333.333333333333,4,2,99,30,0,0
227927,-333.333333333333,4,2,99,25,0,0
229070,-333.333333333333,4,2,99,20,0,0
230212,-333.333333333333,4,2,99,15,0,0
230784,-333.333333333333,4,2,99,10,0,0
231070,-333.333333333333,4,2,99,5,0,0
231355,-333.333333333333,4,2,99,8,0,0

[Colours]
Combo1 : 250,180,240
Combo2 : 120,200,230
Combo3 : 255,230,130
Combo4 : 160,230,150

[HitObjects]
251,19,5069,5,6,0:1:0:0:
251,19,5141,1,0,0:2:0:0:
251,19,5212,2,0,L|258:113,1,85,0|8,0:2|0:2,0:2:0:0:
361,192,5498,1,2,0:1:0:0:
176,247,5641,2,0,P|133:255|72:268,1,85,2|0,0:2|0:2,0:2:0:0:
252,370,5927,1,10,0:1:0:0:
282,288,6070,1,2,0:2:0:0:
0,192,6355,5,8,0:3:0:0:
0,192,6427,1,8,0:3:0:0:
0,192,6498,1,10,0:1:0:0:
92,263,6641,1,0,0:2:0:0:
219,102,6784,2,0,P|181:102|121:98,1,85,2|0,0:1|0:2,0:2:0:0:
324,266,7070,2,0,P|281:266|239:268,1,85,10|0,0:1|0:2,0:2:0:0:
444,117,7355,5,2,0:1:0:0:
444,117,7427,1,0,0:2:0:0:
444,117,7498,2,0,P|451:75|453:32,1,85,0|8,0:2|0:2,0:2:0:0:
305,177,7784,1,2,0:1:0:0:
486,205,7927,1,2,0:2:0:0:
342,82,8070,1,2,0:2:0:0:
417,270,8212,1,10,0:1:0:0:
256,352,8355,1,6,0:2:0:0:
256,352,8641,5,2,0:1:0:0:
370,373,8784,1,8,0:2:0:0:
424,277,8927,1,8,0:3:0:0:
424,277,8998,1,8,0:3:0:0:
424,277,9070,1,14,0:1:0:0:
308,244,9212,1,8,0:2:0:0:
414,179,9355,5,8,0:3:0:0:
437,157,9427,1,8,0:3:0:0:
447,127,9498,1,8,0:3:0:0:
443,96,9570,1,8,0:3:0:0:
425,70,9641,2,0,L|326:56,1,85,6|0,0:1|0:2,0:2:0:0:
223,175,9927,1,8,0:2:0:0:
113,85,10070,2,0,P|116:47|138:-21,1,85,2|0,0:1|0:2,0:2:0:0:
223,175,10355,1,2,0:2:0:0:
112,240,10498,1,10,0:2:0:0:
211,363,10641,1,2,0:2:0:0:
480,192,10927,5,8,0:3:0:0:
480,192,10998,1,8,0:3:0:0:
480,192,11070,1,10,0:1:0:0:
351,235,11212,1,0,0:2:0:0:
417,319,11355,2,0,P|450:322|516:335,1,85,2|0,0:1|0:2,0:2:0:0:
373,127,11641,2,0,P|340:124|274:111,1,85,10|0,0:1|0:2,0:2:0:0:
103,35,11927,5,2,0:1:0:0:
103,35,11998,1,0,0:2:0:0:
103,35,12070,2,0,L|201:21,1,85,0|8,0:2|0:2,0:2:0:0:
235,233,12355,1,2,0:1:0:0:
66,179,12498,1,2,0:2:0:0:
196,130,12641,1,2,0:2:0:0:
98,286,12784,1,10,0:1:0:0:
256,384,12927,1,6,0:2:0:0:
256,384,13212,5,0,0:2:0:0:
214,290,13355,1,0,0:2:0:0:
155,370,13498,1,8,0:3:0:0:
155,370,13570,1,8,0:3:0:0:
155,370,13641,1,14,0:1:0:0:
256,384,13784,1,8,0:2:0:0:
114,274,13927,5,8,0:3:0:0:
114,274,13998,1,8,0:3:0:0:
114,274,14070,1,8,0:3:0:0:
114,274,14141,1,8,0:3:0:0:
114,274,14212,2,0,L|18:283,1,85,6|0,0:1|0:2,0:2:0:0:
157,93,14498,5,10,0:2:0:0:
172,193,14641,1,0,0:2:0:0:
272,205,14784,5,2,0:2:0:0:
251,55,14927,1,0,0:2:0:0:
349,67,15070,5,10,0:2:0:0:
364,167,15212,1,0,0:2:0:0:
450,103,15355,6,0,P|455:56|433:9,1,85,2|8,0:1|0:3,0:2:0:0:
442,21,15570,1,8,0:3:0:0:
442,21,15641,1,10,0:2:0:0:
364,167,15784,2,0,P|359:214|381:261,1,85,2|0,0:2|0:2,0:2:0:0:
243,81,16070,2,0,P|248:34|226:-13,1,85,2|10,0:2|0:2,0:2:0:0:
42,88,16355,5,2,0:2:0:0:
128,148,16498,1,2,0:1:0:0:
128,148,16570,1,0,0:2:0:0:
128,148,16641,1,0,0:2:0:0:
30,189,16784,1,8,0:2:0:0:
42,88,16927,1,0,0:2:0:0:
193,187,17070,6,0,B|111:149|119:227|24:186,1,170,2|8,0:2|0:2,0:2:0:0:
318,283,17498,2,2,P|324:356|393:384,1,152.999995330811,6|0,0:2|1:3,0:1:0:0:
461,358,17784,2,2,L|466:255,1,85,10|8,0:3|0:2,0:1:0:0:
454,88,18070,5,10,0:3:0:0:
454,88,18141,1,8,0:3:0:0:
454,88,18212,1,14,0:1:0:0:
321,202,18355,1,8,0:3:0:0:
266,13,18498,1,10,0:1:0:0:
135,126,18641,1,8,0:3:0:0:
135,126,18712,1,8,0:3:0:0:
135,126,18784,2,0,B|165:123|165:123|176:128|176:128|242:121,1,85,4|0,0:1|0:2,0:2:0:0:
81,35,19070,5,10,0:2:0:0:
30,192,19212,1,0,0:2:0:0:
147,244,19355,1,2,0:2:0:0:
135,126,19498,1,0,0:2:0:0:
44,312,19641,1,8,0:2:0:0:
204,370,19784,6,0,P|280:333|367:342,1,170,2|8,0:2|0:3,0:1:0:0:
380,355,20141,1,8,0:3:0:0:
398,364,20212,2,0,P|435:375|495:367,1,85,10|0,0:2|0:2,0:2:0:0:
441,165,20498,2,0,P|465:126|480:78,1,85,2|0,0:2|0:2,0:2:0:0:
289,0,20784,5,10,0:2:0:0:
265,102,20927,1,0,0:2:0:0:
352,76,21070,5,2,0:1:0:0:
352,76,21141,1,0,0:2:0:0:
352,76,21212,1,0,0:2:0:0:
201,37,21355,1,8,0:2:0:0:
313,190,21498,1,2,0:3:0:0:
189,160,21641,1,0,0:3:0:0:
328,325,21784,1,2,0:2:0:0:
125,279,21927,1,8,0:2:0:0:
210,376,22070,6,2,P|240:327|238:222,1,165.749992412568,6|0,0:2|0:2,0:1:0:0:
189,160,22355,2,2,L|81:135,1,85,10|8,0:3|0:2,0:1:0:0:
295,4,22641,5,8,0:3:0:0:
288,45,22712,1,8,0:3:0:0:
308,81,22784,1,8,0:3:0:0:
346,98,22855,1,8,0:3:0:0:
386,87,22927,1,8,0:3:0:0:
461,0,23070,1,8,0:2:0:0:
490,150,23212,5,8,0:3:0:0:
490,150,23284,1,8,0:3:0:0:
490,150,23355,2,0,L|506:193,2,34,6|0|0,0:3|0:3|0:3,0:2:0:0:
386,87,23641,2,2,L|370:44,2,34,2|0|0,0:2|0:2|0:2,0:2:0:0:
386,87,24070,5,8,0:3:0:0:
345,201,24212,1,8,0:2:0:0:
345,201,24498,6,0,L|291:207,2,34,2|0|0,0:3|0:3|0:3,0:3:0:0:
250,112,24784,2,0,L|196:106,2,34,2|0|0,0:3|0:3|0:3,0:3:0:0:
250,112,25212,5,8,0:3:0:0:
127,188,25355,1,8,0:2:0:0:
127,188,25641,6,0,L|115:155,2,34,2|0|0,0:2|0:2|0:2,0:2:0:0:
56,302,25927,2,0,L|44:333,2,34,2|0|0,0:2|0:2|0:2,0:2:0:0:
56,302,26355,5,8,0:3:0:0:
181,379,26498,1,8,0:2:0:0:
181,379,26784,6,0,L|228:371,2,34,2|0|0,0:2|0:2|0:2,0:2:0:0:
317,384,27070,2,0,L|364:376,2,34,2|0|0,0:2|0:2|0:2,0:2:0:0:
317,384,27498,6,0,P|332:324|302:235,1,136,14|8,0:2|0:2,0:2:0:0:
264,176,27927,5,2,0:2:0:0:
264,176,27998,1,0,0:2:0:0:
264,176,28070,1,0,0:2:0:0:
229,253,28212,1,2,0:2:0:0:
229,253,28284,1,0,0:2:0:0:
229,253,28355,1,0,0:2:0:0:
229,253,28641,5,8,0:3:0:0:
184,123,28784,1,8,0:2:0:0:
302,48,29070,5,2,0:2:0:0:
302,48,29141,1,0,0:2:0:0:
302,48,29212,1,0,0:2:0:0:
345,130,29355,1,2,0:2:0:0:
345,130,29427,1,0,0:2:0:0:
345,130,29498,1,0,0:2:0:0:
345,130,29784,5,8,0:3:0:0:
390,0,29927,1,8,0:2:0:0:
471,191,30212,5,2,0:2:0:0:
471,191,30284,1,0,0:2:0:0:
471,191,30355,1,0,0:2:0:0:
390,232,30498,1,2,0:2:0:0:
390,232,30570,1,0,0:2:0:0:
390,232,30641,1,0,0:2:0:0:
390,232,30927,5,8,0:3:0:0:
508,302,31070,1,8,0:2:0:0:
311,384,31355,5,2,0:2:0:0:
311,384,31427,1,0,0:2:0:0:
311,384,31498,1,0,0:2:0:0:
392,343,31641,1,2,0:2:0:0:
392,343,31712,1,0,0:2:0:0:
392,343,31784,1,0,0:2:0:0:
392,343,32070,5,14,0:2:0:0:
237,294,32212,1,8,0:2:0:0:
390,232,32355,1,8,0:2:0:0:
260,178,32498,1,6,0:2:0:0:
260,178,32570,1,0,0:2:0:0:
260,178,32641,1,0,0:2:0:0:
338,128,32784,5,10,0:2:0:0:
210,100,32927,1,0,0:2:0:0:
288,50,33070,1,2,0:2:0:0:
260,178,33212,2,0,P|316:175|343:156,1,76.4999976654053,0|8,0:2|0:2,0:2:0:0:
226,297,33498,5,0,0:2:0:0:
140,209,33641,2,0,P|101:204|65:216,1,76.4999976654053,2|0,0:2|0:2,0:2:0:0:
66,216,33855,1,0,0:2:0:0:
66,216,33927,1,10,0:2:0:0:
260,178,34070,2,0,P|281:145|288:107,1,76.4999976654053,2|0,0:2|0:2,0:2:0:0:
226,297,34355,2,0,P|242:332|271:357,2,76.4999976654053,2|8|0,0:2|0:2|0:2,0:2:0:0:
268,185,34784,5,2,0:2:0:0:
268,185,34855,1,0,0:2:0:0:
268,185,34927,1,0,0:2:0:0:
164,203,35070,1,8,0:2:0:0:
72,157,35212,1,0,0:2:0:0:
82,252,35355,1,2,0:2:0:0:
173,123,35498,1,2,0:2:0:0:
236,271,35641,1,10,0:2:0:0:
173,123,35784,1,2,0:2:0:0:
509,247,36070,5,8,0:3:0:0:
509,247,36141,1,8,0:3:0:0:
509,247,36212,2,0,L|514:162,1,76.4999976654053,10|0,0:2|0:2,0:2:0:0:
386,308,36498,2,0,L|381:390,1,76.4999976654053,2|0,0:2|0:2,0:2:0:0:
301,168,36784,2,0,L|306:79,1,76.4999976654053,10|0,0:2|0:2,0:2:0:0:
109,206,37070,1,6,0:2:0:0:
109,206,37141,1,0,0:2:0:0:
109,206,37212,1,0,0:2:0:0:
192,258,37355,6,0,P|223:260|263:239,1,76.4999976654053,10|0,0:2|0:2,0:2:0:0:
109,206,37641,1,2,0:2:0:0:
57,289,37784,2,0,P|55:320|76:360,1,76.4999976654053,2|8,0:2|0:2,0:2:0:0:
109,206,38070,5,0,0:2:0:0:
161,123,38212,2,0,P|163:92|142:52,1,76.4999976654053,2|0,0:2|0:2,0:2:0:0:
142,52,38427,1,0,0:2:0:0:
142,52,38498,1,10,0:2:0:0:
269,202,38641,2,0,P|268:164|287:131,1,76.4999976654053,2|0,0:2|0:2,0:2:0:0:
415,259,38927,1,2,0:2:0:0:
460,180,39070,2,0,P|460:142|441:109,1,76.4999976654053,8|0,0:2|0:2,0:2:0:0:
308,307,39355,5,2,0:2:0:0:
308,307,39427,1,0,0:2:0:0:
308,307,39498,1,0,0:2:0:0:
407,377,39641,1,8,0:2:0:0:
415,259,39784,1,0,0:2:0:0:
308,307,39927,1,2,0:2:0:0:
407,377,40070,1,2,0:2:0:0:
320,186,40212,1,10,0:2:0:0:
229,382,40355,1,2,0:2:0:0:
0,192,40641,5,8,0:3:0:0:
0,192,40712,1,8,0:3:0:0:
0,192,40784,2,0,L|77:188,1,76.4999976654053,8|0,0:2|0:2,0:2:0:0:
176,286,41070,1,8,0:2:0:0:
176,286,41141,1,8,0:2:0:0:
176,286,41212,1,8,0:2:0:0:
284,85,41355,1,10,0:3:0:0:
385,352,41498,1,10,0:3:0:0:
480,192,41641,5,6,0:1:0:0:
256,352,41855,1,2,0:1:0:0:
38,188,42070,1,2,0:1:0:0:
38,188,42141,1,0,0:3:0:0:
38,188,42212,1,0,0:2:0:0:
66,282,42355,1,0,0:2:0:0:
66,282,42641,5,8,0:2:0:0:
164,148,42784,2,2,B|188:110|188:110|147:26,1,118.999996368408,2|0,0:2|0:2,0:1:0:0:
43,193,43212,5,0,0:3:0:0:
43,193,43284,1,0,0:3:0:0:
43,193,43355,1,0,0:3:0:0:
177,272,43498,1,0,0:3:0:0:
340,79,43784,5,8,0:2:0:0:
256,0,43927,1,6,0:1:0:0:
128,192,44141,1,2,0:1:0:0:
256,384,44355,1,2,0:1:0:0:
256,384,44427,1,0,0:2:0:0:
256,384,44498,1,0,0:2:0:0:
340,305,44641,1,0,0:2:0:0:
340,305,44927,5,8,0:2:0:0:
483,384,45070,2,2,B|473:353|473:353|479:324|479:324|458:259,1,118.999996368408,2|0,0:2|0:2,0:1:0:0:
391,167,45498,5,0,0:3:0:0:
391,167,45570,1,0,0:3:0:0:
391,167,45641,1,0,0:3:0:0:
340,305,45784,1,0,0:3:0:0:
268,205,45927,1,2,0:2:0:0:
461,269,46070,1,8,0:2:0:0:
422,69,46212,5,6,0:1:0:0:
256,366,46427,1,2,0:1:0:0:
90,69,46641,1,2,0:1:0:0:
90,69,46712,1,0,0:2:0:0:
90,69,46784,1,0,0:2:0:0:
24,159,46927,1,0,0:2:0:0:
24,159,47212,5,8,0:2:0:0:
132,255,47355,2,2,P|140:226|137:197,1,59.4999981842042,2|0,0:2|0:2,0:1:0:0:
217,3,47641,2,0,P|209:31|212:60,1,59.4999981842042,2|0,0:2|0:2,0:2:0:0:
212,60,47855,1,0,0:2:0:0:
212,60,47927,1,2,0:2:0:0:
256,192,48070,1,0,0:2:0:0:
363,130,48212,2,0,L|443:112,1,59.4999981842042,2|0,0:2|0:2,0:2:0:0:
443,260,48498,6,0,P|447:297|441:335,1,76.4999976654053,6|0,0:2|0:2,0:2:0:0:
69,124,48784,2,0,P|64:86|70:48,1,76.4999976654053,10|0,0:2|0:2,0:2:0:0:
395,92,49070,5,10,0:3:0:0:
117,292,49212,1,10,0:3:0:0:
230,140,49355,5,8,0:3:0:0:
243,166,49427,1,8,0:3:0:0:
256,192,49498,1,8,0:3:0:0:
269,218,49570,1,8,0:3:0:0:
282,244,49641,1,12,0:3:0:0:
282,244,50212,6,2,B|305:177|305:177|370:153,1,140.25000428009,0|0,0:2|0:2,0:1:0:0:
370,153,50784,6,0,P|374:110|366:43,1,101.999996887207,6|0,0:2|0:2,0:2:0:0:
169,231,51070,1,10,0:2:0:0:
232,310,51212,2,0,P|268:335|330:361,1,101.999996887207,2|0,0:2|0:2,0:2:0:0:
265,97,51498,1,2,0:2:0:0:
165,112,51641,2,0,P|125:130|71:171,1,101.999996887207,10|0,0:2|0:2,0:2:0:0:
0,275,51927,5,2,0:2:0:0:
93,374,52070,1,8,0:3:0:0:
93,374,52141,1,8,0:3:0:0:
93,374,52212,1,10,0:2:0:0:
225,303,52355,1,2,0:2:0:0:
314,351,52498,1,0,0:2:0:0:
308,246,52641,5,2,0:2:0:0:
195,377,52784,1,10,0:2:0:0:
156,154,52927,1,2,0:2:0:0:
308,89,53070,6,0,P|404:97|423:2,2,203.999993774414,2|8|0,0:2|0:2|0:2,0:1:0:0:
260,178,53784,1,0,0:2:0:0:
227,37,53927,1,10,0:2:0:0:
355,204,54070,2,0,P|411:232|480:239,1,101.999996887207,2|0,0:2|0:2,0:2:0:0:
139,72,54355,5,10,0:3:0:0:
139,72,54427,1,8,0:3:0:0:
139,72,54498,1,8,0:2:0:0:
81,254,54641,2,0,B|202:253|140:176|260:178,1,203.999993774414,2|0,0:2|0:2,0:2:0:0:
449,239,55070,5,8,0:3:0:0:
464,272,55141,1,8,0:3:0:0:
469,307,55212,1,8,0:3:0:0:
466,343,55284,1,8,0:3:0:0:
452,378,55355,2,0,L|347:365,1,101.999996887207,6|0,0:2|0:2,0:2:0:0:
179,283,55641,1,10,0:2:0:0:
384,192,55784,2,0,L|486:192,1,101.999996887207,2|0,0:2|0:2,0:2:0:0:
179,101,56070,1,2,0:2:0:0:
350,18,56212,2,0,L|452:6,1,101.999996887207,10|0,0:2|0:2,0:2:0:0:
256,192,56498,5,2,0:2:0:0:
392,199,56641,1,8,0:3:0:0:
392,199,56712,1,8,0:3:0:0:
392,199,56784,1,10,0:2:0:0:
178,282,56927,2,0,P|219:191|178:100,1,203.999993774414,2|0,0:2|0:2,0:2:0:0:
85,9,57355,5,10,0:2:0:0:
50,99,57498,1,2,0:2:0:0:
188,208,57641,5,2,0:3:0:0:
156,89,57784,1,0,0:2:0:0:
309,14,57927,5,10,0:1:0:0:
248,132,58070,1,0,0:2:0:0:
402,296,58212,5,2,0:1:0:0:
354,114,58355,1,0,0:2:0:0:
456,13,58498,5,10,0:1:0:0:
296,234,58641,2,0,B|519:198,1,203.999993774414,2|8,0:2|0:3,0:2:0:0:
497,201,58998,1,8,0:3:0:0:
497,201,59070,2,0,P|503:149|480:91,1,101.999996887207,10|8,0:2|0:3,0:2:0:0:
237,11,59355,5,8,2:3:0:0:
234,20,59426,1,8,2:3:0:0:
232,29,59497,1,8,2:3:0:0:
230,38,59569,1,8,2:3:0:0:
227,48,59640,1,4,2:3:0:0:
225,57,59712,1,4,2:3:0:0:
223,66,59783,1,4,2:3:0:0:
221,76,59855,1,4,2:3:0:0:
219,86,59927,2,0,L|112:64,1,101.999996887207,6|0,0:2|0:2,0:2:0:0:
201,274,60212,1,10,0:2:0:0:
299,297,60355,2,0,L|406:319,1,101.999996887207,2|0,0:2|0:2,0:2:0:0:
201,274,60641,1,2,0:2:0:0:
395,202,60784,2,0,P|408:163|417:95,1,101.999996887207,10|0,0:2|0:2,0:2:0:0:
247,0,61070,5,2,0:2:0:0:
212,128,61212,1,8,0:3:0:0:
212,128,61284,1,8,0:3:0:0:
212,128,61355,1,8,0:2:0:0:
141,39,61498,5,2,0:2:0:0:
303,83,61641,1,2,0:2:0:0:
254,349,61784,1,2,0:2:0:0:
92,305,61927,1,10,0:2:0:0:
92,305,62070,1,0,0:2:0:0:
246,266,62212,6,0,P|299:315|401:242,2,203.999993774414,2|8|0,0:2|0:2|0:2,0:2:0:0:
174,363,62927,1,0,0:2:0:0:
146,157,63070,1,10,0:2:0:0:
132,52,63212,2,0,P|85:47|11:68,1,101.999996887207,2|0,0:2|0:2,0:2:0:0:
224,267,63498,5,10,0:3:0:0:
224,267,63570,1,8,0:3:0:0:
224,267,63641,1,8,0:2:0:0:
302,192,63784,2,0,P|336:126|295:-6,1,203.999993774414,2|0,0:2|0:2,0:2:0:0:
68,215,64212,5,8,0:3:0:0:
52,250,64284,1,8,0:3:0:0:
47,287,64355,1,8,0:3:0:0:
50,325,64427,1,8,0:3:0:0:
64,361,64498,2,0,P|119:356|173:355,1,101.999996887207,6|0,0:2|0:2,0:2:0:0:
256,192,64784,1,10,0:2:0:0:
165,29,64927,2,0,P|114:27|64:23,1,101.999996887207,2|0,0:2|0:2,0:2:0:0:
256,192,65212,1,2,0:2:0:0:
396,113,65355,2,0,P|400:62|402:11,1,101.999996887207,10|0,0:2|0:2,0:2:0:0:
256,192,65641,5,2,0:2:0:0:
396,271,65784,1,8,0:3:0:0:
396,271,65855,1,8,0:3:0:0:
396,271,65927,1,10,0:2:0:0:
160,362,66070,2,0,P|256:334|351:366,1,203.999993774414,2|0,0:2|0:2,0:2:0:0:
260,196,66498,5,10,0:2:0:0:
260,196,66641,1,2,0:2:0:0:
336,200,66784,5,2,0:1:0:0:
208,257,66927,1,2,0:2:0:0:
222,117,67070,1,10,0:2:0:0:
121,178,67212,5,2,0:1:0:0:
311,315,67355,1,2,0:2:0:0:
335,82,67498,1,2,0:2:0:0:
239,12,67641,5,10,0:1:0:0:
409,275,67784,2,0,P|500:252|482:159,1,203.999993774414,2|8,0:1|0:3,0:2:0:0:
484,161,68141,1,8,0:3:0:0:
484,161,68212,2,0,L|377:151,1,101.999996887207,12|8,0:2|0:3,0:2:0:0:
121,178,68498,5,8,1:3:0:0:
95,206,68570,1,8,1:3:0:0:
83,242,68641,1,8,1:3:0:0:
83,280,68712,1,8,1:3:0:0:
98,314,68784,1,8,1:3:0:0:
125,341,68855,1,8,1:3:0:0:
160,357,68927,1,8,1:3:0:0:
197,359,68998,1,8,1:3:0:0:
235,347,69070,5,6,0:2:0:0:
201,280,69212,1,0,0:2:0:0:
247,221,69355,1,8,0:2:0:0:
207,157,69498,1,2,0:2:0:0:
468,9,69784,5,2,0:2:0:0:
438,77,69927,1,8,0:2:0:0:
394,17,70070,1,2,0:2:0:0:
368,234,70355,5,8,0:3:0:0:
368,234,70427,1,8,0:3:0:0:
368,234,70498,2,0,L|454:229,1,68,10|0,0:2|0:2,0:2:0:0:
305,137,70784,2,0,L|300:51,1,68,2|0,0:2|0:2,0:2:0:0:
271,297,71070,2,0,L|276:383,1,68,10|0,0:2|0:2,0:2:0:0:
208,200,71355,5,2,0:2:0:0:
140,230,71498,1,0,0:2:0:0:
83,180,71641,1,8,0:2:0:0:
151,150,71784,1,2,0:2:0:0:
354,23,72070,5,2,0:2:0:0:
403,79,72212,1,8,0:2:0:0:
473,54,72355,1,2,0:2:0:0:
230,78,72641,5,8,0:3:0:0:
230,78,72712,1,8,0:3:0:0:
230,78,72784,2,0,L|148:67,1,68,10|0,0:2|0:2,0:2:0:0:
285,262,73070,2,0,L|191:254,1,68,2|0,0:2|0:2,0:2:0:0:
383,148,73355,2,0,L|289:140,1,68,10|0,0:2|0:2,0:2:0:0:
444,352,73641,5,6,0:2:0:0:
512,324,73784,1,0,0:2:0:0:
484,256,73927,1,8,0:2:0:0:
416,284,74070,1,2,0:2:0:0:
317,115,74355,5,2,0:2:0:0:
383,148,74498,1,8,0:2:0:0:
379,75,74641,1,2,0:2:0:0:
236,201,74927,5,8,0:3:0:0:
236,201,74998,1,8,0:3:0:0:
236,201,75070,2,0,L|154:209,1,68,10|0,0:2|0:2,0:2:0:0:
351,137,75355,2,0,L|385:61,1,68,2|0,0:2|0:2,0:2:0:0:
349,267,75641,2,0,L|396:334,1,68,10|0,0:2|0:2,0:2:0:0:
236,201,75927,5,2,0:2:0:0:
169,234,76070,1,0,0:2:0:0:
96,215,76212,1,8,0:2:0:0:
33,256,76355,1,2,0:2:0:0:
145,42,76641,5,2,0:2:0:0:
216,64,76784,1,8,0:2:0:0:
282,29,76927,1,2,0:2:0:0:
445,185,77212,5,8,0:3:0:0:
445,185,77284,1,8,0:3:0:0:
445,185,77355,2,0,L|523:196,1,68,10|0,0:2|0:2,0:2:0:0:
373,357,77641,5,8,0:3:0:0:
380,332,77712,1,8,0:3:0:0:
380,307,77784,1,8,0:3:0:0:
370,283,77855,1,8,0:3:0:0:
354,264,77927,1,4,0:3:0:0:
337,245,77998,1,4,0:3:0:0:
328,221,78070,1,4,0:3:0:0:
327,196,78141,1,4,0:3:0:0:
335,172,78212,2,0,P|347:125|335:77,1,85,6|0,0:2|0:2,0:2:0:0:
281,3,78641,5,8,0:3:0:0:
281,3,78712,1,8,0:3:0:0:
281,3,78784,1,8,0:2:0:0:
215,129,78927,1,8,0:2:0:0:
98,384,79212,5,8,0:2:0:0:
0,262,79355,1,6,0:1:0:0:
0,262,79427,1,0,0:2:0:0:
0,262,79498,1,0,0:2:0:0:
118,129,79641,5,10,0:2:0:0:
0,164,79784,1,0,0:2:0:0:
212,244,79927,5,2,0:2:0:0:
85,207,80070,1,0,0:2:0:0:
214,375,80212,5,10,0:2:0:0:
131,282,80355,1,0,0:2:0:0:
282,166,80498,6,0,P|330:145|367:113,1,85,2|8,0:1|0:3,0:2:0:0:
355,125,80712,1,8,0:3:0:0:
355,125,80784,1,10,0:2:0:0:
180,52,80927,2,0,P|137:20|91:4,1,85,2|0,0:2|0:2,0:2:0:0:
132,197,81212,2,0,P|126:249|135:297,1,85,2|10,0:2|0:2,0:2:0:0:
214,375,81498,5,2,0:2:0:0:
251,285,81641,1,2,0:1:0:0:
251,285,81712,1,0,0:2:0:0:
251,285,81784,1,0,0:2:0:0:
310,362,81927,1,8,0:2:0:0:
251,285,82070,1,0,0:2:0:0:
342,147,82212,5,2,0:2:0:0:
433,203,82355,1,2,0:2:0:0:
436,97,82498,1,10,0:2:0:0:
264,201,82641,6,2,P|285:273|367:289,1,152.999995330811,6|0,0:2|1:3,0:1:0:0:
426,287,82927,2,2,L|433:202,1,85,10|8,0:3|0:2,0:1:0:0:
339,29,83212,5,10,0:3:0:0:
339,29,83284,1,8,0:3:0:0:
339,29,83355,1,14,0:1:0:0:
264,201,83498,1,8,0:3:0:0:
436,97,83641,1,10,0:1:0:0:
167,129,83784,1,8,0:3:0:0:
167,129,83855,1,8,0:3:0:0:
167,129,83927,2,0,B|76:113,1,85,4|0,0:1|0:2,0:2:0:0:
226,0,84212,5,10,0:2:0:0:
264,201,84355,1,0,0:2:0:0:
300,106,84498,1,2,0:2:0:0:
149,230,84641,1,0,0:2:0:0:
348,294,84784,1,8,0:2:0:0:
231,384,84927,6,0,P|171:341|77:356,1,170,2|8,0:2|0:3,0:2:0:0:
80,354,85284,1,8,0:3:0:0:
80,354,85355,1,10,0:2:0:0:
178,299,85498,1,0,0:2:0:0:
121,204,85641,1,2,0:2:0:0:
23,259,85784,1,0,0:2:0:0:
45,177,85927,5,10,0:2:0:0:
100,280,86070,1,0,0:2:0:0:
185,135,86212,5,2,0:1:0:0:
185,135,86284,1,0,0:2:0:0:
185,135,86355,1,0,0:2:0:0:
121,204,86498,1,8,0:2:0:0:
116,54,86641,5,2,0:3:0:0:
224,246,86784,1,0,0:3:0:0:
234,20,86927,5,2,0:2:0:0:
121,204,87070,1,8,0:2:0:0:
294,334,87212,6,2,B|396:320|353:382|455:380,1,165.749992412568,6|0,0:2|0:2,0:1:0:0:
502,331,87498,2,2,L|491:245,1,85,10|8,0:3|0:2,0:1:0:0:
410,90,87784,5,8,0:3:0:0:
406,131,87855,1,8,0:3:0:0:
377,161,87927,1,8,0:3:0:0:
336,167,87998,1,8,0:3:0:0:
300,146,88070,1,8,0:3:0:0:
236,33,88212,1,8,0:2:0:0:
202,240,88355,1,8,0:3:0:0:
202,240,88427,1,8,0:3:0:0:
202,240,88498,1,12,0:3:0:0:
59,77,97212,5,12,0:2:0:0:
453,307,97498,1,8,0:2:0:0:
390,211,97641,5,6,0:2:0:0:
390,211,97712,1,0,0:2:0:0:
390,211,97784,1,0,0:2:0:0:
319,334,97927,5,10,0:2:0:0:
202,273,98070,1,0,0:2:0:0:
230,362,98212,1,2,0:2:0:0:
290,245,98355,2,0,P|297:205|283:159,1,76.4999976654053,2|8,0:2|0:2,0:2:0:0:
187,72,98641,5,0,0:2:0:0:
84,137,98784,2,0,P|45:131|13:110,1,76.4999976654053,2|0,0:2|0:2,0:2:0:0:
14,111,98998,1,0,0:2:0:0:
14,111,99070,1,10,0:2:0:0:
194,199,99212,2,0,P|205:236|202:274,1,76.4999976654053,2|0,0:2|0:2,0:2:0:0:
190,75,99498,1,2,0:2:0:0:
190,75,99641,2,0,P|214:45|248:28,1,76.4999976654053,8|0,0:2|0:2,0:0:0:0:
389,120,99927,5,2,0:2:0:0:
389,120,99998,1,0,0:2:0:0:
389,120,100070,1,0,0:2:0:0:
356,221,100212,1,8,0:2:0:0:
424,304,100355,1,0,0:2:0:0:
457,203,100498,1,2,0:2:0:0:
327,319,100641,1,2,0:2:0:0:
457,203,100784,1,10,0:2:0:0:
488,377,100927,1,2,0:2:0:0:
229,175,101212,5,8,0:3:0:0:
229,175,101284,1,8,0:3:0:0:
229,175,101355,2,0,L|139:162,1,76.4999976654053,10|0,0:2|0:2,0:2:0:0:
338,243,101641,2,0,L|327:318,1,76.4999976654053,2|0,0:2|0:2,0:2:0:0:
406,134,101927,2,0,L|481:144,1,76.4999976654053,10|0,0:2|0:2,0:2:0:0:
297,66,102212,1,6,0:2:0:0:
297,66,102284,1,0,0:2:0:0:
297,66,102355,1,0,0:2:0:0:
399,41,102498,6,0,L|484:22,1,76.4999976654053,10|0,0:2|0:2,0:2:0:0:
297,66,102784,1,2,0:2:0:0:
322,168,102927,2,0,L|340:253,1,76.4999976654053,2|8,0:2|0:2,0:2:0:0:
297,66,103212,5,0,0:2:0:0:
120,106,103355,2,0,L|195:91,1,76.4999976654053,2|0,0:2|0:2,0:2:0:0:
195,91,103570,1,0,0:2:0:0:
195,91,103641,1,10,0:2:0:0:
149,322,103784,2,0,L|74:337,1,76.4999976654053,2|0,0:2|0:2,0:2:0:0:
202,214,104070,1,2,0:2:0:0:
275,310,104212,2,0,L|290:384,1,76.4999976654053,8|0,0:2|0:2,0:2:0:0:
369,169,104498,5,2,0:2:0:0:
369,169,104570,1,0,0:2:0:0:
369,169,104641,1,0,0:2:0:0:
512,180,104784,1,8,0:2:0:0:
369,169,104927,1,0,0:2:0:0:
464,84,105070,5,2,0:2:0:0:
417,271,105212,1,2,0:2:0:0:
464,84,105355,1,10,0:2:0:0:
417,271,105498,1,2,0:2:0:0:
198,76,105784,5,8,0:3:0:0:
198,76,105855,1,8,0:3:0:0:
198,76,105927,2,0,L|194:-1,1,76.4999976654053,8|0,0:2|0:2,0:2:0:0:
106,152,106212,1,8,0:2:0:0:
106,152,106284,1,8,0:2:0:0:
106,152,106355,1,8,0:2:0:0:
269,229,106498,1,10,0:3:0:0:
67,384,106641,1,10,0:3:0:0:
18,235,106784,5,6,0:1:0:0:
256,384,106998,1,2,0:1:0:0:
494,235,107212,1,2,0:1:0:0:
494,235,107284,1,0,0:3:0:0:
494,235,107355,1,0,0:2:0:0:
446,345,107498,1,0,0:2:0:0:
446,345,107784,5,8,0:2:0:0:
394,203,107927,2,2,B|386:169|386:169|396:141|396:141|380:85,1,118.999996368408,2|0,0:2|0:2,0:1:0:0:
256,0,108355,5,0,0:3:0:0:
256,0,108427,1,0,0:3:0:0:
256,0,108498,1,0,0:3:0:0:
179,142,108641,1,0,0:3:0:0:
256,384,108927,5,8,0:2:0:0:
149,324,109070,1,6,0:1:0:0:
361,192,109284,1,2,0:1:0:0:
149,60,109498,1,2,0:1:0:0:
149,60,109570,1,0,0:2:0:0:
149,60,109641,1,0,0:2:0:0:
256,0,109784,1,0,0:2:0:0:
256,0,110070,5,8,0:2:0:0:
149,60,110212,2,2,P|123:56|86:43,1,59.4999981842042,2|0,0:2|0:0,0:1:0:0:
299,132,110498,2,0,P|327:122|356:117,1,59.4999981842042,0|0,0:2|0:3,0:0:0:0:
356,117,110712,1,0,0:3:0:0:
356,117,110784,1,0,0:3:0:0:
462,176,110927,1,0,0:3:0:0:
329,237,111070,1,2,0:2:0:0:
490,288,111212,1,8,0:2:0:0:
471,77,111355,5,6,0:1:0:0:
256,320,111570,1,2,0:1:0:0:
41,77,111784,1,2,0:1:0:0:
41,77,111855,1,0,0:2:0:0:
41,77,111927,1,0,0:2:0:0:
57,184,112070,1,0,0:2:0:0:
57,184,112355,5,8,0:2:0:0:
156,248,112498,2,2,L|240:239,1,59.4999981842042,2|0,0:2|0:2,0:1:0:0:
315,67,112784,2,0,L|255:60,1,59.4999981842042,2|0,0:2|0:2,0:2:0:0:
255,60,112998,1,0,0:2:0:0:
255,60,113070,1,2,0:2:0:0:
347,181,113212,1,0,0:2:0:0:
429,78,113355,2,0,L|438:-1,1,59.4999981842042,2|0,0:2|0:2,0:2:0:0:
145,67,113641,6,0,L|58:58,1,76.4999976654053,6|0,0:2|0:2,0:2:0:0:
367,317,113927,2,0,L|454:326,1,76.4999976654053,10|0,0:2|0:2,0:2:0:0:
308,38,114212,5,10,0:3:0:0:
204,346,114355,1,10,0:3:0:0:
218,147,114498,5,8,0:3:0:0:
246,162,114570,1,8,0:3:0:0:
256,192,114641,1,8,0:3:0:0:
265,221,114712,1,8,0:3:0:0:
293,236,114784,1,12,0:3:0:0:
122,33,115355,5,8,0:3:0:0:
122,33,115427,1,8,0:3:0:0:
122,33,115498,1,8,0:3:0:0:
122,33,115570,1,8,0:3:0:0:
122,33,115641,1,8,0:3:0:0:
122,33,115712,1,8,0:3:0:0:
122,33,115784,1,8,0:3:0:0:
122,33,115855,1,8,0:3:0:0:
122,33,115927,2,0,L|114:153,1,101.999996887207,6|0,0:2|0:2,0:2:0:0:
305,224,116212,1,10,0:2:0:0:
415,58,116355,2,0,L|295:50,1,101.999996887207,2|0,0:2|0:2,0:2:0:0:
209,250,116641,1,2,0:2:0:0:
390,351,116784,2,0,L|398:231,1,101.999996887207,10|0,0:2|0:2,0:2:0:0:
191,146,117070,5,2,0:2:0:0:
312,231,117212,1,8,0:3:0:0:
312,231,117284,1,8,0:3:0:0:
312,231,117355,1,10,0:2:0:0:
294,128,117498,1,2,0:2:0:0:
209,250,117641,1,0,0:2:0:0:
276,340,117784,5,2,0:2:0:0:
116,135,117927,1,10,0:2:0:0:
374,99,118070,1,2,0:2:0:0:
201,4,118212,6,0,P|98:83|61:51,2,203.999993774414,2|8|0,0:2|0:2|0:2,0:1:0:0:
116,135,118927,1,0,0:2:0:0:
209,250,119070,1,10,0:2:0:0:
74,384,119212,2,0,L|84:240,1,101.999996887207,2|0,0:2|0:2,0:2:0:0:
283,141,119498,5,10,0:3:0:0:
283,141,119570,1,8,0:3:0:0:
283,141,119641,1,8,0:2:0:0:
411,313,119784,2,0,L|396:102,1,203.999993774414,2|0,0:2|0:2,0:2:0:0:
134,0,120212,5,8,0:3:0:0:
149,32,120284,1,8,0:3:0:0:
149,67,120355,1,8,0:3:0:0:
130,97,120427,1,8,0:3:0:0:
101,117,120498,2,0,L|-10:130,1,101.999996887207,6|0,0:2|0:2,0:2:0:0:
256,192,120784,1,10,0:2:0:0:
101,313,120927,2,0,L|-10:300,1,101.999996887207,2|0,0:2|0:2,0:2:0:0:
256,192,121212,1,2,0:2:0:0:
411,313,121355,2,0,L|522:300,1,101.999996887207,10|0,0:2|0:2,0:2:0:0:
256,192,121641,5,2,0:2:0:0:
411,117,121784,1,8,0:3:0:0:
411,117,121855,1,8,0:3:0:0:
411,117,121927,1,10,0:2:0:0:
255,3,122070,2,0,B|239:64|239:64|276:131|276:131|256:192,1,203.999993774414,2|0,0:2|0:2,0:2:0:0:
67,382,122498,5,10,0:2:0:0:
25,292,122641,1,2,0:2:0:0:
155,170,122784,5,2,0:3:0:0:
113,302,122927,1,0,0:2:0:0:
327,374,123070,5,10,0:1:0:0:
189,255,123212,1,0,0:2:0:0:
402,91,123355,5,2,0:1:0:0:
286,271,123498,1,0,0:2:0:0:
459,368,123641,5,10,0:1:0:0:
314,140,123784,2,0,B|393:204|393:204|491:175,1,203.999993774414,2|8,0:2|0:3,0:2:0:0:
491,174,124141,1,8,0:3:0:0:
491,174,124212,2,0,L|499:65,1,101.999996887207,10|8,0:2|0:3,0:2:0:0:
152,0,124498,5,8,2:3:0:0:
118,20,124570,1,8,2:3:0:0:
105,55,124641,1,8,2:3:0:0:
117,91,124712,1,8,2:3:0:0:
148,113,124784,1,4,2:3:0:0:
178,134,124855,1,4,2:3:0:0:
190,169,124927,1,4,2:3:0:0:
177,204,124998,1,4,2:3:0:0:
145,225,125070,2,0,L|27:239,1,101.999996887207,6|0,0:2|0:2,0:2:0:0:
256,352,125355,1,10,0:2:0:0:
344,183,125498,2,0,P|347:140|312:71,1,101.999996887207,2|0,0:2|0:2,0:2:0:0:
256,352,125784,1,2,0:2:0:0:
401,337,125927,2,0,L|519:323,1,101.999996887207,10|0,0:2|0:2,0:2:0:0:
326,87,126212,5,2,0:2:0:0:
256,192,126355,1,8,0:3:0:0:
256,192,126427,1,8,0:3:0:0:
256,192,126498,1,8,0:2:0:0:
162,109,126641,1,2,0:2:0:0:
230,8,126784,1,2,0:2:0:0:
387,238,126927,1,2,0:2:0:0:
143,271,127070,1,10,0:2:0:0:
256,192,127212,1,0,0:2:0:0:
367,345,127355,6,0,B|468:365|468:365|488:231,2,203.999993774414,2|8|0,0:2|0:2|0:2,0:2:0:0:
287,384,128070,1,0,0:2:0:0:
256,192,128212,1,10,0:2:0:0:
414,139,128355,2,0,L|547:101,1,101.999996887207,2|0,0:2|0:2,0:2:0:0:
225,0,128641,5,10,0:3:0:0:
225,0,128712,1,8,0:3:0:0:
225,0,128784,1,8,0:2:0:0:
82,108,128927,2,0,P|49:202|74:299,1,203.999993774414,2|0,0:2|0:2,0:2:0:0:
299,376,129355,5,8,0:3:0:0:
336,366,129427,1,8,0:3:0:0:
373,361,129498,1,8,0:3:0:0:
412,361,129570,1,8,0:3:0:0:
450,366,129641,1,6,0:2:0:0:
340,250,129784,1,2,0:2:0:0:
484,159,129927,1,10,0:2:0:0:
368,101,130070,2,0,L|354:-9,1,101.999996887207,2|0,0:2|0:2,0:2:0:0:
172,250,130355,1,2,0:2:0:0:
144,101,130498,2,0,L|158:-9,1,101.999996887207,10|0,0:2|0:2,0:2:0:0:
28,159,130784,5,2,0:2:0:0:
256,192,130927,1,8,0:3:0:0:
256,192,130998,1,8,0:3:0:0:
256,192,131070,1,10,0:2:0:0:
136,384,131212,2,0,L|113:161,1,203.999993774414,2|0,0:2|0:2,0:2:0:0:
256,0,131641,5,10,0:2:0:0:
256,0,131784,1,2,0:2:0:0:
115,181,131927,5,2,0:1:0:0:
390,203,132070,1,2,0:2:0:0:
188,51,132212,5,10,0:1:0:0:
318,325,132355,1,2,0:2:0:0:
352,51,132498,5,2,0:1:0:0:
163,324,132641,1,2,0:2:0:0:
256,192,132784,5,10,0:1:0:0:
411,373,132927,2,0,P|502:350|484:257,1,203.999993774414,2|8,0:1|0:3,0:2:0:0:
486,259,133284,1,8,0:3:0:0:
486,259,133355,2,0,L|379:249,1,101.999996887207,12|8,0:2|0:3,0:2:0:0:
138,80,133641,5,8,1:3:0:0:
139,118,133712,1,8,1:3:0:0:
156,152,133784,1,8,1:3:0:0:
183,178,133855,1,8,1:3:0:0:
217,192,133927,1,8,1:3:0:0:
256,192,133998,1,8,1:3:0:0:
292,178,134070,1,8,1:3:0:0:
319,154,134141,1,8,1:3:0:0:
338,118,134212,5,6,0:2:0:0:
306,50,134355,1,0,0:2:0:0:
363,1,134498,1,8,0:2:0:0:
395,69,134641,1,2,0:2:0:0:
512,211,134927,5,2,0:2:0:0:
491,139,135070,1,8,0:2:0:0:
439,192,135212,1,2,0:2:0:0:
311,290,135498,5,8,0:3:0:0:
311,290,135570,1,8,0:3:0:0:
311,290,135641,2,0,L|397:285,1,68,10|0,0:2|0:2,0:2:0:0:
220,149,135927,2,0,L|306:144,1,68,2|0,0:2|0:2,0:2:0:0:
158,351,136212,2,0,L|244:346,1,68,10|0,0:2|0:2,0:2:0:0:
92,260,136498,5,2,0:2:0:0:
121,191,136641,1,0,0:2:0:0:
68,138,136784,1,8,0:2:0:0:
39,207,136927,1,2,0:2:0:0:
148,26,137212,5,2,0:2:0:0:
205,73,137355,1,8,0:2:0:0:
268,33,137498,1,2,0:2:0:0:
438,105,137784,5,8,0:3:0:0:
438,105,137855,1,8,0:3:0:0:
438,105,137927,2,0,L|427:23,1,68,10|0,0:2|0:2,0:2:0:0:
324,184,138212,2,0,L|247:152,1,68,2|0,0:2|0:2,0:2:0:0:
335,322,138498,2,0,L|269:372,1,68,10|0,0:2|0:2,0:2:0:0:
175,308,138784,5,6,0:2:0:0:
206,241,138927,1,0,0:2:0:0:
140,209,139070,1,8,0:2:0:0:
108,276,139212,1,2,0:2:0:0:
324,184,139498,5,2,0:2:0:0:
385,224,139641,1,8,0:2:0:0:
390,151,139784,1,2,0:2:0:0:
225,81,140070,5,8,0:3:0:0:
225,81,140141,1,8,0:3:0:0:
225,81,140212,2,0,L|143:73,1,68,10|0,0:2|0:2,0:2:0:0:
326,74,140498,2,0,L|334:-8,1,68,2|0,0:2|0:2,0:2:0:0:
390,151,140784,2,0,L|472:159,1,68,10|0,0:2|0:2,0:2:0:0:
316,262,141070,5,2,0:2:0:0:
242,246,141212,1,0,0:2:0:0:
180,288,141355,1,8,0:2:0:0:
106,274,141498,1,2,0:2:0:0:
0,133,141784,5,2,0:2:0:0:
67,165,141927,1,8,0:2:0:0:
130,124,142070,1,2,0:2:0:0:
359,246,142355,5,8,0:3:0:0:
359,246,142427,1,8,0:3:0:0:
359,246,142498,2,0,L|345:168,1,68,10|0,0:2|0:2,0:2:0:0:
237,32,142784,5,8,0:3:0:0:
246,55,142855,1,8,0:3:0:0:
247,80,142927,1,8,0:3:0:0:
239,104,142998,1,8,0:3:0:0:
224,124,143070,1,4,0:3:0:0:
202,137,143141,1,4,0:3:0:0:
177,142,143212,1,4,0:3:0:0:
152,137,143284,1,4,0:3:0:0:
130,123,143355,2,0,B|143:84|143:84|127:43,1,85,6|0,0:2|0:2,0:2:0:0:
24,216,143641,5,10,0:2:0:0:
24,216,143712,1,0,0:3:0:0:
24,216,143784,1,0,0:3:0:0:
24,216,143855,1,0,0:3:0:0:
24,216,143927,2,0,B|12:258|12:258|26:296,1,85,2|2,0:2|0:2,0:2:0:0:
256,384,144355,5,10,0:2:0:0:
264,281,144498,1,2,0:2:0:0:
273,178,144641,1,2,0:2:0:0:
419,5,144927,5,10,0:2:0:0:
464,165,145070,1,2,0:2:0:0:
419,5,145212,1,2,0:2:0:0:
360,196,145355,1,10,0:2:0:0:
419,5,145498,1,10,0:2:0:0:
226,64,145641,5,2,0:2:0:0:
215,63,145712,1,0,0:2:0:0:
203,63,145784,1,0,0:2:0:0:
194,62,145855,1,0,0:2:0:0:
182,62,145927,1,8,0:2:0:0:
172,61,145998,1,0,0:2:0:0:
161,61,146070,1,0,0:2:0:0:
150,61,146141,1,0,0:2:0:0:
140,60,146212,2,0,B|106:54|106:54|94:58|94:58|56:51,1,85,2|2,0:2|0:2,0:2:0:0:
256,192,146641,5,14,0:2:0:0:
158,243,146784,1,2,0:2:0:0:
109,342,146927,1,2,0:2:0:0:
256,192,147212,5,14,0:2:0:0:
354,141,147355,1,2,0:2:0:0:
403,42,147498,1,2,0:2:0:0:
296,0,147641,5,8,0:2:0:0:
298,8,147712,1,8,0:2:0:0:
301,16,147784,1,8,0:2:0:0:
303,24,147855,1,8,0:2:0:0:
328,47,147927,5,6,0:2:0:0:
325,62,147998,1,0,0:2:0:0:
322,78,148070,1,0,0:2:0:0:
319,94,148141,1,0,0:2:0:0:
316,109,148212,1,8,0:2:0:0:
313,125,148284,1,0,0:2:0:0:
310,141,148355,1,0,0:2:0:0:
307,156,148427,1,0,0:2:0:0:
304,172,148498,2,0,L|320:270,1,85,2|2,0:2|0:2,0:2:0:0:
80,384,148927,5,10,0:2:0:0:
108,286,149070,1,2,0:2:0:0:
75,189,149212,1,2,0:2:0:0:
228,0,149498,5,10,0:2:0:0:
172,158,149641,1,2,0:2:0:0:
228,0,149784,1,2,0:2:0:0:
244,204,149927,1,10,0:2:0:0:
228,0,150070,1,10,0:2:0:0:
340,151,150212,5,2,0:2:0:0:
350,152,150284,1,0,0:2:0:0:
361,153,150355,1,0,0:2:0:0:
371,154,150427,1,0,0:2:0:0:
382,155,150498,1,8,0:2:0:0:
392,157,150570,1,0,0:2:0:0:
403,158,150641,1,0,0:2:0:0:
413,159,150712,1,0,0:2:0:0:
424,160,150784,2,0,B|458:164|458:164|468:172|468:172|505:177,1,85,2|2,0:2|0:2,0:2:0:0:
256,192,151212,5,14,0:2:0:0:
153,150,151355,1,2,0:2:0:0:
104,50,151498,1,2,0:2:0:0:
256,192,151784,5,14,0:2:0:0:
359,234,151927,1,2,0:2:0:0:
408,334,152070,1,2,0:2:0:0:
499,272,152212,5,8,0:2:0:0:
502,263,152284,1,8,0:2:0:0:
505,254,152355,1,8,0:2:0:0:
508,245,152427,1,8,0:2:0:0:
511,236,152498,5,6,0:1:0:0:
433,102,152641,1,2,0:2:0:0:
373,248,152784,1,10,0:1:0:0:
373,248,152855,1,2,0:2:0:0:
373,248,152927,1,2,0:2:0:0:
373,248,152998,1,2,0:2:0:0:
373,248,153070,2,2,B|353:294|353:294|378:349,1,101.999996887207,2|0,0:2|0:2,0:1:0:0:
227,181,153355,1,10,0:2:0:0:
331,93,153498,2,2,B|351:46|351:46|329:0,1,101.999996887207,2|0,0:2|0:2,0:1:0:0:
144,15,153784,5,10,0:3:0:0:
144,15,153855,1,8,0:3:0:0:
144,15,153927,1,8,0:1:0:0:
331,93,154070,1,2,0:2:0:0:
141,184,154212,2,2,B|102:180|102:180|85:190|85:190|19:182,1,101.999996887207,2|8,0:1|0:3,0:1:0:0:
26,182,154427,1,8,0:3:0:0:
10,180,154498,1,10,0:1:0:0:
76,372,154641,1,2,0:2:0:0:
260,197,154784,5,2,0:1:0:0:
368,331,154927,1,2,0:2:0:0:
368,331,154998,1,2,0:2:0:0:
368,331,155070,2,2,B|457:380|457:380|506:291,1,203.999993774414,10|0,0:2|0:2,0:1:0:0:
480,76,155498,5,2,0:2:0:0:
423,261,155641,1,10,0:1:0:0:
337,100,155784,1,2,0:2:0:0:
337,100,155855,1,2,0:2:0:0:
337,100,155927,2,2,B|330:72|330:72|334:47|334:47|317:-19,1,101.999996887207,2|8,0:2|0:3,0:1:0:0:
322,0,156141,1,8,0:3:0:0:
322,0,156212,1,10,0:1:0:0:
249,183,156355,1,2,0:2:0:0:
192,53,156498,5,2,0:1:0:0:
154,297,156641,1,2,0:2:0:0:
99,171,156784,5,8,1:2:0:0:
101,158,156855,1,8,1:2:0:0:
103,145,156927,1,8,1:2:0:0:
106,133,156998,1,8,1:2:0:0:
108,120,157070,5,6,0:1:0:0:
129,136,157141,1,0,0:2:0:0:
155,149,157212,1,0,0:2:0:0:
183,154,157284,1,0,0:2:0:0:
212,152,157355,1,10,0:2:0:0:
240,142,157427,1,0,0:2:0:0:
263,127,157498,1,0,0:2:0:0:
282,105,157570,1,0,0:2:0:0:
296,80,157641,1,2,0:2:0:0:
308,53,157712,1,0,0:2:0:0:
328,31,157784,1,0,0:2:0:0:
353,15,157855,1,0,0:2:0:0:
379,5,157927,1,10,0:2:0:0:
408,3,157998,1,0,0:2:0:0:
435,9,158070,1,0,0:2:0:0:
462,21,158141,1,0,0:2:0:0:
485,39,158212,6,0,L|495:150,1,110.499994941712,2|8,0:1|0:3,0:2:0:0:
496,177,158427,1,8,0:3:0:0:
495,204,158498,2,0,L|485:315,1,110.499994941712,10|10,0:1|0:3,0:2:0:0:
254,384,158784,2,0,L|244:273,1,110.499994941712,2|10,0:1|0:2,0:2:0:0:
160,143,159070,5,10,0:2:0:0:
119,181,159165,1,2,0:2:0:0:
65,194,159260,1,2,0:2:0:0:
12,178,159355,2,0,B|-11:126|-11:126|15:51,1,110.499994941712,2|0,0:1|0:2,0:2:0:0:
179,1,159641,5,10,0:1:0:0:
182,28,159712,1,0,0:2:0:0:
184,56,159784,1,0,0:2:0:0:
186,83,159855,1,0,0:2:0:0:
188,111,159927,1,2,0:1:0:0:
190,138,159998,1,0,0:2:0:0:
193,166,160070,1,0,0:2:0:0:
195,193,160141,1,0,0:2:0:0:
197,221,160212,1,10,0:1:0:0:
199,248,160284,1,0,0:2:0:0:
201,276,160355,1,0,0:2:0:0:
204,303,160427,1,0,0:2:0:0:
208,331,160498,5,2,0:1:0:0:
214,311,160570,1,0,0:2:0:0:
220,291,160641,1,0,0:2:0:0:
226,271,160712,1,0,0:2:0:0:
232,251,160784,1,10,0:1:0:0:
238,231,160855,1,0,0:2:0:0:
244,211,160927,1,0,0:2:0:0:
250,192,160998,1,0,0:2:0:0:
256,172,161070,5,10,0:1:0:0:
296,209,161141,1,8,0:2:0:0:
350,204,161212,1,8,0:2:0:0:
383,162,161284,1,8,0:2:0:0:
375,109,161355,2,0,L|362:54,1,42.5,10|0,0:3|0:2,0:2:0:0:
283,41,161498,2,0,L|274:0,1,42.5,10|0,0:3|0:2,0:2:0:0:
208,96,161641,6,0,P|184:105|110:86,2,102,14|8|8,0:3|0:3|0:3,0:2:0:0:
365,67,162212,6,0,P|405:55|456:57,1,68,10|0,0:3|0:2,0:2:0:0:
456,77,162427,2,0,P|486:105|510:150,1,68,8|0,0:3|0:2,0:2:0:0:
497,161,162641,1,8,0:3:0:0:
451,247,162784,6,0,L|362:237,1,68,10|0,0:2|0:2,0:2:0:0:
357,261,162998,2,0,L|268:251,1,68,8|0,0:3|0:2,0:2:0:0:
263,276,163212,1,8,0:3:0:0:
171,327,163355,6,0,L|160:376,2,34,10|8|8,0:3|0:3|0:3,0:2:0:0:
174,292,163570,2,0,L|165:206,1,68,2|0,0:2|0:2,0:2:0:0:
143,199,163784,1,2,0:2:0:0:
73,282,163927,1,2,0:2:0:0:
256,192,170784,12,0,172498,0:2:0:0:
182,159,172784,5,2,0:2:0:0:
182,159,172927,1,2,0:2:0:0:
256,192,172998,12,0,174212,0:2:0:0:
257,360,174498,6,0,B|218:245|295:245|257:130,1,233.750007133484,2|2,0:2|0:2,0:2:0:0:
183,22,175355,6,0,P|132:23|51:18,1,110.499994941712,6|0,0:2|0:2,0:2:0:0:
425,119,175641,2,0,P|425:68|430:-13,1,110.499994941712,10|0,0:2|0:2,0:2:0:0:
328,361,175927,2,0,P|380:361|461:366,1,110.499994941712,2|0,0:2|0:2,0:2:0:0:
86,264,176212,2,0,P|87:316|82:397,1,110.499994941712,10|0,0:2|0:2,0:2:0:0:
216,108,176498,5,2,0:2:0:0:
295,275,176641,1,8,0:3:0:0:
295,275,176712,1,8,0:3:0:0:
295,275,176784,1,10,0:2:0:0:
340,153,176927,1,2,0:2:0:0:
173,231,177070,1,0,0:2:0:0:
88,131,177212,5,2,0:2:0:0:
195,360,177355,1,10,0:2:0:0:
424,253,177498,1,2,0:2:0:0:
317,24,177641,6,0,B|414:73|414:73|533:5,1,220.999989883423,2|8,0:2|0:2,0:2:0:0:
341,175,178070,1,0,0:2:0:0:
206,79,178212,1,2,0:2:0:0:
296,268,178355,1,0,0:2:0:0:
66,267,178498,5,10,0:2:0:0:
165,384,178641,2,0,P|180:262|203:158,1,220.999989883423,2|8,0:2|0:3,0:2:0:0:
200,166,178998,1,8,0:3:0:0:
200,166,179070,1,8,0:2:0:0:
481,315,179212,2,0,P|466:193|443:89,1,220.999989883423,2|0,0:2|0:2,0:2:0:0:
181,0,179641,5,8,0:3:0:0:
187,40,179712,1,8,0:3:0:0:
176,80,179784,1,8,0:3:0:0:
146,108,179855,1,8,0:3:0:0:
106,121,179927,2,0,P|54:102|-1:98,1,110.499994941712,6|0,0:2|0:2,0:2:0:0:
256,192,180212,1,10,0:2:0:0:
406,121,180355,2,0,P|424:71|426:-9,1,110.499994941712,2|0,0:2|0:2,0:2:0:0:
256,192,180641,1,2,0:2:0:0:
106,263,180784,2,0,P|88:313|86:393,1,110.499994941712,10|0,0:2|0:2,0:2:0:0:
256,192,181070,5,2,0:2:0:0:
406,263,181212,1,8,0:3:0:0:
406,263,181284,1,8,0:3:0:0:
406,263,181355,1,10,0:2:0:0:
180,91,181498,2,0,P|256:158|331:91,1,220.999989883423,2|0,0:2|0:2,0:2:0:0:
51,0,181927,5,10,0:2:0:0:
0,120,182070,1,0,0:2:0:0:
136,250,182212,5,2,0:2:0:0:
91,95,182355,1,0,0:2:0:0:
265,0,182498,5,10,0:1:0:0:
176,157,182641,1,0,0:2:0:0:
375,291,182784,5,2,0:1:0:0:
255,98,182927,1,0,0:2:0:0:
447,12,183070,5,10,0:1:0:0:
261,249,183212,2,0,P|333:175|458:216,1,220.999989883423,2|8,0:2|0:3,0:2:0:0:
439,196,183570,1,8,0:3:0:0:
439,196,183641,1,10,0:2:0:0:
422,376,183784,1,8,0:2:0:0:
261,249,183927,5,8,0:3:0:0:
274,216,183998,1,8,0:3:0:0:
281,181,184070,1,8,0:3:0:0:
280,145,184141,1,8,0:3:0:0:
272,111,184212,1,4,0:3:0:0:
256,79,184284,1,4,0:3:0:0:
234,51,184355,1,4,0:3:0:0:
207,28,184427,1,4,0:3:0:0:
175,10,184498,2,0,P|122:17|65:18,1,110.499994941712,6|0,0:2|0:2,0:2:0:0:
336,373,184784,2,0,P|390:367|446:365,1,110.499994941712,10|0,0:2|0:2,0:2:0:0:
74,272,185070,2,0,P|81:326|82:382,1,110.499994941712,2|0,0:2|0:2,0:2:0:0:
437,111,185355,2,0,P|431:58|429:1,1,110.499994941712,10|0,0:2|0:2,0:2:0:0:
225,105,185641,5,2,0:2:0:0:
286,277,185784,1,8,0:3:0:0:
286,277,185855,1,8,0:3:0:0:
286,277,185927,1,10,0:2:0:0:
146,228,186070,1,2,0:2:0:0:
196,19,186212,1,2,0:2:0:0:
364,153,186355,1,2,0:2:0:0:
315,363,186498,1,10,0:2:0:0:
256,192,186641,1,0,0:2:0:0:
488,149,186784,6,0,L|499:258,1,110.499994941712,2|0,0:2|0:2,0:2:0:0:
48,125,187070,2,0,L|36:234,1,110.499994941712,10|0,0:2|0:2,0:2:0:0:
386,0,187355,2,0,L|397:109,1,110.499994941712,2|0,0:2|0:2,0:2:0:0:
132,238,187641,5,10,0:2:0:0:
285,365,187784,2,0,P|175:356|65:352,1,220.999989883423,2|8,0:2|0:3,0:2:0:0:
63,353,188141,1,8,0:3:0:0:
63,353,188212,1,8,0:2:0:0:
291,194,188355,2,0,P|401:190|511:181,1,220.999989883423,2|0,0:2|0:2,0:2:0:0:
177,167,188784,5,8,0:3:0:0:
188,127,188855,1,8,0:3:0:0:
189,85,188927,1,8,0:3:0:0:
179,45,188998,1,8,0:3:0:0:
159,9,189070,1,6,0:2:0:0:
32,113,189212,1,2,0:2:0:0:
256,192,189355,1,10,0:2:0:0:
109,362,189498,2,0,P|60:373|-13:382,1,110.499994941712,2|0,0:2|0:2,0:2:0:0:
256,192,189784,1,2,0:2:0:0:
403,362,189927,2,0,P|452:373|525:382,1,110.499994941712,10|0,0:2|0:2,0:2:0:0:
256,32,190212,5,2,0:2:0:0:
188,283,190355,1,8,0:3:0:0:
188,283,190427,1,8,0:3:0:0:
188,283,190498,1,10,0:2:0:0:
11,62,190641,2,0,P|44:162|149:164,1,220.999989883423,2|0,0:2|0:2,0:2:0:0:
366,37,191070,5,10,0:2:0:0:
366,37,191212,1,2,0:2:0:0:
368,203,191355,5,2,0:1:0:0:
208,86,191498,1,2,0:2:0:0:
188,283,191641,1,10,0:2:0:0:
66,172,191784,5,2,0:1:0:0:
333,364,191927,1,2,0:2:0:0:
366,37,192070,1,2,0:2:0:0:
156,0,192212,5,10,0:1:0:0:
365,293,192355,2,0,B|467:331|467:331|513:228,1,220.999989883423,2|8,0:1|0:3,0:2:0:0:
512,228,192712,1,8,0:3:0:0:
512,228,192784,2,0,L|494:118,1,110.499994941712,12|0,0:2|0:2,0:2:0:0:
156,0,193070,5,8,0:3:0:0:
126,35,193141,1,8,0:3:0:0:
119,81,193212,1,8,0:3:0:0:
137,124,193284,1,8,0:3:0:0:
175,151,193355,1,8,0:3:0:0:
211,178,193427,1,8,0:3:0:0:
229,221,193498,1,8,0:3:0:0:
223,267,193570,1,8,0:3:0:0:
194,303,193641,5,6,0:2:0:0:
125,271,193784,1,0,0:2:0:0:
84,333,193927,1,8,0:2:0:0:
16,300,194070,1,2,0:2:0:0:
53,148,194355,5,2,0:2:0:0:
122,174,194498,1,8,0:2:0:0:
110,101,194641,1,2,0:2:0:0:
301,34,194927,5,8,0:3:0:0:
301,34,194998,1,8,0:3:0:0:
301,34,195070,2,0,L|386:20,1,68,10|0,0:2|0:2,0:2:0:0:
263,133,195355,2,0,L|333:183,1,68,2|0,0:2|0:2,0:2:0:0:
166,176,195641,2,0,L|180:260,1,68,10|0,0:2|0:2,0:2:0:0:
257,349,195927,5,2,0:2:0:0:
292,283,196070,1,0,0:2:0:0:
367,287,196212,1,8,0:2:0:0:
332,353,196355,1,2,0:2:0:0:
394,177,196641,5,2,0:2:0:0:
459,211,196784,1,8,0:2:0:0:
507,153,196927,1,2,0:2:0:0:
331,64,197212,5,8,0:3:0:0:
331,64,197284,1,8,0:3:0:0:
331,64,197355,2,0,L|249:53,1,68,10|0,0:2|0:2,0:2:0:0:
394,177,197641,2,0,L|383:259,1,68,2|0,0:2|0:2,0:2:0:0:
270,140,197927,2,0,L|188:129,1,68,10|0,0:2|0:2,0:2:0:0:
108,187,198212,5,6,0:2:0:0:
136,254,198355,1,0,0:2:0:0:
68,283,198498,1,8,0:2:0:0:
40,215,198641,1,2,0:2:0:0:
136,97,198927,5,2,0:2:0:0:
202,130,199070,1,8,0:2:0:0:
198,57,199212,1,2,0:2:0:0:
355,91,199498,5,8,0:3:0:0:
355,91,199570,1,8,0:3:0:0:
355,91,199641,2,0,L|365:10,1,68,10|0,0:2|0:2,0:2:0:0:
470,183,199927,2,0,L|478:115,1,68,2|0,0:2|0:2,0:2:0:0:
290,247,200212,2,0,L|300:166,1,68,10|0,0:2|0:2,0:2:0:0:
217,57,200498,5,2,0:2:0:0:
157,102,200641,1,0,0:2:0:0:
96,58,200784,1,8,0:2:0:0:
34,100,200927,1,2,0:2:0:0:
23,283,201212,5,2,0:2:0:0:
84,239,201355,1,8,0:2:0:0:
147,279,201498,1,2,0:2:0:0:
343,369,201784,5,8,0:3:0:0:
343,369,201855,1,8,0:3:0:0:
343,369,201927,2,0,L|421:358,1,68,10|0,0:2|0:2,0:2:0:0:
290,267,202212,5,8,0:3:0:0:
297,242,202284,1,8,0:3:0:0:
297,217,202355,1,8,0:3:0:0:
287,193,202427,1,8,0:3:0:0:
271,174,202498,1,4,0:3:0:0:
254,155,202570,1,4,0:3:0:0:
245,131,202641,1,4,0:3:0:0:
244,106,202712,1,4,0:3:0:0:
252,82,202784,2,0,B|277:49|277:49|261:-2,1,85,6|0,0:2|0:2,0:2:0:0:
184,38,203212,5,8,0:3:0:0:
184,38,203284,1,8,0:3:0:0:
184,38,203355,1,8,0:2:0:0:
357,71,203498,1,8,0:2:0:0:
173,257,203784,5,8,0:2:0:0:
0,224,203927,1,6,0:1:0:0:
0,224,203998,1,0,0:2:0:0:
0,224,204070,1,0,0:2:0:0:
108,121,204212,5,10,0:2:0:0:
75,294,204355,1,0,0:2:0:0:
200,363,204498,5,2,0:2:0:0:
233,190,204641,1,0,0:2:0:0:
376,171,204784,5,10,0:2:0:0:
343,344,204927,1,0,0:2:0:0:
472,236,205070,6,0,P|487:196|485:154,1,85,2|8,0:1|0:3,0:2:0:0:
485,154,205284,1,8,0:3:0:0:
485,154,205355,1,10,0:2:0:0:
370,0,205498,2,0,P|368:42|383:81,1,85,2|0,0:2|0:2,0:2:0:0:
246,271,205784,2,0,P|247:228|232:189,1,85,2|8,0:2|0:2,0:2:0:0:
123,79,206070,5,2,0:2:0:0:
86,169,206212,1,2,0:1:0:0:
86,169,206284,1,0,0:2:0:0:
86,169,206355,1,0,0:2:0:0:
26,91,206498,1,8,3:2:0:0:
123,79,206641,1,0,0:2:0:0:
241,232,206784,5,2,0:2:0:0:
86,169,206927,1,2,0:2:0:0:
219,66,207070,1,10,0:2:0:0:
310,132,207212,6,2,P|331:204|411:203,1,152.999995330811,6|0,0:2|0:2,0:1:0:0:
458,164,207498,2,2,L|465:79,1,85,10|8,0:3|0:2,0:1:0:0:
325,0,207784,5,8,0:3:0:0:
325,0,207855,1,8,0:3:0:0:
325,0,207927,1,14,0:1:0:0:
199,158,208070,1,8,0:3:0:0:
333,326,208212,1,8,0:3:0:0:
333,326,208284,1,8,0:3:0:0:
333,326,208355,1,8,0:3:0:0:
333,326,208427,1,8,0:3:0:0:
333,326,208498,2,0,L|428:320,1,85,6|0,0:1|0:2,0:2:0:0:
199,158,208784,5,10,0:2:0:0:
103,345,208927,1,0,0:2:0:0:
61,176,209070,1,2,0:2:0:0:
233,288,209212,1,0,0:2:0:0:
61,176,209355,1,8,0:2:0:0:
162,60,209498,6,0,P|243:75|300:15,1,170,2|8,0:2|0:3,0:2:0:0:
299,17,209855,1,8,0:3:0:0:
299,17,209927,1,10,0:2:0:0:
237,118,210070,1,0,0:2:0:0:
303,215,210212,1,2,0:2:0:0:
303,215,210355,1,0,0:2:0:0:
452,261,210498,5,10,0:2:0:0:
424,146,210641,1,0,0:2:0:0:
310,222,210784,5,2,0:1:0:0:
310,222,210855,1,0,0:2:0:0:
310,222,210927,1,0,0:2:0:0:
490,190,211070,1,8,0:2:0:0:
278,136,211212,1,2,0:2:0:0:
492,114,211355,1,0,0:2:0:0:
253,63,211498,1,2,0:2:0:0:
494,38,211641,1,8,0:2:0:0:
392,249,211784,6,2,P|387:164|369:71,1,165.749992412568,6|0,0:2|0:2,0:1:0:0:
299,137,212070,2,2,P|305:180|310:233,1,85,10|8,0:3|0:2,0:1:0:0:
212,374,212355,5,8,0:3:0:0:
212,374,212427,1,8,0:3:0:0:
212,374,212498,1,14,0:1:0:0:
196,203,212641,1,0,0:3:0:0:
180,32,212784,1,8,0:3:0:0:
173,73,212855,1,8,0:3:0:0:
144,103,212927,1,8,0:3:0:0:
103,112,212998,1,8,0:3:0:0:
64,96,213070,2,0,P|48:84|18:73,2,53.125,6|0|0,0:1|0:2|0:2,0:2:0:0:
196,203,213355,5,10,0:2:0:0:
72,227,213498,1,0,0:2:0:0:
249,296,213641,1,2,0:2:0:0:
62,336,213784,1,0,0:2:0:0:
249,296,213927,1,10,0:2:0:0:
367,384,214070,6,0,P|347:292|384:172,1,212.5,2|8,0:2|0:3,0:2:0:0:
378,180,214427,1,8,0:3:0:0:
378,180,214498,1,8,0:2:0:0:
450,271,214641,1,0,0:2:0:0:
262,212,214784,1,2,0:2:0:0:
262,212,214927,1,0,0:2:0:0:
320,24,215070,1,10,0:2:0:0:
508,83,215212,1,2,0:2:0:0:
448,8,215355,5,2,0:1:0:0:
448,8,215427,1,0,0:2:0:0:
448,8,215498,1,0,0:2:0:0:
394,99,215641,1,8,0:2:0:0:
320,24,215784,1,0,0:2:0:0:
143,149,215927,1,2,0:1:0:0:
325,167,216070,1,2,0:2:0:0:
189,10,216212,1,10,0:2:0:0:
40,157,216355,6,2,B|12:249|12:249|52:344,1,191.250007295609,6|0,0:1|0:2,0:1:0:0:
112,381,216641,2,2,L|227:365,1,114.750000437737,10|8,0:3|0:2,0:1:0:0:
431,256,216927,5,8,0:3:0:0:
431,256,216998,1,8,0:3:0:0:
431,256,217070,1,14,0:1:0:0:
217,209,217212,1,8,0:3:0:0:
431,256,217355,1,10,0:2:0:0:
362,58,217498,5,8,0:3:0:0:
362,58,217570,1,8,0:3:0:0:
362,58,217641,1,6,0:1:0:0:
326,222,217784,1,0,0:2:0:0:
201,108,217927,1,8,0:2:0:0:
406,153,218070,5,2,0:2:0:0:
220,212,218212,1,2,0:2:0:0:
220,212,218355,1,0,0:2:0:0:
262,21,218498,1,10,0:2:0:0:
75,135,218641,6,0,P|191:122|307:118,1,212.5,2|8,0:2|0:3,0:2:0:0:
286,118,218998,1,8,0:3:0:0:
286,118,219070,1,8,0:2:0:0:
113,234,219212,1,0,0:2:0:0:
332,228,219355,1,2,0:2:0:0:
113,234,219498,1,0,0:2:0:0:
355,326,219641,1,10,0:2:0:0:
132,348,219784,1,0,0:2:0:0:
366,337,219927,1,2,0:1:0:0:
366,337,219998,1,0,0:2:0:0:
366,337,220070,1,0,0:2:0:0:
226,213,220212,5,10,0:2:0:0:
446,269,220355,1,2,0:1:0:0:
384,50,220498,1,2,0:2:0:0:
226,213,220641,1,2,0:1:0:0:
446,269,220784,1,10,0:2:0:0:
285,37,220927,6,2,B|384:50|384:50|460:0,1,191.250007295609,6|0,0:1|0:2,0:1:0:0:
332,132,221212,2,2,P|321:182|349:248,1,114.750000437737,10|8,0:3|0:2,0:1:0:0:
495,358,221498,5,8,0:3:0:0:
495,358,221570,1,8,0:3:0:0:
495,358,221641,1,8,0:3:0:0:
495,358,221712,1,8,0:3:0:0:
495,358,221784,1,8,0:3:0:0:
234,237,221927,1,10,0:2:0:0:
461,23,222070,1,8,0:3:0:0:
461,23,222141,1,8,0:3:0:0:
461,23,222212,2,0,B|417:-11|353:5|306:79|374:176|407:154|454:131|534:217|438:370|362:363|362:363|297:328|289:326|213:269|215:216|257:150|257:150|329:200|333:269|250:387|250:387|203:378|127:336|106:180|179:96|179:96|125:148|65:128|65:128|20:222|54:315,1,1719.04004196875,6|0,0:2|0:2,0:2:0:0:
