osu file format v14

[General]
AudioFilename: audio.mp3
AudioLeadIn: 0
PreviewTime: 52477
Countdown: 0
SampleSet: Soft
StackLeniency: 0.2
Mode: 0
LetterboxInBreaks: 0
WidescreenStoryboard: 0

[Editor]
DistanceSpacing: 0.7
BeatDivisor: 8
GridSize: 8
TimelineZoom: 1

[Metadata]
Title:Never Forget
TitleUnicode:Never Forget
Artist:Denkishiki Karen Ongaku Shuudan
ArtistUnicode:電気式華憐音楽集団
Creator:LMT
Version:Loss of a Loved One
Source:サクラノモリ†ドリーマーズ
Tags:Garden Sakura no Mori Dreamers denkare metal eroge moonstone japanese
BeatmapID:2474203
BeatmapSetID:1187196

[Difficulty]
HPDrainRate:6
CircleSize:5
OverallDifficulty:7
ApproachRate:8
SliderMultiplier:2
SliderTickRate:1

[Events]
//Background and Video events
0,0,"neverforget_bg.png",0,0
//Break Periods
//Storyboard Layer 0 (Background)
//Storyboard Layer 1 (Fail)
//Storyboard Layer 2 (Pass)
//Storyboard Layer 3 (Foreground)
//Storyboard Layer 4 (Overlay)
//Storyboard Sound Samples

[TimingPoints]
1524,750,4,2,0,30,1,0
1524,-100,4,2,0,30,0,0
13524,-100,4,3,0,30,0,0
46524,-66.6666666666667,4,3,0,50,0,0
49524,-50,4,3,0,50,0,0
52524,-40,4,3,0,70,0,0
53836,-50,4,3,0,70,0,0
55524,-66.6666666666667,4,3,0,70,0,0
58524,-40,4,3,0,70,0,0
59836,-50,4,3,0,70,0,0
61524,-66.6666666666667,4,3,0,70,0,0
64524,-40,4,3,0,70,0,0
65836,-50,4,3,0,70,0,0
67524,-66.6666666666667,4,3,0,70,0,0
70524,-40,4,3,0,70,0,0
71836,-50,4,3,0,70,0,0
76524,-40,4,3,0,80,0,1
90024,750,4,3,0,40,1,0
114024,-66.6666666666667,4,3,0,50,0,0
123024,-57.1428571428571,4,3,0,50,0,0
126024,-50,4,3,0,50,0,0
129024,-40,4,3,0,70,0,0
130336,-50,4,3,0,70,0,0
132024,-66.6666666666667,4,3,0,70,0,0
135024,-40,4,3,0,70,0,0
136336,-50,4,3,0,70,0,0
138024,-66.6666666666667,4,3,0,70,0,0
141024,-40,4,3,0,70,0,0
142336,-50,4,3,0,70,0,0
144024,-66.6666666666667,4,3,0,70,0,0
147024,-40,4,3,0,70,0,0
148336,-50,4,3,0,70,0,0
153024,-50,4,3,0,80,0,1
180024,-100,4,2,0,30,0,0
189024,-100,4,3,0,50,0,0
189774,-50,4,3,0,50,0,0
192024,-40,4,3,0,70,0,0
193336,-50,4,3,0,70,0,0
196336,-66.6666666666667,4,3,0,70,0,0
198024,-40,4,3,0,70,0,0
199336,-50,4,3,0,70,0,0
202336,-66.6666666666667,4,3,0,70,0,0
204024,-66.6666666666667,4,2,0,30,0,0

[Colours]
Combo1 : 227,193,34
Combo2 : 145,217,204
Combo3 : 33,228,106
Combo4 : 211,150,167
Combo5 : 226,35,117
Combo6 : 216,207,146

[HitObjects]
81,133,1524,5,0,0:0:0:0:
150,143,1899,1,0,0:0:0:0:
216,155,2274,1,0,0:0:0:0:
281,168,2649,1,2,0:2:0:0:
497,267,4524,5,0,0:0:0:0:
428,277,4899,1,0,0:0:0:0:
362,289,5274,1,0,0:0:0:0:
297,302,5649,1,2,0:2:0:0:
64,189,7524,5,0,0:0:0:0:
142,233,7899,1,0,0:0:0:0:
225,192,8274,1,0,0:0:0:0:
204,105,8649,1,2,0:2:0:0:
381,106,10524,5,0,0:0:0:0:
472,141,10899,1,0,0:0:0:0:
430,230,11274,1,0,0:0:0:0:
330,244,11649,1,2,0:2:0:0:
71,163,12024,1,2,0:2:0:0:
158,126,12399,1,0,0:0:0:0:
193,206,12774,1,0,0:0:0:0:
57,65,13524,1,2,0:2:0:0:
57,65,13899,5,0,0:0:0:0:
128,42,14086,1,0,0:0:0:0:
198,49,14274,1,2,0:2:0:0:
242,105,14461,1,2,0:2:0:0:
441,179,14836,5,2,0:2:0:0:
484,118,15024,2,0,B|454:94|454:94|361:124,1,100,2|0,0:2|0:0,0:0:0:0:
138,263,15774,5,2,0:2:0:0:
84,218,15961,2,0,B|103:202|175:218|197:275|236:254,1,150,2|2,0:2|0:2,0:0:0:0:
446,345,16899,5,0,0:0:0:0:
497,305,17086,1,0,0:0:0:0:
490,234,17274,1,2,0:2:0:0:
434,198,17461,2,0,B|406:181|359:195|343:240,1,100,2|2,0:2|0:2,0:0:0:0:
315,159,18024,2,0,P|325:93|337:35,1,100,2|0,0:2|0:0,0:0:0:0:
127,216,18774,5,2,0:2:0:0:
192,191,18961,2,0,B|197:176|183:74|99:90,1,150,2|2,0:2|0:2,0:0:0:0:
20,276,19899,5,0,0:0:0:0:
75,314,20086,1,0,0:0:0:0:
145,317,20274,1,2,0:2:0:0:
198,271,20461,1,2,0:2:0:0:
341,235,20836,5,2,0:2:0:0:
409,225,21024,2,0,P|416:267|431:358,1,100,2|0,0:2|0:0,0:0:0:0:
208,182,21774,5,2,0:2:0:0:
270,162,21961,2,0,P|265:117|256:8,1,150,2|2,0:2|0:2,0:0:0:0:
248,13,23274,5,0,0:0:0:0:
138,80,23649,1,2,0:2:0:0:
77,44,23836,2,0,B|58:43|24:59|23:172|60:171,1,150,2|0,0:2|0:0,0:0:0:0:
267,242,24774,5,2,0:2:0:0:
334,221,24961,2,0,B|347:190|232:179|215:298,1,150,2|2,0:2|0:2,0:0:0:0:
335,345,25899,5,0,0:0:0:0:
401,360,26086,1,0,0:0:0:0:
463,328,26274,1,2,0:2:0:0:
476,264,26461,1,2,0:2:0:0:
382,134,26836,5,2,0:2:0:0:
320,107,27024,2,0,B|303:102|240:100|230:166,1,100,2|0,0:2|0:0,0:0:0:0:
441,180,27774,5,2,0:2:0:0:
498,152,27961,2,0,B|508:123|486:11|423:26,1,150,2|2,0:2|0:2,0:0:0:0:
312,200,28899,5,0,0:0:0:0:
258,243,29086,1,0,0:0:0:0:
189,251,29274,1,2,0:2:0:0:
133,212,29461,2,0,P|134:180|130:85,1,100,2|2,0:2|0:2,0:0:0:0:
115,276,30024,2,0,P|87:315|15:308,1,100,2|0,0:2|0:0,0:0:0:0:
3,218,30774,5,2,0:2:0:0:
59,183,30961,2,0,B|76:176|159:207|200:264|235:217,1,150,2|2,0:2|0:2,0:0:0:0:
352,289,31899,5,0,0:0:0:0:
417,264,32086,1,0,0:0:0:0:
454,207,32274,1,2,0:2:0:0:
428,142,32461,1,2,0:2:0:0:
295,74,32836,5,2,0:2:0:0:
237,113,33024,2,0,P|255:164|270:233,1,100,2|0,0:2|0:0,0:0:0:0:
135,315,33774,5,2,0:2:0:0:
82,277,33961,2,0,B|69:261|83:209|136:209|174:223|193:243,1,150,2|2,0:2|0:2,0:0:0:0:
196,242,35274,5,0,0:0:0:0:
314,333,35649,1,2,0:2:0:0:
361,284,35836,2,0,B|356:259|461:282|471:357|529:309,1,150,2|0,0:2|0:0,0:0:0:0:
273,255,36774,1,2,0:0:0:0:
64,187,37149,1,2,0:2:0:0:
24,24,37524,6,0,P|67:20|133:14,2,100,4|0|0,0:2|0:0|0:0,0:0:0:0:
190,133,38649,5,2,0:0:0:0:
278,120,38836,1,2,0:0:0:0:
370,106,39024,1,2,0:0:0:0:
291,215,39399,5,2,0:2:0:0:
359,201,39774,1,2,0:2:0:0:
427,188,40149,1,2,0:2:0:0:
429,205,40336,6,0,B|405:194|304:233|250:291|164:241,1,250,2|0,0:2|0:0,0:0:0:0:
112,284,41649,2,0,P|101:280|122:268,1,50,2|2,0:2|0:2,0:0:0:0:
137,187,42399,5,0,0:0:0:0:
100,106,42774,1,0,0:0:0:0:
8,118,43149,1,0,0:0:0:0:
227,154,43524,6,0,B|245:140|321:168|327:240|435:219|418:197,1,200,4|0,0:2|0:0,0:0:0:0:
400,129,44649,5,2,0:0:0:0:
324,174,44836,1,2,0:0:0:0:
245,226,45023,1,2,0:0:0:0:
355,350,45399,5,2,0:2:0:0:
325,180,45774,1,2,0:2:0:0:
294,21,46149,1,2,0:2:0:0:
64,142,46524,6,0,B|105:140|64:225|-26:169|-10:92|88:32|191:46|217:112,1,300.000011444092,4|0,0:2|0:0,0:0:0:0:
258,132,47649,1,0,0:0:0:0:
429,255,48024,6,0,B|487:287|513:216|433:198|387:234|367:303|283:312|237:276,1,300.000011444092,2|0,0:0|0:0,0:0:0:0:
199,226,49149,1,0,0:0:0:0:
55,352,49524,6,0,B|67:375|-64:272|123:211|186:319|216:409|374:393|346:338,1,400,4|0,0:2|0:0,0:0:0:0:
347,333,51024,1,0,1:0:0:0:
382,276,51211,1,8,0:0:0:0:
390,266,51305,1,8,0:0:0:0:
383,258,51399,1,8,0:0:0:0:
314,217,51586,1,4,0:0:0:0:
205,114,51774,5,0,1:0:0:0:
237,133,51867,1,8,0:0:0:0:
241,172,51961,1,8,0:0:0:0:
229,208,52055,1,8,0:0:0:0:
198,226,52149,1,4,0:0:0:0:
111,249,52336,1,4,0:0:0:0:
40,113,52524,6,0,B|68:80|268:94|326:197|387:198|425:169,1,375,4|0,0:1|0:0,0:0:0:0:
442,113,53274,2,0,B|412:92|280:118|223:248|179:187,1,250,0|0,1:0|0:0,0:0:0:0:
270,90,53836,2,0,B|272:87|320:139|312:249|242:311,1,200,4|0,0:0|0:0,0:0:0:0:
191,308,54399,1,4,0:0:0:0:
177,302,54492,1,4,0:0:0:0:
166,294,54586,1,4,0:0:0:0:
279,277,54774,2,0,B|311:251|394:278|416:363|472:329,1,200,0|0,1:0|0:0,0:0:0:0:
458,326,55524,6,0,B|421:305|382:343|330:365|303:345,1,150.000005722046,4|0,0:2|0:0,0:0:0:0:
249,336,56086,1,0,0:0:0:0:
145,263,56274,2,0,B|162:265|160:212|100:182|44:195,1,150.000005722046,0|0,1:0|0:0,0:0:0:0:
75,261,56836,2,0,B|99:271|181:283|254:227|221:222,1,150.000005722046,0|0,0:0|0:0,0:0:0:0:
243,180,57399,1,4,0:0:0:0:
196,116,57586,1,4,0:0:0:0:
184,112,57680,1,4,0:0:0:0:
173,116,57774,1,0,1:0:0:0:
105,140,57961,1,4,0:0:0:0:
320,216,58149,5,4,0:0:0:0:
436,166,58336,1,0,1:0:0:0:
376,108,58524,2,0,B|327:94|275:241|377:376|411:373|459:303|439:243,1,375,4|0,1:0|0:0,0:0:0:0:
368,247,59274,2,0,B|327:229|263:282|236:319|115:308,1,250,0|0,1:0|0:0,0:0:0:0:
68,280,59836,2,0,B|93:267|214:305|242:371|281:302,1,200,4|0,0:0|0:0,0:0:0:0:
206,282,60399,1,4,0:0:0:0:
139,319,60586,1,4,0:0:0:0:
134,329,60680,1,4,0:0:0:0:
131,340,60774,1,0,1:0:0:0:
195,378,60961,1,4,0:0:0:0:
138,207,61149,1,4,0:0:0:0:
145,200,61524,6,0,B|93:185|52:236|27:270|-20:248,1,150,4|0,0:2|0:0,0:0:0:0:
6,181,62086,1,0,0:0:0:0:
246,265,62274,2,0,P|295:254|347:246,1,75.0000028610231,0|0,1:0|0:0,0:0:0:0:
385,240,62649,1,4,0:0:0:0:
457,20,62836,6,0,B|471:16|444:-29|309:44|353:159,1,225.000008583069,4|0,0:0|0:0,0:0:0:0:
222,200,63586,1,4,0:0:0:0:
33,111,63774,1,0,1:0:0:0:
53,98,63867,1,0,1:0:0:0:
69,108,63961,1,4,0:0:0:0:
110,183,64149,1,4,0:0:0:0:
48,263,64336,1,0,1:0:0:0:
0,218,64524,6,0,B|-12:180|79:76|287:180|308:284,1,375,4|0,1:0|0:0,0:0:0:0:
235,289,65274,2,0,B|246:252|323:259|378:315|400:349|492:304,1,250,0|0,1:0|0:0,0:0:0:0:
423,249,65836,2,0,B|403:251|311:359|293:387|249:345,1,200,4|0,0:0|0:0,0:0:0:0:
190,362,66399,1,4,0:0:0:0:
179,348,66492,1,4,0:0:0:0:
174,334,66586,1,4,0:0:0:0:
128,274,66774,1,0,1:0:0:0:
169,191,66961,1,4,0:0:0:0:
157,52,67149,1,4,0:0:0:0:
157,60,67524,6,0,B|138:60|127:107|273:124|296:68,1,150.000005722046,4|0,0:2|0:0,0:0:0:0:
327,60,68086,1,0,0:0:0:0:
158,160,68274,2,0,B|122:138|47:135|73:165,1,75.0000028610231,0|0,1:0|0:0,0:0:0:0:
20,199,68649,5,4,0:0:0:0:
129,275,68836,2,0,B|131:284|67:283|68:243,1,75.0000028610231,4|0,0:0|0:0,0:0:0:0:
281,290,69211,5,4,0:0:0:0:
210,228,69399,2,0,P|213:268|219:396,1,150.000005722046,4|0,0:0|1:0,0:0:0:0:
226,364,70149,5,4,0:0:0:0:
172,280,70336,1,0,1:0:0:0:
211,46,70524,2,0,B|274:68|225:264|106:294|198:392|240:370,1,375,4|0,1:0|0:0,0:0:0:0:
237,282,71274,2,0,P|218:227|195:136,1,125,0|0,1:0|0:0,0:0:0:0:
161,104,71649,1,4,0:0:0:0:
131,168,71836,6,0,B|115:185|36:132|155:85|229:136|258:222|324:232|338:194,1,300,4|0,0:0|0:0,0:0:0:0:
410,187,72586,1,4,0:0:0:0:
499,34,72774,2,0,B|478:8|331:-7|321:89,1,200,0|0,1:0|0:0,0:0:0:0:
368,132,73336,1,8,0:0:0:0:
377,124,73430,1,4,0:0:0:0:
383,116,73524,6,0,B|364:88|296:125|200:212|119:213|102:196,1,300,4|0,0:1|0:0,0:0:0:0:
123,130,74274,2,0,B|172:99|284:137|259:284|214:244,1,200,0|0,1:0|0:0,0:0:0:0:
188,277,74836,2,0,B|132:263|112:291|51:341|-14:312,1,200,4|0,0:0|0:0,0:0:0:0:
33,247,75399,5,4,0:0:0:0:
94,316,75586,1,4,0:0:0:0:
93,327,75680,1,4,0:0:0:0:
84,338,75774,1,0,1:0:0:0:
185,291,75961,1,8,0:0:0:0:
370,338,76149,1,4,0:0:0:0:
374,349,76524,6,0,B|376:358|376:358|389:363|389:363|358:244|358:244|351:254|351:254|325:159|325:159|330:88|330:88|354:112|354:112|354:142,1,375,4|0,0:1|0:0,0:0:0:0:
405,164,77274,2,0,B|398:160|398:160|167:188|167:188|155:180,1,250,0|0,1:0|0:0,0:0:0:0:
43,99,77836,2,0,B|53:86|53:86|101:147,1,62.5,2|2,0:0|0:0,0:0:0:0:
52,148,78024,2,0,B|33:137|33:137|261:107,1,250,4|0,0:0|0:0,0:0:0:0:
270,41,78586,5,4,0:0:0:0:
286,37,78680,1,4,0:0:0:0:
293,48,78774,1,0,1:0:0:0:
368,116,78961,1,8,0:0:0:0:
487,39,79149,2,0,B|492:15|492:15|473:12|473:12|449:115,1,125,4|0,0:0|0:0,0:0:0:0:
431,192,79524,6,0,B|444:189|444:189|498:197|498:197|530:188,2,83.3333333333333,2|2|2,0:0|0:0|0:0,0:0:0:0:
401,216,79899,2,0,B|410:225|410:225|430:276|430:276|453:299,2,83.3333333333333,2|2|2,0:0|0:0|0:0,0:0:0:0:
360,190,80274,1,0,1:0:0:0:
318,183,80399,1,2,0:0:0:0:
273,204,80524,1,2,0:0:0:0:
227,229,80649,1,4,0:0:0:0:
177,232,80774,1,2,0:2:0:0:
126,209,80899,1,2,0:2:0:0:
110,146,81024,5,8,0:0:0:0:
125,117,81149,1,8,0:0:0:0:
149,126,81274,1,4,0:0:0:0:
124,148,81399,1,0,1:0:0:0:
60,158,81524,1,8,0:0:0:0:
7,122,81649,1,4,0:0:0:0:
66,85,81774,2,0,B|92:80|92:80|265:167|265:167|328:157,1,250,4|0,1:2|0:0,0:0:0:0:
376,143,82336,5,4,0:0:0:0:
381,136,82430,1,4,0:0:0:0:
392,143,82524,2,0,B|412:142|412:142|391:120|391:120|183:234|183:234|134:204|134:204|168:186,1,375,4|0,1:0|0:0,0:0:0:0:
80,162,83274,2,0,B|159:165|159:165|165:168|165:168|338:179,1,250,0|0,1:0|0:0,0:0:0:0:
504,176,83836,5,2,0:0:0:0:
497,155,83930,1,2,0:0:0:0:
479,155,84024,2,0,B|460:156|460:156|384:216|384:216|387:224|387:224|301:292|301:292|265:289,1,250,4|0,0:0|0:0,0:0:0:0:
278,353,84586,1,0,0:0:0:0:
381,320,84774,2,0,L|107:374,1,250,0|4,1:0|0:0,0:0:0:0:
1,209,85524,5,4,0:2:0:0:
50,187,85649,1,2,0:0:0:0:
114,196,85774,1,2,0:0:0:0:
169,241,85899,1,4,0:0:0:0:
233,264,86024,1,2,0:2:0:0:
282,257,86149,1,2,0:2:0:0:
323,233,86274,1,0,1:0:0:0:
326,194,86399,1,2,0:0:0:0:
294,166,86524,1,2,0:0:0:0:
261,165,86649,1,4,0:0:0:0:
241,179,86774,1,2,0:2:0:0:
236,191,86899,1,2,0:2:0:0:
239,199,87024,6,0,B|226:166|226:166|186:157,2,62.5,0|0|4,1:0|1:0|0:0,0:0:0:0:
120,126,87399,1,8,0:0:0:0:
128,119,87492,1,4,0:0:0:0:
137,112,87586,1,4,0:0:0:0:
195,56,87774,5,0,1:0:0:0:
228,36,87899,1,2,0:0:0:0:
266,36,88024,1,2,0:0:0:0:
298,58,88149,1,4,0:0:0:0:
350,81,88274,1,2,0:0:0:0:
406,68,88399,1,2,0:0:0:0:
449,19,88524,5,4,0:2:0:0:
449,19,88899,1,8,0:0:0:0:
449,19,89274,1,4,0:0:0:0:
449,19,89649,1,4,0:0:0:0:
449,19,90024,1,4,0:2:0:0:
471,97,90399,5,0,0:0:0:0:
432,148,90586,1,0,0:0:0:0:
427,216,90774,1,2,0:2:0:0:
455,280,90961,1,2,0:2:0:0:
316,359,91336,5,2,0:2:0:0:
364,313,91524,2,0,B|347:277|308:259|263:246,1,100,2|0,0:2|0:0,0:0:0:0:
124,298,92274,5,2,0:2:0:0:
66,265,92461,2,0,B|73:251|123:261|169:317|205:331|222:310,1,150,2|2,0:2|0:2,0:0:0:0:
236,160,93399,5,0,0:0:0:0:
177,119,93586,1,0,0:0:0:0:
109,110,93774,1,2,0:2:0:0:
41,126,93961,1,2,0:2:0:0:
236,169,94336,5,2,0:2:0:0:
310,188,94524,2,0,P|357:182|431:170,1,100,2|0,0:2|0:0,0:0:0:0:
499,100,95274,5,2,0:2:0:0:
430,84,95461,2,0,P|395:79|258:56,1,150,2|2,0:2|0:2,0:0:0:0:
206,23,96399,5,0,0:0:0:0:
150,66,96586,1,0,0:0:0:0:
150,135,96774,1,2,0:2:0:0:
150,135,97336,5,2,0:2:0:0:
187,191,97524,2,0,P|184:230|116:250,1,100,2|0,0:2|0:0,0:0:0:0:
62,367,98274,5,2,0:2:0:0:
3,331,98461,2,0,P|44:330|157:324,1,150,2|2,0:2|0:2,0:0:0:0:
246,334,99774,5,0,0:0:0:0:
343,366,100149,1,2,0:2:0:0:
386,314,100336,2,0,P|385:223|382:147,1,150,2|0,0:2|0:0,0:0:0:0:
237,203,101274,5,2,0:2:0:0:
178,168,101461,2,0,P|174:131|159:8,1,150,2|6,0:2|0:2,0:0:0:0:
2,197,102399,5,0,0:0:0:0:
45,250,102586,1,0,0:0:0:0:
112,272,102774,1,2,0:2:0:0:
179,254,102961,1,2,0:2:0:0:
318,312,103336,5,2,0:2:0:0:
374,262,103524,2,0,P|405:248|483:234,1,100,2|0,0:2|0:0,0:0:0:0:
266,219,104274,5,2,0:2:0:0:
318,180,104461,2,0,B|337:147|265:65|158:123|185:137,1,150,2|2,0:2|0:2,0:0:0:0:
311,28,105399,5,0,0:0:0:0:
374,17,105586,1,0,0:0:0:0:
435,38,105774,1,2,0:2:0:0:
460,99,105961,1,2,0:2:0:0:
245,20,106336,5,2,0:2:0:0:
182,46,106524,2,0,P|122:42|59:36,1,100,2|0,0:2|0:0,0:0:0:0:
246,238,107274,5,2,0:2:0:0:
313,221,107461,2,0,B|352:193|360:116|313:81|277:119,1,150,2|2,0:2|0:2,0:0:0:0:
203,139,108399,5,0,0:0:0:0:
139,132,108586,1,0,0:0:0:0:
74,156,108774,1,2,0:2:0:0:
36,214,108961,1,2,0:2:0:0:
161,313,109336,5,2,0:2:0:0:
225,288,109524,2,0,P|275:286|355:283,1,100,2|0,0:2|0:0,0:0:0:0:
256,175,110274,5,2,0:2:0:0:
198,211,110461,2,0,B|146:212|110:126|149:91,1,150,2|2,0:2|0:2,0:0:0:0:
146,89,111774,5,0,0:0:0:0:
234,53,112149,1,2,0:2:0:0:
285,95,112336,2,0,P|336:88|398:81,1,100,2|0,0:2|0:0,0:0:0:0:
339,154,112899,5,8,0:0:0:0:
279,192,113086,1,8,0:0:0:0:
224,182,113274,1,4,0:0:0:0:
208,159,113461,1,4,0:0:0:0:
209,144,113649,1,4,0:0:0:0:
209,144,114024,6,0,P|121:139|34:133,2,150.000005722046,4|0|2,0:2|0:0|0:2,0:0:0:0:
497,151,115149,5,2,0:0:0:0:
413,128,115336,1,2,0:0:0:0:
346,194,115524,1,4,0:0:0:0:
380,252,115899,5,4,0:0:0:0:
331,303,116274,1,0,1:0:0:0:
263,290,116649,1,4,0:0:0:0:
269,263,116836,6,0,B|190:241|135:301|63:363|-10:301|-24:260|10:204|54:201,1,375.000014305115,4|0,0:0|1:0,0:0:0:0:
172,70,118149,1,2,0:2:0:0:
232,102,118336,2,0,B|244:140|184:219|120:182,1,150.000005722046,2|0,0:2|0:0,0:0:0:0:
87,138,118899,1,4,0:0:0:0:
305,52,119274,5,0,1:0:0:0:
352,100,119461,1,2,0:0:0:0:
419,87,119649,1,4,0:0:0:0:
425,82,119742,1,2,0:2:0:0:
431,78,119836,1,2,0:2:0:0:
375,37,120024,6,0,P|367:96|329:358,1,300.000011444092,4|0,0:2|1:0,0:0:0:0:
258,135,121149,5,2,0:0:0:0:
168,170,121336,1,2,0:0:0:0:
72,142,121524,1,4,0:0:0:0:
326,88,121899,5,4,0:0:0:0:
171,252,122274,1,0,1:0:0:0:
16,79,122649,1,2,0:2:0:0:
19,73,122742,1,2,0:2:0:0:
23,68,122836,1,2,0:2:0:0:
89,41,123024,6,0,B|173:32|243:61|301:187|433:147,1,350.00000333786,4|0,0:2|1:0,0:0:0:0:
480,104,124149,1,0,0:0:0:0:
150,122,124524,6,0,P|157:170|167:240,1,87.500000834465,4|0,0:0|0:0,0:0:0:0:
63,191,124899,2,0,P|74:255|81:316,1,87.500000834465,4|0,0:0|0:0,0:0:0:0:
186,373,125274,1,0,1:0:0:0:
263,314,125461,1,2,0:2:0:0:
178,294,125649,1,4,0:0:0:0:
171,291,125742,1,4,0:0:0:0:
163,288,125836,1,4,0:0:0:0:
206,219,126024,6,0,B|276:171|382:160|408:188|376:208,1,200,4|0,0:2|0:0,0:0:0:0:
335,250,126586,1,0,0:0:0:0:
394,110,126774,2,0,P|376:182|355:325,1,200,0|4,1:0|0:0,0:0:0:0:
382,378,127336,1,4,0:0:0:0:
225,293,127524,5,4,0:0:0:0:
165,361,127711,1,8,0:0:0:0:
159,350,127805,2,0,P|52:341|-3:335,1,150,8|4,0:0|0:0,0:0:0:0:
155,113,128274,5,2,0:2:0:0:
175,105,128367,1,2,0:2:0:0:
199,105,128461,1,2,0:2:0:0:
224,116,128555,1,2,0:2:0:0:
243,137,128649,1,2,0:2:0:0:
265,155,128742,1,2,0:2:0:0:
295,163,128836,1,2,0:2:0:0:
326,161,128930,1,2,0:2:0:0:
349,146,129024,6,0,B|317:83|237:115|147:218|37:226|-7:185,1,375,4|0,1:1|0:0,0:0:0:0:
100,118,129774,2,0,B|137:89|256:106|247:264|204:266,1,250,0|0,1:0|0:0,0:0:0:0:
148,238,130336,2,0,P|172:154|204:41,1,200,4|0,0:0|0:0,0:0:0:0:
285,57,130899,5,4,0:0:0:0:
282,44,130992,1,4,0:0:0:0:
279,28,131086,1,4,0:0:0:0:
451,108,131274,1,0,1:0:0:0:
377,206,131461,1,8,0:0:0:0:
319,139,131649,1,4,0:0:0:0:
331,121,132024,6,0,P|346:199|365:296,1,150.000005722046,4|0,0:2|0:0,0:0:0:0:
413,318,132586,1,0,0:0:0:0:
194,292,132774,2,0,B|171:287|139:306|89:344|30:331,1,150.000005722046,0|0,1:0|0:0,0:0:0:0:
34,272,133336,6,0,P|28:242|19:185,1,75.0000028610231,4|0,0:0|0:0,0:0:0:0:
247,78,133711,1,4,0:0:0:0:
183,43,133899,2,0,P|178:91|174:144,1,75.0000028610231,4|0,0:0|0:0,0:0:0:0:
387,130,134274,2,0,B|347:120|310:141|240:173|211:133,1,150.000005722046,0|4,1:0|0:0,0:0:0:0:
351,217,134836,1,0,1:0:0:0:
358,17,135024,6,0,B|296:46|307:193|409:339|270:387,1,375,4|0,1:0|0:0,0:0:0:0:
267,283,135774,2,0,B|242:211|366:159|439:108|388:75,1,250,0|0,1:0|0:0,0:0:0:0:
234,158,136336,2,0,B|280:139|343:175|370:224|427:203,1,200,4|0,0:0|0:0,0:0:0:0:
478,166,136899,5,4,0:0:0:0:
480,157,136992,1,4,0:0:0:0:
482,149,137086,1,4,0:0:0:0:
417,94,137274,1,0,1:0:0:0:
344,156,137461,1,8,0:0:0:0:
434,361,137649,1,4,0:0:0:0:
446,355,138024,6,0,B|446:302|326:241|320:285,1,150.000005722046,4|0,0:2|0:0,0:0:0:0:
272,296,138586,1,0,0:0:0:0:
153,117,138774,2,0,B|153:170|273:231|279:187,1,150.000005722046,0|0,1:0|0:0,0:0:0:0:
340,168,139336,2,0,B|292:143|228:172|172:270|104:228,1,225.000008583069,4|4,0:0|0:0,0:0:0:0:
55,205,140086,1,4,0:0:0:0:
16,79,140274,5,0,1:0:0:0:
19,66,140367,1,0,1:0:0:0:
23,54,140461,1,8,0:0:0:0:
105,26,140649,1,4,0:0:0:0:
215,72,140836,1,4,0:0:0:0:
381,33,141024,6,0,B|292:-17|183:60|58:108|23:37,1,375.000014305115,4|0,1:0|0:0,0:0:0:0:
143,25,141774,2,0,B|215:28|281:58|310:173|240:208,1,250,0|0,1:0|0:0,0:0:0:0:
340,178,142336,2,0,B|340:190|425:159|257:51|189:162,1,200,4|0,0:0|0:0,0:0:0:0:
129,186,142899,5,4,0:0:0:0:
135,198,142992,1,4,0:0:0:0:
141,208,143086,1,4,0:0:0:0:
202,290,143274,1,0,1:0:0:0:
308,277,143461,1,8,0:0:0:0:
34,225,143649,1,4,0:0:0:0:
43,232,144024,6,0,P|52:277|76:389,1,150.000005722046,4|0,0:2|0:0,0:0:0:0:
140,376,144586,1,0,0:0:0:0:
326,360,144774,2,0,B|326:296|387:237|444:270,1,150.000005722046,0|0,1:0|0:0,0:0:0:0:
315,223,145336,2,0,P|293:220|220:212,1,75.0000028610231,4|0,0:0|0:0,0:0:0:0:
176,225,145711,1,4,0:0:0:0:
384,195,145899,2,0,P|414:186|470:174,1,75.0000028610231,4|0,0:0|0:0,0:0:0:0:
490,80,146274,1,0,1:0:0:0:
489,93,146367,1,0,1:0:0:0:
488,106,146461,1,8,0:0:0:0:
385,55,146649,5,4,0:0:0:0:
232,93,146836,1,0,1:0:0:0:
158,49,147024,2,0,B|221:24|278:90|319:162|445:163|530:69|448:45,1,375,4|0,1:0|0:0,0:0:0:0:
393,42,147774,2,0,B|348:33|260:85|223:153|139:129,1,250,0|0,1:0|0:0,0:0:0:0:
161,54,148336,2,0,B|212:36|273:79|297:154|368:120,1,200,4|0,0:0|0:0,0:0:0:0:
252,208,148899,5,4,0:0:0:0:
260,195,148992,1,4,0:0:0:0:
268,182,149086,1,4,0:0:0:0:
83,241,149274,1,0,1:0:0:0:
152,303,149461,1,8,0:0:0:0:
171,151,149649,1,4,0:0:0:0:
24,85,149836,1,4,0:0:0:0:
90,158,150024,6,0,B|149:138|226:191|291:288|366:251,1,300,4|0,1:0|0:0,0:0:0:0:
442,202,150774,2,0,B|459:172|442:73|303:20|345:132,1,200,0|0,1:0|0:0,0:0:0:0:
352,176,151336,2,0,P|338:244|309:384,1,200,4|0,0:0|0:0,0:0:0:0:
225,370,151899,1,4,0:0:0:0:
205,344,152274,5,0,1:0:0:0:
167,332,152399,1,0,1:0:0:0:
128,348,152524,1,0,1:0:0:0:
97,371,152649,1,8,0:0:0:0:
54,372,152774,1,8,0:0:0:0:
21,348,152899,1,4,0:0:0:0:
27,335,153024,5,4,1:0:0:0:
0,233,153211,1,2,0:2:0:0:
204,128,153399,1,2,0:0:0:0:
126,74,153586,1,2,0:0:0:0:
41,133,153774,1,0,1:0:0:0:
133,274,153961,5,2,0:0:0:0:
287,219,154149,1,2,0:0:0:0:
204,201,154336,1,2,0:0:0:0:
244,287,154524,1,4,0:0:0:0:
447,242,154711,5,2,0:2:0:0:
426,120,154899,1,2,0:2:0:0:
366,253,155086,1,2,0:2:0:0:
506,96,155274,1,0,1:0:0:0:
333,17,155461,6,0,B|314:12|314:12|246:36|246:36|253:41|253:41|175:72|175:72|112:57,1,200,4|4,0:2|0:0,0:0:0:0:
113,20,156024,5,4,1:0:0:0:
59,83,156211,1,2,0:0:0:0:
169,239,156399,1,2,0:0:0:0:
190,153,156586,1,2,0:0:0:0:
114,176,156774,5,0,1:0:0:0:
235,272,156961,1,2,0:2:0:0:
358,257,157149,1,2,0:2:0:0:
421,197,157336,1,2,0:2:0:0:
385,108,157524,1,4,0:0:0:0:
328,180,157711,5,2,0:0:0:0:
443,277,157899,1,2,0:0:0:0:
506,123,158086,1,2,0:0:0:0:
374,4,158274,1,0,1:0:0:0:
240,118,158461,6,0,B|228:133|228:133|286:273|286:273|246:325,1,200,4|8,0:2|0:0,0:0:0:0:
148,353,159024,5,4,1:0:0:0:
75,286,159211,1,2,0:0:0:0:
139,109,159399,1,2,0:2:0:0:
56,158,159586,1,2,0:0:0:0:
225,244,159774,5,0,1:0:0:0:
324,148,159961,1,2,0:2:0:0:
302,40,160149,1,2,0:0:0:0:
218,1,160336,1,2,0:2:0:0:
123,34,160524,1,4,0:0:0:0:
241,141,160711,5,2,0:0:0:0:
384,93,160899,1,2,0:0:0:0:
162,115,161086,1,2,0:0:0:0:
317,141,161274,1,0,1:0:0:0:
58,203,161461,6,0,B|47:209|47:209|36:197|36:197|67:189|67:189|114:196|114:196|124:206|124:206|188:229|188:229|220:217,1,200,4|0,0:2|0:0,0:0:0:0:
329,297,162024,5,4,1:0:0:0:
422,309,162211,1,2,0:2:0:0:
481,172,162399,1,2,0:0:0:0:
403,141,162586,1,2,0:2:0:0:
276,32,162774,5,0,1:0:0:0:
160,135,162961,1,2,0:0:0:0:
216,209,163149,1,2,0:2:0:0:
301,193,163336,1,2,0:0:0:0:
243,133,163524,1,4,0:0:0:0:
52,303,163711,5,2,0:0:0:0:
139,345,163899,1,2,0:0:0:0:
74,129,164086,1,2,0:0:0:0:
15,227,164274,1,0,1:0:0:0:
171,220,164461,5,8,0:0:0:0:
193,210,164555,1,8,0:0:0:0:
220,213,164649,1,8,0:0:0:0:
245,231,164742,1,4,0:0:0:0:
256,257,164836,1,4,0:0:0:0:
250,284,164930,1,4,0:0:0:0:
233,304,165024,5,4,1:0:0:0:
316,356,165211,1,2,0:0:0:0:
318,349,165305,1,2,0:0:0:0:
412,316,165492,1,2,0:0:0:0:
413,307,165585,1,2,0:0:0:0:
332,168,165774,5,0,1:0:0:0:
221,101,165961,1,2,0:2:0:0:
217,109,166055,1,2,0:2:0:0:
103,168,166242,1,2,0:2:0:0:
104,179,166336,1,2,0:2:0:0:
386,234,166524,5,4,0:2:0:0:
480,115,166711,1,2,0:0:0:0:
472,106,166805,1,2,0:0:0:0:
349,17,166992,1,2,0:0:0:0:
339,25,167086,1,2,0:0:0:0:
244,220,167274,5,0,1:0:0:0:
357,372,167461,1,2,0:2:0:0:
360,366,167555,1,2,0:2:0:0:
490,229,167742,1,2,0:2:0:0:
486,219,167836,1,2,0:2:0:0:
294,115,168024,6,0,B|276:109|276:109|20:196|20:196|-2:187,1,300,4|0,1:0|0:0,0:0:0:0:
48,103,168774,2,0,B|42:113|42:113|149:79,1,100,0|0,1:0|0:0,0:0:0:0:
203,66,169149,1,8,0:0:0:0:
200,90,169242,1,8,0:0:0:0:
198,115,169336,1,4,0:0:0:0:
195,140,169430,1,4,0:0:0:0:
193,165,169524,5,4,0:0:0:0:
65,236,169711,1,0,1:0:0:0:
164,311,169899,1,4,0:0:0:0:
86,358,170086,1,4,0:0:0:0:
144,234,170274,5,0,1:0:0:0:
252,309,170461,2,0,B|265:319|265:319|426:275|426:275|479:302,1,200,4|0,0:2|0:0,0:0:0:0:
427,357,171024,5,4,1:0:0:0:
413,366,171117,1,2,0:0:0:0:
398,360,171211,1,2,0:0:0:0:
297,231,171399,1,2,0:2:0:0:
411,112,171586,1,2,0:0:0:0:
412,208,171774,5,0,1:0:0:0:
352,163,171961,1,2,0:2:0:0:
299,118,172149,1,2,0:2:0:0:
132,152,172336,5,4,0:0:0:0:
202,365,172524,1,4,0:2:0:0:
250,291,172711,1,2,0:0:0:0:
260,278,172805,1,2,0:0:0:0:
248,264,172899,1,2,0:0:0:0:
102,235,173086,1,4,0:0:0:0:
166,297,173274,5,0,1:0:0:0:
180,232,173461,1,2,0:2:0:0:
195,168,173649,1,2,0:2:0:0:
209,101,173836,1,2,0:2:0:0:
14,22,174024,5,4,1:0:0:0:
91,118,174211,1,2,0:0:0:0:
107,112,174305,1,2,0:0:0:0:
107,95,174399,1,2,0:0:0:0:
17,163,174586,1,4,0:0:0:0:
252,249,174774,5,0,1:2:0:0:
326,187,174961,1,2,0:2:0:0:
344,179,175055,1,2,0:2:0:0:
361,187,175149,1,2,0:2:0:0:
439,243,175336,1,4,0:0:0:0:
245,321,175524,5,4,0:2:0:0:
122,217,175711,1,0,1:0:0:0:
218,118,175899,1,8,0:0:0:0:
234,210,176086,1,4,0:0:0:0:
55,109,176274,5,0,1:0:0:0:
131,40,176461,1,0,1:0:0:0:
161,277,176649,1,8,0:0:0:0:
25,202,176836,1,4,0:0:0:0:
368,89,177024,6,0,B|383:67|383:67|320:118|320:118|324:130|324:130|254:378|254:378|238:344,2,400,4|2|8,1:0|0:2|0:0,0:0:0:0:
495,343,179086,1,8,0:0:0:0:
110,67,179649,1,4,0:0:0:0:
11,168,180024,5,2,0:0:0:0:
100,147,180774,1,0,0:0:0:0:
185,187,181149,1,2,0:0:0:0:
188,199,181336,1,2,0:0:0:0:
298,241,181899,1,0,0:0:0:0:
393,227,182274,1,0,0:0:0:0:
445,155,182649,1,0,0:0:0:0:
379,81,183024,5,2,0:0:0:0:
292,112,183399,1,0,0:0:0:0:
217,78,183774,1,0,0:0:0:0:
133,116,184149,1,2,0:0:0:0:
137,127,184336,1,2,0:0:0:0:
58,78,184711,1,2,0:0:0:0:
60,67,184899,1,2,0:0:0:0:
256,22,185649,5,0,0:0:0:0:
253,36,185836,1,0,0:0:0:0:
250,49,186024,1,2,0:0:0:0:
279,169,186774,1,0,0:0:0:0:
238,246,187149,1,2,0:0:0:0:
233,258,187336,1,2,0:0:0:0:
277,351,187899,1,0,0:0:0:0:
239,272,188274,1,0,0:0:0:0:
289,191,188649,1,0,0:0:0:0:
473,25,189024,6,0,L|454:141,1,100,4|4,0:2|0:0,0:0:0:0:
332,83,189774,6,0,L|298:301,1,200,4|2,0:1|0:2,0:0:0:0:
301,289,190242,1,2,0:2:0:0:
301,299,190336,1,2,0:2:0:0:
209,230,190524,5,8,0:0:0:0:
187,242,190617,1,4,0:0:0:0:
169,231,190711,1,4,0:0:0:0:
89,177,190899,1,0,1:0:0:0:
169,125,191086,1,4,0:0:0:0:
262,140,191274,5,2,0:2:0:0:
277,135,191367,1,2,0:2:0:0:
296,142,191461,1,2,0:2:0:0:
311,165,191555,1,2,0:2:0:0:
341,177,191649,1,0,1:2:0:0:
376,174,191742,1,0,1:2:0:0:
398,144,191836,1,4,0:0:0:0:
387,109,191930,1,4,0:0:0:0:
361,85,192024,6,0,B|317:73|214:127|30:227|-22:154,1,375,4|0,1:0|0:0,0:0:0:0:
135,76,192774,2,0,B|192:19|228:176|103:249,1,250,0|0,1:0|0:0,0:0:0:0:
51,280,193336,2,0,B|18:279|34:232|125:237|126:271|164:289|244:265,1,200,4|0,0:0|0:0,0:0:0:0:
312,281,193899,5,4,0:0:0:0:
306,297,193992,1,4,0:0:0:0:
301,312,194086,1,4,0:0:0:0:
256,154,194274,1,0,1:0:0:0:
342,75,194461,1,8,0:0:0:0:
288,9,194649,1,4,0:0:0:0:
292,22,195024,6,0,P|313:141|328:256,1,200,4|0,0:2|0:0,0:0:0:0:
385,174,195586,1,0,0:0:0:0:
298,152,195774,2,0,B|231:136|187:190|141:254|96:227,1,200,0|0,1:0|0:0,0:0:0:0:
75,185,196336,6,0,P|81:130|88:88,1,75.0000028610231,4|0,0:0|0:0,0:0:0:0:
139,71,196711,1,4,0:0:0:0:
88,23,196899,2,0,P|95:90|101:202,1,150.000005722046,4|0,0:0|1:0,0:0:0:0:
254,323,197649,5,4,0:0:0:0:
439,268,197836,1,0,1:0:0:0:
339,263,198024,2,0,B|250:246|216:364|110:403|-23:332|31:243|83:288,1,375,4|0,1:0|0:0,0:0:0:0:
168,248,198774,2,0,B|206:236|283:278|324:388|399:362,1,250,0|0,1:0|0:0,0:0:0:0:
259,377,199336,2,0,P|247:288|238:161,1,200,4|0,0:0|0:0,0:0:0:0:
287,107,199899,5,4,0:0:0:0:
296,99,199992,1,4,0:0:0:0:
308,91,200086,1,4,0:0:0:0:
397,84,200274,1,0,1:0:0:0:
179,140,200461,1,8,0:0:0:0:
75,146,200649,1,4,0:0:0:0:
19,76,200836,1,4,0:0:0:0:
209,12,201024,6,0,P|196:122|178:313,1,300,4|0,1:0|0:0,0:0:0:0:
68,330,201774,2,0,P|62:305|137:276,1,100,0|0,1:0|0:0,0:0:0:0:
138,374,202149,1,4,0:0:0:0:
74,345,202336,2,0,B|107:317|179:344|186:374|228:358,1,150.000005722046,4|0,0:0|0:0,0:0:0:0:
309,267,202899,2,0,P|283:310|284:361,1,75.0000028610231,4|0,0:0|0:0,0:0:0:0:
359,349,203274,2,0,P|340:265|325:186,1,150.000005722046,0|4,1:0|0:0,0:0:0:0:
334,115,203836,1,2,0:2:0:0:
380,42,204024,5,4,0:2:0:0:
294,9,204774,1,0,0:0:0:0:
220,67,205149,1,2,0:0:0:0:
222,77,205336,1,2,0:0:0:0:
111,138,205899,1,2,0:0:0:0:
101,131,206086,1,2,0:0:0:0:
90,125,206274,1,2,0:0:0:0:
34,270,206649,5,0,0:0:0:0:
48,264,206836,1,0,0:0:0:0:
61,259,207024,1,2,0:0:0:0:
144,294,207399,1,0,0:0:0:0:
224,252,207774,1,2,0:0:0:0:
228,240,207961,1,2,0:0:0:0:
437,295,208336,5,2,0:0:0:0:
429,305,208524,1,2,0:0:0:0:
340,340,208899,1,0,0:0:0:0:
285,261,209274,1,0,0:0:0:0:
368,207,209649,1,0,0:0:0:0:
281,47,210024,5,2,0:0:0:0:
199,20,210399,1,0,0:0:0:0:
113,55,210774,1,2,0:0:0:0:
119,66,210961,1,2,0:0:0:0:
467,26,211524,5,2,0:2:0:0:
