osu file format v14

[General]
AudioFilename: audio.mp3
AudioLeadIn: 0
PreviewTime: 213151
Countdown: 1
SampleSet: Soft
StackLeniency: 0.7
Mode: 0
LetterboxInBreaks: 0
WidescreenStoryboard: 0

[Editor]
DistanceSpacing: 0.8
BeatDivisor: 4
GridSize: 32
TimelineZoom: 2

[Metadata]
Title:Natsu no Owari (Soleily Remix)
TitleUnicode:夏の終焉り (Soleily Remix)
Artist:Denkishiki Karen Ongaku Shuudan
ArtistUnicode:電気式華憐音楽集団
Creator:Pinecone Kun
Version:End of Summer
Source:
Tags:Owaru Sekai to Birthday コットンソフト Cotton Soft dnb drum and bass denkare
BeatmapID:1788133
BeatmapSetID:855859

[Difficulty]
HPDrainRate:6
CircleSize:4
OverallDifficulty:8.6
ApproachRate:9.4
SliderMultiplier:1.5
SliderTickRate:1

[Events]
//Background and Video events
0,0,"maxresdefault.jpg",0,0
//Break Periods
//Storyboard Layer 0 (Background)
//Storyboard Layer 1 (Fail)
//Storyboard Layer 2 (Pass)
//Storyboard Layer 3 (Foreground)
//Storyboard Sound Samples

[TimingPoints]
6198,329.67032967033,4,2,1,100,1,0
7462,-500,4,2,1,75,0,0
7967,-250,4,2,1,75,0,0
8473,-666.666666666667,4,2,1,75,0,0
10071,-500,4,2,1,75,0,0
10566,-250,4,2,1,75,0,0
11060,-666.666666666667,4,2,1,75,0,0
12744,-500,4,2,1,75,0,0
13242,-250,4,2,1,75,0,0
13739,-666.666666666667,4,2,1,75,0,0
15396,-500,4,2,1,75,0,0
15894,-250,4,2,1,75,0,0
16391,-666.666666666667,4,2,1,75,0,0
17965,-166.666666666667,4,2,1,75,0,0
18546,-250,4,2,1,75,0,0
19043,-666.666666666667,4,2,1,75,0,0
20676,-166.666666666667,4,2,1,75,0,0
21115,-250,4,2,1,75,0,0
21610,-666.666666666667,4,2,1,75,0,0
23423,-166.666666666667,4,2,1,75,0,0
23752,-250,4,2,1,75,0,0
24247,-500,4,2,1,75,0,0
26390,-250,4,2,1,75,0,0
26884,-666.666666666667,4,2,1,75,0,0
28533,-66.6666666666667,4,2,1,75,0,0
29110,-36.3636363636364,4,2,1,75,0,0
29604,-66.6666666666667,4,2,1,75,0,0
33478,-200,4,2,1,75,0,0
34302,-100,4,2,1,75,0,0
34879,-133.333333333333,4,2,1,75,0,0
35126,-66.6666666666667,4,2,1,75,0,0
35868,-44.4444444444445,4,2,1,75,0,0
36115,-66.6666666666667,4,2,1,75,0,0
36445,-47.6190476190476,4,2,1,75,0,0
36527,-40,4,2,1,75,0,0
36857,-66.6666666666667,4,2,1,75,0,0
37022,-50,4,2,1,75,0,0
37681,-66.6666666666667,4,2,1,75,0,0
37846,-50,4,2,1,75,0,0
38835,-66.6666666666667,4,2,1,75,0,0
39165,-40,4,2,1,75,0,0
39494,-66.6666666666667,4,2,1,75,0,0
39741,-50,4,2,1,75,0,0
40318,-66.6666666666667,4,2,1,75,0,0
40483,-50,4,2,1,75,0,0
40730,-66.6666666666667,4,2,1,75,0,0
41143,-50,4,2,1,75,0,0
41472,-66.6666666666667,4,2,1,75,0,0
41719,-50,4,2,1,75,0,0
42379,-40,4,2,1,75,0,0
42708,-66.6666666666667,4,2,1,75,0,0
43121,-33.3333333333333,4,2,1,75,0,0
43450,-36.3636363636364,4,2,1,75,0,0
43780,-40,4,2,1,75,0,0
44769,-50,4,2,1,75,0,0
46088,-66.6666666666667,4,2,1,75,0,0
46417,-44.4444444444445,4,2,1,75,0,0
46747,-66.6666666666667,4,2,1,75,0,0
47077,-40,4,2,1,75,0,0
47406,-66.6666666666667,4,2,1,75,0,0
47736,-40,4,2,1,75,0,0
48890,-66.6666666666667,4,2,1,75,0,0
49055,-40,4,2,1,75,0,0
49384,-66.6666666666667,4,2,1,75,0,0
49714,-50,4,2,1,75,0,0
50027,-66.6666666666667,4,2,1,75,0,0
50328,-33.3333333333333,4,2,1,75,0,0
50621,-57.1428571428571,4,2,1,75,0,0
51009,-38.4615384615385,4,2,1,75,0,0
52022,-50,4,2,1,75,0,0
52269,-37.037037037037,4,2,1,75,0,0
53670,-31.25,4,2,1,75,0,0
54165,-50,4,2,1,75,0,0
54659,-40,4,2,1,75,0,0
54989,-76.9230769230769,4,2,1,75,0,0
66857,-50,4,2,1,75,0,0
67187,-76.9230769230769,4,2,1,75,0,0
75885,-50,4,2,1,75,0,0
76088,-66.6666666666667,4,2,1,75,0,0
80044,-133.333333333333,4,2,1,75,0,0

[HitObjects]
71,116,7516,6,0,L|103:125,1,30
267,153,8011,2,0,L|243:208,1,60
286,308,8505,2,0,B|326:287|326:287|344:246,1,89.9999972534181
68,243,10154,6,0,P|79:253|98:260,1,30
125,152,10648,2,0,P|148:131|183:119,1,60
231,298,11143,2,0,P|236:277|216:214,1,89.9999972534181
379,74,12791,6,0,L|362:101,1,30
304,225,13285,2,0,P|273:191|252:181,1,60
117,289,13780,2,0,B|161:292|161:292|206:270,1,89.9999972534181
122,184,15428,6,0,P|125:203|132:211,1,30
220,85,15923,2,0,P|211:98|217:145,1,60
344,71,16417,2,0,P|342:117|366:155,1,89.9999972534181
108,109,18066,5,0,0:0:0:0:
95,131,18230,2,0,L|143:115,1,44.999998626709
322,155,18560,6,0,P|313:175|318:215,1,60
474,98,19055,2,0,P|476:123|435:169,1,90
110,130,20703,6,0,L|64:101,1,44.999998626709
71,106,21033,1,0,0:0:0:0:
122,237,21197,2,0,P|157:234|191:246,1,60
138,315,21692,2,0,P|166:337|218:355,1,90
95,79,23340,5,0,0:0:0:0:
139,85,23505,2,0,L|75:75,1,44.999998626709
212,151,23835,2,0,P|238:173|256:206,1,60
252,86,24329,2,0,P|311:139|331:175,1,120
360,83,25978,6,0,L|353:100,2,15
448,143,26472,2,0,L|388:167,1,60
471,252,26967,2,0,B|421:251|421:251|379:236,1,89.9999972534181
45,170,28615,6,0,L|204:151,1,112.500004291535
45,170,28945,1,0,0:0:0:0:
340,134,29110,2,0,B|400:195|400:195|237:215,1,206.250001966953
280,209,29357,1,0,0:0:0:0:
280,209,29439,1,0,0:0:0:0:
184,69,29604,1,0,0:0:0:0:
184,69,29769,1,0,0:0:0:0:
73,296,29934,6,0,P|130:343|187:323,1,112.500004291535
116,203,30263,2,0,B|174:187|174:187|207:235,1,112.500004291535
209,61,30593,1,0,0:0:0:0:
237,79,30676,1,0,0:0:0:0:
257,105,30758,1,0,0:0:0:0:
270,135,30840,1,0,0:0:0:0:
270,168,30923,2,0,P|261:232|292:282,1,112.500004291535
362,208,31252,5,0,3:0:0:0:
351,57,31417,1,0,3:0:0:0:
290,226,31582,5,0,3:0:0:0:
209,94,31747,1,0,3:0:0:0:
224,273,31912,5,0,3:0:0:0:
67,183,32077,1,0,3:0:0:0:
190,343,32241,5,0,3:0:0:0:
26,313,32406,1,0,3:0:0:0:
67,122,32571,6,0,L|168:143,1,56.2500021457673,0|0,3:0|3:0,3:0:0:0:
247,222,32736,2,0,L|197:169,1,56.2500021457673,0|0,3:0|3:0,3:0:0:0:
343,97,32901,5,0,3:0:0:0:
457,205,33066,1,0,3:0:0:0:
229,143,33230,1,0,3:0:0:0:
229,143,33313,1,0,3:0:0:0:
229,143,33395,1,0,3:0:0:0:
395,306,33560,5,0,3:0:0:0:
330,270,33643,1,0,3:0:0:0:
257,264,33725,1,0,3:0:0:0:
189,291,33807,1,0,3:0:0:0:
132,337,33890,6,0,L|85:349,1,37.5
95,346,34137,1,0,0:0:0:0:
132,337,34219,1,0,0:0:0:0:
29,220,34384,1,0,0:0:0:0:
65,210,34467,1,0,0:0:0:0:
29,220,34549,2,0,L|70:210,2,37.5
161,74,34879,6,0,P|199:88|223:147,1,84.3750032186509
101,254,35208,2,0,B|49:218|157:138,1,112.500004291535
220,228,35538,2,0,P|275:200|296:164,1,56.2500021457673
209,94,35703,2,0,P|229:69|268:49,1,56.2500021457673
366,115,35868,2,0,B|406:95|420:63|420:63|440:100|416:152|338:242,1,253.125009655953
203,296,36198,2,0,P|246:308|269:308,1,56.2500021457673
296,179,36362,2,0,P|250:218|238:245,1,56.2500021457673
438,290,36527,6,0,B|503:318|546:272|509:189|415:172|412:261|326:222,1,281.25
111,103,36857,2,0,P|150:111|187:134,1,56.2500021457673
268,41,37022,2,0,P|332:101|361:162,1,150
363,201,37269,1,0,0:0:0:0:
345,250,37351,1,0,0:0:0:0:
307,286,37434,1,0,0:0:0:0:
258,305,37516,1,0,0:0:0:0:
208,286,37599,1,0,0:0:0:0:
174,266,37681,2,0,B|145:258|103:281,1,56.2500021457673
33,220,37846,6,0,B|151:135|254:214,1,225
284,82,38176,2,0,P|324:93|366:122,1,75
365,346,38340,2,0,B|403:375|464:359|473:299|431:249|345:306|324:210,1,225
127,72,38670,1,0,0:0:0:0:
109,121,38752,1,0,0:0:0:0:
124,171,38835,2,0,P|145:199|198:215,1,56.2500021457673
331,116,39000,2,0,P|272:116|232:137,1,56.2500021457673
292,237,39165,6,0,B|329:189|387:208|400:258|354:314|266:306|211:280|174:208,1,281.25
234,85,39494,2,0,P|267:28|283:21,1,56.2500021457673
465,131,39659,2,0,P|445:177|402:206,1,56.2500021457673
165,107,39824,2,0,B|116:107|59:75|23:89|-14:135|1:193|72:236,1,225
255,286,40154,1,0,0:0:0:0:
212,298,40236,1,0,0:0:0:0:
167,303,40318,2,0,L|152:218,1,56.2500021457673
106,54,40483,6,0,B|129:100|187:83|212:35|264:27|336:72,1,225
278,123,40813,2,0,P|312:129|353:146,1,56.2500021457673
330,314,40978,2,0,P|320:280|303:248,1,56.2500021457673
173,146,41143,2,0,B|221:245|186:268|136:169|67:172|8:219|20:331,1,300
88,300,41472,2,0,P|125:291|187:298,1,56.2500021457673
252,247,41637,1,0,0:0:0:0:
274,240,41719,1,0,0:0:0:0:
294,231,41802,2,0,B|279:181|179:205|133:185|272:167|308:109|292:49,1,225
448,64,42132,5,0,0:0:0:0:
419,98,42214,1,0,0:0:0:0:
401,139,42296,1,0,0:0:0:0:
392,183,42379,1,0,0:0:0:0:
404,227,42461,2,0,B|495:173|481:250|364:313|242:329,1,281.25
216,79,42791,2,0,P|227:120|228:163,1,56.2500021457673
133,284,42956,2,0,P|123:243|128:205,1,56.2500021457673
226,260,43121,6,0,B|200:321|264:366|327:317|340:282|340:220|232:208|283:125|348:72,1,337.500012874604,0|0,3:0|2:0,3:0:0:0:
167,54,43450,2,0,B|72:30|42:82|72:157|134:179|183:164|199:60|315:162,1,309.37500295043,0|0,3:0|0:0,0:0:0:0:
311,45,43780,1,0,0:0:0:0:
311,45,43863,1,0,0:0:0:0:
311,45,43945,2,0,B|368:55|419:1|533:49|490:167,1,281.25
417,110,44274,6,0,B|354:191|480:192|391:297,1,187.5
387,294,44522,1,0,0:0:0:0:
373,306,44604,1,0,0:0:0:0:
357,316,44687,1,0,0:0:0:0:
343,322,44769,2,0,P|322:275|323:238,1,56.2500021457673
213,52,44934,1,0,0:0:0:0:
208,66,45016,1,0,0:0:0:0:
205,80,45099,2,0,P|198:116|212:162,1,56.2500021457673
455,114,45263,1,0,3:0:0:0:
442,106,45346,1,0,3:0:0:0:
428,100,45428,2,0,P|363:90|340:95,1,56.2500021457673,0|0,3:0|3:0,3:0:0:0:
200,135,45593,1,0,3:0:0:0:
186,140,45676,1,0,3:0:0:0:
172,145,45758,6,0,B|128:190|60:198|135:286|177:196|230:151|291:218,1,225,0|0,3:0|0:0,0:0:0:0:
297,78,46088,2,0,P|334:83|382:108,1,56.2500021457673
316,227,46252,2,0,P|381:246|399:247,1,56.2500021457673
444,153,46417,2,0,B|398:208|501:200|509:284|437:370|340:303,1,253.125009655953
225,227,46747,1,0,0:0:0:0:
200,196,46829,1,0,0:0:0:0:
183,159,46912,1,0,0:0:0:0:
185,119,46994,1,0,0:0:0:0:
206,85,47077,6,0,B|251:59|237:1|98:1|77:93|187:177|20:201,1,281.25
73,335,47406,2,0,P|117:332|162:313,1,56.2500021457673
261,107,47571,2,0,P|253:147|255:186,1,56.2500021457673
263,310,47736,2,0,B|279:338|257:368|360:381|399:343|391:272|276:259|338:175,1,281.25
401,123,48066,1,0,0:0:0:0:
436,135,48148,1,0,0:0:0:0:
454,167,48230,1,0,0:0:0:0:
455,204,48313,1,0,0:0:0:0:
436,236,48395,6,0,B|413:269|496:312|429:371|313:328|299:274|363:235|320:205|293:202|260:183,1,281.25
105,95,48725,1,0,0:0:0:0:
141,126,48807,1,0,0:0:0:0:
156,167,48890,2,0,P|151:205|129:238,1,56.2500021457673
107,328,49055,2,0,B|153:357|235:347|213:274|238:205|297:205|325:267|253:327,1,281.25
442,197,49384,2,0,P|424:158|395:128,1,56.2500021457673
197,46,49549,2,0,P|200:89|211:118,1,56.2500021457673
219,203,49714,6,0,B|223:248|297:342|378:197|250:230|251:157,1,225
311,16,50044,2,0,P|338:37|377:47,1,56.2500021457673
336,155,50208,2,0,P|360:189|370:222,1,56.2500021457673
155,230,50373,2,0,B|93:296|93:296|133:345|238:167|276:341|362:303,1,337.500012874604
243,138,50703,2,0,P|282:143|339:166,1,65.6250006258488
283,331,50868,2,0,P|268:306|261:259,1,65.6250006258488
162,97,51033,6,0,B|153:54|94:26|94:26|155:22|243:140,1,292.499986610413
380,289,51362,1,0,0:0:0:0:
377,259,51445,1,0,0:0:0:0:
372,230,51527,1,0,0:0:0:0:
366,201,51610,1,0,0:0:0:0:
361,170,51692,2,0,B|360:137|422:99|422:99|406:65|346:14|287:162,1,292.499986610413
160,192,52022,2,0,L|161:281,1,75
96,288,52187,2,0,L|97:199,1,75
148,115,52351,6,0,B|100:66|47:144|28:4|149:-13|172:15|210:102|283:37,1,303.750001158714
439,201,52681,1,0,0:0:0:0:
416,220,52763,1,0,0:0:0:0:
393,240,52846,1,0,0:0:0:0:
370,260,52928,1,0,0:0:0:0:
346,279,53011,2,0,B|366:299|441:272|441:272|383:347|253:301,1,303.750001158714
190,110,53340,1,0,0:0:0:0:
158,135,53423,1,0,0:0:0:0:
138,169,53505,1,0,0:0:0:0:
136,209,53588,1,0,0:0:0:0:
148,254,53670,6,0,B|202:282|94:343|240:405|412:333|319:230|306:184|172:175|307:121|312:0,1,480
237,73,54082,2,0,B|195:79|119:50|119:50|215:130|299:141|399:113,1,360
437,294,54329,2,0,P|411:252|409:222,1,75
472,69,54494,2,0,P|487:120|486:173,1,75
384,296,54659,2,0,B|254:230|257:353|111:267,1,281.25
77,106,54989,5,0,3:0:0:0:
117,132,55071,1,0,0:0:0:0:
165,127,55154,1,0,3:0:0:0:
208,105,55236,1,0,0:0:0:0:
249,79,55318,1,0,3:0:0:0:
296,64,55401,1,0,0:0:0:0:
339,86,55483,2,0,P|360:106|375:145,1,48.7499977684022,0|0,3:0|0:0,0:0:0:0:
480,311,55648,5,0,3:0:0:0:
412,306,55730,1,0,3:0:0:0:
343,300,55813,1,0,3:0:0:0:
275,294,55895,1,0,3:0:0:0:
206,287,55978,1,0,3:0:0:0:
143,278,56060,1,0,3:0:0:0:
79,268,56143,2,0,L|89:193,1,48.7499977684022,0|0,3:0|3:0,3:0:0:0:
101,59,56307,5,0,3:0:0:0:
142,93,56390,1,0,0:0:0:0:
193,106,56472,1,0,0:0:0:0:
245,92,56555,1,0,0:0:0:0:
291,66,56637,1,0,0:0:0:0:
341,47,56719,1,0,0:0:0:0:
394,53,56802,1,0,0:0:0:0:
436,85,56884,1,0,0:0:0:0:
457,134,56967,1,0,0:0:0:0:
441,185,57049,1,0,0:0:0:0:
444,238,57132,1,0,0:0:0:0:
417,284,57214,1,0,0:0:0:0:
363,286,57296,1,0,0:0:0:0:
318,255,57379,1,0,0:0:0:0:
266,241,57461,1,0,0:0:0:0:
217,263,57544,1,0,0:0:0:0:
173,294,57626,6,0,L|119:318,5,48.7499977684022
153,203,58121,2,0,L|212:221,5,48.7499977684022,0|0|0|0|0|0,0:0|0:0|0:0|0:0|0:0|0:0,0:0:0:0:
303,51,58615,1,0,0:0:0:0:
295,104,58698,1,0,0:0:0:0:
316,152,58780,2,0,P|335:180|368:205,1,48.7499977684022,0|0,0:0|0:0,0:0:0:0:
440,308,58945,5,0,0:0:0:0:
389,325,59027,1,0,0:0:0:0:
335,320,59110,1,0,0:0:0:0:
288,293,59192,1,0,0:0:0:0:
235,283,59274,1,0,0:0:0:0:
185,305,59357,1,0,0:0:0:0:
132,313,59439,1,0,0:0:0:0:
84,287,59522,1,0,0:0:0:0:
54,242,59604,1,0,0:0:0:0:
52,188,59687,1,0,0:0:0:0:
82,143,59769,1,0,0:0:0:0:
131,122,59851,1,0,0:0:0:0:
183,134,59934,1,0,0:0:0:0:
226,164,60016,1,0,0:0:0:0:
272,183,60099,2,0,P|304:190|364:175,1,48.7499977684022
464,121,60263,5,0,0:0:0:0:
453,137,60346,1,0,0:0:0:0:
441,152,60428,1,0,0:0:0:0:
429,168,60511,1,0,0:0:0:0:
417,183,60593,2,0,P|389:214|361:227,1,48.7499977684022
170,223,60758,1,0,0:0:0:0:
182,238,60840,1,0,0:0:0:0:
194,253,60923,1,0,0:0:0:0:
206,268,61005,1,0,0:0:0:0:
219,282,61088,2,0,P|247:302|280:314,1,48.7499977684022
430,260,61252,2,0,P|385:290|353:299,1,48.7499977684022
283,191,61417,2,0,P|322:198|367:187,1,48.7499977684022
457,173,61582,5,0,0:0:0:0:
429,126,61665,1,0,0:0:0:0:
423,72,61747,1,0,0:0:0:0:
383,36,61829,1,0,0:0:0:0:
329,30,61912,1,0,0:0:0:0:
278,48,61994,1,0,0:0:0:0:
234,80,62077,1,0,0:0:0:0:
182,93,62159,1,0,0:0:0:0:
133,69,62241,1,0,0:0:0:0:
79,72,62324,1,0,0:0:0:0:
43,111,62406,1,0,0:0:0:0:
46,164,62489,1,0,0:0:0:0:
81,203,62571,1,0,0:0:0:0:
134,212,62654,1,0,0:0:0:0:
186,219,62736,2,0,P|234:230|273:247,1,48.7499977684022
332,316,62901,5,0,0:0:0:0:
332,316,62983,1,0,0:0:0:0:
332,316,63066,2,0,L|410:293,3,48.7499977684022
445,201,63395,1,0,0:0:0:0:
445,201,63478,1,0,0:0:0:0:
445,201,63560,2,0,L|365:186,3,48.7499977684022
225,74,63890,1,0,0:0:0:0:
249,121,63972,1,0,0:0:0:0:
233,172,64055,2,0,P|202:213|191:252,1,48.7499977684022
214,326,64219,5,0,0:0:0:0:
279,292,64302,1,0,0:0:0:0:
351,286,64384,1,0,0:0:0:0:
424,294,64467,1,0,0:0:0:0:
482,250,64549,1,0,0:0:0:0:
494,177,64632,1,0,0:0:0:0:
477,106,64714,1,0,0:0:0:0:
422,58,64796,1,0,0:0:0:0:
348,52,64879,1,0,0:0:0:0:
281,80,64961,1,0,0:0:0:0:
207,74,65044,1,0,0:0:0:0:
141,42,65126,1,0,0:0:0:0:
74,71,65208,1,0,0:0:0:0:
61,143,65291,1,0,0:0:0:0:
74,214,65373,2,0,P|100:237|137:249,1,48.7499977684022
186,328,65538,5,0,3:0:0:0:
220,309,65621,1,0,0:0:0:0:
258,306,65703,2,0,P|282:318|319:328,1,48.7499977684022,0|0,3:0|0:0,0:0:0:0:
436,216,65868,2,0,P|389:222|357:228,1,48.7499977684022,0|0,3:0|0:0,0:0:0:0:
191,195,66033,1,0,3:0:0:0:
191,195,66115,1,0,0:0:0:0:
191,195,66198,2,0,P|230:205|278:206,1,48.7499977684022,0|0,3:0|0:0,0:0:0:0:
242,100,66362,2,0,P|279:88|307:67,1,48.7499977684022
395,25,66527,5,0,3:0:0:0:
426,107,66610,1,0,3:0:0:0:
415,193,66692,1,0,3:0:0:0:
358,259,66774,1,0,3:0:0:0:
267,280,66857,6,0,L|186:265,3,75,0|0|0|0,3:0|0:0|0:0|0:0,3:0:0:0:
105,160,67187,1,0,3:0:0:0:
119,211,67269,1,0,0:0:0:0:
94,258,67351,1,0,0:0:0:0:
103,311,67434,1,0,0:0:0:0:
149,336,67516,1,0,3:0:0:0:
200,320,67599,1,0,0:0:0:0:
237,281,67681,1,0,0:0:0:0:
285,259,67763,1,0,0:0:0:0:
337,273,67846,1,0,3:0:0:0:
390,273,67928,1,0,0:0:0:0:
433,240,68011,2,0,P|455:208|468:168,1,48.7499977684022
368,35,68176,5,0,3:0:0:0:
380,49,68258,1,0,0:0:0:0:
390,65,68340,1,0,0:0:0:0:
401,80,68423,1,0,0:0:0:0:
411,96,68505,2,0,P|432:132|437:163,1,48.7499977684022,0|0,3:0|0:0,0:0:0:0:
295,284,68670,1,0,0:0:0:0:
306,268,68752,1,0,0:0:0:0:
318,252,68835,1,0,3:0:0:0:
330,237,68917,1,0,0:0:0:0:
341,221,69000,2,0,P|358:190|358:146,1,48.7499977684022
176,99,69165,2,0,P|231:148|245:154,1,48.7499977684022,0|0,3:0|0:0,0:0:0:0:
370,89,69329,2,0,P|337:76|303:74,1,48.7499977684022
99,76,69494,5,0,3:0:0:0:
116,132,69577,1,0,0:0:0:0:
104,188,69659,1,0,0:0:0:0:
74,238,69741,1,0,0:0:0:0:
79,296,69824,1,0,3:0:0:0:
131,321,69906,1,0,0:0:0:0:
185,298,69989,1,0,0:0:0:0:
228,259,70071,1,0,0:0:0:0:
286,249,70154,1,0,3:0:0:0:
334,281,70236,1,0,0:0:0:0:
383,311,70318,1,0,0:0:0:0:
439,294,70401,1,0,0:0:0:0:
460,240,70483,1,0,3:0:0:0:
436,186,70566,1,0,0:0:0:0:
382,162,70648,2,0,P|364:161|324:165,1,48.7499977684022
91,138,70813,5,0,3:0:0:0:
85,176,70895,1,0,0:0:0:0:
78,214,70978,1,0,0:0:0:0:
72,252,71060,1,0,0:0:0:0:
64,290,71143,2,0,P|63:324|74:350,1,48.7499977684022,0|0,3:0|0:0,0:0:0:0:
173,73,71307,5,0,0:0:0:0:
179,111,71389,1,0,0:0:0:0:
186,149,71472,1,0,3:0:0:0:
192,187,71554,1,0,0:0:0:0:
200,225,71637,2,0,P|201:259|190:285,1,48.7499977684022
34,170,71802,2,0,P|74:217|91:228,1,48.7499977684022,0|0,3:0|0:0,0:0:0:0:
291,141,71967,2,0,P|234:128|199:132,1,48.7499977684022
105,171,72132,5,0,3:0:0:0:
115,233,72214,1,0,0:0:0:0:
85,288,72296,1,0,0:0:0:0:
106,348,72379,1,0,0:0:0:0:
166,366,72461,1,0,3:0:0:0:
225,342,72544,1,0,0:0:0:0:
272,300,72626,1,0,0:0:0:0:
334,291,72708,1,0,0:0:0:0:
390,321,72791,1,0,3:0:0:0:
451,306,72873,1,0,0:0:0:0:
488,254,72956,1,0,0:0:0:0:
493,191,73038,1,0,0:0:0:0:
465,133,73121,1,0,3:0:0:0:
406,109,73203,1,0,0:0:0:0:
343,103,73285,2,0,P|308:100|276:86,1,48.7499977684022
112,101,73450,6,0,L|55:64,5,48.7499977684022,0|0|0|0|0|0,3:0|0:0|0:0|0:0|3:0|0:0,0:0:0:0:
220,178,73945,2,0,L|166:205,5,48.7499977684022,0|0|0|0|0|0,0:0|0:0|3:0|0:0|0:0|0:0,0:0:0:0:
340,70,74439,1,0,3:0:0:0:
324,136,74522,1,0,0:0:0:0:
332,203,74604,2,0,P|346:237|335:285,1,48.7499977684022
419,335,74769,5,0,3:0:0:0:
339,313,74851,1,0,0:0:0:0:
255,316,74934,1,0,3:0:0:0:
178,345,75016,1,0,0:0:0:0:
96,328,75099,1,0,3:0:0:0:
49,259,75181,1,0,0:0:0:0:
59,177,75263,1,0,3:0:0:0:
87,98,75346,1,0,0:0:0:0:
150,45,75428,1,0,3:0:0:0:
233,50,75511,1,0,0:0:0:0:
312,28,75593,1,0,3:0:0:0:
393,43,75676,1,0,0:0:0:0:
448,103,75758,1,0,3:0:0:0:
458,184,75840,1,0,0:0:0:0:
417,256,75923,2,0,P|378:290|341:306,1,75,0|0,3:0|0:0,0:0:0:0:
151,312,76088,6,0,P|128:350|123:384,1,56.2500021457673,0|0,3:0|3:0,3:0:0:0:
326,277,76252,2,0,P|326:309|310:345,1,56.2500021457673,0|0,3:0|3:0,3:0:0:0:
136,206,76417,2,0,P|136:235|148:265,1,56.2500021457673,0|0,3:0|3:0,3:0:0:0:
334,146,76582,2,0,P|332:185|317:217,1,56.2500021457673,0|0,3:0|3:0,3:0:0:0:
128,102,76747,2,0,P|152:149|182:172,1,56.2500021457673,0|0,3:0|3:0,3:0:0:0:
346,41,76912,2,0,P|352:82|342:117,1,56.2500021457673,0|0,3:0|3:0,3:0:0:0:
138,30,77077,2,0,P|190:67|224:73,1,56.2500021457673,0|0,3:0|3:0,3:0:0:0:
383,147,77241,2,0,P|329:111|302:103,1,56.2500021457673,0|0,3:0|3:0,3:0:0:0:
251,193,77406,5,0,3:0:0:0:
256,192,77461,12,0,79879,0:0:0:0:
126,68,80044,6,0,P|177:93|242:93,1,112.500004291535
387,84,80538,2,0,P|369:138|329:180,1,112.500004291535
287,229,81033,2,0,B|266:208|253:180|192:207|212:274|268:299|357:296|411:221,1,281.250010728836
