osu file format v14

[General]
AudioFilename: no_hardstyle.mp3
AudioLeadIn: 0
PreviewTime: 6788
Countdown: 0
SampleSet: Soft
StackLeniency: 0.7
Mode: 0
LetterboxInBreaks: 0
WidescreenStoryboard: 1

[Editor]
DistanceSpacing: 0.9
BeatDivisor: 4
GridSize: 32
TimelineZoom: 1.399999

[Metadata]
Title:Natsu no Owari (Soleily Remix)
TitleUnicode:夏の終焉り (Soleily Remix)
Artist:Denkishiki Karen Ongaku Shuudan
ArtistUnicode:電気式華憐音楽集団
Creator:Lasse
Version:Normal
Source:終わる世界とバースデイ
Tags:Owaru Sekai to Birthday コットンソフト Cotton Soft eroge visual novel dnb drum and bass denkare
BeatmapID:1410053
BeatmapSetID:665232

[Difficulty]
HPDrainRate:4
CircleSize:3.4
OverallDifficulty:4
ApproachRate:5
SliderMultiplier:1.2
SliderTickRate:1

[Events]
//Background and Video events
0,0,"bg.jpg",0,0
//Break Periods
//Storyboard Layer 0 (Background)
//Storyboard Layer 1 (Fail)
//Storyboard Layer 2 (Pass)
//Storyboard Layer 3 (Foreground)
//Storyboard Sound Samples

[TimingPoints]
17,342.857142857143,4,2,22,5,1,0
1388,-142.857142857143,4,2,22,20,0,0
2759,-142.857142857143,4,2,22,30,0,0
3445,-142.857142857143,4,2,22,34,0,0
4131,-142.857142857143,4,2,22,38,0,0
4817,-142.857142857143,4,2,22,42,0,0
5502,-142.857142857143,4,2,22,46,0,0
5845,-142.857142857143,4,2,22,50,0,0
6188,-142.857142857143,4,2,22,54,0,0
6359,-142.857142857143,4,2,22,58,0,0
6531,-142.857142857143,4,2,99,30,0,0
6874,-142.857142857143,4,2,22,30,0,0
17845,-142.857142857143,4,2,22,34,0,0
23331,-142.857142857143,4,2,22,36,0,0
28474,-142.857142857143,4,2,22,36,0,0
28645,-142.857142857143,4,2,99,5,0,0
28817,-111.111111111111,4,2,1,64,0,0
32159,-111.111111111111,4,2,1,40,0,0
32245,-111.111111111111,4,2,1,64,0,0
33617,-111.111111111111,4,2,1,66,0,0
34302,-111.111111111111,4,2,22,60,0,0
35331,-111.111111111111,4,2,22,50,0,0
35588,-111.111111111111,4,2,99,5,0,0
35674,-100,4,2,1,70,0,1
46302,-100,4,2,1,70,0,0
46645,-100,4,2,1,70,0,1
57617,-111.111111111111,4,2,1,64,0,0
60359,-111.111111111111,4,2,1,64,0,0
79559,-125,4,2,22,60,0,0
79902,-142.857142857143,4,2,22,56,0,0
82302,-142.857142857143,4,2,34,54,0,0
93274,-125,4,2,34,56,0,0
102874,-142.857142857143,4,2,1,60,0,0
102895,-142.857142857143,4,2,22,20,0,0
103217,-142.857142857143,4,2,23,30,0,0
103559,-142.857142857143,4,2,22,50,0,0
103902,-142.857142857143,4,2,22,30,0,0
104159,-142.857142857143,4,2,99,5,0,0
104245,-125,4,2,1,66,0,0
104588,-125,4,2,22,40,0,0
104759,-125,4,2,1,68,0,0
105102,-125,4,2,22,40,0,0
105274,-125,4,2,1,64,0,0
105445,-125,4,2,22,40,0,0
105617,-125,4,2,1,68,0,0
106302,-125,4,2,1,52,0,0
106388,-125,4,2,1,54,0,0
106474,-125,4,2,1,56,0,0
106559,-125,4,2,1,58,0,0
106645,-125,4,2,1,60,0,0
106731,-125,4,2,1,62,0,0
106817,-125,4,2,1,64,0,0
106902,-83.3333333333333,4,2,1,66,0,0
106988,-111.111111111111,4,2,1,64,0,0
110331,-111.111111111111,4,2,1,40,0,0
110417,-111.111111111111,4,2,1,64,0,0
111788,-111.111111111111,4,2,1,66,0,0
112474,-111.111111111111,4,2,1,64,0,0
112559,-111.111111111111,4,2,1,30,0,0
113159,-111.111111111111,4,2,22,40,0,0
113417,-111.111111111111,4,2,99,5,0,0
113502,-111.111111111111,4,2,22,50,0,0
113759,-111.111111111111,4,2,99,5,0,0
113845,-100,4,2,1,70,0,1
124474,-100,4,2,1,70,0,0
124817,-100,4,2,1,70,0,1
130217,-100,4,2,1,70,0,0
130302,-100,4,2,1,70,0,1
131674,-100,4,2,1,70,0,1
132188,-100,4,2,1,70,0,1
132874,-100,4,2,1,70,0,1
135788,-111.111111111111,4,2,1,64,0,0
156359,-111.111111111111,4,2,22,68,0,0
156531,-111.111111111111,4,2,22,66,0,0
156788,-111.111111111111,4,2,22,64,0,0
157045,-111.111111111111,4,2,22,62,0,0
157302,-111.111111111111,4,2,22,60,0,0
157388,-111.111111111111,4,2,22,58,0,0
157474,-111.111111111111,4,2,22,56,0,0
157559,-111.111111111111,4,2,22,54,0,0
157645,-111.111111111111,4,2,22,52,0,0
157731,-125,4,2,1,60,0,0
174188,-125,4,2,1,60,0,0
174531,-125,4,2,1,60,0,0
175559,-125,4,2,1,60,0,0
175902,-125,4,2,1,60,0,0
177274,-125,4,2,1,60,0,0
179674,-125,4,2,99,60,0,0
179759,-125,4,2,1,50,0,0

[Colours]
Combo1 : 150,220,130
Combo2 : 250,150,110
Combo3 : 130,170,250
Combo4 : 240,220,120

[HitObjects]
201,110,6874,6,0,P|120:190|199:272,1,251.999992309571,2|2,0:0|0:0,0:0:0:0:
310,110,9617,6,0,P|391:190|312:272,1,251.999992309571,2|2,0:0|0:0,0:0:0:0:
193,98,12359,6,0,P|131:85|54:87,2,125.999996154785,2|2|2,0:0|0:0|0:0,0:0:0:0:
193,286,15102,6,0,P|131:299|54:297,2,125.999996154785,2|2|2,0:0|0:0|0:0,0:0:0:0:
319,98,17845,6,0,P|381:85|458:87,2,125.999996154785,2|2|2,0:0|0:0|0:0,0:0:0:0:
319,286,20588,6,0,P|381:299|458:297,2,125.999996154785,2|2|2,0:0|0:0|0:0,0:0:0:0:
175,59,23331,6,0,L|180:184,1,125.999996154785,2|2,0:0|0:0,0:0:0:0:
256,252,24359,1,2,0:0:0:0:
337,59,26074,6,0,L|331:184,1,125.999996154785,2|2,0:0|0:0,0:0:0:0:
256,252,27102,1,2,0:0:0:0:
435,317,28817,6,0,P|389:291|337:302,1,107.999996704102,4|2,3:2|3:2,0:0:0:0:
301,343,29331,1,2,0:2:0:0:
301,343,29502,2,0,L|171:337,1,107.999996704102,0|2,3:2|3:2,0:0:0:0:
92,296,30188,1,4,3:2:0:0:
130,194,30531,1,2,3:2:0:0:
130,194,30702,1,2,0:2:0:0:
86,95,31045,2,0,L|15:83,2,53.9999983520508,2|0|2,0:2|3:2|0:2,0:0:0:0:
131,66,31559,6,0,L|263:58,1,107.999996704102,4|2,3:2|3:2,0:0:0:0:
293,85,32074,1,2,3:2:0:0:
293,85,32245,2,0,L|425:93,1,107.999996704102,4|2,3:2|3:2,0:0:0:0:
442,191,32931,2,0,L|310:183,1,107.999996704102,4|2,3:2|3:2,0:0:0:0:
298,225,33445,1,2,3:2:0:0:
298,225,33617,2,0,P|276:293|297:343,1,107.999996704102,8|8,3:2|0:2,0:0:0:0:
388,358,34302,5,12,0:2:0:0:
477,72,35331,1,2,0:1:0:0:
388,151,35674,6,0,B|350:148|350:148|316:127|316:127|273:126,1,120,4|8,3:2|0:2,0:0:0:0:
231,168,36188,2,0,B|221:301,1,120,2|0,0:0|3:0,0:0:0:0:
174,324,36702,1,10,0:1:0:0:
58,355,37045,1,2,3:2:0:0:
6,253,37388,1,8,0:2:0:0:
6,253,37559,2,0,L|14:129,1,120,2|0,0:0|3:0,0:0:0:0:
50,84,38074,1,10,0:1:0:0:
166,113,38417,6,0,B|204:110|204:110|238:89|238:89|281:88,1,120,2|8,3:2|0:2,0:0:0:0:
336,109,38931,2,0,B|374:112|374:112|408:133|408:133|451:134,1,120,2|0,0:0|3:0,0:0:0:0:
505,109,39445,1,10,0:1:0:0:
489,228,39788,1,2,3:2:0:0:
469,346,40131,1,8,0:2:0:0:
469,346,40302,2,2,B|435:328|435:328|416:337|416:337|395:327|395:327|358:321,1,120,2|0,0:1|3:2,0:1:0:0:
307,353,40817,2,0,L|236:342,1,60,10|2,0:1|3:3,0:0:0:0:
187,347,41159,6,0,L|183:202,1,120,2|8,3:2|0:2,0:0:0:0:
229,187,41674,2,0,L|233:42,1,120,2|0,0:0|3:0,0:0:0:0:
277,27,42188,1,10,0:1:0:0:
379,90,42531,2,0,L|383:235,1,120,2|8,3:2|0:2,0:0:0:0:
359,265,43045,2,0,B|319:259|319:259|279:278|279:278|219:271,1,120,2|2,0:1|3:0,0:0:0:0:
190,301,43559,1,8,0:0:0:0:
190,301,43731,6,0,L|3:281,1,180,4|8,3:2|0:2,0:0:0:0:
83,117,44759,2,0,L|93:50,1,60,0|8,3:2|0:2,0:0:0:0:
150,42,45102,2,0,B|240:31|229:81|329:63,1,180,4|8,3:2|0:2,0:0:0:0:
381,40,45788,2,0,L|494:31,2,90,0|8|8,3:0|0:2|0:2,0:0:0:0:
319,143,46645,6,0,B|314:272,1,120,4|8,3:2|0:2,0:0:0:0:
325,322,47159,2,0,P|382:296|447:319,1,120,2|0,0:0|3:0,0:0:0:0:
481,348,47674,1,10,0:1:0:0:
495,228,48017,1,0,3:2:0:0:
473,115,48359,1,8,0:2:0:0:
473,115,48531,2,0,P|419:140|362:127,1,120,2|0,0:0|3:0,0:0:0:0:
319,85,49045,1,10,0:1:0:0:
206,43,49388,6,0,B|169:36|169:36|125:49|125:49|80:38,1,120,2|8,3:2|0:2,0:0:0:0:
53,88,49902,2,0,B|60:125|60:125|47:169|47:169|58:214,1,120,2|0,0:2|3:0,0:0:0:0:
94,249,50417,1,10,0:1:0:0:
195,184,50759,1,2,3:2:0:0:
314,223,51102,1,8,0:2:0:0:
314,223,51274,2,2,B|333:219|333:219|348:220|348:220|369:209|369:209|387:222|387:222|410:226|410:226|438:239,1,120,2|0,0:1|3:3,0:1:0:0:
465,277,51788,2,0,L|459:343,1,60,10|2,0:1|3:3,0:0:0:0:
402,353,52131,6,0,P|344:334|277:337,1,120,2|8,3:2|0:2,0:0:0:0:
228,354,52645,2,0,P|168:354|111:336,1,120,2|0,0:0|3:0,0:0:0:0:
82,283,53159,1,10,0:1:0:0:
158,190,53502,2,0,L|162:47,1,120,2|8,3:2|0:2,0:0:0:0:
203,26,54017,2,0,P|262:25|319:43,1,120,2|2,0:1|3:3,0:0:0:0:
342,98,54531,1,8,0:0:0:0:
342,98,54702,6,0,B|329:165|329:165|348:195|348:195|333:282,1,180,4|8,3:2|0:2,0:0:0:0:
170,343,55731,2,0,L|107:333,1,60,0|8,3:2|0:2,0:0:0:0:
22,251,56245,2,0,L|19:117,1,120,4|8,3:2|0:2,0:0:0:0:
64,91,56759,1,0,3:0:0:0:
64,91,56931,2,0,B|91:89|91:89|104:84|104:84|122:94|122:94|142:88|142:88|159:89|159:89|193:85,2,120,10|10|4,0:2|0:2|3:2,0:0:0:0:
256,192,57788,12,2,60359,3:2:0:0:
52,296,61731,6,0,P|106:286|160:285,1,107.999996704102,2|8,3:2|0:2,0:0:0:0:
206,313,62245,1,2,0:0:0:0:
298,257,62588,2,0,L|294:182,2,53.9999983520508,0|8|0,3:0|0:0|3:0,0:0:0:0:
345,283,63102,6,0,P|398:281|452:272,1,107.999996704102,2|8,3:2|0:2,0:0:0:0:
497,116,63959,1,0,3:0:0:0:
497,116,64131,1,8,0:0:0:0:
408,54,64474,2,0,P|354:56|300:65,1,107.999996704102,2|8,3:2|0:2,0:0:0:0:
254,93,64988,2,0,P|200:90|146:81,1,107.999996704102,2|0,0:0|3:0,0:0:0:0:
101,51,65502,1,8,0:0:0:0:
36,137,65845,6,0,B|27:265,1,107.999996704102,2|8,3:2|0:2,0:0:0:0:
144,366,66702,1,0,3:0:0:0:
144,366,66874,1,8,0:0:0:0:
218,287,67217,2,0,B|227:159,1,107.999996704102,2|8,3:2|0:2,0:0:0:0:
284,88,67902,1,8,0:2:0:0:
388,115,68245,2,0,L|459:112,1,53.9999983520508,8|8,0:2|0:2,0:0:0:0:
485,144,68588,6,0,B|492:251,1,107.999996704102,4|8,3:2|0:0,0:0:0:0:
416,329,69274,1,0,3:0:0:0:
314,293,69617,1,8,0:0:0:0:
215,336,69959,2,0,P|161:336|109:322,1,107.999996704102,2|8,3:2|0:0,0:0:0:0:
67,298,70474,1,2,0:0:0:0:
67,298,70645,2,0,L|63:174,1,107.999996704102,0|8,3:0|0:0,0:0:0:0:
120,98,71331,6,0,P|173:97|225:111,1,107.999996704102,4|8,3:2|0:0,0:0:0:0:
272,208,72017,1,0,3:0:0:0:
375,240,72359,1,8,0:0:0:0:
470,189,72702,2,0,L|485:64,1,107.999996704102,2|8,3:2|0:0,0:0:0:0:
446,49,73217,1,2,0:0:0:0:
446,49,73388,2,0,P|392:49|340:35,1,107.999996704102,0|8,3:0|0:0,0:0:0:0:
262,111,74074,6,0,B|251:141|251:141|246:236,1,107.999996704102,4|8,3:2|0:0,0:0:0:0:
185,303,74759,2,0,B|154:292|154:292|59:287,1,107.999996704102,0|8,3:0|0:0,0:0:0:0:
5,208,75445,2,0,B|16:177|16:177|21:82,1,107.999996704102,4|8,3:2|0:0,0:0:0:0:
50,59,75959,1,2,0:0:0:0:
50,59,76131,2,0,B|81:70|81:70|176:75,1,107.999996704102,0|8,3:0|0:0,0:0:0:0:
252,25,76817,5,4,3:2:0:0:
357,46,77159,1,8,3:2:0:0:
426,129,77502,2,0,L|422:242,1,107.999996704102,4|8,3:2|3:2,0:0:0:0:
363,328,78188,2,0,B|352:266|293:256|293:256|248:289|248:289|206:255|206:255|156:285|156:285|111:268|111:268|71:279|71:279|39:269|39:269|16:273|16:273|-12:272,1,431.999986816407,4|4,3:2|0:2,0:0:0:0:
208,135,82302,6,0,P|144:143|86:120,1,125.999996154785,6|2,3:2|1:2,0:0:0:0:
25,28,83331,1,10,0:0:0:0:
208,249,85045,6,0,P|144:241|86:264,1,125.999996154785,2|2,3:2|1:2,0:0:0:0:
25,356,86074,1,10,0:0:0:0:
304,249,87788,6,0,P|368:241|426:264,1,125.999996154785,2|2,3:2|1:2,0:0:0:0:
487,356,88817,1,10,0:0:0:0:
304,135,90531,6,0,P|368:143|426:120,1,125.999996154785,2|2,3:2|1:2,0:0:0:0:
487,28,91559,1,10,0:0:0:0:
49,97,93274,6,0,P|100:94|153:125,1,96,6|8,3:2|0:0,0:0:0:0:
157,158,93788,2,0,L|163:272,1,96,2|0,1:2|3:2,0:0:0:0:
194,289,94302,1,10,0:0:0:0:
462,97,96017,6,0,P|412:94|359:125,1,96,2|8,3:2|0:0,0:0:0:0:
355,158,96531,2,0,L|349:272,1,96,2|0,1:2|3:2,0:0:0:0:
318,289,97045,1,10,0:0:0:0:
49,286,98759,6,0,P|100:290|153:259,1,96,2|8,3:2|0:0,0:0:0:0:
157,226,99274,2,0,L|163:112,1,96,2|0,1:2|3:2,0:0:0:0:
194,95,99788,1,10,0:0:0:0:
462,286,101502,6,0,P|412:290|359:259,1,96,2|8,3:2|0:0,0:0:0:0:
355,226,102017,2,0,L|349:112,1,96,2|0,1:2|3:2,0:0:0:0:
318,95,102531,1,10,0:0:0:0:
256,160,102874,5,4,3:2:0:0:
35,51,104245,6,0,B|71:38|71:38|123:56|123:56|183:43,2,144,4|4|4,3:2|3:2|3:2,0:0:0:0:
5,142,105617,1,4,3:2:0:0:
136,292,106302,2,0,B|151:287|151:287|166:279|166:279|182:295|182:295|204:287|204:287|224:293|224:293|241:290|241:290|268:292,1,144,8|8,0:2|0:2,0:0:0:0:
319,273,106988,6,0,P|345:227|334:175,1,107.999996704102,4|2,3:2|3:2,0:0:0:0:
297,144,107502,1,2,0:2:0:0:
297,144,107674,2,0,L|167:138,1,107.999996704102,0|2,3:2|3:2,0:0:0:0:
104,207,108359,1,4,3:2:0:0:
14,148,108702,1,2,3:2:0:0:
14,148,108874,1,2,0:2:0:0:
42,45,109217,2,0,P|13:31|-20:23,2,53.9999983520508,2|0|2,0:2|3:2|0:2,0:0:0:0:
93,60,109731,6,0,B|133:61|133:61|157:50|157:50|198:51,1,107.999996704102,4|2,3:2|3:2,0:0:0:0:
249,83,110245,1,2,3:2:0:0:
249,83,110417,2,0,B|289:84|289:84|313:73|313:73|354:74,1,107.999996704102,4|2,3:2|3:2,0:0:0:0:
438,142,111102,2,0,L|433:260,1,107.999996704102,4|2,3:2|3:2,0:0:0:0:
424,303,111617,1,2,3:2:0:0:
424,303,111788,2,0,B|371:318|371:318|323:290,2,107.999996704102,8|8|0,3:2|0:2|3:2,0:0:0:0:
479,52,113502,5,2,0:1:0:0:
369,100,113845,6,0,B|331:93|331:93|292:98|292:98|254:75,1,120,4|8,3:2|0:2,0:0:0:0:
203,46,114359,2,0,B|64:39,1,120,2|0,0:0|3:0,0:0:0:0:
29,67,114874,1,10,0:1:0:0:
1,183,115217,1,2,3:2:0:0:
55,296,115559,1,8,0:2:0:0:
55,296,115731,2,0,B|194:303,1,120,2|0,0:0|3:0,0:0:0:0:
219,342,116245,1,10,0:1:0:0:
338,348,116588,6,0,B|457:341,1,120,2|8,3:2|0:2,0:0:0:0:
485,288,117102,2,0,B|484:246|484:246|463:212|463:212|460:174,1,120,2|0,0:0|3:0,0:0:0:0:
492,123,117617,1,10,0:1:0:0:
404,40,117959,1,2,3:2:0:0:
312,117,118302,1,8,0:2:0:0:
312,117,118474,2,2,B|302:140|302:140|294:151|294:151|303:171|303:171|293:191|293:191|286:232,1,120,2|0,0:1|3:0,0:1:0:0:
295,287,118988,2,0,P|293:317|282:347,1,60,10|2,0:1|3:3,0:0:0:0:
223,353,119331,6,0,L|97:343,1,120,2|8,3:2|0:2,0:0:0:0:
56,305,119845,2,0,B|53:267|53:267|32:233|32:233|31:191,1,120,2|0,0:0|3:0,0:0:0:0:
56,136,120359,1,10,0:1:0:0:
155,203,120702,2,0,L|285:197,1,120,2|8,3:2|0:2,0:0:0:0:
330,221,121217,2,0,L|449:215,1,120,2|2,0:1|3:3,0:0:0:0:
495,175,121731,1,8,0:0:0:0:
495,175,121902,6,0,B|497:52|497:52|435:31,1,180,4|8,3:2|0:2,0:0:0:0:
274,97,122931,2,0,L|188:84,1,60,0|8,3:2|0:2,0:0:0:0:
165,52,123274,2,0,B|108:37|108:37|66:103|78:175,1,180,4|8,3:2|0:2,0:0:0:0:
77,211,123959,2,0,L|55:306,2,90,0|8|10,3:0|0:2|0:2,0:0:0:0:
193,180,124817,6,0,B|230:175|230:175|265:193|265:193|337:190,1,120,2|12,3:2|0:2,0:0:0:0:
366,206,125331,2,0,P|399:254|385:313,1,120,2|0,0:2|3:2,0:0:0:0:
341,348,125845,1,10,0:1:0:0:
229,302,126188,1,0,3:2:0:0:
121,354,126531,1,8,0:2:0:0:
121,354,126702,2,0,B|65:356|65:356|36:341|35:297,1,120,2|0,0:0|3:0,0:0:0:0:
45,243,127217,1,10,0:1:0:0:
146,178,127559,6,0,B|187:164|187:164|220:184|260:175,1,120,2|8,3:2|0:2,0:0:0:0:
318,157,128074,2,0,L|442:163,1,120,2|0,0:0|3:0,0:0:0:0:
489,131,128588,1,10,0:1:0:0:
421,31,128931,1,2,3:2:0:0:
301,42,129274,1,8,0:2:0:0:
301,42,129445,2,2,B|282:46|282:46|267:45|267:45|246:56|246:56|228:43|228:43|205:39|205:39|190:32,1,120,2|0,0:1|3:0,0:1:0:0:
131,46,129959,2,0,L|117:111,1,60,10|2,0:1|3:3,0:0:0:0:
136,161,130302,6,0,P|148:215|116:291,1,120,12|8,2:2|0:2,0:0:0:0:
104,331,130817,1,0,3:0:0:0:
104,331,130988,2,0,P|160:311|218:323,1,120,8|8,0:2|0:2,0:0:0:0:
336,343,131674,2,0,P|394:354|449:334,1,120,12|8,2:2|0:2,0:0:0:0:
483,285,132188,1,0,3:0:0:0:
483,285,132359,2,0,P|463:228|475:170,1,120,8|8,2:2|0:0,0:0:0:0:
506,120,132874,6,0,B|474:82|474:82|415:105|415:105|325:81,1,180,4|8,3:2|0:2,0:0:0:0:
253,159,133731,2,0,L|248:291,1,120,12|8,0:0|0:2,0:0:0:0:
208,324,134245,1,0,3:0:0:0:
208,324,134417,2,0,B|152:336|152:336|84:308,1,120,12|8,0:2|0:2,0:0:0:0:
65,265,134931,1,8,0:0:0:0:
65,265,135102,2,0,B|63:238|63:238|58:225|58:225|68:207|68:207|62:187|62:187|63:170|63:170|59:136,2,120,12|10|4,0:2|0:2|3:2,0:0:0:0:
256,192,135959,12,2,138531,3:2:0:0:
92,71,139902,6,0,P|153:64|200:82,1,107.999996704102,2|8,3:2|0:2,0:0:0:0:
235,116,140417,1,2,0:0:0:0:
339,88,140759,2,0,L|340:11,2,53.9999983520508,0|8|0,3:0|0:0|3:0,0:0:0:0:
358,138,141274,6,0,L|353:246,1,107.999996704102,2|8,3:2|0:2,0:0:0:0:
238,361,142131,1,0,3:0:0:0:
238,361,142302,1,8,0:0:0:0:
136,324,142645,2,0,B|100:313|100:313|57:328|14:312,1,107.999996704102,2|8,3:2|0:2,0:0:0:0:
11,266,143159,2,0,L|6:158,1,107.999996704102,2|0,0:0|3:0,0:0:0:0:
9,104,143674,1,8,0:0:0:0:
114,129,144017,6,0,P|167:130|234:106,1,107.999996704102,2|8,3:2|0:2,0:0:0:0:
356,27,144874,1,0,3:0:0:0:
356,27,145045,1,8,0:0:0:0:
433,102,145388,2,0,B|425:209,1,107.999996704102,2|8,3:2|0:2,0:0:0:0:
382,308,146074,1,8,0:2:0:0:
285,260,146417,2,0,L|274:196,1,53.9999983520508,8|8,0:2|0:2,0:0:0:0:
260,154,146759,5,4,3:2:0:0:
163,106,147102,2,0,L|150:12,2,80.9999975280763,8|8|0,0:2|0:2|3:0,0:0:0:0:
132,150,147788,1,8,0:0:0:0:
55,225,148131,2,0,P|39:281|52:337,1,107.999996704102,2|8,3:2|0:0,0:0:0:0:
95,356,148645,2,0,B|123:323|123:323|174:294|235:331,1,161.999995056153,2|8,0:0|0:2,0:0:0:0:
332,378,149502,5,4,3:2:0:0:
420,315,149845,2,0,L|501:310,2,80.9999975280763,8|8|0,0:2|0:2|3:0,0:0:0:0:
373,287,150531,1,8,0:0:0:0:
425,192,150874,2,0,P|433:139|406:87,1,107.999996704102,2|8,3:2|0:0,0:0:0:0:
356,84,151388,2,0,B|303:83|303:83|262:107|262:107|190:104,1,161.999995056153,2|8,0:0|0:2,0:0:0:0:
108,47,152245,5,4,3:2:0:0:
27,118,152588,2,0,P|21:87|9:36,2,80.9999975280763,8|8|0,0:2|0:2|3:0,0:0:0:0:
22,172,153274,1,8,0:0:0:0:
85,259,153617,2,0,L|196:254,1,107.999996704102,6|8,3:2|0:0,0:0:0:0:
242,233,154131,2,0,B|263:197|257:137|257:137|282:102|335:108,1,161.999995056153,2|8,0:0|0:2,0:0:0:0:
418,117,154988,5,4,3:2:0:0:
459,217,155331,1,8,0:0:0:0:
404,310,155674,2,0,B|361:316|361:316|290:296,1,107.999996704102,4|8,3:2|0:2,0:0:0:0:
208,238,156359,2,0,B|199:206|200:189|200:189|217:168|227:135|227:135|174:111|169:54|169:54|111:17|56:56,1,323.999990112305,12|8,0:2|0:1,0:0:0:0:
21,134,157731,6,0,L|10:240,1,96,4|8,3:2|0:0,0:0:0:0:
114,329,158588,1,0,3:2:0:0:
114,329,158759,1,8,0:0:0:0:
203,294,159102,2,0,L|316:301,1,96,0|8,3:2|0:0,0:0:0:0:
430,358,159959,2,0,L|435:305,1,48,0|8,3:2|0:0,0:0:0:0:
483,227,160474,6,0,L|492:122,1,96,0|8,3:2|0:0,0:0:0:0:
385,33,161331,1,0,3:2:0:0:
385,33,161502,1,8,0:0:0:0:
303,83,161845,2,0,L|190:74,1,96,0|8,3:2|0:0,0:0:0:0:
67,109,162702,2,0,P|42:100|15:97,2,48,0|8|0,3:2|0:0|3:0,0:0:0:0:
92,150,163217,6,0,L|99:253,1,96,0|8,3:2|0:0,0:0:0:0:
205,342,164074,1,0,3:2:0:0:
205,342,164245,1,8,0:0:0:0:
274,275,164588,2,0,L|280:179,1,96,0|8,3:2|0:0,0:0:0:0:
378,72,165445,2,0,P|404:66|440:67,1,48,0|8,3:2|0:0,0:0:0:0:
493,133,165959,6,0,L|499:228,1,96,0|8,3:2|0:0,0:0:0:0:
458,367,166817,1,0,3:2:0:0:
458,367,166988,1,8,0:0:0:0:
378,313,167331,2,0,P|328:298|265:304,1,96,4|8,3:2|0:2,0:0:0:0:
198,341,168017,1,8,0:2:0:0:
123,280,168359,2,0,L|118:221,1,48,8|8,0:2|0:2,0:0:0:0:
91,192,168702,6,0,L|98:85,1,96,4|8,3:2|0:0,0:0:0:0:
230,40,169559,1,0,3:2:0:0:
230,40,169731,1,8,0:0:0:0:
304,101,170074,2,0,L|311:208,1,96,0|8,3:2|0:0,0:0:0:0:
405,304,170931,2,0,P|438:307|463:300,1,48,0|8,3:2|0:0,0:0:0:0:
496,218,171445,6,0,L|502:122,1,96,0|8,3:2|0:0,0:0:0:0:
401,19,172302,1,0,3:2:0:0:
401,19,172474,1,8,0:0:0:0:
314,61,172817,2,0,B|278:58|278:58|250:65|250:65|201:52,1,96,0|8,3:2|0:0,0:0:0:0:
80,93,173674,2,0,L|28:81,2,48,0|8|0,3:2|0:0|3:0,0:0:0:0:
115,126,174188,6,0,P|129:173|117:230,1,96,4|8,3:2|0:0,0:0:0:0:
29,328,175045,1,0,3:2:0:0:
29,328,175217,1,8,0:0:0:0:
121,355,175559,2,0,P|183:352|235:352,1,96,4|8,3:2|0:0,0:0:0:0:
340,277,176417,1,0,3:2:0:0:
340,277,176588,1,8,0:0:0:0:
277,204,176931,6,0,L|273:107,1,96,4|8,3:2|0:0,0:0:0:0:
338,36,177617,2,0,P|383:24|442:33,1,96,4|8,0:2|0:2,0:0:0:0:
502,94,178302,2,0,L|512:190,1,96,8|8,0:2|0:2,0:0:0:0:
481,280,178988,1,8,0:2:0:0:
389,309,179331,2,0,L|321:307,1,48,8|8,0:2|0:2,0:0:0:0:
296,326,179674,5,6,3:1:0:0:
256,192,179845,12,0,182417,3:0:0:0:
