osu file format v14

[General]
AudioFilename: no_hardstyle.mp3
AudioLeadIn: 0
PreviewTime: 6788
Countdown: 0
SampleSet: Soft
StackLeniency: 0.5
Mode: 0
LetterboxInBreaks: 0
WidescreenStoryboard: 1

[Editor]
DistanceSpacing: 1.2
BeatDivisor: 4
GridSize: 32
TimelineZoom: 2.299999

[Metadata]
Title:Natsu no Owari (Soleily Remix)
TitleUnicode:夏の終焉り (Soleily Remix)
Artist:Denkishiki Karen Ongaku Shuudan
ArtistUnicode:電気式華憐音楽集団
Creator:Lasse
Version:Insane
Source:終わる世界とバースデイ
Tags:Owaru Sekai to Birthday コットンソフト Cotton Soft eroge visual novel dnb drum and bass denkare
BeatmapID:1408170
BeatmapSetID:665232

[Difficulty]
HPDrainRate:5.6
CircleSize:4
OverallDifficulty:7.5
ApproachRate:8.7
SliderMultiplier:1.6
SliderTickRate:1

[Events]
//Background and Video events
0,0,"bg.jpg",0,0
//Break Periods
//Storyboard Layer 0 (Background)
//Storyboard Layer 1 (Fail)
//Storyboard Layer 2 (Pass)
//Storyboard Layer 3 (Foreground)
//Storyboard Sound Samples

[TimingPoints]
17,342.857142857143,4,2,22,5,1,0
1388,-200,4,2,22,20,0,0
2759,-200,4,2,22,30,0,0
3445,-200,4,2,22,34,0,0
4131,-200,4,2,22,38,0,0
4817,-200,4,2,22,42,0,0
5502,-200,4,2,22,46,0,0
5845,-200,4,2,22,50,0,0
6188,-200,4,2,22,54,0,0
6359,-200,4,2,22,58,0,0
6531,-200,4,2,99,30,0,0
6874,-200,4,2,22,30,0,0
17845,-200,4,2,22,34,0,0
23331,-200,4,2,22,36,0,0
28645,-200,4,2,99,5,0,0
28817,-100,4,2,1,64,0,0
32159,-100,4,2,1,40,0,0
32245,-100,4,2,1,64,0,0
33617,-100,4,2,1,66,0,0
34302,-100,4,2,22,60,0,0
35331,-125,4,2,22,50,0,0
35588,-125,4,2,99,5,0,0
35674,-83.3333333333333,4,2,1,70,0,1
37045,-83.3333333333333,4,2,1,70,0,1
39788,-83.3333333333333,4,2,1,70,0,1
40302,-55.5555555555556,4,2,1,70,0,1
40645,-83.3333333333333,4,2,1,70,0,1
42531,-83.3333333333333,4,2,1,70,0,1
43731,-62.5,4,2,1,70,0,1
44074,-83.3333333333333,4,2,1,70,0,1
46302,-83.3333333333333,4,2,1,70,0,0
46645,-83.3333333333333,4,2,1,70,0,1
48017,-83.3333333333333,4,2,1,70,0,1
50759,-83.3333333333333,4,2,1,70,0,1
51274,-55.5555555555556,4,2,1,70,0,1
51617,-83.3333333333333,4,2,1,70,0,1
53502,-83.3333333333333,4,2,1,70,0,1
54702,-62.5,4,2,1,70,0,1
56588,-83.3333333333333,4,2,1,70,0,1
57617,-100,4,2,1,64,0,0
60359,-100,4,2,1,64,0,0
79559,-100,4,2,22,60,0,0
79902,-100,4,2,22,56,0,0
82302,-125,4,2,34,54,0,0
93274,-111.111111111111,4,2,34,56,0,0
102874,-142.857142857143,4,2,1,60,0,0
102895,-142.857142857143,4,2,22,20,0,0
103217,-142.857142857143,4,2,23,30,0,0
103559,-142.857142857143,4,2,22,50,0,0
103902,-142.857142857143,4,2,23,70,0,0
104159,-142.857142857143,4,2,99,5,0,0
104245,-71.4285714285714,4,2,1,66,0,0
104588,-71.4285714285714,4,2,22,40,0,0
104759,-62.5,4,2,1,68,0,0
105102,-62.5,4,2,22,40,0,0
105274,-83.3333333333333,4,2,1,64,0,0
105445,-83.3333333333333,4,2,22,40,0,0
105617,-83.3333333333333,4,2,1,68,0,0
106302,-83.3333333333333,4,2,1,52,0,0
106388,-83.3333333333333,4,2,1,54,0,0
106474,-83.3333333333333,4,2,1,56,0,0
106559,-83.3333333333333,4,2,1,58,0,0
106645,-83.3333333333333,4,2,1,60,0,0
106731,-83.3333333333333,4,2,1,62,0,0
106817,-83.3333333333333,4,2,1,64,0,0
106902,-83.3333333333333,4,2,1,66,0,0
106988,-100,4,2,1,64,0,0
110331,-100,4,2,1,40,0,0
110417,-100,4,2,1,64,0,0
111788,-100,4,2,1,66,0,0
112474,-200,4,2,1,64,0,0
112559,-200,4,2,1,30,0,0
113074,-100,4,2,99,5,0,0
113159,-108.695652173913,4,2,22,40,0,0
113417,-100,4,2,99,5,0,0
113502,-125,4,2,22,50,0,0
113759,-100,4,2,99,5,0,0
113845,-83.3333333333333,4,2,1,70,0,1
115217,-83.3333333333333,4,2,1,70,0,1
117959,-83.3333333333333,4,2,1,70,0,1
118474,-55.5555555555556,4,2,1,70,0,1
118817,-83.3333333333333,4,2,1,70,0,1
120702,-83.3333333333333,4,2,1,70,0,1
121902,-62.5,4,2,1,70,0,1
122245,-83.3333333333333,4,2,1,70,0,1
124474,-100,4,2,1,70,0,0
124817,-83.3333333333333,4,2,1,70,0,1
125159,-62.5,4,2,1,70,0,1
125331,-83.3333333333333,4,2,1,70,0,1
126188,-83.3333333333333,4,2,1,70,0,1
128931,-83.3333333333333,4,2,1,70,0,1
129445,-55.5555555555556,4,2,1,70,0,1
129788,-83.3333333333333,4,2,1,70,0,1
130217,-83.3333333333333,4,2,1,70,0,0
130302,-83.3333333333333,4,2,1,70,0,1
131674,-83.3333333333333,4,2,1,70,0,1
132188,-71.4285714285714,4,2,1,70,0,1
132874,-62.5,4,2,1,70,0,1
133731,-76.9230769230769,4,2,1,70,0,1
135788,-100,4,2,1,64,0,0
156359,-100,4,2,22,68,0,0
156531,-100,4,2,22,66,0,0
156788,-100,4,2,22,64,0,0
157045,-100,4,2,22,62,0,0
157302,-100,4,2,22,60,0,0
157388,-100,4,2,22,58,0,0
157474,-100,4,2,22,56,0,0
157559,-100,4,2,22,54,0,0
157645,-100,4,2,22,52,0,0
157731,-111.111111111111,4,2,1,60,0,0
174188,-111.111111111111,4,2,1,60,0,0
174531,-111.111111111111,4,2,1,60,0,0
175559,-111.111111111111,4,2,1,60,0,0
175902,-111.111111111111,4,2,1,60,0,0
177274,-111.111111111111,4,2,1,60,0,0
179674,-111.111111111111,4,2,99,60,0,0
179759,-111.111111111111,4,2,1,50,0,0

[Colours]
Combo1 : 150,220,130
Combo2 : 250,150,110
Combo3 : 130,170,250
Combo4 : 240,220,120

[HitObjects]
256,192,874,12,6,6531,0:1:0:0:
165,146,6874,6,0,L|149:23,2,120,2|2|2,0:0|0:0|0:0,0:0:0:0:
347,146,9617,6,0,L|363:23,2,120,2|2|2,0:0|0:0|0:0,0:0:0:0:
180,264,12359,6,0,L|165:146,2,120,2|2|2,0:0|0:0|0:0,0:0:0:0:
331,264,15102,6,0,L|347:146,2,120,2|2|2,0:0|0:0|0:0,0:0:0:0:
180,264,17845,6,0,P|163:212|119:161,1,120,2|2,0:0|0:0,0:0:0:0:
121,162,18874,1,2,0:0:0:0:
332,264,20588,6,0,P|349:212|393:161,1,120,2|2,0:0|0:0,0:0:0:0:
390,162,21617,1,2,0:0:0:0:
122,162,23331,5,2,0:0:0:0:
176,102,23845,1,2,0:0:0:0:
186,23,24359,1,2,0:0:0:0:
390,162,26074,5,2,0:0:0:0:
336,102,26588,1,2,0:0:0:0:
326,23,27102,1,2,0:0:0:0:
256,192,27188,12,0,28645,0:0:0:0:
140,299,28817,6,0,L|129:130,1,160,4|2,3:2|3:2,0:0:0:0:
186,55,29331,1,2,0:2:0:0:
186,55,29417,1,0,0:2:0:0:
186,55,29502,2,0,P|235:55|275:38,1,80,0|0,3:2|0:2,0:0:0:0:
177,201,29845,2,0,P|152:158|117:132,1,80,2|0,3:2|0:2,0:0:0:0:
337,112,30188,6,0,P|273:147|282:239,1,160,4|2,3:2|3:2,0:0:0:0:
361,312,30702,1,2,0:2:0:0:
361,312,30788,1,0,0:2:0:0:
361,312,30874,2,0,L|462:311,1,80,0|2,3:2|0:2,0:0:0:0:
273,227,31217,2,0,L|172:228,1,80,0|2,3:2|0:2,0:0:0:0:
47,305,31559,5,4,3:2:0:0:
47,305,31731,1,0,3:2:0:0:
81,193,31902,1,2,3:2:0:0:
193,227,32074,1,2,3:2:0:0:
273,227,32245,5,4,3:2:0:0:
120,266,32417,1,2,3:2:0:0:
273,227,32588,2,0,L|279:144,1,80,2|0,3:2|3:2,0:0:0:0:
65,109,32931,6,0,L|59:26,1,80,4|0,3:2|3:2,0:0:0:0:
81,193,33274,1,2,3:2:0:0:
167,123,33445,1,2,3:2:0:0:
196,240,33617,5,8,3:2:0:0:
193,227,33702,1,8,0:2:0:0:
191,211,33788,1,8,3:2:0:0:
278,147,33959,2,0,L|284:64,1,80,8|0,0:2|3:2,0:0:0:0:
356,218,34302,5,12,0:2:0:0:
438,138,34474,1,8,2:3:0:0:
427,149,34559,1,8,2:2:0:0:
356,218,34731,1,8,2:3:0:0:
367,207,34817,1,8,2:2:0:0:
454,237,34988,5,8,2:3:0:0:
454,237,35074,2,0,L|371:154,1,80,8|8,0:3|0:3,0:0:0:0:
340,183,35331,6,0,P|384:169|399:125,1,96,2|0,0:1|0:2,0:0:0:0:
469,94,35674,6,0,B|445:94|412:77|412:77|378:75|343:95|343:95|317:78|264:75,1,191.999994140625,4|8,3:2|0:2,0:0:0:0:
165,19,36188,1,2,0:0:0:0:
165,19,36274,1,0,0:0:0:0:
165,19,36359,2,0,B|186:44|186:44|189:75|166:128,1,95.9999970703126,0|0,0:0|3:0,0:0:0:0:
71,169,36702,6,0,L|119:168,1,47.9999985351563,10|0,0:1|0:0,0:0:0:0:
195,185,36874,2,0,L|251:184,1,47.9999985351563,2|0,0:1|0:0,0:0:0:0:
296,281,37045,6,0,B|275:307|228:294|228:294|198:243|243:183,1,191.999994140625,2|8,3:2|0:2,0:0:0:0:
409,198,37559,1,2,0:0:0:0:
409,198,37645,1,0,0:0:0:0:
409,198,37731,2,0,P|363:216|305:192,1,95.9999970703126,0|0,0:0|3:0,0:0:0:0:
250,107,38074,6,0,B|243:74|243:74|233:117,1,47.9999985351563,10|0,0:1|0:0,0:0:0:0:
242,184,38245,2,0,B|235:217|235:217|231:203,1,47.9999985351563,2|0,0:1|0:0,0:0:0:0:
176,140,38417,6,0,L|0:130,1,143.999995605469,2|0,3:2|0:0,0:0:0:0:
13,131,38759,1,8,0:2:0:0:
90,248,38931,1,2,0:0:0:0:
90,248,39017,1,0,0:0:0:0:
90,248,39102,2,0,P|107:205|95:147,1,95.9999970703126,0|0,0:0|3:0,0:0:0:0:
32,49,39445,6,0,P|54:45|77:36,1,47.9999985351563,10|0,0:1|0:0,0:0:0:0:
166,41,39617,2,0,P|189:38|213:41,1,47.9999985351563,2|0,0:1|0:0,0:0:0:0:
303,70,39788,6,0,B|331:73|349:53|349:53|321:35|272:29|287:54|247:59|213:40,1,191.999994140625,2|8,3:2|0:2,0:0:0:0:
389,131,40302,6,2,P|301:40|222:139,1,287.999991210938,2|0,0:1|3:2,0:1:0:0:
307,172,40817,6,0,L|306:124,1,47.9999985351563,10|0,0:1|0:0,0:0:0:0:
222,140,40988,2,0,L|222:187,1,47.9999985351563,2|0,3:3|0:0,0:0:0:0:
183,265,41159,6,0,B|176:284|152:298|152:298|117:278|105:239|112:199|142:171,1,191.999994140625,2|8,3:2|0:2,0:0:0:0:
258,60,41674,1,2,0:0:0:0:
258,60,41759,1,0,0:0:0:0:
258,60,41845,2,0,L|131:47,1,95.9999970703126,0|0,0:0|3:0,0:0:0:0:
2,36,42188,6,0,P|11:58|15:81,1,47.9999985351563,10|0,0:1|0:0,0:0:0:0:
81,128,42359,2,0,P|71:150|67:173,1,47.9999985351563,2|0,0:1|0:0,0:0:0:0:
84,256,42531,6,0,B|115:225|126:173|82:128|82:128|68:148|67:173,1,191.999994140625,2|8,3:2|0:2,0:0:0:0:
54,330,43045,6,0,P|76:337|100:335,1,47.9999985351563,2|0,0:1|0:0,0:0:0:0:
223,295,43217,2,0,P|200:288|177:291,1,47.9999985351563,2|0,0:1|0:0,0:0:0:0:
139,313,43388,1,2,3:0:0:0:
189,211,43559,1,8,0:0:0:0:
316,280,43731,6,0,B|362:260|380:212|375:159|337:127|337:127|296:141|293:190,1,256,4|0,3:2|0:0,0:0:0:0:
294,181,44245,1,8,0:2:0:0:
498,70,44759,5,0,3:2:0:0:
454,173,44931,1,8,0:2:0:0:
383,25,45102,6,0,B|409:33|409:33|429:58|417:100,2,95.9999970703126,4|0|0,3:2|0:0|0:0,0:0:0:0:
289,109,45617,1,8,0:2:0:0:
181,45,45788,2,0,L|68:34,1,95.9999970703126,0|0,3:0|0:0,0:0:0:0:
66,36,46045,1,8,0:2:0:0:
66,36,46131,1,0,0:2:0:0:
86,130,46302,5,8,0:2:0:0:
97,129,46388,1,8,0:2:0:0:
109,128,46474,1,8,0:2:0:0:
120,127,46559,1,8,0:2:0:0:
132,126,46645,6,0,P|196:155|171:264,1,191.999994140625,4|8,3:2|0:2,0:0:0:0:
49,314,47159,1,2,0:0:0:0:
49,314,47245,1,0,0:0:0:0:
49,314,47331,2,0,P|100:314|129:369,1,95.9999970703126,0|0,0:0|3:0,0:0:0:0:
248,355,47674,6,0,P|272:355|294:366,1,47.9999985351563,10|0,0:1|0:1,0:0:0:0:
360,317,47845,2,0,P|383:315|404:303,1,47.9999985351563,2|0,0:1|0:1,0:0:0:0:
439,218,48017,6,0,B|440:183|416:171|416:171|393:206|401:245|412:231|420:269|402:308,1,191.999994140625,0|8,3:2|0:2,0:0:0:0:
283,255,48531,1,2,0:0:0:0:
283,255,48617,1,0,0:0:0:0:
283,255,48702,2,0,P|236:243|188:243,1,95.9999970703126,0|0,0:0|3:0,0:0:0:0:
117,102,49045,6,0,B|130:122|130:122|140:102,1,47.9999985351563,10|0,0:1|0:1,0:0:0:0:
202,167,49217,2,0,B|212:146|212:146|225:167,1,47.9999985351563,2|0,0:1|0:1,0:0:0:0:
285,103,49388,6,0,B|140:100,1,143.999995605469,2|0,3:2|0:0,0:0:0:0:
117,102,49731,1,8,0:2:0:0:
4,31,49902,1,2,0:2:0:0:
4,31,49988,1,0,0:2:0:0:
4,31,50074,2,0,P|57:38|103:6,1,95.9999970703126,0|0,0:2|3:0,0:0:0:0:
206,25,50417,6,0,L|258:18,1,47.9999985351563,10|0,0:1|0:0,0:0:0:0:
285,103,50588,2,0,L|337:110,1,47.9999985351563,2|0,0:1|0:0,0:0:0:0:
427,97,50759,6,0,P|403:43|353:131,1,191.999994140625,2|8,3:2|0:2,0:0:0:0:
368,212,51274,6,2,P|449:128|334:107,1,287.999991210938,2|0,0:1|3:3,0:1:0:0:
243,188,51788,6,0,P|265:180|289:181,1,47.9999985351563,10|0,0:1|0:0,0:0:0:0:
310,275,51959,2,0,P|287:282|263:281,1,47.9999985351563,2|0,3:3|2:3,0:0:0:0:
181,257,52131,6,0,B|139:224|158:169|158:169|214:151|244:189,1,191.999994140625,2|8,3:2|0:2,0:0:0:0:
197,343,52645,1,2,0:0:0:0:
197,343,52731,1,0,0:0:0:0:
197,343,52817,2,0,P|173:302|182:256,1,95.9999970703126,0|0,0:0|3:0,0:0:0:0:
292,187,53159,6,0,L|245:188,1,47.9999985351563,10|0,0:1|0:0,0:0:0:0:
310,275,53331,2,0,L|357:274,1,47.9999985351563,2|0,0:1|0:0,0:0:0:0:
439,201,53502,6,0,B|472:166|480:138|472:89|438:78|438:78|417:96|428:140,1,191.999994140625,2|8,3:2|0:2,0:0:0:0:
357,274,54017,6,0,L|404:273,1,47.9999985351563,2|0,0:1|0:0,0:0:0:0:
512,337,54188,2,0,L|464:337,1,47.9999985351563,2|0,0:1|0:0,0:0:0:0:
434,305,54359,1,2,3:3:0:0:
439,201,54531,1,8,0:0:0:0:
281,312,54702,6,0,B|235:292|217:244|222:191|260:159|260:159|301:173|304:222,1,256,4|0,3:2|0:0,0:0:0:0:
303,212,55217,1,8,0:2:0:0:
469,28,55731,5,0,3:2:0:0:
439,201,55902,1,8,0:2:0:0:
439,201,56245,6,0,B|399:233|342:203|342:203|324:162|283:144|243:146|212:168,1,256,4|8,3:2|0:2,0:0:0:0:
155,271,56759,1,0,3:0:0:0:
155,271,56845,1,0,3:0:0:0:
155,271,56931,6,0,L|162:210,1,47.9999985351563,10|8,0:2|0:2,0:0:0:0:
118,158,57102,2,0,L|115:95,1,47.9999985351563,8|8,0:2|0:2,0:0:0:0:
185,66,57274,5,10,0:2:0:0:
219,75,57359,1,8,0:2:0:0:
254,68,57445,1,8,0:2:0:0:
281,45,57531,1,8,0:2:0:0:
295,12,57617,1,4,3:2:0:0:
256,192,57702,12,8,60017,0:2:0:0:
70,150,60359,6,0,B|116:142|116:142|177:162|177:162|234:154,1,160,2|8,3:2|0:2,0:0:0:0:
335,130,60874,1,0,0:0:0:0:
335,130,60959,1,0,0:0:0:0:
335,130,61045,2,0,B|311:149|311:149|304:198,1,80,0|0,0:0|3:0,0:0:0:0:
354,298,61388,2,0,B|378:279|378:279|384:229,1,80,8|0,0:0|0:0,0:0:0:0:
440,339,61731,6,0,B|334:317|334:317|291:350,1,160,2|8,3:2|0:2,0:0:0:0:
177,376,62245,1,2,0:0:0:0:
177,376,62331,1,0,0:0:0:0:
177,376,62417,2,0,L|174:282,1,80,0|0,0:0|3:0,0:0:0:0:
272,214,62759,1,8,0:0:0:0:
227,126,62931,1,0,3:0:0:0:
113,110,63102,6,0,B|145:131|145:131|226:126,1,120,2|0,3:2|0:0,0:0:0:0:
252,139,63445,2,0,L|256:28,1,80,8|0,0:2|0:0,0:0:0:0:
255,59,63702,1,0,0:0:0:0:
254,59,63788,2,0,L|352:55,1,80,0|0,0:0|3:0,0:0:0:0:
351,210,64131,2,0,L|253:214,1,80,8|0,0:0|0:0,0:0:0:0:
313,359,64474,6,0,B|342:321|342:321|352:192,1,160,2|8,3:2|0:2,0:0:0:0:
262,141,64988,1,2,0:0:0:0:
262,141,65074,1,0,0:0:0:0:
262,141,65159,1,0,0:0:0:0:
333,55,65331,1,0,3:0:0:0:
412,61,65502,2,0,L|333:55,1,80,8|0,0:0|0:0,0:0:0:0:
262,141,65845,6,0,B|211:126|211:126|157:141|157:141|103:126,1,160,2|8,3:2|0:2,0:0:0:0:
0,163,66359,1,0,0:0:0:0:
0,163,66445,1,0,0:0:0:0:
0,163,66531,2,0,B|20:186|20:186|19:261,1,80,0|0,0:0|3:0,0:0:0:0:
108,127,66874,2,0,B|88:104|88:104|88:54,1,80,8|0,0:0|0:0,0:0:0:0:
228,131,67217,6,0,B|108:127,1,120,2|0,3:2|0:0,0:0:0:0:
101,141,67559,5,8,0:2:0:0:
172,54,67731,1,0,0:2:0:0:
94,155,67902,5,8,0:2:0:0:
228,131,68074,1,0,3:2:0:0:
87,169,68245,5,8,0:2:0:0:
94,155,68331,1,8,0:2:0:0:
101,141,68417,1,8,0:2:0:0:
108,127,68502,1,8,0:2:0:0:
115,113,68588,6,0,B|42:90|42:90|-4:121,1,120,4|0,3:2|0:0,0:0:0:0:
3,130,68931,2,0,L|0:223,1,80,8|0,0:0|0:0,0:0:0:0:
5,322,69274,1,0,3:0:0:0:
60,262,69445,1,0,0:0:0:0:
138,266,69617,2,0,B|98:254|98:254|61:262,1,80,8|0,0:0|0:0,0:0:0:0:
164,345,69959,6,0,B|211:318|211:318|314:340,1,160,2|8,3:2|0:0,0:0:0:0:
429,383,70474,1,2,0:0:0:0:
429,383,70559,1,0,0:0:0:0:
429,383,70645,2,0,L|440:295,1,80,0|0,3:0|0:0,0:0:0:0:
314,340,70988,2,0,L|307:248,1,80,8|0,0:0|0:0,0:0:0:0:
481,196,71331,6,0,B|408:219|408:219|362:188,1,120,4|0,3:2|0:0,0:0:0:0:
364,180,71674,2,0,L|361:87,1,80,8|0,0:0|0:0,0:0:0:0:
287,20,72017,1,0,3:0:0:0:
232,80,72188,1,0,0:0:0:0:
154,76,72359,2,0,B|194:88|194:88|231:80,1,80,8|0,0:0|0:0,0:0:0:0:
362,177,72702,6,0,B|312:177|312:177|255:153|255:153|205:165,1,160,2|8,3:2|0:0,0:0:0:0:
240,312,73217,1,2,0:0:0:0:
240,312,73302,1,0,0:0:0:0:
240,312,73388,2,0,L|251:226,1,80,0|0,3:0|0:0,0:0:0:0:
146,359,73731,2,0,L|135:273,1,80,8|0,0:0|0:0,0:0:0:0:
93,157,74074,6,0,B|139:177|139:177|208:164,1,120,4|0,3:2|0:0,0:0:0:0:
217,150,74417,2,0,L|220:56,1,80,8|0,0:0|0:0,0:0:0:0:
309,19,74759,1,0,3:0:0:0:
379,93,74931,1,0,0:0:0:0:
398,19,75102,2,0,B|381:44|381:44|379:100,1,80,8|0,0:0|0:0,0:0:0:0:
477,189,75445,6,0,B|440:172|440:172|383:187|383:187|323:176,1,160,4|8,3:2|0:0,0:0:0:0:
221,229,75959,1,2,0:0:0:0:
221,229,76045,1,0,0:0:0:0:
221,229,76131,2,0,L|216:142,1,80,0|0,3:0|0:0,0:0:0:0:
313,255,76474,2,0,L|324:169,1,80,8|0,0:0|0:0,0:0:0:0:
347,52,76817,5,4,3:2:0:0:
261,72,76988,1,0,3:2:0:0:
177,46,77159,1,8,3:2:0:0:
89,64,77331,1,0,3:2:0:0:
65,187,77502,5,4,3:2:0:0:
151,167,77674,1,0,3:2:0:0:
235,193,77845,1,8,3:2:0:0:
323,175,78017,1,0,3:2:0:0:
392,281,78188,6,0,L|398:205,3,40,4|0|0|0,3:2|3:2|3:2|3:2,0:0:0:0:
436,226,78531,2,0,L|440:158,3,40,0|0|0|0,3:2|3:2|3:2|3:2,0:0:0:0:
477,167,78874,5,0,3:2:0:0:
477,157,78959,1,0,3:2:0:0:
477,147,79045,1,0,3:2:0:0:
476,137,79131,1,0,3:2:0:0:
476,127,79217,2,0,L|480:59,3,40,0|0|0|0,3:2|3:2|3:2|3:2,0:0:0:0:
420,26,79559,5,4,0:2:0:0:
235,193,79902,1,8,0:1:0:0:
170,76,80159,1,8,0:3:0:0:
103,137,80331,1,8,0:3:0:0:
103,137,80417,1,8,0:3:0:0:
83,48,80588,1,8,0:1:0:0:
36,198,80845,1,8,0:3:0:0:
36,198,80931,5,8,0:3:0:0:
16,109,81102,1,8,0:3:0:0:
103,137,81274,1,8,0:1:0:0:
56,287,81531,1,8,0:3:0:0:
56,287,81617,5,8,0:3:0:0:
36,198,81788,1,8,0:3:0:0:
103,137,81959,1,12,0:3:0:0:
103,137,82302,6,0,P|165:126|227:142,1,128,6|8,3:2|0:0,0:0:0:0:
207,251,82817,1,2,1:2:0:0:
207,251,82902,1,0,1:0:0:0:
207,251,82988,2,0,P|180:227|156:191,1,64,0|0,1:0|3:2,0:0:0:0:
227,142,83331,2,0,P|251:162|270:188,1,64,10|0,0:0|2:0,0:0:0:0:
376,227,83674,6,0,P|332:183|270:189,1,128,0|8,3:2|0:0,0:0:0:0:
208,261,84188,2,0,L|148:259,4,32,0|0|0|0|0,1:2|1:0|1:0|1:0|3:2,0:0:0:0:
287,317,84702,2,0,P|301:288|302:257,1,64,8|0,0:0|0:0,0:0:0:0:
245,118,85045,6,0,B|216:134|211:172|211:172|235:189|270:186,1,128,2|8,3:2|0:0,0:0:0:0:
386,146,85559,1,2,1:2:0:0:
386,146,85645,1,0,1:0:0:0:
386,146,85731,2,0,P|355:135|324:132,1,64,0|0,1:0|3:2,0:0:0:0:
301,256,86074,2,0,P|331:266|362:269,1,64,10|0,0:0|0:0,0:0:0:0:
465,216,86417,6,0,P|403:221|363:269,1,128,0|8,3:2|0:0,0:0:0:0:
433,325,86931,1,0,1:2:0:0:
433,325,87017,1,0,1:0:0:0:
433,325,87102,2,0,L|441:294,2,32,0|0|0,1:0|1:0|3:2,0:0:0:0:
362,368,87445,2,0,P|333:353|301:350,1,64,8|0,0:0|0:0,0:0:0:0:
179,330,87788,6,0,B|246:321|236:358|303:350,1,128,2|8,3:2|0:0,0:0:0:0:
324,259,88302,1,2,1:2:0:0:
324,259,88388,1,0,1:0:0:0:
324,259,88474,2,0,P|308:215|306:190,1,64,0|0,1:0|3:2,0:0:0:0:
241,144,88817,2,0,P|253:114|258:83,1,64,10|0,0:0|0:0,0:0:0:0:
360,68,89159,6,0,P|313:107|258:82,1,128,0|8,3:2|0:0,0:0:0:0:
176,44,89674,2,0,L|174:2,4,32,0|0|0|0|0,1:2|1:0|1:0|1:0|3:2,0:0:0:0:
118,113,90188,2,0,P|87:100|46:102,1,64,8|0,0:0|0:0,0:0:0:0:
104,223,90531,6,0,B|134:196|134:196|145:149|116:110,1,128,2|8,3:2|0:0,0:0:0:0:
217,203,91045,1,2,1:2:0:0:
217,203,91131,1,0,1:0:0:0:
217,203,91217,2,0,P|248:202|278:189,1,64,0|0,1:0|3:2,0:0:0:0:
382,252,91559,2,0,P|351:253|321:266,1,64,10|0,0:0|0:0,0:0:0:0:
368,362,91902,6,0,B|398:335|398:335|409:288|380:249,1,128,0|8,3:2|0:0,0:0:0:0:
374,151,92417,1,0,1:2:0:0:
374,151,92502,1,0,1:0:0:0:
374,151,92588,2,0,L|418:150,2,32,0|0|0,1:0|1:0|3:2,0:0:0:0:
284,105,92931,2,0,L|205:98,1,64,8|0,0:0|1:0,0:0:0:0:
184,127,93188,1,0,1:0:0:0:
184,127,93274,6,0,B|139:106|97:125|97:125|56:124|39:85,1,143.999995605469,6|8,3:2|0:0,0:0:0:0:
0,179,93788,1,2,1:2:0:0:
0,179,93874,1,0,1:0:0:0:
0,179,93959,2,0,P|19:212|22:261,1,71.9999978027344,0|0,1:0|3:2,0:0:0:0:
92,328,94302,2,0,P|97:292|115:261,1,71.9999978027344,10|0,0:0|0:0,0:0:0:0:
239,263,94645,6,0,P|176:293|115:261,1,143.999995605469,0|8,3:2|0:0,0:0:0:0:
144,164,95159,2,0,L|156:119,4,35.9999989013672,0|0|0|0|0,1:2|1:0|1:0|1:0|3:2,0:0:0:0:
47,193,95674,2,0,L|37:103,1,71.9999978027344,8|0,0:0|0:0,0:0:0:0:
35,18,96017,6,0,P|86:54|174:31,1,143.999995605469,2|8,3:2|0:0,0:0:0:0:
282,41,96531,1,2,1:2:0:0:
282,41,96617,1,0,1:0:0:0:
282,41,96702,2,0,P|244:72|219:107,1,71.9999978027344,0|0,1:0|3:2,0:0:0:0:
297,151,97045,2,0,P|335:120|360:85,1,71.9999978027344,10|0,0:0|0:0,0:0:0:0:
451,80,97388,6,0,B|438:53|411:45|411:45|362:54|348:107,1,143.999995605469,0|8,3:2|0:0,0:0:0:0:
432,196,97902,1,0,1:2:0:0:
432,196,97988,1,0,1:0:0:0:
432,196,98074,2,0,L|438:158,2,35.9999989013672,0|0|0,1:0|1:0|3:2,0:0:0:0:
459,296,98417,2,0,P|430:281|385:274,1,71.9999978027344,8|0,0:0|0:0,0:0:0:0:
252,257,98759,6,0,B|333:243|312:287|392:274,1,143.999995605469,2|8,3:2|0:0,0:0:0:0:
489,373,99274,1,2,1:2:0:0:
489,373,99359,1,0,1:0:0:0:
489,373,99445,2,0,P|473:329|471:304,1,71.9999978027344,0|0,1:0|3:2,0:0:0:0:
391,274,99788,2,0,P|404:240|410:205,1,71.9999978027344,10|0,0:0|0:0,0:0:0:0:
502,154,100131,6,0,P|470:218|399:189,1,143.999995605469,0|8,3:2|0:0,0:0:0:0:
347,130,100645,2,0,L|348:84,4,35.9999989013672,0|0|0|0|0,1:2|1:0|1:0|1:0|3:2,0:0:0:0:
282,208,101159,2,0,P|251:195|205:199,1,71.9999978027344,8|0,0:0|0:0,0:0:0:0:
172,297,101502,6,0,B|209:298|227:275|227:275|241:229|205:185,1,143.999995605469,2|8,3:2|0:0,0:0:0:0:
118,217,102017,1,2,1:2:0:0:
118,217,102102,1,0,1:0:0:0:
118,217,102188,2,0,P|87:202|59:165,1,71.9999978027344,0|0,1:0|3:2,0:0:0:0:
212,195,102531,2,0,P|226:164|225:118,1,71.9999978027344,10|0,0:0|0:0,0:0:0:0:
135,70,102874,6,2,B|197:107|278:83|239:53|349:35|428:91|428:91|389:143|320:133,1,419.999987182618,4|0,3:2|0:0,0:0:0:0:
325,152,104245,6,0,B|320:192|272:205|272:205|223:169|226:117|248:73,1,223.999993164063,4|0,3:2|0:2,0:0:0:0:
72,264,104759,6,0,B|78:212|133:201|133:201|180:240|183:302|149:353,1,256,4|0,3:2|0:2,0:0:0:0:
412,340,105274,6,0,B|365:356|335:334|335:334|349:325,1,95.9999970703126,4|0,3:2|0:2,0:0:0:0:
500,196,105617,5,4,3:2:0:0:
500,196,106302,5,8,0:2:0:0:
499,184,106388,1,8,0:2:0:0:
498,172,106474,1,8,0:2:0:0:
497,160,106559,1,8,0:2:0:0:
496,148,106645,1,8,0:2:0:0:
496,136,106731,1,8,0:2:0:0:
495,124,106817,1,8,0:2:0:0:
494,112,106902,1,8,0:2:0:0:
493,100,106988,6,0,L|306:88,1,160,4|2,3:2|3:2,0:0:0:0:
207,89,107502,1,2,0:2:0:0:
207,89,107588,1,0,0:2:0:0:
207,89,107674,2,0,P|241:54|257:14,1,80,0|0,3:2|0:2,0:0:0:0:
364,162,108017,2,0,P|342:128|333:89,1,80,2|0,3:2|0:2,0:0:0:0:
225,243,108359,6,0,P|232:183|206:88,1,160,4|2,3:2|3:2,0:0:0:0:
62,179,108874,1,2,0:2:0:0:
62,179,108959,1,0,0:2:0:0:
62,179,109045,2,0,P|50:141|51:101,1,80,0|2,3:2|0:2,0:0:0:0:
135,228,109388,2,0,P|146:190|145:150,1,80,0|2,3:2|0:2,0:0:0:0:
0,285,109731,5,4,3:2:0:0:
0,285,109902,1,0,3:2:0:0:
62,179,110074,1,2,3:2:0:0:
22,63,110245,1,2,3:2:0:0:
106,27,110417,5,4,3:2:0:0:
62,179,110588,1,2,3:2:0:0:
106,27,110759,2,0,L|201:24,1,80,2|0,3:2|3:2,0:0:0:0:
142,176,111102,6,0,L|48:179,1,80,4|0,3:2|3:2,0:0:0:0:
22,63,111445,1,2,3:2:0:0:
185,24,111617,1,2,3:2:0:0:
226,141,111788,5,8,3:2:0:0:
223,128,111874,1,8,0:2:0:0:
221,112,111959,1,8,3:2:0:0:
312,178,112131,2,0,L|318:95,1,80,8|0,0:2|3:2,0:0:0:0:
450,93,112474,6,2,B|414:115|414:115|318:98,1,140,0|0,3:2|0:2,0:0:0:0:
299,124,113159,6,2,L|407:142,1,110.399996293945,0|0,0:2|0:2,0:1:0:0:
381,212,113502,6,0,P|371:167|409:142,1,96,2|0,0:1|0:2,0:0:0:0:
466,212,113845,6,0,B|416:190|374:215|374:215|323:243|281:209,1,191.999994140625,4|8,3:2|0:2,0:0:0:0:
174,244,114359,1,2,0:0:0:0:
174,244,114445,1,0,0:0:0:0:
174,244,114531,2,0,P|200:200|194:135,1,95.9999970703126,0|0,0:0|3:0,0:0:0:0:
96,99,114874,6,0,B|119:100|119:100|142:94,1,47.9999985351563,10|0,0:1|0:1,0:0:0:0:
226,73,115045,2,0,B|249:71|249:71|272:77,1,47.9999985351563,2|0,0:1|0:1,0:0:0:0:
362,107,115217,6,0,B|390:110|408:90|408:90|381:71|336:68|346:91|306:96|272:77,1,191.999994140625,2|8,3:2|0:2,0:0:0:0:
321,190,115731,1,2,0:0:0:0:
321,190,115817,1,0,0:0:0:0:
321,190,115902,2,0,P|332:143|362:107,1,95.9999970703126,0|0,0:0|3:0,0:0:0:0:
363,286,116245,6,0,B|366:298|358:308|358:308|347:300|345:288,1,47.9999985351563,10|0,0:1|0:1,0:0:0:0:
422,192,116417,2,0,B|418:179|426:169|426:169|437:177|439:189,1,47.9999985351563,2|0,0:1|0:1,0:0:0:0:
491,335,116588,6,0,P|452:301|352:288,1,143.999995605469,2|0,3:2|0:0,0:0:0:0:
345,289,116931,1,8,0:2:0:0:
240,352,117102,1,2,0:0:0:0:
240,352,117188,1,0,0:0:0:0:
240,352,117274,2,0,L|236:236,1,95.9999970703126,0|0,0:0|3:0,0:0:0:0:
210,136,117617,6,0,P|204:159|194:180,1,47.9999985351563,10|0,0:1|0:0,0:0:0:0:
109,193,117788,2,0,P|93:174|82:153,1,47.9999985351563,2|0,0:1|0:0,0:0:0:0:
74,318,117959,6,0,B|55:287|60:254|81:226|114:213|114:213|146:233|144:277,1,191.999994140625,2|8,3:2|0:2,0:0:0:0:
17,383,118474,6,2,P|17:254|144:265,1,287.999991210938,2|0,0:1|3:0,0:1:0:0:
110,347,118988,6,0,P|88:336|73:317,1,47.9999985351563,10|0,0:1|0:0,0:0:0:0:
143,265,119159,2,0,P|164:276|179:294,1,47.9999985351563,2|0,3:3|0:0,0:0:0:0:
222,369,119331,6,0,B|193:342|186:302|198:263|233:243|233:243|253:253|264:276,1,191.999994140625,2|8,3:2|0:2,0:0:0:0:
398,347,119845,1,2,0:0:0:0:
398,347,119931,1,0,0:0:0:0:
398,346,120017,2,0,P|351:356|305:348,1,95.9999970703126,0|0,0:0|3:0,0:0:0:0:
327,217,120359,6,0,P|336:194|340:171,1,47.9999985351563,10|0,0:1|0:0,0:0:0:0:
267,126,120531,2,0,P|257:103|253:80,1,47.9999985351563,2|0,0:1|0:0,0:0:0:0:
186,201,120702,6,0,B|264:188|251:222|326:218|326:218|339:195|340:171,1,191.999994140625,2|8,3:2|0:2,0:0:0:0:
144,66,121217,6,0,P|151:87|149:111,1,47.9999985351563,2|0,0:1|0:0,0:0:0:0:
109,234,121388,2,0,P|102:211|105:188,1,47.9999985351563,2|0,0:1|0:0,0:0:0:0:
127,151,121559,1,2,3:3:0:0:
182,279,121731,1,8,0:0:0:0:
340,170,121902,6,0,B|362:144|352:100|352:100|303:93|260:125|237:171|253:218,1,256,4|0,3:2|0:0,0:0:0:0:
253,218,122417,1,8,0:2:0:0:
41,57,122931,5,0,3:2:0:0:
99,167,123102,1,8,0:2:0:0:
174,31,123274,6,0,B|147:24|147:24|122:43|122:86,2,95.9999970703126,4|0|0,3:2|0:0|0:0,0:0:0:0:
274,105,123788,1,8,0:2:0:0:
388,56,123959,2,0,L|501:45,1,95.9999970703126,0|0,3:0|0:0,0:0:0:0:
509,48,124217,1,8,0:2:0:0:
509,48,124302,1,0,0:2:0:0:
401,180,124474,5,10,0:2:0:0:
274,105,124645,1,10,0:2:0:0:
263,104,124731,1,10,0:2:0:0:
251,103,124817,2,0,L|190:99,3,47.9999985351563,2|2|2|2,3:2|3:2|3:2|3:2,0:0:0:0:
124,121,125159,6,0,L|48:115,1,64,12|0,0:2|0:0,0:0:0:0:
73,205,125331,2,0,B|95:234|132:236|132:236|154:198|154:140|105:103,1,191.999994140625,2|0,0:2|3:2,0:0:0:0:
64,34,125845,6,0,P|87:35|110:29,1,47.9999985351563,10|0,0:1|0:0,0:0:0:0:
183,62,126017,2,0,P|206:60|229:66,1,47.9999985351563,2|0,0:1|0:0,0:0:0:0:
289,134,126188,6,0,B|331:127|331:127|338:95|321:66|297:51|258:51|226:68,1,191.999994140625,0|8,3:2|0:2,0:0:0:0:
257,216,126702,1,2,0:0:0:0:
257,216,126788,1,0,0:0:0:0:
257,216,126874,2,0,P|288:180|288:133,1,95.9999970703126,0|0,0:0|3:0,0:0:0:0:
150,144,127217,6,0,B|197:149,1,47.9999985351563,10|0,0:1|0:0,0:0:0:0:
257,216,127388,2,0,B|304:221,1,47.9999985351563,2|0,0:1|0:0,0:0:0:0:
306,343,127559,6,0,B|273:309|273:309|263:266|309:216,1,143.999995605469,2|0,3:2|0:0,0:0:0:0:
321,213,127902,1,8,0:2:0:0:
483,195,128074,1,2,0:0:0:0:
483,195,128159,1,0,0:0:0:0:
483,195,128245,2,0,P|430:202|384:170,1,95.9999970703126,0|0,0:0|3:0,0:0:0:0:
350,62,128588,6,0,B|334:44|334:44|315:59,1,47.9999985351563,10|0,0:1|0:0,0:0:0:0:
288,132,128759,2,0,B|269:147|269:147|253:129,1,47.9999985351563,2|0,0:1|0:0,0:0:0:0:
138,93,128931,6,0,B|143:52|185:45|185:45|225:53|255:82|253:130,1,191.999994140625,2|8,3:2|0:2,0:0:0:0:
98,154,129445,6,2,P|160:45|253:130,1,287.999991210938,2|0,0:1|3:0,0:1:0:0:
170,221,129959,6,0,P|192:213|216:214,1,47.9999985351563,10|0,0:1|0:0,0:0:0:0:
98,154,130131,2,0,P|75:161|51:160,1,47.9999985351563,2|0,3:3|2:0,0:0:0:0:
253,130,130302,5,12,2:2:0:0:
173,126,130474,1,0,3:0:0:0:
306,196,130645,1,8,0:2:0:0:
216,214,130817,1,0,3:0:0:0:
375,245,130988,1,8,0:2:0:0:
298,310,131159,1,0,3:0:0:0:
454,274,131331,2,0,L|463:212,2,47.9999985351563,8|0|0,0:2|3:0|3:0,0:0:0:0:
298,310,131674,5,12,2:2:0:0:
375,245,131845,1,0,3:0:0:0:
216,214,132017,1,8,0:2:0:0:
306,196,132188,1,0,3:0:0:0:
173,126,132359,1,8,2:2:0:0:
191,126,132445,1,0,3:0:0:0:
211,126,132531,1,0,3:0:0:0:
231,128,132617,1,0,3:0:0:0:
252,130,132702,1,8,0:0:0:0:
375,245,132874,6,0,B|422:215|457:140|427:71|427:71|389:66|376:92,1,256,4|0,3:2|0:0,0:0:0:0:
375,92,133388,1,8,0:2:0:0:
216,214,133731,5,12,0:0:0:0:
252,130,133902,1,0,3:2:0:0:
298,310,134074,5,8,0:2:0:0:
306,196,134245,1,0,3:0:0:0:
166,147,134417,5,12,0:2:0:0:
100,243,134588,1,8,0:0:0:0:
4,177,134759,1,8,0:2:0:0:
77,88,134931,1,8,0:0:0:0:
77,88,135017,1,0,3:0:0:0:
77,88,135102,6,0,L|77:31,1,51.999997619629,12|8,0:2|0:2,0:0:0:0:
166,147,135274,2,0,L|180:91,1,51.999997619629,8|8,0:2|0:2,0:0:0:0:
261,55,135445,5,10,0:2:0:0:
291,72,135531,1,8,0:2:0:0:
327,74,135617,1,8,0:2:0:0:
359,59,135702,1,8,0:2:0:0:
381,31,135788,1,4,3:2:0:0:
256,192,135874,12,8,138188,0:2:0:0:
54,302,138531,6,0,B|97:281|97:281|209:296,1,160,2|8,3:2|0:2,0:0:0:0:
292,362,139045,1,0,0:0:0:0:
292,362,139131,1,0,0:0:0:0:
292,362,139217,2,0,B|304:265,1,80,0|0,0:0|3:0,0:0:0:0:
409,311,139559,2,0,B|397:214,1,80,8|0,0:0|0:0,0:0:0:0:
490,140,139902,6,0,B|447:161|447:161|334:145,1,160,2|8,3:2|0:2,0:0:0:0:
216,157,140417,1,2,0:0:0:0:
216,157,140502,1,0,0:0:0:0:
216,157,140588,2,0,B|246:147|246:147|263:81,1,80,0|0,0:0|3:0,0:0:0:0:
187,19,140931,1,8,0:0:0:0:
114,97,141102,1,0,3:0:0:0:
0,104,141274,6,0,B|33:85|33:85|138:101,1,120,2|0,3:2|0:0,0:0:0:0:
57,256,141617,2,0,L|59:176,1,80,8|0,0:2|0:0,0:0:0:0:
59,176,141874,1,0,0:0:0:0:
59,176,141959,2,0,L|154:189,1,80,0|0,0:0|3:0,0:0:0:0:
192,286,142302,2,0,L|271:296,1,80,8|0,0:0|0:0,0:0:0:0:
426,315,142645,6,0,B|379:318|379:318|320:293|320:293|271:296,1,160,2|8,3:2|0:2,0:0:0:0:
158,365,143159,1,2,0:0:0:0:
158,365,143245,1,0,0:0:0:0:
158,365,143331,1,0,0:0:0:0:
98,262,143502,1,0,3:0:0:0:
106,183,143674,2,0,L|98:269,1,80,8|0,0:0|0:0,0:0:0:0:
17,118,144017,6,0,B|63:114|63:114|122:139|122:139|171:136,1,160,2|8,3:2|0:2,0:0:0:0:
273,197,144531,1,0,0:0:0:0:
273,197,144617,1,0,0:0:0:0:
273,197,144702,2,0,B|259:169|259:169|280:97,1,80,0|0,0:0|3:0,0:0:0:0:
173,61,145045,2,0,B|186:88|186:88|165:160,1,80,8|0,0:0|0:0,0:0:0:0:
273,197,145388,6,0,B|393:193,1,120,2|0,3:2|0:0,0:0:0:0:
408,192,145731,5,8,0:2:0:0:
321,279,145902,1,0,0:2:0:0:
424,191,146074,5,8,0:2:0:0:
394,315,146245,1,0,3:2:0:0:
440,190,146417,5,8,0:2:0:0:
424,191,146502,1,8,0:2:0:0:
408,192,146588,1,8,0:2:0:0:
392,193,146674,1,8,0:2:0:0:
376,194,146759,6,0,B|334:188|334:188|304:195|304:195|230:182,1,120,4|0,3:2|0:0,0:0:0:0:
242,191,147102,2,0,L|239:98,1,80,8|0,0:0|0:0,0:0:0:0:
241,95,147359,2,0,L|97:77,1,120,8|0,0:0|3:2,0:0:0:0:
38,17,147788,1,8,0:2:0:0:
12,133,147959,5,0,3:2:0:0:
12,133,148045,1,8,0:0:0:0:
12,133,148131,2,0,B|40:152|40:152|45:292,1,160,2|8,3:2|0:0,0:0:0:0:
132,357,148645,1,2,0:0:0:0:
132,357,148731,2,0,B|159:327|159:327|249:340,1,120,8|0,0:0|3:2,0:0:0:0:
353,372,149159,2,0,L|367:258,1,80,8|0,0:2|0:0,0:0:0:0:
416,242,149417,1,8,0:0:0:0:
416,242,149502,6,0,B|376:234|376:234|341:246|341:246|300:240,1,120,4|0,3:2|0:0,0:0:0:0:
288,229,149845,2,0,L|282:141,1,80,8|0,0:0|0:0,0:0:0:0:
289,134,150102,2,0,B|329:126|329:126|364:138|364:138|405:132,1,120,8|0,0:0|3:2,0:0:0:0:
498,82,150531,1,8,0:2:0:0:
383,28,150702,5,0,3:2:0:0:
383,28,150788,1,8,0:0:0:0:
383,28,150874,2,0,B|331:22|331:22|273:43|273:43|197:31,1,160,2|8,3:2|0:0,0:0:0:0:
111,56,151388,1,2,0:0:0:0:
111,56,151474,2,0,B|133:28|133:28|145:144,1,120,8|0,0:0|3:2,0:0:0:0:
242,223,151902,2,0,L|255:117,1,80,8|0,0:2|0:0,0:0:0:0:
331,123,152159,1,8,0:0:0:0:
331,123,152245,6,0,B|365:137|365:137|448:127,1,120,4|0,3:2|0:0,0:0:0:0:
461,135,152588,2,0,L|448:241,1,80,8|0,0:0|0:0,0:0:0:0:
449,230,152845,2,0,B|415:216|415:216|332:226,1,120,8|0,0:0|3:2,0:0:0:0:
278,319,153274,1,8,0:2:0:0:
163,273,153445,5,0,3:2:0:0:
163,273,153531,1,8,0:0:0:0:
163,273,153617,2,0,B|188:305|188:305|203:157,1,160,4|8,3:2|0:0,0:0:0:0:
233,67,154131,1,2,0:0:0:0:
233,67,154217,2,0,B|192:89|192:89|110:73,1,120,8|0,0:0|3:2,0:0:0:0:
200,186,154645,2,0,L|311:178,1,80,8|0,0:2|0:0,0:0:0:0:
338,240,154902,1,8,0:0:0:0:
338,240,154988,6,0,B|322:200|322:200|339:118,1,120,4|0,3:2|0:0,0:0:0:0:
347,111,155331,2,0,L|458:103,1,80,8|0,0:0|0:0,0:0:0:0:
446,120,155588,1,8,0:2:0:0:
446,120,155674,2,0,B|465:149|465:149|469:209,1,80,4|0,3:2|3:2,0:0:0:0:
418,294,156017,1,8,0:2:0:0:
303,342,156188,5,0,3:2:0:0:
303,342,156274,1,8,0:2:0:0:
303,342,156359,2,0,L|187:331,1,80,12|8,0:2|0:3,0:0:0:0:
208,327,156617,2,0,L|182:213,1,80,8|8,0:2|0:3,0:0:0:0:
192,232,156874,2,0,L|292:172,1,80,8|8,0:2|0:3,0:0:0:0:
277,187,157131,2,0,L|365:263,1,80,8|8,0:1|0:3,0:0:0:0:
346,253,157388,2,0,L|323:306,2,40,8|8|8,0:1|0:3|0:3,0:0:0:0:
192,232,157731,6,0,L|186:75,1,143.999995605469,4|8,3:2|0:0,0:0:0:0:
93,35,158245,1,0,0:0:0:0:
93,35,158331,1,0,0:0:0:0:
92,35,158417,2,0,P|58:45|23:40,1,71.9999978027344,0|0,0:0|3:2,0:0:0:0:
186,88,158759,2,0,P|220:77|255:82,1,71.9999978027344,8|0,0:0|0:0,0:0:0:0:
366,123,159102,6,0,P|298:135|255:82,1,143.999995605469,0|8,3:2|0:0,0:0:0:0:
211,198,159617,1,0,0:0:0:0:
211,198,159702,1,0,0:0:0:0:
211,198,159788,2,0,P|241:214|263:243,1,71.9999978027344,0|0,0:0|3:2,0:0:0:0:
375,253,160131,2,0,P|344:269|322:298,1,71.9999978027344,8|0,0:0|0:0,0:0:0:0:
476,281,160474,6,0,B|442:278|421:257|421:257|399:245|355:258,1,107.999996704102,0|0,3:2|0:0,0:0:0:0:
368,253,160817,2,0,L|367:170,1,71.9999978027344,8|0,0:0|0:0,0:0:0:0:
367,181,161074,1,0,0:0:0:0:
367,180,161159,2,0,P|402:176|435:162,1,71.9999978027344,0|0,0:0|3:2,0:0:0:0:
322,64,161502,2,0,P|286:67|253:82,1,71.9999978027344,8|0,0:0|0:0,0:0:0:0:
114,90,161845,6,0,B|192:105|179:60|253:81,1,143.999995605469,0|8,3:2|0:0,0:0:0:0:
226,221,162359,1,0,0:0:0:0:
226,221,162445,1,0,0:0:0:0:
226,221,162531,2,0,P|215:177|223:149,1,71.9999978027344,0|0,0:0|3:2,0:0:0:0:
307,264,162874,1,8,0:0:0:0:
367,180,163045,1,0,3:0:0:0:
472,231,163217,6,0,P|395:232|367:172,1,143.999995605469,0|8,3:2|0:0,0:0:0:0:
404,40,163731,1,0,0:0:0:0:
404,40,163817,1,0,0:0:0:0:
404,40,163902,2,0,P|415:81|397:132,1,71.9999978027344,0|0,0:0|3:2,0:0:0:0:
472,231,164245,2,0,P|467:195|477:161,1,71.9999978027344,8|0,0:0|0:0,0:0:0:0:
404,40,164588,6,0,P|332:55|288:17,1,107.999996704102,0|0,3:2|0:0,0:0:0:0:
300,39,164931,2,0,L|209:31,1,71.9999978027344,8|0,0:0|0:0,0:0:0:0:
228,32,165188,1,0,0:0:0:0:
228,32,165274,2,0,L|220:116,1,71.9999978027344,0|0,0:0|3:2,0:0:0:0:
280,190,165617,2,0,L|273:261,1,71.9999978027344,8|0,0:0|0:0,0:0:0:0:
378,314,165959,6,0,P|341:256|272:262,1,143.999995605469,0|8,3:2|0:0,0:0:0:0:
173,316,166474,1,0,0:0:0:0:
173,316,166559,1,0,0:0:0:0:
173,316,166645,2,0,L|163:215,1,71.9999978027344,0|0,0:0|3:2,0:0:0:0:
101,167,166988,2,0,L|111:66,1,71.9999978027344,8|0,0:0|0:0,0:0:0:0:
228,32,167331,6,0,P|276:57|345:37,1,107.999996704102,4|0,3:2|0:0,0:0:0:0:
340,41,167674,5,8,0:2:0:0:
308,141,167845,1,0,3:2:0:0:
351,32,168017,5,8,0:2:0:0:
387,147,168188,1,0,3:2:0:0:
362,23,168359,5,8,0:2:0:0:
351,32,168445,1,8,0:2:0:0:
340,41,168531,1,8,0:2:0:0:
327,48,168617,1,8,0:2:0:0:
314,54,168702,6,0,L|153:39,1,143.999995605469,4|8,3:2|0:0,0:0:0:0:
57,32,169217,1,0,0:0:0:0:
57,32,169302,1,0,0:0:0:0:
56,32,169388,2,0,P|71:79|67:117,1,71.9999978027344,0|0,0:0|3:2,0:0:0:0:
171,120,169731,2,0,P|144:161|138:199,1,71.9999978027344,8|0,0:0|0:0,0:0:0:0:
91,281,170074,6,0,P|134:227|202:239,1,143.999995605469,0|8,3:2|0:0,0:0:0:0:
274,339,170588,1,0,0:0:0:0:
274,339,170674,1,0,0:0:0:0:
274,339,170759,2,0,L|378:335,1,71.9999978027344,0|0,0:0|3:2,0:0:0:0:
274,236,171102,2,0,L|170:240,1,71.9999978027344,8|0,0:0|0:0,0:0:0:0:
161,154,171445,6,0,P|206:196|183:261,1,107.999996704102,0|0,3:2|0:0,0:0:0:0:
196,252,171788,2,0,L|185:335,1,71.9999978027344,8|0,0:0|0:0,0:0:0:0:
186,323,172045,1,0,0:0:0:0:
186,322,172131,2,0,L|92:325,1,71.9999978027344,0|0,0:0|3:2,0:0:0:0:
16,275,172474,2,0,L|10:201,1,71.9999978027344,8|0,0:0|0:0,0:0:0:0:
160,154,172817,6,0,P|91:151|52:93,1,143.999995605469,0|8,3:2|0:0,0:0:0:0:
147,33,173331,1,0,0:0:0:0:
147,33,173417,1,0,0:0:0:0:
147,33,173502,2,0,P|182:33|216:46,1,71.9999978027344,0|0,0:0|3:2,0:0:0:0:
276,128,173845,1,8,0:0:0:0:
336,47,174017,1,0,3:0:0:0:
384,189,174188,6,0,P|345:131|276:128,1,143.999995605469,4|8,3:2|0:0,0:0:0:0:
283,263,174702,1,0,0:0:0:0:
283,263,174788,1,0,0:0:0:0:
283,263,174874,2,0,P|302:232|306:197,1,71.9999978027344,0|0,0:0|3:2,0:0:0:0:
214,319,175217,2,0,P|194:288|190:253,1,71.9999978027344,8|0,0:0|0:0,0:0:0:0:
356,318,175559,6,0,P|403:297|472:312,1,107.999996704102,4|0,3:2|0:0,0:0:0:0:
478,306,175902,2,0,L|490:204,1,71.9999978027344,8|0,0:0|0:0,0:0:0:0:
486,234,176159,1,0,0:0:0:0:
486,234,176245,2,0,L|474:132,1,71.9999978027344,0|0,0:0|3:2,0:0:0:0:
392,90,176588,2,0,L|404:-12,1,71.9999978027344,8|0,0:0|0:0,0:0:0:0:
286,92,176931,6,0,B|336:108|340:71|393:90,1,107.999996704102,4|0,3:2|0:0,0:0:0:0:
397,102,177274,2,0,L|404:188,1,71.9999978027344,8|0,0:0|0:0,0:0:0:0:
347,281,177617,5,4,0:2:0:0:
321,199,177788,1,0,0:3:0:0:
429,254,177959,1,8,0:2:0:0:
402,173,178131,1,0,3:2:0:0:
347,281,178302,5,8,0:2:0:0:
321,199,178474,1,0,3:2:0:0:
266,307,178645,1,8,0:2:0:0:
240,225,178817,1,0,3:2:0:0:
429,254,178988,5,8,0:2:0:0:
321,199,179159,1,8,0:2:0:0:
266,307,179331,5,8,0:2:0:0:
240,305,179417,1,8,0:2:0:0:
213,303,179502,1,8,0:2:0:0:
186,300,179588,1,8,0:2:0:0:
159,298,179674,1,6,3:1:0:0:
256,192,179759,12,0,182417,3:3:0:0:
